osu file format v14

[General]
AudioFilename: audio.mp3
AudioLeadIn: 0
PreviewTime: 93453
Countdown: 0
SampleSet: Soft
StackLeniency: 0.7
Mode: 3
LetterboxInBreaks: 0
SpecialStyle: 0
WidescreenStoryboard: 0

[Editor]
DistanceSpacing: 2
BeatDivisor: 4
GridSize: 16
TimelineZoom: 2.4

[Metadata]
Title:Dreadnought
TitleUnicode:Dreadnought
Artist:Mastermind(xi+nora2r)
ArtistUnicode:Mastermind(xi+nora2r)
Creator:Fresh Chicken
Version:Another
Source:BMS
Tags:Valentrixe Lude SOUND VOLTEX IV HEAVENLY HAVEN CHUNITHM AIR bof bofu 2015 bms of fighters ultimate daikeesen
BeatmapID:1176049
BeatmapSetID:555681

[Difficulty]
HPDrainRate:9
CircleSize:4
OverallDifficulty:8
ApproachRate:5
SliderMultiplier:1.4
SliderTickRate:1

[Events]
//Background and Video events
0,0,"Dread.png",0,0
//Break Periods
//Storyboard Layer 0 (Background)
//Storyboard Layer 1 (Fail)
//Storyboard Layer 2 (Pass)
//Storyboard Layer 3 (Foreground)
//Storyboard Sound Samples
Sample,30953,0,"crash.wav",40
Sample,31109,0,"crash.wav",40

[TimingPoints]
16,312.5,4,2,1,40,1,0
1344,-142.857142857143,4,2,1,40,0,0
5953,-90.9090909090909,4,2,1,40,0,0
5979,-333.333333333333,4,2,1,40,0,0
6005,-90.9090909090909,4,2,1,40,0,0
6031,-333.333333333333,4,2,1,40,0,0
6057,-90.9090909090909,4,2,1,40,0,0
6083,-333.333333333333,4,2,1,40,0,0
6109,-142.857142857143,4,2,1,40,0,0
6266,-83.3333333333333,4,2,1,40,0,0
6305,-142.857142857143,4,2,1,40,0,0
6891,-133.333333333333,4,2,1,40,0,0
7516,-125,4,2,1,40,0,0
8141,-117.647058823529,4,2,1,40,0,0
8766,-111.111111111111,4,2,1,40,0,0
9078,-105.263157894737,4,2,1,40,0,0
10016,-142.857142857143,4,2,1,40,0,0
12516,-100,4,2,1,40,0,0
13453,-55.5555555555556,4,2,1,40,0,0
13492,-500,4,2,1,40,0,0
13531,-55.5555555555556,4,2,1,40,0,0
13570,-500,4,2,1,40,0,0
13609,-55.5555555555556,4,2,1,40,0,0
13648,-500,4,2,1,40,0,0
13687,-55.5555555555556,4,2,1,40,0,0
13726,-500,4,2,1,40,0,0
13766,-66.6666666666667,4,2,1,40,0,0
14000,-200,4,2,1,40,0,0
14234,-100,4,2,1,40,0,0
14312,-66.6666666666667,4,2,1,40,0,0
14508,-200,4,2,1,40,0,0
14703,-100,4,2,1,40,0,0
14781,-66.6666666666667,4,2,1,40,0,0
14977,-200,4,2,1,40,0,0
15172,-100,4,2,1,40,0,0
15250,-66.6666666666667,4,2,1,40,0,0
15446,-200,4,2,1,40,0,0
15641,-100,4,2,1,40,0,0
15719,-66.6666666666667,4,2,1,40,0,0
15836,-200,4,2,1,40,0,0
15953,-100,4,2,1,40,0,0
16031,-66.6666666666667,4,2,1,40,0,0
16148,-200,4,2,1,40,0,0
16266,-58.8235294117647,4,2,1,40,0,0
16422,-333.333333333333,4,2,1,40,0,0
16578,-100,4,2,1,40,0,0
16656,-66.6666666666667,4,2,1,40,0,0
16852,-200,4,2,1,40,0,0
17047,-100,4,2,1,40,0,0
17125,-66.6666666666667,4,2,1,40,0,0
17321,-200,4,2,1,40,0,0
17516,-100,4,2,1,40,0,0
17594,-66.6666666666667,4,2,1,40,0,0
17790,-200,4,2,1,40,0,0
17985,-100,4,2,1,40,0,0
18062,-66.6666666666667,4,2,1,40,0,0
18180,-200,4,2,1,40,0,0
18297,-100,4,2,1,40,0,0
23766,-50,4,2,1,40,0,0
23785,-100,4,2,1,40,0,0
25016,-50,4,2,1,40,0,0
25035,-100,4,2,1,40,0,0
26266,-50,4,2,1,40,0,0
26285,-100,4,2,1,40,0,0
26891,-50,4,2,1,40,0,0
26910,-100,4,2,1,40,0,0
27516,-50,4,2,1,40,0,0
27535,-100,4,2,1,40,0,0
28766,-62.5,4,2,1,40,0,0
28805,-250,4,2,1,40,0,0
28844,-100,4,2,1,40,0,0
29078,-62.5,4,2,1,40,0,0
29117,-250,4,2,1,40,0,0
29156,-100,4,2,1,40,0,0
29391,-62.5,4,2,1,40,0,0
29430,-250,4,2,1,40,0,0
29469,-100,4,2,1,40,0,0
29703,-62.5,4,2,1,40,0,0
29742,-250,4,2,1,40,0,0
29781,-100,4,2,1,40,0,0
30953,-52.6315789473684,4,2,1,40,0,0
30973,-1000,4,2,1,40,0,0
30992,-52.6315789473684,4,2,1,40,0,0
31012,-1000,4,2,1,40,0,0
31031,-52.6315789473684,4,2,1,40,0,0
31051,-1000,4,2,1,40,0,0
31070,-52.6315789473684,4,2,1,40,0,0
31090,-1000,4,2,1,40,0,0
31109,-52.6315789473684,4,2,1,40,0,0
31129,-1000,4,2,1,40,0,0
31148,-52.6315789473684,4,2,1,40,0,0
31168,-1000,4,2,1,40,0,0
31187,-52.6315789473684,4,2,1,40,0,0
31207,-1000,4,2,1,40,0,0
31226,-52.6315789473684,4,2,1,40,0,0
31246,-1000,4,2,1,40,0,0
31266,-100,4,2,1,40,0,0
32516,-55.5555555555556,4,2,1,40,0,0
32555,-500,4,2,1,40,0,0
32594,-55.5555555555556,4,2,1,40,0,0
32633,-500,4,2,1,40,0,0
32672,-55.5555555555556,4,2,1,40,0,0
32711,-500,4,2,1,40,0,0
32750,-55.5555555555556,4,2,1,40,0,0
32789,-500,4,2,1,40,0,0
32828,-100,4,2,1,40,0,0
32984,-55.5555555555556,4,2,1,40,0,0
33023,-500,4,2,1,40,0,0
33062,-55.5555555555556,4,2,1,40,0,0
33101,-500,4,2,1,40,0,0
33140,-55.5555555555556,4,2,1,40,0,0
33179,-500,4,2,1,40,0,0
33218,-55.5555555555556,4,2,1,40,0,0
33257,-500,4,2,1,40,0,0
33296,-55.5555555555556,4,2,1,40,0,0
33375,-500,4,2,1,40,0,0
33453,-14.2857142857143,4,2,1,40,0,0
33473,-117.647058823529,4,2,1,40,0,0
33766,-142.857142857143,4,2,1,40,0,0
33922,-76.9230769230769,4,2,1,40,0,0
34078,-142.857142857143,4,2,1,40,0,0
34234,-76.9230769230769,4,2,1,40,0,0
34391,-100,4,2,1,40,0,0
35016,-142.857142857143,4,2,1,40,0,0
35172,-76.9230769230769,4,2,1,40,0,0
35328,-100,4,2,1,40,0,0
35953,-142.857142857143,4,2,1,40,0,0
36109,-76.9230769230769,4,2,1,40,0,0
36266,-142.857142857143,4,2,1,40,0,0
36422,-76.9230769230769,4,2,1,40,0,0
36578,-142.857142857143,4,2,1,40,0,0
36734,-76.9230769230769,4,2,1,40,0,0
36890,-100,4,2,1,40,0,0
37516,-142.857142857143,4,2,1,40,0,0
37672,-76.9230769230769,4,2,1,40,0,0
37828,-100,4,2,1,40,0,0
38766,-142.857142857143,4,2,1,40,0,0
38922,-76.9230769230769,4,2,1,40,0,0
39078,-100,4,2,1,40,0,0
40016,-142.857142857143,4,2,1,40,0,0
40172,-76.9230769230769,4,2,1,40,0,0
40328,-100,4,2,1,40,0,0
40953,-142.857142857143,4,2,1,40,0,0
41109,-76.9230769230769,4,2,1,40,0,0
41265,-100,4,2,1,40,0,0
43766,-142.857142857143,4,2,1,40,0,0
43922,-76.9230769230769,4,2,1,40,0,0
44078,-142.857142857143,4,2,1,40,0,0
44234,-76.9230769230769,4,2,1,40,0,0
44390,-100,4,2,1,40,0,0
45016,-142.857142857143,4,2,1,40,0,0
45172,-76.9230769230769,4,2,1,40,0,0
45328,-100,4,2,1,40,0,0
45953,-142.857142857143,4,2,1,40,0,0
46109,-76.9230769230769,4,2,1,40,0,0
46266,-142.857142857143,4,2,1,40,0,0
46422,-76.9230769230769,4,2,1,40,0,0
46578,-100,4,2,1,40,0,0
47516,-142.857142857143,4,2,1,40,0,0
47672,-76.9230769230769,4,2,1,40,0,0
47828,-100,4,2,1,40,0,0
48141,-142.857142857143,4,2,1,40,0,0
48297,-76.9230769230769,4,2,1,40,0,0
48453,-52.6315789473684,4,2,1,40,0,0
48492,-1000,4,2,1,40,0,0
48531,-100,4,2,1,40,0,0
48609,-52.6315789473684,4,2,1,40,0,0
48648,-1000,4,2,1,40,0,0
48687,-100,4,2,1,40,0,0
52516,-60.6060606060606,4,2,1,40,0,0
52672,-285.714285714286,4,2,1,40,0,0
52828,-60.6060606060606,4,2,1,40,0,0
52880,-285.714285714286,4,2,1,40,0,0
52932,-60.6060606060606,4,2,1,40,0,0
52984,-285.714285714286,4,2,1,40,0,0
53036,-60.6060606060606,4,2,1,40,0,0
53088,-285.714285714286,4,2,1,40,0,0
53141,-60.6060606060606,4,2,1,40,0,0
53219,-285.714285714286,4,2,1,40,0,0
53297,-60.6060606060606,4,2,1,40,0,0
53375,-285.714285714286,4,2,1,40,0,0
53453,-14.2857142857143,4,2,1,40,0,0
53473,-117.647058823529,4,2,1,40,0,0
53766,-125,4,2,1,40,0,0
71266,-111.111111111111,4,2,1,40,0,0
71891,-100,4,2,1,40,0,0
72516,-55.5555555555556,4,2,1,40,0,0
72542,-500,4,2,1,40,0,0
72568,-55.5555555555556,4,2,1,40,0,0
72594,-500,4,2,1,40,0,0
72620,-55.5555555555556,4,2,1,40,0,0
72646,-500,4,2,1,40,0,0
72672,-55.5555555555556,4,2,1,40,0,0
72711,-500,4,2,1,40,0,0
72750,-55.5555555555556,4,2,1,40,0,0
72789,-500,4,2,1,40,0,0
72828,-62.5,4,2,1,40,0,0
72867,-250,4,2,1,40,0,0
72906,-62.5,4,2,1,40,0,0
72945,-250,4,2,1,40,0,0
72984,-62.5,4,2,1,40,0,0
73023,-250,4,2,1,40,0,0
73062,-62.5,4,2,1,40,0,0
73101,-250,4,2,1,40,0,0
73141,-52.6315789473684,4,2,1,40,0,0
73180,-1000,4,2,1,40,0,0
73219,-52.6315789473684,4,2,1,40,0,0
73258,-1000,4,2,1,40,0,0
73297,-52.6315789473684,4,2,1,40,0,0
73375,-1000,4,2,1,40,0,0
73453,-100,4,2,1,40,0,0
83141,-285.714285714286,4,2,1,40,0,0
83219,-60.6060606060606,4,2,1,40,0,0
83297,-285.714285714286,4,2,1,40,0,0
83375,-60.6060606060606,4,2,1,40,0,0
83453,-100,4,2,1,40,0,0
85328,-99.009900990099,4,2,1,40,0,0
85641,-98.0392156862745,4,2,1,40,0,0
85953,-97.0873786407767,4,2,1,40,0,0
86266,-96.1538461538461,4,2,1,40,0,0
86578,-95.2380952380952,4,2,1,40,0,0
86891,-94.3396226415094,4,2,1,40,0,0
87203,-93.4579439252336,4,2,1,40,0,0
87516,-92.5925925925926,4,2,1,40,0,0
87828,-91.743119266055,4,2,1,40,0,0
88141,-90.9090909090909,4,2,1,40,0,0
88453,-90.0900900900901,4,2,1,40,0,0
88766,-89.2857142857143,4,2,1,40,0,0
90016,-50.251256281407,4,2,1,40,0,0
90042,-400,4,2,1,40,0,0
90068,-50.251256281407,4,2,1,40,0,0
90094,-400,4,2,1,40,0,0
90120,-50.251256281407,4,2,1,40,0,0
90146,-400,4,2,1,40,0,0
90172,-50.251256281407,4,2,1,40,0,0
90198,-400,4,2,1,40,0,0
90224,-50.251256281407,4,2,1,40,0,0
90250,-400,4,2,1,40,0,0
90276,-50.251256281407,4,2,1,40,0,0
90302,-400,4,2,1,40,0,0
90328,-50.251256281407,4,2,1,40,0,0
90354,-400,4,2,1,40,0,0
90380,-50.251256281407,4,2,1,40,0,0
90406,-400,4,2,1,40,0,0
90432,-50.251256281407,4,2,1,40,0,0
90458,-400,4,2,1,40,0,0
90484,-50.251256281407,4,2,1,40,0,0
90510,-400,4,2,1,40,0,0
90536,-50.251256281407,4,2,1,40,0,0
90562,-400,4,2,1,40,0,0
90588,-50.251256281407,4,2,1,40,0,0
90614,-400,4,2,1,40,0,0
90641,-50.251256281407,4,2,1,40,0,0
90660,-400,4,2,1,40,0,0
90680,-50.251256281407,4,2,1,40,0,0
90699,-400,4,2,1,40,0,0
90719,-50.251256281407,4,2,1,40,0,0
90738,-400,4,2,1,40,0,0
90758,-50.251256281407,4,2,1,40,0,0
90777,-400,4,2,1,40,0,0
90797,-50.251256281407,4,2,1,40,0,0
90816,-400,4,2,1,40,0,0
90836,-50.251256281407,4,2,1,40,0,0
90855,-400,4,2,1,40,0,0
90875,-50.251256281407,4,2,1,40,0,0
90894,-400,4,2,1,40,0,0
90914,-50.251256281407,4,2,1,40,0,0
90933,-400,4,2,1,40,0,0
90953,-50.251256281407,4,2,1,40,0,0
90972,-400,4,2,1,40,0,0
90992,-50.251256281407,4,2,1,40,0,0
91011,-400,4,2,1,40,0,0
91031,-50.251256281407,4,2,1,40,0,0
91050,-400,4,2,1,40,0,0
91070,-50.251256281407,4,2,1,40,0,0
91089,-400,4,2,1,40,0,0
91109,-50.251256281407,4,2,1,40,0,0
91128,-400,4,2,1,40,0,0
91148,-50.251256281407,4,2,1,40,0,0
91167,-400,4,2,1,40,0,0
91187,-50.251256281407,4,2,1,40,0,0
91206,-400,4,2,1,40,0,0
91226,-50.251256281407,4,2,1,40,0,0
91245,-400,4,2,1,40,0,0
91266,-200,4,2,1,40,0,0
91500,-50,4,2,1,40,0,0
91578,-100,4,2,1,40,0,0
93453,-68.9655172413793,4,2,1,40,0,0
93492,-181.818181818182,4,2,1,40,0,0
93531,-68.9655172413793,4,2,1,40,0,0
93570,-181.818181818182,4,2,1,40,0,0
93609,-68.9655172413793,4,2,1,40,0,0
93648,-181.818181818182,4,2,1,40,0,0
93687,-68.9655172413793,4,2,1,40,0,0
93726,-181.818181818182,4,2,1,40,0,0
93766,-100,4,2,1,40,0,1
98453,-62.5,4,2,1,40,0,1
98492,-250,4,2,1,40,0,1
98531,-62.5,4,2,1,40,0,1
98570,-250,4,2,1,40,0,1
98609,-62.5,4,2,1,40,0,1
98648,-250,4,2,1,40,0,1
98687,-62.5,4,2,1,40,0,1
98726,-250,4,2,1,40,0,1
98766,-100,4,2,1,40,0,1
101266,-62.5,4,2,1,40,0,1
101344,-250,4,2,1,40,0,1
101422,-100,4,2,1,40,0,1
101891,-58.8235294117647,4,2,1,40,0,1
102008,-333.333333333333,4,2,1,40,0,1
102125,-58.8235294117647,4,2,1,40,0,1
102242,-333.333333333333,4,2,1,40,0,1
102359,-58.8235294117647,4,2,1,40,0,1
102476,-333.333333333333,4,2,1,40,0,1
102594,-58.8235294117647,4,2,1,40,0,1
102711,-333.333333333333,4,2,1,40,0,1
102828,-58.8235294117647,4,2,1,40,0,1
102945,-333.333333333333,4,2,1,40,0,1
103062,-58.8235294117647,4,2,1,40,0,1
103179,-333.333333333333,4,2,1,40,0,1
103297,-100,4,2,1,40,0,1
103766,-200,4,2,1,40,0,0
104000,-50,4,2,1,40,0,0
104078,-100,4,2,1,40,0,1
106266,-58.8235294117647,4,2,1,40,0,1
106344,-333.333333333333,4,2,1,40,0,1
106422,-100,4,2,1,40,0,1
106734,-58.8235294117647,4,2,1,40,0,1
106812,-333.333333333333,4,2,1,40,0,1
106890,-100,4,2,1,40,0,1
107047,-58.8235294117647,4,2,1,40,0,1
107125,-333.333333333333,4,2,1,40,0,1
107203,-100,4,2,1,40,0,1
107516,-58.8235294117647,4,2,1,40,0,1
107620,-333.333333333333,4,2,1,40,0,1
107724,-58.8235294117647,4,2,1,40,0,1
107828,-333.333333333333,4,2,1,40,0,1
107932,-58.8235294117647,4,2,1,40,0,1
108036,-333.333333333333,4,2,1,40,0,1
108141,-58.8235294117647,4,2,1,40,0,1
108245,-333.333333333333,4,2,1,40,0,1
108349,-58.8235294117647,4,2,1,40,0,1
108453,-333.333333333333,4,2,1,40,0,1
108557,-58.8235294117647,4,2,1,40,0,1
108661,-333.333333333333,4,2,1,40,0,1
108766,-100,4,2,1,40,0,1
113453,-14.2857142857143,4,2,1,40,0,0
113473,-117.647058823529,4,2,1,40,0,0
113766,-142.857142857143,4,2,1,40,0,0
113883,-76.9230769230769,4,2,1,40,0,0
114000,-100,4,2,1,40,0,0
114078,-142.857142857143,4,2,1,40,0,0
114234,-76.9230769230769,4,2,1,40,0,0
114391,-100,4,2,1,40,0,0
115016,-142.857142857143,4,2,1,40,0,0
115172,-76.9230769230769,4,2,1,40,0,0
115329,-100,4,2,1,40,0,0
115953,-142.857142857143,4,2,1,40,0,0
116109,-76.9230769230769,4,2,1,40,0,0
116266,-142.857142857143,4,2,1,40,0,0
116383,-76.9230769230769,4,2,1,40,0,0
116500,-100,4,2,1,40,0,0
116578,-142.857142857143,4,2,1,40,0,0
116734,-76.9230769230769,4,2,1,40,0,0
116891,-100,4,2,1,40,0,0
117516,-142.857142857143,4,2,1,40,0,0
117672,-76.9230769230769,4,2,1,40,0,0
117829,-100,4,2,1,40,0,0
120016,-66.6666666666667,4,2,1,40,0,0
120172,-200,4,2,1,40,0,0
120329,-100,4,2,1,40,0,0
120953,-66.6666666666667,4,2,1,40,0,0
121109,-200,4,2,1,40,0,0
121266,-100,4,2,1,40,0,0
123453,-62.5,4,2,1,40,0,0
123492,-250,4,2,1,40,0,0
123531,-62.5,4,2,1,40,0,0
123570,-250,4,2,1,40,0,0
123609,-62.5,4,2,1,40,0,0
123648,-250,4,2,1,40,0,0
123687,-62.5,4,2,1,40,0,0
123726,-250,4,2,1,40,0,0
123766,-100,4,2,1,40,0,1
126266,-55.5555555555556,4,2,1,40,0,1
126344,-500,4,2,1,40,0,1
126422,-100,4,2,1,40,0,1
126734,-55.5555555555556,4,2,1,40,0,1
126812,-500,4,2,1,40,0,1
126890,-100,4,2,1,40,0,1
127047,-55.5555555555556,4,2,1,40,0,1
127125,-500,4,2,1,40,0,1
127203,-100,4,2,1,40,0,1
127516,-58.8235294117647,4,2,1,40,0,1
127620,-333.333333333333,4,2,1,40,0,1
127724,-58.8235294117647,4,2,1,40,0,1
127828,-333.333333333333,4,2,1,40,0,1
127932,-58.8235294117647,4,2,1,40,0,1
128036,-333.333333333333,4,2,1,40,0,1
128141,-58.8235294117647,4,2,1,40,0,1
128245,-333.333333333333,4,2,1,40,0,1
128349,-58.8235294117647,4,2,1,40,0,1
128453,-333.333333333333,4,2,1,40,0,1
128557,-58.8235294117647,4,2,1,40,0,1
128661,-333.333333333333,4,2,1,40,0,1
128766,-100,4,2,1,40,0,1
133453,-62.5,4,2,1,40,0,1
133609,-250,4,2,1,40,0,1
133766,-100,4,2,1,40,0,1
136266,-71.4285714285714,4,2,1,40,0,1
136578,-100,4,2,1,40,0,0

[HitObjects]
448,192,1266,5,0,0:0:0:40:kick.wav
320,192,1266,1,0,0:0:0:40:crash.wav
192,192,1266,1,0,0:0:0:0:
64,192,1266,1,0,0:0:0:0:
448,192,2516,1,0,0:0:0:0:
64,192,3141,1,0,0:0:0:0:
192,192,3453,1,0,0:0:0:0:
320,192,3766,1,0,0:0:0:0:
192,192,4391,1,0,0:0:0:0:
320,192,5016,1,0,0:0:0:0:
448,192,5641,1,0,0:0:0:0:
192,192,5953,1,0,0:0:0:0:
320,192,6005,1,0,0:0:0:0:
192,192,6057,1,0,0:0:0:0:
320,192,6109,1,0,0:0:0:0:
192,192,6266,1,0,0:0:0:40:kick.wav
64,192,6266,1,0,0:0:0:0:
448,192,6266,1,0,0:0:0:0:
192,192,6734,1,0,0:0:0:40:kick.wav
320,192,6891,1,0,0:0:0:40:kick.wav
64,192,6891,1,0,0:0:0:0:
448,192,7516,1,0,0:0:0:0:
320,192,7984,1,0,0:0:0:40:kick.wav
448,192,8141,1,0,0:0:0:25:snare.wav
192,192,8141,1,0,0:0:0:0:
192,192,8609,1,0,0:0:0:40:kick.wav
320,192,8766,1,0,0:0:0:40:kick.wav
64,192,8766,1,0,0:0:0:0:
448,192,8766,1,0,0:0:0:0:
192,192,9234,1,0,0:0:0:40:kick.wav
320,192,9312,1,0,0:0:0:0:
448,192,9391,1,0,0:0:0:25:snare.wav
64,192,9391,1,0,0:0:0:0:
192,192,9469,1,0,0:0:0:0:
320,192,9547,1,0,0:0:0:0:
320,192,9625,1,0,0:0:0:0:
64,192,9703,1,0,0:0:0:0:
192,192,9755,1,0,0:0:0:0:
320,192,9807,1,0,0:0:0:0:
64,192,9859,1,0,0:0:0:0:
192,192,9937,1,0,0:0:0:0:
320,192,10016,1,0,0:0:0:40:kick.wav
448,192,10016,1,0,0:0:0:40:crash.wav
64,192,10016,128,0,13141:0:0:0:0:
192,192,11266,128,0,13141:0:0:0:0:
448,192,13141,1,0,0:0:0:0:
320,192,13219,1,0,0:0:0:0:
64,192,13297,1,0,0:0:0:0:
192,192,13375,1,0,0:0:0:0:
320,192,13453,1,0,0:0:0:0:
192,192,13531,1,0,0:0:0:0:
320,192,13609,1,0,0:0:0:0:
192,192,13687,1,0,0:0:0:0:
64,192,13766,1,0,0:0:0:40:kick.wav
320,192,13766,1,0,0:0:0:40:crash.wav
448,192,13766,1,0,0:0:0:0:
320,192,14234,128,0,14312:0:0:0:0:
64,192,14234,128,0,14312:0:0:0:0:
192,192,14703,128,0,14781:0:0:0:0:
448,192,14703,128,0,14781:0:0:0:0:
320,192,15172,128,0,15250:0:0:0:0:
192,192,15172,128,0,15250:0:0:0:0:
320,192,15641,128,0,15719:0:0:0:0:
64,192,15641,128,0,15719:0:0:0:0:
192,192,15953,128,0,16031:0:0:0:0:
448,192,15953,128,0,16031:0:0:0:0:
320,192,16266,1,0,0:0:0:40:kick.wav
448,192,16266,1,0,0:0:0:40:crash.wav
64,192,16266,1,0,0:0:0:0:
192,192,16578,128,0,16656:0:0:0:0:
320,192,16578,128,0,16656:0:0:0:0:
64,192,17047,128,0,17125:0:0:0:0:
448,192,17047,128,0,17125:0:0:0:0:
320,192,17516,128,0,17594:0:0:0:0:
64,192,17516,128,0,17594:0:0:0:0:
192,192,17984,128,0,18062:0:0:0:0:
448,192,17984,128,0,18062:0:0:0:0:
64,192,18297,1,0,0:0:0:0:
192,192,18375,1,0,0:0:0:0:
448,192,18453,1,0,0:0:0:0:
320,192,18531,1,0,0:0:0:0:
192,192,18609,1,0,0:0:0:0:
64,192,18687,1,0,0:0:0:0:
192,192,18766,1,0,0:0:0:50:kick.wav
320,192,18766,1,0,0:0:0:40:crash.wav
448,192,18766,1,0,0:0:0:0:
320,192,18922,1,0,0:0:0:50:kick.wav
448,192,18922,1,0,0:0:0:0:
192,192,19000,1,0,0:0:0:0:
320,192,19078,1,0,0:0:0:40:snare.wav
448,192,19078,1,0,0:0:0:0:
64,192,19078,1,0,0:0:0:0:
192,192,19234,1,0,0:0:0:0:
448,192,19312,1,0,0:0:0:0:
64,192,19391,1,0,0:0:0:50:kick.wav
320,192,19469,1,0,0:0:0:0:
64,192,19547,1,0,0:0:0:0:
448,192,19625,1,0,0:0:0:0:
192,192,19703,1,0,0:0:0:50:kick.wav
320,192,19781,1,0,0:0:0:0:
64,192,19859,1,0,0:0:0:0:
192,192,19911,1,0,0:0:0:0:
320,192,19963,1,0,0:0:0:0:
448,192,20016,1,0,0:0:0:50:kick.wav
64,192,20016,1,0,0:0:0:40:crash.wav
320,192,20172,1,0,0:0:0:0:
192,192,20250,1,0,0:0:0:0:
320,192,20328,1,0,0:0:0:40:snare.wav
448,192,20328,1,0,0:0:0:0:
64,192,20328,1,0,0:0:0:0:
192,192,20406,1,0,0:0:0:0:
448,192,20484,1,0,0:0:0:0:
64,192,20484,1,0,0:0:0:0:
320,192,20562,1,0,0:0:0:0:
192,192,20641,1,0,0:0:0:50:kick.wav
64,192,20680,1,0,0:0:0:0:
320,192,20719,1,0,0:0:0:0:
448,192,20758,1,0,0:0:0:0:
192,192,20797,1,0,0:0:0:0:
320,192,20875,1,0,0:0:0:0:
64,192,20953,1,0,0:0:0:0:
448,192,21031,1,0,0:0:0:0:
320,192,21109,1,0,0:0:0:0:
192,192,21187,1,0,0:0:0:0:
320,192,21266,1,0,0:0:0:50:kick.wav
448,192,21266,1,0,0:0:0:40:crash.wav
64,192,21266,1,0,0:0:0:0:
192,192,21344,1,0,0:0:0:0:
320,192,21422,1,0,0:0:0:50:kick.wav
448,192,21422,1,0,0:0:0:0:
192,192,21500,1,0,0:0:0:0:
320,192,21578,1,0,0:0:0:40:snare.wav
448,192,21578,1,0,0:0:0:0:
64,192,21578,1,0,0:0:0:0:
192,192,21656,1,0,0:0:0:0:
320,192,21734,1,0,0:0:0:0:
192,192,21812,1,0,0:0:0:0:
64,192,21891,1,0,0:0:0:50:kick.wav
320,192,21891,1,0,0:0:0:40:crash.wav
448,192,21891,1,0,0:0:0:0:
192,192,21969,1,0,0:0:0:0:
448,192,22047,1,0,0:0:0:0:
320,192,22125,1,0,0:0:0:0:
192,192,22203,1,0,0:0:0:40:snare.wav
64,192,22203,1,0,0:0:0:0:
448,192,22203,1,0,0:0:0:0:
320,192,22281,1,0,0:0:0:0:
192,192,22359,1,0,0:0:0:0:
320,192,22437,1,0,0:0:0:0:
64,192,22516,128,0,23141:0:0:0:0:
320,192,22594,1,0,0:0:0:0:
448,192,22672,1,0,0:0:0:0:
320,192,22750,1,0,0:0:0:0:
192,192,22828,128,0,23141:0:0:0:0:
448,192,22906,1,0,0:0:0:0:
320,192,22984,1,0,0:0:0:0:
448,192,23062,1,0,0:0:0:0:
320,192,23141,1,0,0:0:0:0:
448,192,23193,1,0,0:0:0:0:
64,192,23245,1,0,0:0:0:0:
192,192,23297,1,0,0:0:0:0:
320,192,23349,1,0,0:0:0:0:
448,192,23401,1,0,0:0:0:0:
64,192,23453,1,0,0:0:0:0:
192,192,23505,1,0,0:0:0:0:
448,192,23557,1,0,0:0:0:0:
320,192,23609,1,0,0:0:0:0:
192,192,23661,1,0,0:0:0:0:
64,192,23713,1,0,0:0:0:0:
320,192,23766,1,0,0:0:0:50:kick.wav
448,192,23766,128,0,23922:0:0:0:40:crash.wav
192,192,23922,1,0,0:0:0:0:
320,192,24000,1,0,0:0:0:0:
192,192,24078,1,0,0:0:0:40:snare.wav
64,192,24078,1,0,0:0:0:0:
448,192,24078,1,0,0:0:0:0:
320,192,24156,1,0,0:0:0:0:
64,192,24234,1,0,0:0:0:0:
192,192,24312,1,0,0:0:0:0:
448,192,24391,1,0,0:0:0:50:kick.wav
320,192,24469,1,0,0:0:0:0:
192,192,24547,1,0,0:0:0:0:
64,192,24625,1,0,0:0:0:0:
320,192,24703,1,0,0:0:0:40:snare.wav
448,192,24781,1,0,0:0:0:0:
320,192,24859,1,0,0:0:0:0:
192,192,24937,1,0,0:0:0:0:
320,192,25016,1,0,0:0:0:50:kick.wav
448,192,25016,1,0,0:0:0:40:crash.wav
64,192,25016,128,0,25172:0:0:0:0:
192,192,25172,1,0,0:0:0:0:
320,192,25250,1,0,0:0:0:0:
192,192,25328,1,0,0:0:0:40:snare.wav
64,192,25328,1,0,0:0:0:0:
448,192,25328,1,0,0:0:0:0:
320,192,25406,1,0,0:0:0:0:
64,192,25484,1,0,0:0:0:0:
192,192,25562,1,0,0:0:0:0:
448,192,25641,1,0,0:0:0:50:kick.wav
320,192,25719,1,0,0:0:0:0:
192,192,25797,1,0,0:0:0:0:
64,192,25875,1,0,0:0:0:0:
320,192,25953,1,0,0:0:0:40:snare.wav
448,192,26031,1,0,0:0:0:0:
192,192,26109,1,0,0:0:0:0:
448,192,26187,1,0,0:0:0:0:
192,192,26266,128,0,26422:0:0:0:50:kick.wav
64,192,26266,1,0,0:0:0:40:crash.wav
320,192,26266,1,0,0:0:0:0:
448,192,26422,1,0,0:0:0:0:
320,192,26500,1,0,0:0:0:0:
64,192,26578,1,0,0:0:0:40:snare.wav
448,192,26578,1,0,0:0:0:0:
192,192,26578,1,0,0:0:0:0:
320,192,26656,1,0,0:0:0:0:
192,192,26734,1,0,0:0:0:0:
64,192,26812,1,0,0:0:0:0:
192,192,26891,1,0,0:0:0:40:crash.wav
448,192,26891,1,0,0:0:0:50:kick.wav
320,192,26891,128,0,27047:0:0:0:0:
64,192,27047,1,0,0:0:0:0:
192,192,27125,1,0,0:0:0:0:
64,192,27203,1,0,0:0:0:40:snare.wav
320,192,27203,1,0,0:0:0:0:
448,192,27203,1,0,0:0:0:0:
192,192,27281,1,0,0:0:0:0:
320,192,27359,1,0,0:0:0:0:
448,192,27437,1,0,0:0:0:0:
320,192,27516,1,0,0:0:0:50:kick.wav
192,192,27516,1,0,0:0:0:40:crash.wav
64,192,27516,1,0,0:0:0:0:
448,192,27594,1,0,0:0:0:0:
192,192,27672,1,0,0:0:0:50:kick.wav
64,192,27672,1,0,0:0:0:0:
320,192,27750,1,0,0:0:0:0:
192,192,27828,1,0,0:0:0:50:kick.wav
64,192,27828,1,0,0:0:0:0:
448,192,27828,1,0,0:0:0:0:
320,192,27906,1,0,0:0:0:0:
64,192,27984,1,0,0:0:0:50:kick.wav
448,192,27984,1,0,0:0:0:0:
192,192,28062,1,0,0:0:0:50:kick.wav
320,192,28062,1,0,0:0:0:0:
448,192,28141,1,0,0:0:0:50:kick.wav
64,192,28141,1,0,0:0:0:0:
192,192,28219,1,0,0:0:0:0:
320,192,28297,1,0,0:0:0:50:kick.wav
448,192,28297,1,0,0:0:0:0:
192,192,28375,1,0,0:0:0:50:kick.wav
64,192,28375,1,0,0:0:0:0:
320,192,28453,1,0,0:0:0:50:kick.wav
448,192,28453,1,0,0:0:0:0:
64,192,28531,1,0,0:0:0:0:
192,192,28609,1,0,0:0:0:50:kick.wav
448,192,28609,1,0,0:0:0:0:
320,192,28687,1,0,0:0:0:50:kick.wav
64,192,28687,1,0,0:0:0:0:
192,192,28766,1,0,0:0:0:50:kick.wav
448,192,28766,1,0,0:0:0:40:crash.wav
320,192,28844,1,0,0:0:0:0:
192,192,28922,1,0,0:0:0:0:
64,192,29000,1,0,0:0:0:0:
320,192,29078,1,0,0:0:0:40:crash.wav
448,192,29078,1,0,0:0:0:50:kick.wav
192,192,29156,1,0,0:0:0:0:
320,192,29234,1,0,0:0:0:0:
448,192,29312,1,0,0:0:0:0:
192,192,29391,1,0,0:0:0:50:kick.wav
64,192,29391,1,0,0:0:0:40:crash.wav
320,192,29469,1,0,0:0:0:0:
192,192,29547,1,0,0:0:0:0:
64,192,29625,1,0,0:0:0:0:
320,192,29703,1,0,0:0:0:40:crash.wav
448,192,29703,1,0,0:0:0:50:kick.wav
192,192,29781,1,0,0:0:0:0:
320,192,29859,1,0,0:0:0:0:
448,192,29937,1,0,0:0:0:0:
192,192,30016,1,0,0:0:0:50:kick.wav
64,192,30016,1,0,0:0:0:40:crash.wav
320,192,30094,1,0,0:0:0:0:
192,192,30172,1,0,0:0:0:50:kick.wav
64,192,30172,1,0,0:0:0:40:crash.wav
320,192,30250,1,0,0:0:0:0:
192,192,30328,1,0,0:0:0:50:kick.wav
64,192,30328,1,0,0:0:0:40:crash.wav
320,192,30406,1,0,0:0:0:0:
448,192,30484,1,0,0:0:0:50:kick.wav
64,192,30484,1,0,0:0:0:40:crash.wav
192,192,30562,1,0,0:0:0:0:
320,192,30641,1,0,0:0:0:40:crash.wav
448,192,30641,1,0,0:0:0:50:kick.wav
192,192,30719,1,0,0:0:0:50:kick.wav
320,192,30797,1,0,0:0:0:50:kick.wav
448,192,30797,1,0,0:0:0:40:crash.wav
192,192,30875,1,0,0:0:0:50:kick.wav
448,192,30953,1,0,0:0:0:50:kick.wav
320,192,30992,1,0,0:0:0:0:
64,192,31031,1,0,0:0:0:50:kick.wav
192,192,31070,1,0,0:0:0:0:
448,192,31109,1,0,0:0:0:50:kick.wav
320,192,31148,1,0,0:0:0:0:
64,192,31187,1,0,0:0:0:50:kick.wav
192,192,31226,1,0,0:0:0:0:
448,192,31266,128,0,32516:0:0:0:40:crash.wav
320,192,31266,1,0,0:0:0:50:kick.wav
64,192,31891,1,0,0:0:0:0:
320,192,31969,1,0,0:0:0:0:
64,192,32047,1,0,0:0:0:0:
192,192,32099,1,0,0:0:0:0:
320,192,32151,1,0,0:0:0:0:
64,192,32203,1,0,0:0:0:0:
192,192,32281,1,0,0:0:0:0:
64,192,32359,1,0,0:0:0:0:
320,192,32437,1,0,0:0:0:0:
192,192,32516,1,0,0:0:0:50:kick.wav
64,192,32516,1,0,0:0:0:0:
448,192,32594,1,0,0:0:0:50:kick.wav
320,192,32594,1,0,0:0:0:0:
64,192,32672,1,0,0:0:0:50:kick.wav
192,192,32672,1,0,0:0:0:0:
320,192,32750,1,0,0:0:0:50:kick.wav
448,192,32750,1,0,0:0:0:0:
192,192,32828,1,0,0:0:0:50:kick.wav
64,192,32828,1,0,0:0:0:0:
320,192,32984,1,0,0:0:0:50:kick.wav
448,192,32984,1,0,0:0:0:0:
64,192,33062,1,0,0:0:0:50:kick.wav
192,192,33062,1,0,0:0:0:0:
448,192,33141,1,0,0:0:0:50:kick.wav
320,192,33141,1,0,0:0:0:0:
192,192,33219,1,0,0:0:0:50:kick.wav
64,192,33219,1,0,0:0:0:0:
320,192,33297,1,0,0:0:0:50:kick.wav
448,192,33297,1,0,0:0:0:0:
448,192,33453,1,0,0:0:0:40:snare.wav
320,192,33453,1,0,0:0:0:50:kick.wav
192,192,33453,1,0,0:0:0:0:
64,192,33453,1,0,0:0:0:0:
320,192,33766,1,0,0:0:0:50:kick.wav
448,192,33766,1,0,0:0:0:0:
64,192,33766,128,0,34391:0:0:0:0:
192,192,34078,128,0,34391:0:0:0:50:kick.wav
320,192,34078,1,0,0:0:0:0:
448,192,34078,1,0,0:0:0:0:
320,192,34391,1,0,0:0:0:50:kick.wav
448,192,34391,1,0,0:0:0:0:
64,192,34469,1,0,0:0:0:0:
320,192,34547,1,0,0:0:0:0:
192,192,34625,1,0,0:0:0:0:
448,192,34703,1,0,0:0:0:50:kick.wav
320,192,34703,1,0,0:0:0:0:
192,192,34859,1,0,0:0:0:0:
64,192,35016,128,0,35328:0:0:0:50:kick.wav
320,192,35016,1,0,0:0:0:0:
448,192,35016,1,0,0:0:0:0:
320,192,35328,1,0,0:0:0:50:kick.wav
448,192,35328,1,0,0:0:0:0:
192,192,35406,1,0,0:0:0:0:
448,192,35484,1,0,0:0:0:0:
64,192,35562,1,0,0:0:0:0:
448,192,35641,1,0,0:0:0:50:kick.wav
320,192,35641,1,0,0:0:0:0:
192,192,35719,1,0,0:0:0:0:
64,192,35797,1,0,0:0:0:0:
192,192,35875,1,0,0:0:0:0:
448,192,35953,1,0,0:0:0:50:kick.wav
320,192,35953,128,0,36266:0:0:0:0:
192,192,36266,1,0,0:0:0:50:kick.wav
64,192,36266,1,0,0:0:0:0:
448,192,36266,128,0,36891:0:0:0:0:
192,192,36578,1,0,0:0:0:50:kick.wav
64,192,36578,1,0,0:0:0:0:
320,192,36578,128,0,36891:0:0:0:0:
64,192,36891,1,0,0:0:0:50:kick.wav
192,192,36891,1,0,0:0:0:0:
448,192,36969,1,0,0:0:0:0:
192,192,37047,1,0,0:0:0:0:
320,192,37125,1,0,0:0:0:0:
64,192,37203,1,0,0:0:0:50:kick.wav
192,192,37203,1,0,0:0:0:0:
320,192,37359,1,0,0:0:0:0:
192,192,37516,1,0,0:0:0:50:kick.wav
448,192,37516,128,0,37828:0:0:0:0:
64,192,37516,1,0,0:0:0:0:
64,192,37828,1,0,0:0:0:50:kick.wav
192,192,37828,1,0,0:0:0:0:
320,192,37906,1,0,0:0:0:0:
64,192,37984,1,0,0:0:0:0:
448,192,38062,1,0,0:0:0:0:
192,192,38141,1,0,0:0:0:50:kick.wav
64,192,38141,1,0,0:0:0:0:
320,192,38219,1,0,0:0:0:0:
448,192,38297,1,0,0:0:0:0:
320,192,38375,1,0,0:0:0:0:
64,192,38453,1,0,0:0:0:50:kick.wav
192,192,38453,1,0,0:0:0:0:
448,192,38609,1,0,0:0:0:50:kick.wav
320,192,38609,1,0,0:0:0:0:
64,192,38661,1,0,0:0:0:0:
192,192,38713,1,0,0:0:0:0:
448,192,38766,1,0,0:0:0:50:kick.wav
64,192,38766,1,0,0:0:0:40:crash.wav
320,192,38766,128,0,39391:0:0:0:0:
448,192,39078,128,0,39391:0:0:0:40:snare.wav
192,192,39078,1,0,0:0:0:0:
64,192,39078,1,0,0:0:0:0:
64,192,39234,1,0,0:0:0:0:
192,192,39312,1,0,0:0:0:0:
64,192,39391,1,0,0:0:0:50:kick.wav
192,192,39469,1,0,0:0:0:0:
64,192,39547,1,0,0:0:0:0:
192,192,39625,1,0,0:0:0:0:
64,192,39703,1,0,0:0:0:40:snare.wav
448,192,39703,1,0,0:0:0:0:
320,192,39781,1,0,0:0:0:0:
448,192,39859,1,0,0:0:0:0:
320,192,39937,1,0,0:0:0:0:
64,192,40016,1,0,0:0:0:50:kick.wav
192,192,40016,128,0,40328:0:0:0:0:
448,192,40016,1,0,0:0:0:0:
320,192,40328,1,0,0:0:0:40:snare.wav
448,192,40328,1,0,0:0:0:0:
64,192,40406,1,0,0:0:0:0:
192,192,40484,1,0,0:0:0:0:
320,192,40562,1,0,0:0:0:0:
192,192,40641,1,0,0:0:0:50:kick.wav
64,192,40641,1,0,0:0:0:0:
448,192,40719,1,0,0:0:0:0:
64,192,40797,1,0,0:0:0:0:
320,192,40875,1,0,0:0:0:0:
192,192,40953,1,0,0:0:0:40:snare.wav
448,192,40953,128,0,41266:0:0:0:0:
64,192,40953,1,0,0:0:0:0:
320,192,41266,1,0,0:0:0:50:kick.wav
64,192,41266,1,0,0:0:0:40:crash.wav
192,192,41266,128,0,41422:0:0:0:0:
320,192,41422,1,0,0:0:0:0:
192,192,41500,1,0,0:0:0:0:
64,192,41578,1,0,0:0:0:40:snare.wav
448,192,41578,128,0,41734:0:0:0:0:
192,192,41734,1,0,0:0:0:0:
64,192,41786,1,0,0:0:0:0:
448,192,41838,1,0,0:0:0:0:
320,192,41891,1,0,0:0:0:40:crash.wav
192,192,41891,1,0,0:0:0:50:kick.wav
64,192,41891,128,0,42047:0:0:0:0:
320,192,42047,1,0,0:0:0:0:
448,192,42125,1,0,0:0:0:0:
192,192,42203,1,0,0:0:0:40:snare.wav
64,192,42203,1,0,0:0:0:0:
320,192,42281,1,0,0:0:0:0:
192,192,42359,1,0,0:0:0:0:
64,192,42437,1,0,0:0:0:0:
192,192,42516,1,0,0:0:0:50:kick.wav
448,192,42516,1,0,0:0:0:40:crash.wav
320,192,42516,128,0,42672:0:0:0:0:
64,192,42672,1,0,0:0:0:0:
192,192,42750,1,0,0:0:0:0:
320,192,42828,1,0,0:0:0:40:snare.wav
448,192,42828,1,0,0:0:0:40:crash.wav
320,192,42984,1,0,0:0:0:0:
192,192,43062,1,0,0:0:0:0:
64,192,43141,1,0,0:0:0:50:kick.wav
448,192,43141,1,0,0:0:0:0:
192,192,43297,1,0,0:0:0:50:kick.wav
320,192,43375,1,0,0:0:0:0:
192,192,43453,1,0,0:0:0:40:snare.wav
64,192,43453,1,0,0:0:0:50:kick.wav
448,192,43453,1,0,0:0:0:0:
320,192,43531,1,0,0:0:0:0:
64,192,43609,1,0,0:0:0:0:
192,192,43687,1,0,0:0:0:0:
64,192,43766,1,0,0:0:0:50:kick.wav
448,192,43766,1,0,0:0:0:0:
320,192,43766,128,0,44391:0:0:0:0:
64,192,44078,1,0,0:0:0:50:kick.wav
448,192,44078,1,0,0:0:0:0:
192,192,44078,128,0,44391:0:0:0:0:
64,192,44391,1,0,0:0:0:50:kick.wav
448,192,44391,1,0,0:0:0:0:
320,192,44547,1,0,0:0:0:0:
192,192,44625,1,0,0:0:0:0:
448,192,44703,1,0,0:0:0:50:kick.wav
64,192,44703,1,0,0:0:0:0:
320,192,44781,1,0,0:0:0:0:
192,192,44859,1,0,0:0:0:0:
64,192,45016,1,0,0:0:0:50:kick.wav
448,192,45016,1,0,0:0:0:0:
320,192,45016,128,0,45328:0:0:0:0:
64,192,45328,1,0,0:0:0:50:kick.wav
448,192,45328,1,0,0:0:0:0:
192,192,45432,1,0,0:0:0:0:
320,192,45536,1,0,0:0:0:0:
64,192,45641,1,0,0:0:0:50:kick.wav
448,192,45641,1,0,0:0:0:0:
192,192,45719,1,0,0:0:0:0:
320,192,45797,1,0,0:0:0:0:
192,192,45875,1,0,0:0:0:0:
448,192,45953,1,0,0:0:0:50:kick.wav
64,192,45953,1,0,0:0:0:0:
320,192,45953,128,0,46266:0:0:0:0:
64,192,46266,1,0,0:0:0:50:kick.wav
448,192,46266,1,0,0:0:0:0:
192,192,46266,128,0,46578:0:0:0:0:
64,192,46578,1,0,0:0:0:50:kick.wav
448,192,46578,1,0,0:0:0:0:
320,192,46656,1,0,0:0:0:0:
192,192,46734,1,0,0:0:0:0:
320,192,46812,1,0,0:0:0:0:
448,192,46891,1,0,0:0:0:50:kick.wav
64,192,46891,1,0,0:0:0:0:
192,192,46969,1,0,0:0:0:0:
64,192,47047,1,0,0:0:0:0:
320,192,47125,1,0,0:0:0:0:
64,192,47203,1,0,0:0:0:50:kick.wav
448,192,47203,1,0,0:0:0:0:
320,192,47359,1,0,0:0:0:0:
192,192,47516,128,0,47828:0:0:0:50:kick.wav
64,192,47516,1,0,0:0:0:0:
448,192,47516,1,0,0:0:0:0:
448,192,47828,1,0,0:0:0:50:kick.wav
64,192,47828,1,0,0:0:0:0:
320,192,47932,1,0,0:0:0:0:
192,192,48036,1,0,0:0:0:0:
320,192,48141,128,0,48453:0:0:0:50:kick.wav
448,192,48141,1,0,0:0:0:0:
64,192,48141,1,0,0:0:0:0:
448,192,48453,1,0,0:0:0:50:kick.wav
64,192,48453,128,0,48531:0:0:0:0:
192,192,48531,1,0,0:0:0:0:
64,192,48609,1,0,0:0:0:50:kick.wav
448,192,48609,128,0,48687:0:0:0:0:
320,192,48687,1,0,0:0:0:0:
448,192,48766,1,0,0:0:0:50:kick.wav
192,192,48766,1,0,0:0:0:40:crash.wav
64,192,48766,128,0,50016:0:0:0:0:
320,192,49078,1,0,0:0:0:40:snare.wav
448,192,49078,1,0,0:0:0:0:
192,192,49156,1,0,0:0:0:0:
448,192,49234,1,0,0:0:0:0:
320,192,49391,1,0,0:0:0:50:kick.wav
192,192,49391,1,0,0:0:0:0:
448,192,49469,1,0,0:0:0:0:
192,192,49547,1,0,0:0:0:0:
320,192,49625,1,0,0:0:0:0:
192,192,49703,1,0,0:0:0:40:snare.wav
448,192,49703,1,0,0:0:0:0:
320,192,49859,1,0,0:0:0:50:kick.wav
192,192,50016,1,0,0:0:0:50:kick.wav
320,192,50016,1,0,0:0:0:40:crash.wav
448,192,50016,1,0,0:0:0:0:
192,192,50172,1,0,0:0:0:0:
448,192,50328,1,0,0:0:0:40:snare.wav
64,192,50328,1,0,0:0:0:0:
320,192,50406,1,0,0:0:0:0:
64,192,50484,1,0,0:0:0:0:
192,192,50562,1,0,0:0:0:0:
320,192,50641,1,0,0:0:0:50:kick.wav
448,192,50641,1,0,0:0:0:40:crash.wav
64,192,50641,1,0,0:0:0:0:
192,192,50719,1,0,0:0:0:0:
448,192,50797,1,0,0:0:0:0:
320,192,50875,1,0,0:0:0:0:
64,192,50953,1,0,0:0:0:40:snare.wav
192,192,50953,1,0,0:0:0:0:
448,192,51031,1,0,0:0:0:0:
320,192,51109,1,0,0:0:0:50:kick.wav
64,192,51109,1,0,0:0:0:0:
192,192,51187,1,0,0:0:0:0:
448,192,51266,1,0,0:0:0:50:kick.wav
320,192,51266,1,0,0:0:0:40:crash.wav
64,192,51266,1,0,0:0:0:0:
320,192,51422,1,0,0:0:0:50:kick.wav
448,192,51422,1,0,0:0:0:0:
192,192,51500,1,0,0:0:0:0:
320,192,51578,1,0,0:0:0:50:kick.wav
448,192,51578,1,0,0:0:0:40:crash.wav
320,192,51734,1,0,0:0:0:50:kick.wav
448,192,51734,1,0,0:0:0:0:
192,192,51812,1,0,0:0:0:0:
448,192,51891,1,0,0:0:0:50:kick.wav
64,192,51891,1,0,0:0:0:0:
320,192,51969,1,0,0:0:0:50:kick.wav
192,192,51969,1,0,0:0:0:0:
448,192,52047,1,0,0:0:0:50:kick.wav
64,192,52047,1,0,0:0:0:0:
320,192,52125,1,0,0:0:0:50:kick.wav
192,192,52125,1,0,0:0:0:0:
448,192,52203,1,0,0:0:0:50:kick.wav
64,192,52203,1,0,0:0:0:0:
320,192,52281,1,0,0:0:0:50:kick.wav
192,192,52281,1,0,0:0:0:0:
448,192,52359,1,0,0:0:0:50:kick.wav
64,192,52359,1,0,0:0:0:0:
320,192,52437,1,0,0:0:0:50:kick.wav
192,192,52437,1,0,0:0:0:0:
64,192,52516,1,0,0:0:0:50:kick.wav
448,192,52516,1,0,0:0:0:0:
320,192,52828,1,0,0:0:0:50:kick.wav
192,192,52828,1,0,0:0:0:0:
320,192,52932,1,0,0:0:0:50:kick.wav
192,192,52932,1,0,0:0:0:0:
320,192,53036,1,0,0:0:0:50:kick.wav
192,192,53036,1,0,0:0:0:0:
64,192,53141,1,0,0:0:0:50:kick.wav
448,192,53141,1,0,0:0:0:0:
320,192,53297,1,0,0:0:0:50:kick.wav
192,192,53297,1,0,0:0:0:0:
448,192,53453,1,0,0:0:0:50:kick.wav
320,192,53453,1,0,0:0:0:40:snare.wav
192,192,53453,1,0,0:0:0:0:
64,192,53453,1,0,0:0:0:0:
64,192,53766,1,0,0:0:0:50:kick.wav
192,192,53766,128,0,54391:0:0:0:40:crash.wav
320,192,53766,128,0,55016:0:0:0:0:
448,192,53766,128,0,55641:0:0:0:0:
64,192,54391,128,0,56266:0:0:0:0:
192,192,55016,128,0,57203:0:0:0:0:
320,192,55641,128,0,57516:0:0:0:0:
448,192,56266,128,0,58141:0:0:0:0:
64,192,57203,128,0,58141:0:0:0:0:
192,192,57516,128,0,58766:0:0:0:0:
320,192,58141,128,0,59391:0:0:0:0:
448,192,58766,128,0,60016:0:0:0:0:
64,192,58766,128,0,60641:0:0:0:0:
192,192,59391,128,0,60641:0:0:0:0:
320,192,60016,128,0,61266:0:0:0:0:
448,192,60641,128,0,61891:0:0:0:0:
64,192,61266,128,0,61891:0:0:0:0:
192,192,61266,1,0,0:0:0:0:
192,192,61891,1,0,0:0:0:0:
64,192,62203,1,0,0:0:0:0:
192,192,62359,1,0,0:0:0:0:
448,192,62516,1,0,0:0:0:0:
320,192,62594,1,0,0:0:0:0:
192,192,62672,1,0,0:0:0:0:
64,192,62750,1,0,0:0:0:0:
448,192,62828,1,0,0:0:0:0:
320,192,62906,1,0,0:0:0:0:
192,192,62984,1,0,0:0:0:0:
64,192,63062,1,0,0:0:0:0:
448,192,63141,1,0,0:0:0:0:
320,192,63219,1,0,0:0:0:0:
192,192,63297,1,0,0:0:0:0:
64,192,63375,1,0,0:0:0:0:
448,192,63453,1,0,0:0:0:0:
320,192,63505,1,0,0:0:0:0:
192,192,63557,1,0,0:0:0:0:
64,192,63609,1,0,0:0:0:0:
448,192,63687,1,0,0:0:0:0:
320,192,63766,128,0,65016:0:0:0:50:kick.wav
192,192,63766,128,0,64391:0:0:0:40:crash.wav
64,192,63766,128,0,65641:0:0:0:0:
448,192,64391,128,0,65641:0:0:0:0:
192,192,65016,128,0,66266:0:0:0:0:
320,192,65641,128,0,66891:0:0:0:0:
64,192,66266,128,0,67203:0:0:0:0:
448,192,66266,1,0,0:0:0:0:
192,192,66891,128,0,68141:0:0:0:0:
448,192,67203,128,0,70016:0:0:0:0:
320,192,67516,128,0,68141:0:0:0:0:
64,192,68141,128,0,70016:0:0:0:0:
192,192,68766,128,0,70328:0:0:0:0:
320,192,68766,1,0,0:0:0:0:
320,192,70016,128,0,70875:0:0:0:0:
64,192,70328,128,0,71109:0:0:0:0:
192,192,70641,128,0,71266:0:0:0:0:
448,192,70875,128,0,72516:0:0:0:0:
320,192,71109,128,0,72516:0:0:0:0:
64,192,71266,128,0,72516:0:0:0:0:
192,192,72516,1,0,0:0:0:0:
320,192,72568,1,0,0:0:0:0:
192,192,72620,1,0,0:0:0:0:
320,192,72672,1,0,0:0:0:0:
192,192,72750,1,0,0:0:0:0:
320,192,72828,1,0,0:0:0:0:
64,192,72906,1,0,0:0:0:0:
448,192,72984,1,0,0:0:0:0:
192,192,73062,1,0,0:0:0:0:
448,192,73141,1,0,0:0:0:0:
64,192,73141,1,0,0:0:0:0:
320,192,73219,1,0,0:0:0:0:
192,192,73219,1,0,0:0:0:0:
448,192,73297,1,0,0:0:0:0:
64,192,73297,1,0,0:0:0:0:
192,192,73453,1,0,0:0:0:50:kick.wav
64,192,73453,1,0,0:0:0:0:
320,192,73505,1,0,0:0:0:0:
448,192,73557,1,0,0:0:0:0:
64,192,73609,1,0,0:0:0:0:
192,192,73661,1,0,0:0:0:0:
320,192,73713,1,0,0:0:0:0:
448,192,73766,1,0,0:0:0:50:kick.wav
192,192,73766,1,0,0:0:0:40:crash.wav
64,192,73766,1,0,0:0:0:0:
320,192,73844,1,0,0:0:0:0:
64,192,73922,1,0,0:0:0:50:kick.wav
448,192,73922,1,0,0:0:0:0:
192,192,74000,1,0,0:0:0:0:
320,192,74078,1,0,0:0:0:40:snare.wav
448,192,74078,1,0,0:0:0:0:
64,192,74156,1,0,0:0:0:0:
448,192,74234,1,0,0:0:0:0:
320,192,74312,1,0,0:0:0:0:
192,192,74391,1,0,0:0:0:0:
64,192,74469,1,0,0:0:0:0:
448,192,74547,1,0,0:0:0:0:
192,192,74625,1,0,0:0:0:0:
320,192,74703,1,0,0:0:0:0:
192,192,74781,1,0,0:0:0:0:
448,192,74859,1,0,0:0:0:0:
64,192,74937,1,0,0:0:0:0:
448,192,75016,1,0,0:0:0:50:kick.wav
320,192,75016,1,0,0:0:0:0:
192,192,75094,1,0,0:0:0:0:
448,192,75172,1,0,0:0:0:50:kick.wav
64,192,75172,1,0,0:0:0:0:
320,192,75250,1,0,0:0:0:0:
192,192,75328,1,0,0:0:0:40:snare.wav
64,192,75328,1,0,0:0:0:0:
448,192,75406,1,0,0:0:0:0:
64,192,75484,1,0,0:0:0:0:
192,192,75562,1,0,0:0:0:0:
448,192,75641,1,0,0:0:0:0:
64,192,75719,1,0,0:0:0:0:
320,192,75797,1,0,0:0:0:0:
192,192,75875,1,0,0:0:0:0:
448,192,75953,1,0,0:0:0:0:
320,192,76031,1,0,0:0:0:0:
192,192,76109,1,0,0:0:0:0:
64,192,76187,1,0,0:0:0:0:
320,192,76266,1,0,0:0:0:50:kick.wav
448,192,76266,1,0,0:0:0:40:crash.wav
192,192,76266,1,0,0:0:0:0:
64,192,76344,1,0,0:0:0:0:
448,192,76422,1,0,0:0:0:50:kick.wav
192,192,76422,1,0,0:0:0:0:
320,192,76500,1,0,0:0:0:0:
192,192,76578,1,0,0:0:0:40:snare.wav
64,192,76578,1,0,0:0:0:0:
448,192,76656,1,0,0:0:0:0:
64,192,76734,1,0,0:0:0:0:
192,192,76812,1,0,0:0:0:0:
320,192,76891,1,0,0:0:0:0:
448,192,76969,1,0,0:0:0:0:
64,192,77047,1,0,0:0:0:0:
320,192,77125,1,0,0:0:0:0:
192,192,77203,1,0,0:0:0:0:
448,192,77281,1,0,0:0:0:0:
64,192,77359,1,0,0:0:0:0:
192,192,77437,1,0,0:0:0:0:
320,192,77516,1,0,0:0:0:50:kick.wav
64,192,77516,1,0,0:0:0:0:
448,192,77594,1,0,0:0:0:0:
64,192,77672,1,0,0:0:0:50:kick.wav
320,192,77672,1,0,0:0:0:0:
192,192,77750,1,0,0:0:0:0:
320,192,77828,1,0,0:0:0:40:snare.wav
448,192,77828,1,0,0:0:0:0:
192,192,77906,1,0,0:0:0:0:
448,192,77984,1,0,0:0:0:0:
320,192,78062,1,0,0:0:0:0:
64,192,78141,1,0,0:0:0:0:
448,192,78219,1,0,0:0:0:0:
192,192,78297,1,0,0:0:0:0:
320,192,78375,1,0,0:0:0:0:
64,192,78453,1,0,0:0:0:0:
320,192,78531,1,0,0:0:0:0:
448,192,78609,1,0,0:0:0:0:
192,192,78687,1,0,0:0:0:0:
64,192,78766,1,0,0:0:0:50:kick.wav
320,192,78766,1,0,0:0:0:40:crash.wav
448,192,78766,1,0,0:0:0:0:
192,192,78844,1,0,0:0:0:0:
320,192,78922,1,0,0:0:0:50:kick.wav
448,192,78922,1,0,0:0:0:0:
192,192,79000,1,0,0:0:0:0:
448,192,79078,1,0,0:0:0:40:snare.wav
320,192,79078,1,0,0:0:0:0:
64,192,79156,1,0,0:0:0:0:
448,192,79234,1,0,0:0:0:0:
320,192,79312,1,0,0:0:0:0:
64,192,79391,1,0,0:0:0:0:
448,192,79469,1,0,0:0:0:0:
192,192,79547,1,0,0:0:0:0:
320,192,79625,1,0,0:0:0:0:
64,192,79703,1,0,0:0:0:0:
448,192,79781,1,0,0:0:0:0:
192,192,79859,1,0,0:0:0:0:
320,192,79937,1,0,0:0:0:0:
192,192,80016,1,0,0:0:0:50:kick.wav
64,192,80016,1,0,0:0:0:40:crash.wav
448,192,80016,1,0,0:0:0:0:
320,192,80094,1,0,0:0:0:0:
64,192,80172,1,0,0:0:0:50:kick.wav
192,192,80172,1,0,0:0:0:0:
320,192,80250,1,0,0:0:0:0:
64,192,80328,1,0,0:0:0:40:snare.wav
192,192,80328,1,0,0:0:0:0:
448,192,80406,1,0,0:0:0:0:
192,192,80484,1,0,0:0:0:0:
320,192,80562,1,0,0:0:0:0:
448,192,80641,1,0,0:0:0:0:
64,192,80719,1,0,0:0:0:0:
448,192,80797,1,0,0:0:0:0:
64,192,80875,1,0,0:0:0:0:
320,192,80953,1,0,0:0:0:0:
192,192,81031,1,0,0:0:0:0:
320,192,81109,1,0,0:0:0:0:
192,192,81187,1,0,0:0:0:0:
320,192,81266,1,0,0:0:0:50:kick.wav
448,192,81266,1,0,0:0:0:40:crash.wav
64,192,81266,1,0,0:0:0:0:
192,192,81344,1,0,0:0:0:0:
320,192,81422,1,0,0:0:0:50:kick.wav
448,192,81422,1,0,0:0:0:0:
192,192,81500,1,0,0:0:0:0:
320,192,81578,1,0,0:0:0:40:snare.wav
448,192,81578,1,0,0:0:0:0:
64,192,81656,1,0,0:0:0:0:
192,192,81734,1,0,0:0:0:0:
320,192,81812,1,0,0:0:0:0:
192,192,81891,1,0,0:0:0:40:crash.wav
64,192,81891,1,0,0:0:0:50:kick.wav
448,192,81891,1,0,0:0:0:0:
320,192,81969,1,0,0:0:0:0:
192,192,82047,1,0,0:0:0:50:kick.wav
64,192,82047,1,0,0:0:0:0:
320,192,82125,1,0,0:0:0:0:
192,192,82203,1,0,0:0:0:40:snare.wav
64,192,82203,1,0,0:0:0:0:
448,192,82281,1,0,0:0:0:0:
192,192,82359,1,0,0:0:0:0:
64,192,82437,1,0,0:0:0:0:
448,192,82516,1,0,0:0:0:50:kick.wav
320,192,82516,128,0,82828:0:0:0:0:
192,192,82594,1,0,0:0:0:0:
64,192,82672,1,0,0:0:0:0:
448,192,82750,1,0,0:0:0:0:
192,192,82828,128,0,83141:0:0:0:50:kick.wav
64,192,82828,1,0,0:0:0:0:
448,192,82906,1,0,0:0:0:0:
320,192,82984,1,0,0:0:0:0:
64,192,83062,1,0,0:0:0:0:
320,192,83141,1,0,0:0:0:50:kick.wav
448,192,83141,1,0,0:0:0:0:
192,192,83297,1,0,0:0:0:50:kick.wav
64,192,83297,1,0,0:0:0:0:
448,192,83453,1,0,0:0:0:0:
320,192,83531,1,0,0:0:0:0:
192,192,83609,1,0,0:0:0:0:
64,192,83687,1,0,0:0:0:0:
192,192,83766,1,0,0:0:0:50:kick.wav
448,192,83766,1,0,0:0:0:40:crash.wav
320,192,83766,1,0,0:0:0:0:
64,192,85016,5,0,0:0:0:30:kick.wav
448,192,85094,1,0,0:0:0:30:kick.wav
192,192,85172,1,0,0:0:0:30:kick.wav
320,192,85250,1,0,0:0:0:30:kick.wav
64,192,85328,1,0,0:0:0:30:kick.wav
448,192,85406,1,0,0:0:0:30:kick.wav
192,192,85484,1,0,0:0:0:30:kick.wav
320,192,85562,1,0,0:0:0:30:kick.wav
64,192,85641,1,0,0:0:0:30:kick.wav
448,192,85719,1,0,0:0:0:30:kick.wav
192,192,85797,1,0,0:0:0:30:kick.wav
320,192,85875,1,0,0:0:0:30:kick.wav
64,192,85953,1,0,0:0:0:30:kick.wav
448,192,86031,1,0,0:0:0:30:kick.wav
192,192,86109,1,0,0:0:0:30:kick.wav
320,192,86187,1,0,0:0:0:30:kick.wav
192,192,86266,1,0,0:0:0:40:kick.wav
448,192,86344,1,0,0:0:0:40:kick.wav
64,192,86422,1,0,0:0:0:40:kick.wav
320,192,86500,1,0,0:0:0:40:kick.wav
192,192,86578,1,0,0:0:0:40:kick.wav
448,192,86656,1,0,0:0:0:40:kick.wav
64,192,86734,1,0,0:0:0:40:kick.wav
320,192,86812,1,0,0:0:0:40:kick.wav
192,192,86891,1,0,0:0:0:40:kick.wav
448,192,86969,1,0,0:0:0:40:kick.wav
64,192,87047,1,0,0:0:0:40:kick.wav
320,192,87125,1,0,0:0:0:40:kick.wav
192,192,87203,1,0,0:0:0:40:kick.wav
448,192,87281,1,0,0:0:0:40:kick.wav
64,192,87359,1,0,0:0:0:40:kick.wav
320,192,87437,1,0,0:0:0:40:kick.wav
64,192,87516,1,0,0:0:0:50:kick.wav
448,192,87594,1,0,0:0:0:50:kick.wav
64,192,87672,1,0,0:0:0:50:kick.wav
448,192,87750,1,0,0:0:0:50:kick.wav
64,192,87828,1,0,0:0:0:50:kick.wav
448,192,87906,1,0,0:0:0:50:kick.wav
64,192,87984,1,0,0:0:0:50:kick.wav
448,192,88062,1,0,0:0:0:50:kick.wav
192,192,88141,1,0,0:0:0:50:kick.wav
320,192,88219,1,0,0:0:0:50:kick.wav
192,192,88297,1,0,0:0:0:50:kick.wav
320,192,88375,1,0,0:0:0:50:kick.wav
192,192,88453,1,0,0:0:0:50:kick.wav
320,192,88531,1,0,0:0:0:50:kick.wav
192,192,88609,1,0,0:0:0:50:kick.wav
320,192,88687,1,0,0:0:0:50:kick.wav
192,192,88766,1,0,0:0:0:50:kick.wav
64,192,88766,1,0,0:0:0:0:
320,192,88844,1,0,0:0:0:50:kick.wav
448,192,88844,1,0,0:0:0:0:
192,192,88922,1,0,0:0:0:50:kick.wav
64,192,88922,1,0,0:0:0:0:
320,192,89000,1,0,0:0:0:50:kick.wav
448,192,89000,1,0,0:0:0:0:
64,192,89078,1,0,0:0:0:50:kick.wav
192,192,89078,1,0,0:0:0:0:
448,192,89156,1,0,0:0:0:50:kick.wav
320,192,89156,1,0,0:0:0:0:
192,192,89234,1,0,0:0:0:50:kick.wav
64,192,89234,1,0,0:0:0:0:
320,192,89312,1,0,0:0:0:50:kick.wav
448,192,89312,1,0,0:0:0:0:
192,192,89391,1,0,0:0:0:50:kick.wav
64,192,89391,1,0,0:0:0:0:
320,192,89469,1,0,0:0:0:50:kick.wav
448,192,89469,1,0,0:0:0:0:
64,192,89547,1,0,0:0:0:50:kick.wav
192,192,89547,1,0,0:0:0:0:
448,192,89625,1,0,0:0:0:50:kick.wav
320,192,89625,1,0,0:0:0:0:
64,192,89703,1,0,0:0:0:50:kick.wav
192,192,89703,1,0,0:0:0:0:
448,192,89781,1,0,0:0:0:50:kick.wav
320,192,89781,1,0,0:0:0:0:
192,192,89859,1,0,0:0:0:50:kick.wav
64,192,89859,1,0,0:0:0:0:
320,192,89937,1,0,0:0:0:50:kick.wav
448,192,89937,1,0,0:0:0:0:
64,192,90016,1,0,0:0:0:50:kick.wav
192,192,90068,1,0,0:0:0:50:kick.wav
320,192,90120,1,0,0:0:0:50:kick.wav
448,192,90172,1,0,0:0:0:50:kick.wav
64,192,90224,1,0,0:0:0:50:kick.wav
192,192,90276,1,0,0:0:0:50:kick.wav
448,192,90328,1,0,0:0:0:50:kick.wav
320,192,90380,1,0,0:0:0:50:kick.wav
192,192,90432,1,0,0:0:0:50:kick.wav
64,192,90484,1,0,0:0:0:50:kick.wav
448,192,90536,1,0,0:0:0:50:kick.wav
320,192,90588,1,0,0:0:0:50:kick.wav
64,192,90641,1,0,0:0:0:50:kick.wav
192,192,90680,1,0,0:0:0:50:kick.wav
320,192,90719,1,0,0:0:0:50:kick.wav
448,192,90758,1,0,0:0:0:50:kick.wav
64,192,90797,1,0,0:0:0:50:kick.wav
192,192,90836,1,0,0:0:0:50:kick.wav
448,192,90875,1,0,0:0:0:50:kick.wav
320,192,90914,1,0,0:0:0:50:kick.wav
192,192,90953,1,0,0:0:0:50:kick.wav
64,192,90992,1,0,0:0:0:50:kick.wav
448,192,91031,1,0,0:0:0:50:kick.wav
320,192,91070,1,0,0:0:0:50:kick.wav
64,192,91109,1,0,0:0:0:50:kick.wav
192,192,91148,1,0,0:0:0:50:kick.wav
320,192,91187,1,0,0:0:0:50:kick.wav
448,192,91226,1,0,0:0:0:50:kick.wav
192,192,91266,1,0,0:0:0:0:
64,192,91266,1,0,0:0:0:0:
320,192,91578,1,0,0:0:0:40:crash.wav
448,192,91578,1,0,0:0:0:50:kick.wav
64,192,91578,1,0,0:0:0:0:
192,192,91656,1,0,0:0:0:0:
448,192,91734,1,0,0:0:0:0:
320,192,91812,1,0,0:0:0:0:
192,192,91891,1,0,0:0:0:0:
64,192,91969,1,0,0:0:0:0:
192,192,92047,1,0,0:0:0:0:
320,192,92125,1,0,0:0:0:0:
448,192,92203,1,0,0:0:0:0:
64,192,92281,1,0,0:0:0:0:
320,192,92359,1,0,0:0:0:0:
192,192,92437,1,0,0:0:0:0:
320,192,92516,1,0,0:0:0:0:
64,192,92594,1,0,0:0:0:0:
448,192,92672,1,0,0:0:0:0:
192,192,92750,1,0,0:0:0:0:
320,192,92828,1,0,0:0:0:0:
64,192,92906,1,0,0:0:0:0:
448,192,92984,1,0,0:0:0:0:
192,192,93062,1,0,0:0:0:0:
320,192,93141,1,0,0:0:0:0:
192,192,93219,1,0,0:0:0:0:
448,192,93297,1,0,0:0:0:0:
64,192,93375,1,0,0:0:0:0:
320,192,93453,1,0,0:0:0:0:
192,192,93531,1,0,0:0:0:0:
320,192,93609,1,0,0:0:0:0:
192,192,93687,1,0,0:0:0:0:
64,192,93766,1,0,0:0:0:40:crash.wav
320,192,93766,1,0,0:0:0:50:kick.wav
448,192,93766,1,0,0:0:0:0:
320,192,93922,1,0,0:0:0:0:
192,192,94000,1,0,0:0:0:0:
64,192,94078,1,0,0:0:0:40:snare.wav
448,192,94078,1,0,0:0:0:0:
320,192,94078,1,0,0:0:0:0:
64,192,94234,1,0,0:0:0:0:
320,192,94234,1,0,0:0:0:0:
192,192,94391,1,0,0:0:0:50:kick.wav
64,192,94391,1,0,0:0:0:0:
448,192,94391,1,0,0:0:0:0:
320,192,94547,1,0,0:0:0:0:
448,192,94547,1,0,0:0:0:0:
192,192,94625,1,0,0:0:0:0:
320,192,94703,1,0,0:0:0:40:snare.wav
448,192,94703,1,0,0:0:0:0:
64,192,94703,1,0,0:0:0:0:
448,192,94859,1,0,0:0:0:0:
64,192,94859,1,0,0:0:0:0:
320,192,95016,128,0,95328:0:0:0:50:kick.wav
192,192,95016,128,0,95172:0:0:0:0:
448,192,95016,128,0,95172:0:0:0:0:
64,192,95172,1,0,0:0:0:0:
192,192,95328,128,0,95641:0:0:0:40:snare.wav
64,192,95328,128,0,95484:0:0:0:0:
448,192,95328,128,0,95484:0:0:0:0:
320,192,95484,1,0,0:0:0:0:
448,192,95641,128,0,95953:0:0:0:50:kick.wav
320,192,95641,128,0,95797:0:0:0:0:
64,192,95641,128,0,95797:0:0:0:0:
192,192,95797,1,0,0:0:0:0:
64,192,95953,128,0,96266:0:0:0:40:snare.wav
192,192,95953,128,0,96109:0:0:0:0:
320,192,95953,128,0,96109:0:0:0:0:
448,192,96109,1,0,0:0:0:0:
448,192,96266,1,0,0:0:0:50:kick.wav
320,192,96266,1,0,0:0:0:0:
192,192,96266,1,0,0:0:0:0:
192,192,96422,1,0,0:0:0:0:
320,192,96500,1,0,0:0:0:0:
192,192,96578,1,0,0:0:0:40:snare.wav
64,192,96578,1,0,0:0:0:0:
448,192,96578,1,0,0:0:0:0:
320,192,96734,1,0,0:0:0:0:
64,192,96734,1,0,0:0:0:0:
192,192,96891,1,0,0:0:0:50:kick.wav
320,192,96891,1,0,0:0:0:0:
448,192,96891,1,0,0:0:0:0:
64,192,97047,1,0,0:0:0:0:
448,192,97047,1,0,0:0:0:0:
192,192,97125,1,0,0:0:0:0:
64,192,97203,1,0,0:0:0:40:snare.wav
320,192,97203,1,0,0:0:0:0:
448,192,97203,1,0,0:0:0:0:
192,192,97359,1,0,0:0:0:0:
320,192,97359,1,0,0:0:0:0:
192,192,97516,128,0,97828:0:0:0:50:kick.wav
320,192,97516,128,0,97672:0:0:0:0:
64,192,97516,128,0,97672:0:0:0:0:
448,192,97672,1,0,0:0:0:0:
448,192,97828,128,0,98141:0:0:0:40:snare.wav
320,192,97828,128,0,97984:0:0:0:0:
64,192,97828,128,0,97984:0:0:0:0:
192,192,97984,1,0,0:0:0:0:
320,192,98141,128,0,98453:0:0:0:50:kick.wav
192,192,98141,128,0,98297:0:0:0:0:
64,192,98141,128,0,98297:0:0:0:0:
448,192,98297,1,0,0:0:0:0:
192,192,98453,1,0,0:0:0:50:kick.wav
64,192,98453,1,0,0:0:0:0:
320,192,98531,1,0,0:0:0:50:kick.wav
448,192,98531,1,0,0:0:0:0:
192,192,98609,1,0,0:0:0:50:kick.wav
64,192,98609,1,0,0:0:0:0:
320,192,98687,1,0,0:0:0:50:kick.wav
448,192,98687,1,0,0:0:0:0:
192,192,98766,1,0,0:0:0:50:kick.wav
64,192,98766,1,0,0:0:0:40:crash.wav
320,192,98922,1,0,0:0:0:0:
192,192,99000,1,0,0:0:0:0:
320,192,99078,1,0,0:0:0:40:snare.wav
448,192,99078,1,0,0:0:0:0:
64,192,99078,1,0,0:0:0:0:
192,192,99234,1,0,0:0:0:0:
320,192,99234,1,0,0:0:0:0:
192,192,99391,1,0,0:0:0:50:kick.wav
64,192,99391,1,0,0:0:0:0:
448,192,99391,1,0,0:0:0:0:
64,192,99547,1,0,0:0:0:0:
448,192,99547,1,0,0:0:0:0:
320,192,99625,1,0,0:0:0:0:
192,192,99703,1,0,0:0:0:40:snare.wav
64,192,99703,1,0,0:0:0:0:
448,192,99703,1,0,0:0:0:0:
320,192,99859,1,0,0:0:0:0:
192,192,99859,1,0,0:0:0:0:
64,192,100016,128,0,100172:0:0:0:50:kick.wav
448,192,100016,128,0,100172:0:0:0:0:
320,192,100016,128,0,100328:0:0:0:0:
192,192,100172,1,0,0:0:0:0:
192,192,100328,128,0,100641:0:0:0:40:snare.wav
64,192,100328,128,0,100484:0:0:0:0:
448,192,100328,128,0,100484:0:0:0:0:
320,192,100484,1,0,0:0:0:0:
320,192,100641,128,0,100797:0:0:0:50:kick.wav
448,192,100641,128,0,100797:0:0:0:0:
64,192,100641,128,0,100797:0:0:0:0:
192,192,100797,1,0,0:0:0:0:
320,192,100849,1,0,0:0:0:0:
192,192,100901,1,0,0:0:0:0:
64,192,100953,1,0,0:0:0:40:snare.wav
448,192,100953,1,0,0:0:0:0:
320,192,101109,1,0,0:0:0:0:
192,192,101109,1,0,0:0:0:0:
320,192,101266,1,0,0:0:0:50:kick.wav
448,192,101266,1,0,0:0:0:0:
64,192,101266,1,0,0:0:0:0:
192,192,101422,1,0,0:0:0:0:
320,192,101500,1,0,0:0:0:0:
192,192,101578,1,0,0:0:0:40:snare.wav
64,192,101578,1,0,0:0:0:0:
448,192,101578,1,0,0:0:0:0:
320,192,101734,1,0,0:0:0:0:
192,192,101812,1,0,0:0:0:0:
320,192,101891,1,0,0:0:0:50:kick.wav
448,192,101891,1,0,0:0:0:0:
64,192,101891,1,0,0:0:0:0:
192,192,102125,1,0,0:0:0:50:kick.wav
320,192,102125,1,0,0:0:0:0:
448,192,102125,1,0,0:0:0:0:
320,192,102359,1,0,0:0:0:50:kick.wav
192,192,102359,1,0,0:0:0:0:
64,192,102359,1,0,0:0:0:0:
192,192,102594,1,0,0:0:0:50:kick.wav
64,192,102594,1,0,0:0:0:0:
448,192,102594,1,0,0:0:0:0:
448,192,102828,1,0,0:0:0:50:kick.wav
320,192,102828,1,0,0:0:0:0:
64,192,102828,1,0,0:0:0:0:
320,192,103062,1,0,0:0:0:50:kick.wav
192,192,103062,1,0,0:0:0:0:
64,192,103062,1,0,0:0:0:0:
64,192,103297,1,0,0:0:0:50:kick.wav
448,192,103297,1,0,0:0:0:0:
320,192,103375,1,0,0:0:0:50:kick.wav
64,192,103453,1,0,0:0:0:0:
192,192,103453,1,0,0:0:0:0:
320,192,103531,1,0,0:0:0:50:kick.wav
448,192,103531,1,0,0:0:0:0:
64,192,103609,1,0,0:0:0:50:kick.wav
192,192,103609,1,0,0:0:0:0:
320,192,103766,128,0,104078:0:0:0:0:
192,192,104078,1,0,0:0:0:40:crash.wav
64,192,104078,1,0,0:0:0:40:snare.wav
448,192,104078,1,0,0:0:0:0:
320,192,104391,1,0,0:0:0:50:kick.wav
448,192,104391,1,0,0:0:0:0:
64,192,104391,1,0,0:0:0:0:
192,192,104469,1,0,0:0:0:0:
448,192,104547,1,0,0:0:0:0:
320,192,104625,1,0,0:0:0:0:
192,192,104703,1,0,0:0:0:40:snare.wav
64,192,104703,1,0,0:0:0:0:
448,192,104703,1,0,0:0:0:0:
320,192,104781,1,0,0:0:0:0:
192,192,104859,1,0,0:0:0:0:
64,192,104937,1,0,0:0:0:0:
192,192,105016,1,0,0:0:0:50:kick.wav
320,192,105016,1,0,0:0:0:0:
448,192,105016,1,0,0:0:0:0:
64,192,105094,1,0,0:0:0:0:
448,192,105172,1,0,0:0:0:0:
320,192,105250,1,0,0:0:0:0:
192,192,105328,1,0,0:0:0:40:snare.wav
64,192,105328,1,0,0:0:0:0:
448,192,105328,1,0,0:0:0:0:
320,192,105406,1,0,0:0:0:0:
192,192,105484,1,0,0:0:0:0:
448,192,105562,1,0,0:0:0:0:
320,192,105641,1,0,0:0:0:50:kick.wav
192,192,105641,1,0,0:0:0:0:
64,192,105641,1,0,0:0:0:0:
448,192,105719,1,0,0:0:0:0:
64,192,105797,1,0,0:0:0:0:
192,192,105875,1,0,0:0:0:0:
320,192,105953,1,0,0:0:0:40:snare.wav
448,192,105953,1,0,0:0:0:0:
64,192,105953,1,0,0:0:0:0:
192,192,106031,1,0,0:0:0:0:
320,192,106109,1,0,0:0:0:0:
448,192,106187,1,0,0:0:0:0:
320,192,106266,1,0,0:0:0:50:kick.wav
192,192,106266,1,0,0:0:0:40:crash.wav
64,192,106266,1,0,0:0:0:0:
64,192,106422,1,0,0:0:0:0:
192,192,106500,1,0,0:0:0:0:
320,192,106578,1,0,0:0:0:40:snare.wav
64,192,106578,1,0,0:0:0:0:
192,192,106734,1,0,0:0:0:50:kick.wav
320,192,106734,1,0,0:0:0:40:crash.wav
448,192,106734,1,0,0:0:0:0:
448,192,106891,1,0,0:0:0:0:
320,192,106969,1,0,0:0:0:0:
192,192,107047,1,0,0:0:0:40:snare.wav
448,192,107047,1,0,0:0:0:40:crash.wav
64,192,107047,1,0,0:0:0:0:
320,192,107203,1,0,0:0:0:40:crash.wav
192,192,107203,1,0,0:0:0:50:kick.wav
64,192,107203,1,0,0:0:0:0:
448,192,107359,1,0,0:0:0:50:kick.wav
64,192,107359,1,0,0:0:0:0:
320,192,107437,1,0,0:0:0:50:kick.wav
192,192,107437,1,0,0:0:0:0:
448,192,107516,1,0,0:0:0:50:kick.wav
64,192,107516,1,0,0:0:0:0:
320,192,107724,1,0,0:0:0:50:kick.wav
192,192,107724,1,0,0:0:0:0:
448,192,107724,1,0,0:0:0:0:
320,192,107932,1,0,0:0:0:50:kick.wav
192,192,107932,1,0,0:0:0:0:
64,192,107932,1,0,0:0:0:0:
192,192,108141,1,0,0:0:0:50:kick.wav
64,192,108141,1,0,0:0:0:0:
448,192,108141,1,0,0:0:0:0:
320,192,108349,1,0,0:0:0:50:kick.wav
448,192,108349,1,0,0:0:0:0:
64,192,108349,1,0,0:0:0:0:
192,192,108557,1,0,0:0:0:50:kick.wav
320,192,108557,1,0,0:0:0:0:
448,192,108557,1,0,0:0:0:0:
320,192,108766,1,0,0:0:0:50:kick.wav
192,192,108766,1,0,0:0:0:0:
64,192,108766,128,0,109703:0:0:0:0:
448,192,108922,1,0,0:0:0:0:
192,192,109000,1,0,0:0:0:0:
448,192,109078,1,0,0:0:0:50:kick.wav
320,192,109078,1,0,0:0:0:0:
192,192,109234,1,0,0:0:0:0:
320,192,109312,1,0,0:0:0:0:
192,192,109391,1,0,0:0:0:50:kick.wav
448,192,109391,1,0,0:0:0:0:
320,192,109547,1,0,0:0:0:0:
448,192,109625,1,0,0:0:0:0:
320,192,109703,1,0,0:0:0:50:kick.wav
192,192,109703,1,0,0:0:0:0:
64,192,109859,1,0,0:0:0:0:
192,192,109937,1,0,0:0:0:0:
448,192,110016,128,0,110953:0:0:0:50:kick.wav
320,192,110016,1,0,0:0:0:40:crash.wav
64,192,110016,1,0,0:0:0:0:
192,192,110172,1,0,0:0:0:0:
320,192,110250,1,0,0:0:0:0:
192,192,110328,1,0,0:0:0:50:kick.wav
64,192,110328,1,0,0:0:0:0:
320,192,110484,1,0,0:0:0:0:
192,192,110562,1,0,0:0:0:0:
320,192,110641,1,0,0:0:0:50:kick.wav
64,192,110641,1,0,0:0:0:0:
192,192,110797,1,0,0:0:0:0:
64,192,110875,1,0,0:0:0:0:
192,192,110953,1,0,0:0:0:50:kick.wav
320,192,110953,1,0,0:0:0:0:
64,192,111109,1,0,0:0:0:0:
448,192,111187,1,0,0:0:0:0:
320,192,111266,128,0,112516:0:0:0:50:kick.wav
192,192,111266,1,0,0:0:0:40:crash.wav
64,192,111266,1,0,0:0:0:0:
192,192,111422,1,0,0:0:0:50:kick.wav
64,192,111422,1,0,0:0:0:0:
192,192,111578,1,0,0:0:0:50:kick.wav
64,192,111578,1,0,0:0:0:0:
192,192,111734,1,0,0:0:0:50:kick.wav
64,192,111734,1,0,0:0:0:0:
192,192,111891,128,0,112437:0:0:0:50:kick.wav
64,192,111891,1,0,0:0:0:40:crash.wav
448,192,111969,1,0,0:0:0:50:kick.wav
64,192,112047,1,0,0:0:0:50:kick.wav
448,192,112125,1,0,0:0:0:50:kick.wav
64,192,112203,1,0,0:0:0:50:kick.wav
448,192,112281,1,0,0:0:0:50:kick.wav
64,192,112359,1,0,0:0:0:50:kick.wav
448,192,112437,1,0,0:0:0:50:kick.wav
192,192,112516,1,0,0:0:0:50:kick.wav
64,192,112516,1,0,0:0:0:40:crash.wav
320,192,112594,1,0,0:0:0:0:
448,192,112672,1,0,0:0:0:0:
320,192,112750,1,0,0:0:0:0:
192,192,112828,1,0,0:0:0:0:
64,192,112906,1,0,0:0:0:0:
192,192,112984,1,0,0:0:0:0:
320,192,113062,1,0,0:0:0:0:
448,192,113141,1,0,0:0:0:50:kick.wav
64,192,113141,1,0,0:0:0:0:
192,192,113219,1,0,0:0:0:0:
448,192,113297,1,0,0:0:0:40:snare.wav
64,192,113297,1,0,0:0:0:0:
320,192,113375,1,0,0:0:0:0:
192,192,113453,1,0,0:0:0:50:kick.wav
64,192,113453,1,0,0:0:0:40:crash.wav
448,192,113453,1,0,0:0:0:0:
192,192,113766,128,0,114000:0:0:0:50:kick.wav
64,192,113766,128,0,114000:0:0:0:0:
448,192,113766,1,0,0:0:0:0:
192,192,114078,128,0,114391:0:0:0:50:kick.wav
64,192,114078,128,0,114391:0:0:0:0:
448,192,114078,1,0,0:0:0:0:
320,192,114391,1,0,0:0:0:50:kick.wav
448,192,114391,1,0,0:0:0:0:
192,192,114469,1,0,0:0:0:0:
320,192,114547,1,0,0:0:0:0:
64,192,114625,1,0,0:0:0:0:
192,192,114703,1,0,0:0:0:50:kick.wav
448,192,114703,1,0,0:0:0:0:
320,192,114859,1,0,0:0:0:0:
64,192,115016,1,0,0:0:0:50:kick.wav
448,192,115016,128,0,115328:0:0:0:0:
192,192,115328,1,0,0:0:0:50:kick.wav
64,192,115328,1,0,0:0:0:0:
320,192,115406,1,0,0:0:0:0:
64,192,115484,1,0,0:0:0:0:
192,192,115562,1,0,0:0:0:0:
320,192,115641,1,0,0:0:0:50:kick.wav
448,192,115641,1,0,0:0:0:0:
192,192,115719,1,0,0:0:0:0:
448,192,115797,1,0,0:0:0:0:
320,192,115875,1,0,0:0:0:0:
192,192,115953,1,0,0:0:0:50:kick.wav
64,192,115953,128,0,116266:0:0:0:0:
320,192,116266,128,0,116500:0:0:0:50:kick.wav
448,192,116266,128,0,116500:0:0:0:0:
192,192,116266,1,0,0:0:0:0:
448,192,116578,128,0,116891:0:0:0:50:kick.wav
64,192,116578,1,0,0:0:0:0:
320,192,116578,128,0,116891:0:0:0:0:
192,192,116891,1,0,0:0:0:50:kick.wav
64,192,116891,1,0,0:0:0:0:
320,192,116969,1,0,0:0:0:0:
192,192,117047,1,0,0:0:0:0:
448,192,117125,1,0,0:0:0:0:
64,192,117203,1,0,0:0:0:50:kick.wav
320,192,117203,1,0,0:0:0:0:
192,192,117359,1,0,0:0:0:0:
64,192,117516,128,0,117828:0:0:0:50:kick.wav
448,192,117516,1,0,0:0:0:0:
448,192,117828,1,0,0:0:0:50:kick.wav
320,192,117828,1,0,0:0:0:0:
192,192,117906,1,0,0:0:0:0:
448,192,117984,1,0,0:0:0:0:
320,192,118062,1,0,0:0:0:0:
192,192,118141,1,0,0:0:0:50:kick.wav
64,192,118141,1,0,0:0:0:0:
320,192,118219,1,0,0:0:0:0:
64,192,118297,1,0,0:0:0:0:
192,192,118375,1,0,0:0:0:0:
320,192,118453,1,0,0:0:0:50:kick.wav
448,192,118453,1,0,0:0:0:0:
64,192,118531,1,0,0:0:0:0:
448,192,118609,1,0,0:0:0:0:
192,192,118687,1,0,0:0:0:0:
64,192,118766,1,0,0:0:0:50:kick.wav
320,192,118766,128,0,119391:0:0:0:40:crash.wav
448,192,118766,1,0,0:0:0:0:
192,192,118922,1,0,0:0:0:0:
64,192,119000,1,0,0:0:0:0:
192,192,119078,1,0,0:0:0:50:kick.wav
448,192,119078,1,0,0:0:0:0:
64,192,119156,1,0,0:0:0:0:
448,192,119234,1,0,0:0:0:0:
192,192,119312,1,0,0:0:0:0:
64,192,119391,1,0,0:0:0:50:kick.wav
448,192,119391,1,0,0:0:0:0:
192,192,119469,1,0,0:0:0:0:
320,192,119547,1,0,0:0:0:0:
448,192,119625,1,0,0:0:0:0:
192,192,119703,1,0,0:0:0:50:kick.wav
64,192,119703,1,0,0:0:0:0:
320,192,119781,1,0,0:0:0:0:
64,192,119859,1,0,0:0:0:0:
320,192,120016,1,0,0:0:0:50:kick.wav
448,192,120016,1,0,0:0:0:40:crash.wav
192,192,120016,128,0,120328:0:0:0:0:
320,192,120328,1,0,0:0:0:50:kick.wav
448,192,120328,1,0,0:0:0:0:
64,192,120406,1,0,0:0:0:0:
320,192,120484,1,0,0:0:0:0:
192,192,120562,1,0,0:0:0:0:
64,192,120641,1,0,0:0:0:50:kick.wav
320,192,120641,1,0,0:0:0:0:
448,192,120719,1,0,0:0:0:0:
192,192,120797,1,0,0:0:0:0:
320,192,120875,1,0,0:0:0:0:
192,192,120953,1,0,0:0:0:50:kick.wav
64,192,120953,128,0,121266:0:0:0:0:
192,192,121266,1,0,0:0:0:40:crash.wav
448,192,121266,1,0,0:0:0:0:
320,192,121266,1,0,0:0:0:0:
320,192,121422,1,0,0:0:0:0:
192,192,121500,1,0,0:0:0:0:
448,192,121578,1,0,0:0:0:50:kick.wav
64,192,121578,1,0,0:0:0:0:
320,192,121656,1,0,0:0:0:0:
64,192,121734,1,0,0:0:0:0:
192,192,121786,1,0,0:0:0:0:
320,192,121838,1,0,0:0:0:0:
448,192,121891,1,0,0:0:0:40:crash.wav
192,192,121891,1,0,0:0:0:0:
64,192,121891,1,0,0:0:0:0:
192,192,122047,1,0,0:0:0:0:
320,192,122125,1,0,0:0:0:0:
448,192,122203,1,0,0:0:0:50:kick.wav
64,192,122203,1,0,0:0:0:0:
192,192,122281,1,0,0:0:0:0:
448,192,122359,1,0,0:0:0:0:
320,192,122411,1,0,0:0:0:0:
192,192,122463,1,0,0:0:0:0:
64,192,122516,1,0,0:0:0:40:crash.wav
320,192,122516,1,0,0:0:0:0:
448,192,122516,1,0,0:0:0:0:
448,192,122672,1,0,0:0:0:0:
320,192,122750,1,0,0:0:0:0:
192,192,122828,1,0,0:0:0:40:crash.wav
64,192,122828,1,0,0:0:0:0:
320,192,122984,1,0,0:0:0:40:crash.wav
448,192,122984,1,0,0:0:0:0:
192,192,123062,1,0,0:0:0:40:crash.wav
64,192,123062,1,0,0:0:0:0:
320,192,123141,1,0,0:0:0:40:crash.wav
448,192,123141,1,0,0:0:0:0:
320,192,123297,1,0,0:0:0:40:crash.wav
448,192,123297,1,0,0:0:0:0:
64,192,123297,1,0,0:0:0:0:
192,192,123453,1,0,0:0:0:40:snare.wav
448,192,123453,1,0,0:0:0:0:
320,192,123531,1,0,0:0:0:0:
192,192,123609,1,0,0:0:0:0:
64,192,123687,1,0,0:0:0:0:
320,192,123766,1,0,0:0:0:40:crash.wav
448,192,123766,1,0,0:0:0:50:kick.wav
192,192,123766,1,0,0:0:0:0:
64,192,123844,1,0,0:0:0:0:
320,192,123922,1,0,0:0:0:0:
448,192,123922,1,0,0:0:0:0:
192,192,124000,1,0,0:0:0:0:
64,192,124078,1,0,0:0:0:40:snare.wav
448,192,124078,1,0,0:0:0:0:
320,192,124156,1,0,0:0:0:0:
192,192,124234,1,0,0:0:0:0:
64,192,124234,1,0,0:0:0:0:
448,192,124312,1,0,0:0:0:0:
320,192,124391,1,0,0:0:0:50:kick.wav
64,192,124391,1,0,0:0:0:0:
192,192,124469,1,0,0:0:0:0:
320,192,124547,1,0,0:0:0:0:
448,192,124547,1,0,0:0:0:0:
64,192,124625,1,0,0:0:0:0:
192,192,124703,1,0,0:0:0:40:snare.wav
320,192,124703,1,0,0:0:0:0:
448,192,124781,1,0,0:0:0:0:
192,192,124859,1,0,0:0:0:0:
64,192,124859,1,0,0:0:0:0:
320,192,124937,1,0,0:0:0:0:
64,192,125016,1,0,0:0:0:50:kick.wav
448,192,125016,1,0,0:0:0:0:
192,192,125094,1,0,0:0:0:0:
320,192,125172,1,0,0:0:0:0:
448,192,125172,1,0,0:0:0:0:
192,192,125250,1,0,0:0:0:0:
448,192,125328,1,0,0:0:0:40:snare.wav
64,192,125328,1,0,0:0:0:0:
320,192,125406,1,0,0:0:0:0:
192,192,125484,1,0,0:0:0:0:
64,192,125484,1,0,0:0:0:0:
448,192,125562,1,0,0:0:0:0:
320,192,125641,1,0,0:0:0:50:kick.wav
192,192,125641,1,0,0:0:0:0:
64,192,125719,1,0,0:0:0:0:
320,192,125797,1,0,0:0:0:0:
448,192,125797,1,0,0:0:0:0:
192,192,125875,1,0,0:0:0:0:
64,192,125953,1,0,0:0:0:40:snare.wav
320,192,125953,1,0,0:0:0:0:
448,192,126031,1,0,0:0:0:0:
192,192,126109,1,0,0:0:0:0:
64,192,126109,1,0,0:0:0:0:
320,192,126187,1,0,0:0:0:0:
192,192,126266,1,0,0:0:0:40:crash.wav
64,192,126266,1,0,0:0:0:50:kick.wav
448,192,126266,1,0,0:0:0:0:
320,192,126422,1,0,0:0:0:0:
448,192,126422,1,0,0:0:0:0:
192,192,126500,1,0,0:0:0:0:
64,192,126578,1,0,0:0:0:40:snare.wav
448,192,126578,1,0,0:0:0:0:
320,192,126734,1,0,0:0:0:40:crash.wav
448,192,126734,1,0,0:0:0:50:kick.wav
64,192,126734,1,0,0:0:0:0:
192,192,126891,1,0,0:0:0:0:
320,192,126969,1,0,0:0:0:0:
448,192,127047,1,0,0:0:0:40:crash.wav
64,192,127047,1,0,0:0:0:40:snare.wav
192,192,127047,1,0,0:0:0:0:
320,192,127203,1,0,0:0:0:40:crash.wav
448,192,127203,1,0,0:0:0:50:kick.wav
192,192,127359,1,0,0:0:0:50:kick.wav
64,192,127359,1,0,0:0:0:0:
320,192,127437,1,0,0:0:0:50:kick.wav
448,192,127437,1,0,0:0:0:0:
192,192,127516,1,0,0:0:0:50:kick.wav
64,192,127516,1,0,0:0:0:0:
320,192,127724,1,0,0:0:0:50:kick.wav
192,192,127724,1,0,0:0:0:0:
64,192,127724,1,0,0:0:0:0:
192,192,127932,1,0,0:0:0:50:kick.wav
320,192,127932,1,0,0:0:0:0:
448,192,127932,1,0,0:0:0:0:
320,192,128141,1,0,0:0:0:50:kick.wav
448,192,128141,1,0,0:0:0:0:
64,192,128141,1,0,0:0:0:0:
192,192,128349,1,0,0:0:0:50:kick.wav
64,192,128349,1,0,0:0:0:0:
448,192,128349,1,0,0:0:0:0:
320,192,128557,1,0,0:0:0:50:kick.wav
192,192,128557,1,0,0:0:0:0:
64,192,128557,1,0,0:0:0:0:
320,192,128766,1,0,0:0:0:50:kick.wav
448,192,128766,128,0,129703:0:0:0:0:
192,192,128766,1,0,0:0:0:0:
64,192,128922,1,0,0:0:0:0:
320,192,129000,1,0,0:0:0:0:
64,192,129078,1,0,0:0:0:50:kick.wav
192,192,129078,1,0,0:0:0:0:
320,192,129234,1,0,0:0:0:0:
192,192,129312,1,0,0:0:0:0:
64,192,129391,1,0,0:0:0:50:kick.wav
320,192,129391,1,0,0:0:0:0:
192,192,129547,1,0,0:0:0:0:
64,192,129625,1,0,0:0:0:0:
192,192,129703,1,0,0:0:0:50:kick.wav
320,192,129703,1,0,0:0:0:0:
448,192,129859,1,0,0:0:0:0:
320,192,129937,1,0,0:0:0:0:
192,192,130016,1,0,0:0:0:40:crash.wav
448,192,130016,1,0,0:0:0:50:kick.wav
64,192,130016,128,0,130953:0:0:0:0:
320,192,130172,1,0,0:0:0:0:
192,192,130250,1,0,0:0:0:0:
320,192,130328,1,0,0:0:0:50:kick.wav
448,192,130328,1,0,0:0:0:0:
192,192,130484,1,0,0:0:0:0:
320,192,130562,1,0,0:0:0:0:
192,192,130641,1,0,0:0:0:50:kick.wav
448,192,130641,1,0,0:0:0:0:
320,192,130797,1,0,0:0:0:0:
448,192,130875,1,0,0:0:0:0:
192,192,130953,1,0,0:0:0:50:kick.wav
320,192,130953,1,0,0:0:0:0:
64,192,131109,1,0,0:0:0:0:
192,192,131187,1,0,0:0:0:0:
448,192,131266,1,0,0:0:0:50:kick.wav
64,192,131266,128,0,132516:0:0:0:0:
320,192,131266,1,0,0:0:0:0:
320,192,131422,1,0,0:0:0:50:kick.wav
448,192,131422,1,0,0:0:0:0:
448,192,131578,1,0,0:0:0:50:kick.wav
320,192,131578,1,0,0:0:0:0:
320,192,131734,1,0,0:0:0:50:kick.wav
448,192,131734,1,0,0:0:0:0:
448,192,131891,128,0,132437:0:0:0:50:kick.wav
320,192,131891,1,0,0:0:0:0:
192,192,131969,1,0,0:0:0:50:kick.wav
320,192,132047,1,0,0:0:0:50:kick.wav
192,192,132125,1,0,0:0:0:50:kick.wav
320,192,132203,1,0,0:0:0:50:kick.wav
192,192,132281,1,0,0:0:0:50:kick.wav
320,192,132359,1,0,0:0:0:50:kick.wav
192,192,132437,1,0,0:0:0:50:kick.wav
448,192,132516,1,0,0:0:0:50:kick.wav
320,192,132516,1,0,0:0:0:0:
192,192,132594,1,0,0:0:0:0:
448,192,132672,1,0,0:0:0:0:
64,192,132750,1,0,0:0:0:0:
320,192,132828,1,0,0:0:0:0:
448,192,132906,1,0,0:0:0:0:
192,192,132984,1,0,0:0:0:0:
320,192,133062,1,0,0:0:0:0:
192,192,133141,1,0,0:0:0:50:kick.wav
64,192,133141,1,0,0:0:0:0:
320,192,133219,1,0,0:0:0:0:
192,192,133297,1,0,0:0:0:50:kick.wav
64,192,133297,1,0,0:0:0:0:
448,192,133375,1,0,0:0:0:0:
320,192,133453,1,0,0:0:0:50:kick.wav
192,192,133453,1,0,0:0:0:0:
64,192,133453,1,0,0:0:0:0:
448,192,133766,1,0,0:0:0:0:
320,192,133818,1,0,0:0:0:0:
64,192,133870,1,0,0:0:0:0:
192,192,133922,1,0,0:0:0:0:
320,192,133974,1,0,0:0:0:0:
192,192,134078,128,0,136578:0:0:0:40:crash.wav
448,192,134078,128,0,136578:0:0:0:50:kick.wav
320,192,134078,128,0,136578:0:0:0:0:
64,192,134078,128,0,136578:0:0:0:0:
