osu file format v14

[General]
AudioFilename: Dreadnought1.mp3
AudioLeadIn: 0
PreviewTime: 93141
Countdown: 0
SampleSet: Soft
StackLeniency: 0.3
Mode: 0
LetterboxInBreaks: 0
WidescreenStoryboard: 0

[Editor]
Bookmarks: 13766,23766,33766,43766,53766,63766,73766,83766,90016,93766,104078,113766,123766,134078
DistanceSpacing: 0.8
BeatDivisor: 4
GridSize: 4
TimelineZoom: 1.8

[Metadata]
Title:Dreadnought
TitleUnicode:Dreadnought
Artist:Mastermind(xi+nora2r)
ArtistUnicode:Mastermind(xi+nora2r)
Creator:Cherry Blossom
Version:Normal
Source:BMS
Tags:bofu2015 of fighter ultimate Breakthrough sayaka- dialgadu77
BeatmapID:1368400
BeatmapSetID:361306

[Difficulty]
HPDrainRate:3
CircleSize:3
OverallDifficulty:4
ApproachRate:5
SliderMultiplier:1
SliderTickRate:1

[Events]
//Background and Video events
0,0,"dreadnought.jpg",0,0
//Break Periods
2,53966,57566
2,91778,92566
//Storyboard Layer 0 (Background)
//Storyboard Layer 1 (Fail)
//Storyboard Layer 2 (Pass)
//Storyboard Layer 3 (Foreground)
//Storyboard Sound Samples

[TimingPoints]
1266,312.5,4,2,0,70,1,0
1266,-125,4,2,0,70,0,0
1344,-125,4,2,0,30,0,0
6266,-125,4,2,0,50,0,0
6344,-125,4,2,2,20,0,0
7516,-125,4,2,0,30,0,0
7594,-125,4,2,2,30,0,0
8766,-125,4,2,2,60,0,0
10094,-125,4,2,0,60,0,0
12516,-125,4,2,0,30,0,0
13141,-100,4,2,0,60,0,0
13844,-100,4,2,0,60,0,0
16266,-100,4,2,2,60,0,0
16344,-100,4,2,0,60,0,0
18766,-100,4,2,2,60,0,0
22516,-100,4,2,0,60,0,0
23766,-100,4,2,2,60,0,0
23844,-100,4,2,0,60,0,0
27516,-100,4,2,97,70,0,0
28531,-100,4,2,97,60,0,0
28766,-100,4,2,2,60,0,0
32516,-100,4,2,97,80,0,0
33453,-100,4,2,2,60,0,0
33766,-100,4,2,2,60,0,0
38766,-100,4,2,3,60,0,0
41266,-100,4,2,2,60,0,0
53766,-166.666666666667,4,2,99,100,0,0
53844,-166.666666666667,4,2,0,45,0,0
72516,-100,4,2,0,60,0,0
73141,-100,4,2,2,60,0,0
73844,-100,4,2,0,60,0,0
76266,-100,4,2,2,60,0,0
76344,-100,4,2,0,60,0,0
78766,-100,4,2,2,60,0,0
78844,-100,4,2,0,60,0,0
80016,-100,4,2,2,60,0,0
80094,-100,4,2,0,60,0,0
81266,-100,4,2,2,60,0,0
81344,-100,4,2,0,60,0,0
81891,-100,4,2,2,60,0,0
81969,-100,4,2,0,60,0,0
83766,-166.666666666667,4,2,2,60,0,0
83844,-166.666666666667,4,2,97,30,0,0
84391,-166.666666666667,4,2,97,35,0,0
85016,-166.666666666667,4,2,97,40,0,0
85641,-166.666666666667,4,2,97,45,0,0
86266,-166.666666666667,4,2,97,50,0,0
86891,-166.666666666667,4,2,97,55,0,0
87516,-166.666666666667,4,2,97,60,0,0
88141,-166.666666666667,4,2,97,65,0,0
88766,-166.666666666667,4,2,97,70,0,0
91266,-100,4,2,98,100,0,0
91578,-100,4,2,2,60,0,0
91656,-100,4,2,0,60,0,0
93766,-90.9090909090909,4,2,4,80,0,1
104078,-90.9090909090909,4,2,4,80,0,1
108766,-90.9090909090909,4,2,2,80,0,1
111891,-90.9090909090909,4,2,97,80,0,1
112516,-90.9090909090909,4,2,0,70,0,1
113766,-100,4,2,2,60,0,0
118766,-100,4,2,2,70,0,0
121344,-100,4,2,0,70,0,0
121891,-100,4,2,2,70,0,0
121969,-100,4,2,0,70,0,0
122516,-100,4,2,2,70,0,0
123531,-100,4,2,0,70,0,0
123766,-90.9090909090909,4,2,4,80,0,1
128766,-90.9090909090909,4,2,2,80,0,1
131891,-90.9090909090909,4,2,97,80,0,1
132516,-90.9090909090909,4,2,0,80,0,1
133766,-90.9090909090909,4,2,98,100,0,0
133818,-90.9090909090909,4,2,0,60,0,0
134078,-90.9090909090909,4,2,2,80,0,0
134156,-100,4,2,0,60,0,0
136578,-100,4,2,0,30,0,0

[Colours]
Combo1 : 239,5,75
Combo2 : 100,238,232

[HitObjects]
180,112,1266,6,0,P|256:96|336:112,1,160,4|0,0:0|0:0,0:0:0:0:
332,272,2516,2,0,P|256:288|176:272,1,160,2|2,0:0|0:0,0:0:0:0:
104,240,3453,1,2,0:0:0:0:
148,172,3766,6,0,L|316:164,2,160,2|2|2,0:0|0:0|0:0,0:0:0:0:
100,324,5641,1,2,0:0:0:0:
256,356,6266,6,0,L|424:348,1,160,2|8,0:0|0:0,0:0:0:0:
480,200,7516,2,0,L|320:207,1,160,2|8,0:0|0:0,0:0:0:0:
208,96,8766,6,0,P|136:132|184:260,1,240,6|0,0:0|0:0,0:0:0:0:
256,280,10016,1,6,0:0:0:0:
256,192,10094,12,0,12516,0:0:0:0:
112,64,13766,6,0,P|160:56|216:64,1,100,6|0,0:0|0:0,0:0:0:0:
256,72,14234,2,0,P|328:92|400:72,1,150,2|2,0:0|0:0,0:0:0:0:
484,36,15016,1,0,0:0:0:0:
484,36,15172,2,0,L|476:192,1,150,2|2,0:0|0:0,0:0:0:0:
472,276,15953,1,2,0:0:0:0:
396,228,16266,6,0,B|344:220|344:220|296:228,1,100,6|2,0:0|0:0,0:0:0:0:
220,276,16891,1,0,0:0:0:0:
220,276,17047,2,0,B|173:283|173:283|121:275,1,100,2|0,0:0|0:0,0:0:0:0:
80,260,17516,2,0,L|84:100,1,150,2|2,0:0|0:0,0:0:0:0:
140,40,18297,2,0,P|188:32|240:40,1,100,2|2,0:0|0:0,0:0:0:0:
280,56,18766,6,0,P|328:64|380:56,1,100,6|8,0:0|0:0,0:0:0:0:
464,36,19391,2,0,L|460:140,1,100,8|8,0:0|0:0,0:0:0:0:
456,224,20016,2,0,B|408:232|408:232|356:224,1,100,6|8,0:0|0:0,0:0:0:0:
304,152,20641,2,0,B|256:144|256:144|204:152,1,100,8|8,0:0|0:0,0:0:0:0:
144,220,21266,5,6,0:0:0:0:
60,184,21578,1,8,0:0:0:0:
72,96,21891,1,6,0:0:0:0:
160,76,22203,1,8,0:0:0:0:
205,151,22516,2,0,B|257:159|257:159|313:151,1,100,2|2,0:0|0:0,0:0:0:0:
392,136,23141,2,0,B|400:176|380:196|392:236,1,100,2|2,0:0|0:0,0:0:0:0:
440,312,23766,6,0,P|348:320|300:236,1,200,6|2,0:0|0:0,0:0:0:0:
256,156,24703,1,2,0:0:0:0:
211,235,25016,2,0,P|166:318|72:312,1,200,4|2,0:0|0:0,0:0:0:0:
120,236,25953,1,2,0:0:0:0:
24,232,26266,6,0,P|80:154|175:160,1,200,4|6,0:0|0:0,0:0:0:0:
256,200,27203,1,2,0:0:0:0:
336,160,27516,2,0,B|388:152|388:152|436:160,1,100,12|8,0:0|0:0,0:0:0:0:
492,228,28141,2,0,L|484:332,1,100,12|12,0:0|0:0,0:0:0:0:
400,356,28766,6,0,L|296:348,1,100,6|6,0:0|0:0,0:0:0:0:
212,324,29391,2,0,P|200:272|212:228,1,100,6|6,0:0|0:0,0:0:0:0:
300,204,30016,2,0,P|312:152|300:108,1,100,6|6,0:0|0:0,0:0:0:0:
212,84,30641,2,0,L|112:80,1,100,6|6,0:0|0:0,0:0:0:0:
40,132,31266,6,0,P|24:236|268:308,1,400,4|12,0:0|0:0,0:0:0:0:
256,48,33453,1,12,0:0:0:0:
208,124,33766,6,0,P|256:136|308:124,1,100,2|2,0:0|0:0,0:0:0:0:
368,64,34391,2,0,P|416:53|464:65,1,100,2|2,0:0|0:0,0:0:0:0:
508,144,35016,2,0,L|500:256,1,100,2|2,0:0|0:0,0:0:0:0:
460,324,35641,1,2,0:0:0:0:
384,272,35953,1,2,0:0:0:0:
308,320,36266,6,0,L|204:312,1,100,2|2,0:0|0:0,0:0:0:0:
136,260,36891,2,0,B|128:208|128:208|140:160,1,100,2|2,0:0|0:0,0:0:0:0:
160,76,37516,2,0,B|256:104|256:104|356:76,1,200,2|2,0:0|0:0,0:0:0:0:
432,32,38453,1,2,0:0:0:0:
496,100,38766,6,0,L|488:200,1,100,6|10,0:0|0:0,0:0:0:0:
428,268,39391,2,0,P|380:276|328:264,1,100,2|10,0:0|0:0,0:0:0:0:
256,212,40016,2,0,L|256:108,2,100,2|10|2,0:0|0:0|0:0,0:0:0:0:
184,264,40953,1,10,0:0:0:0:
92,260,41266,6,0,P|60:168|92:72,1,200,6|6,0:0|0:0,0:0:0:0:
176,40,42203,1,10,0:0:0:0:
256,80,42516,2,0,L|356:72,1,100,6|2,0:0|0:0,0:0:0:0:
444,92,43141,2,0,P|452:144|444:192,1,100,2|10,0:0|0:0,0:0:0:0:
420,276,43766,6,0,L|312:268,1,100,6|2,0:0|0:0,0:0:0:0:
256,208,44391,2,0,L|140:216,1,100,2|2,0:0|0:0,0:0:0:0:
80,264,45016,2,0,P|68:216|80:164,1,100,2|2,0:0|0:0,0:0:0:0:
108,80,45641,2,0,L|212:76,1,100,2|2,0:0|0:0,0:0:0:0:
256,152,46266,5,2,0:0:0:0:
304,76,46578,2,0,L|408:76,1,100,2|2,0:0|0:0,0:0:0:0:
484,120,47203,1,2,0:0:0:0:
408,168,47516,2,0,P|396:216|408:268,1,100,2|2,0:0|0:0,0:0:0:0:
436,348,48141,2,0,L|324:344,1,100,2|2,0:0|0:0,0:0:0:0:
256,300,48766,5,6,0:0:0:0:
176,344,49078,2,0,P|120:340|72:300,1,100,10|2,0:0|0:0,0:0:0:0:
28,244,49703,1,10,0:0:0:0:
92,184,50016,2,0,L|204:176,1,100,6|10,0:0|0:0,0:0:0:0:
256,240,50641,2,0,L|368:228,1,100,6|10,0:0|0:0,0:0:0:0:
444,220,51266,6,0,P|452:168|444:120,1,100,6|6,0:0|0:0,0:0:0:0:
416,36,51891,1,6,0:0:0:0:
344,92,52203,1,6,0:0:0:0:
256,80,52516,2,0,P|176:56|28:192,1,300,6|10,0:0|0:0,0:0:0:0:
36,272,53766,5,6,0:0:0:0:
256,192,58766,12,2,62516,0:0:0:0:
256,68,63766,6,0,B|184:-8|44:44|56:204|128:256|184:168|216:300|216:300,1,419.999987182618,6|0,0:0|0:0,0:0:0:0:
256,360,66266,6,0,B|276:280|335:163|408:252|480:196|432:-36|276:0|252:72|252:72,1,479.999985351563,2|2,0:0|0:0,0:0:0:0:
256,192,68844,12,2,72516,0:0:0:0:
160,56,73766,6,0,B|256:36|256:36|360:56,1,200,6|2,0:0|0:0,0:0:0:0:
444,80,74703,1,2,0:0:0:0:
380,144,75016,2,0,L|376:252,1,100,6|2,0:0|0:0,0:0:0:0:
308,304,75641,2,0,P|256:312|204:304,1,100,2|2,0:0|0:0,0:0:0:0:
136,243,76266,6,0,P|108:148|136:52,1,200,6|2,0:0|0:0,0:0:0:0:
220,20,77203,1,2,0:0:0:0:
292,76,77516,2,0,B|344:84|344:84|392:76,1,100,6|2,0:0|0:0,0:0:0:0:
476,40,78141,2,0,L|472:148,1,100,2|2,0:0|0:0,0:0:0:0:
468,228,78766,6,0,P|368:212|300:276,1,200,6|2,0:0|0:0,0:0:0:0:
256,352,79703,1,2,0:0:0:0:
211,274,80016,2,0,P|139:210|44:228,1,200,6|2,0:0|0:0,0:0:0:0:
0,308,80953,1,2,0:0:0:0:
72,364,81266,2,0,L|176:356,1,100,6|2,0:0|0:0,0:0:0:0:
211,274,81891,2,0,L|319:266,1,100,6|2,0:0|0:0,0:0:0:0:
368,336,82516,6,0,L|472:328,1,100,2|2,0:0|0:0,0:0:0:0:
508,248,83141,2,0,B|516:196|516:196|508:148,1,100,2|2,0:0|0:0,0:0:0:0:
480,64,83766,6,0,B|416:96|352:92|296:28|296:28|332:84|332:144|296:184|296:184|360:172|424:204|412:316|352:332|276:332|256:264|256:264|236:332|160:332|100:316|88:200|156:172|216:184|216:184|180:144|180:84|216:28|216:28|160:92|96:88|24:64,1,1379.99995788574,6|8,0:0|0:0,0:0:0:0:
4,148,91266,6,2,L|20:252,1,100,2|6,0:0|0:0,0:0:0:0:
15,242,93766,6,0,B|68:252|68:252|128:240,1,110.000003356934,12|10,0:0|0:0,0:0:0:0:
200,200,94391,2,0,B|254:189|254:189|307:199,1,110.000003356934,8|8,0:0|0:0,0:0:0:0:
388,240,95016,2,0,L|400:360,2,110.000003356934,10|10|8,0:0|0:0|0:0,0:0:0:0:
392,152,95953,1,10,0:0:0:0:
444,80,96266,6,0,P|392:64|340:80,1,110.000003356934,10|10,0:0|0:0,0:0:0:0:
256,100,96891,2,0,P|204:115|152:99,1,110.000003356934,8|8,0:0|0:0,0:0:0:0:
72,60,97516,2,0,L|64:176,1,110.000003356934,10|10,0:0|0:0,0:0:0:0:
60,256,98141,2,0,B|116:244|116:244|168:256,1,110.000003356934,10|10,0:0|0:0,0:0:0:0:
256,268,98766,6,0,L|256:384,2,110.000003356934,12|10|8,0:0|0:0|0:0,0:0:0:0:
256,180,99703,1,8,0:0:0:0:
336,220,100016,2,0,P|388:232|444:220,1,110.000003356934,10|10,0:0|0:0,0:0:0:0:
504,156,100641,2,0,L|512:44,1,110.000003356934,10|10,0:0|0:0,0:0:0:0:
424,28,101266,6,0,L|416:137,1,110.000003356934,12|10,0:0|0:0,0:0:0:0:
442,220,101891,2,0,B|378:272|378:272|318:220|318:220|256:272|256:272|192:220|192:220|122:272|122:272|58:220,1,495.000015106202,12|12,0:0|0:0,0:0:0:0:
24,140,103609,2,0,P|12:84|24:28,1,110.000003356934,2|0,0:0|0:0,0:0:0:0:
64,24,104078,6,0,L|180:32,1,110.000003356934,12|8,0:0|0:0,0:0:0:0:
256,60,104703,1,8,0:0:0:0:
336,96,105016,2,0,L|460:92,1,110.000003356934,10|10,0:0|0:0,0:0:0:0:
504,160,105641,2,0,L|496:272,1,110.000003356934,10|10,0:0|0:0,0:0:0:0:
448,344,106266,6,0,P|400:360|344:344,1,110.000003356934,12|10,0:0|0:0,0:0:0:0:
308,320,106734,2,0,P|256:308|200:320,1,110.000003356934,12|12,0:0|0:0,0:0:0:0:
116,348,107359,1,2,0:0:0:0:
116,348,107516,2,0,B|68:288|68:288|116:240|116:240|64:184|64:184|116:136|116:136|64:84|64:84|116:28,1,440.000013427735,12|6,0:0|0:0,0:0:0:0:
256,172,109703,5,10,0:0:0:0:
196,236,110016,2,0,L|68:224,2,110.000003356934,6|10|2,0:0|0:0|0:0,0:0:0:0:
256,300,110953,1,10,0:0:0:0:
320,240,111266,6,0,L|436:228,1,110.000003356934,6|2,0:0|0:0,0:0:0:0:
488,164,111891,2,0,P|496:112|484:56,1,110.000003356934,8|8,0:0|0:0,0:0:0:0:
400,28,112516,2,0,B|320:32|256:88|256:88|188:32|100:24,1,330.000010070801,6|6,0:0|0:0,0:0:0:0:
28,76,113766,6,0,L|32:180,1,100,2|2,0:0|0:0,0:0:0:0:
40,264,114391,2,0,B|88:272|88:272|140:264,1,100,2|2,0:0|0:0,0:0:0:0:
200,196,115016,2,0,L|212:92,1,100,2|2,0:0|0:0,0:0:0:0:
300,96,115641,2,0,L|312:196,1,100,2|2,0:0|0:0,0:0:0:0:
373,264,116266,6,0,B|424:272|424:272|472:264,2,100,2|2|2,0:0|0:0|0:0,0:0:0:0:
284,276,117203,1,2,0:0:0:0:
196,296,117516,2,0,L|84:288,1,100,2|2,0:0|0:0,0:0:0:0:
32,228,118141,2,0,L|28:120,1,100,2|2,0:0|0:0,0:0:0:0:
60,44,118766,6,0,P|112:36|164:44,1,100,6|10,0:0|0:0,0:0:0:0:
212,116,119391,1,2,0:0:0:0:
300,116,119703,1,10,0:0:0:0:
353,42,120016,2,0,P|402:36|452:44,1,100,6|10,0:0|0:0,0:0:0:0:
508,116,120641,2,0,L|500:224,1,100,2|10,0:0|0:0,0:0:0:0:
456,296,121266,6,0,P|412:308|360:296,1,100,6|2,0:0|0:0,0:0:0:0:
304,228,121891,2,0,L|312:128,1,100,6|2,0:0|0:0,0:0:0:0:
300,40,122516,1,6,0:0:0:0:
212,40,122828,1,6,0:0:0:0:
200,128,123141,2,0,L|208:228,1,100,6|10,0:0|0:0,0:0:0:0:
152,295,123766,6,0,P|104:308|48:292,1,110.000003356934,12|10,0:0|0:0,0:0:0:0:
16,208,124391,2,0,L|32:96,1,110.000003356934,8|8,0:0|0:0,0:0:0:0:
60,16,125016,1,10,0:0:0:0:
120,80,125328,1,10,0:0:0:0:
200,40,125641,2,0,B|256:32|256:32|316:40,1,110.000003356934,10|10,0:0|0:0,0:0:0:0:
392,80,126266,6,0,L|400:204,1,110.000003356934,12|10,0:0|0:0,0:0:0:0:
404,232,126734,2,0,P|352:244|296:232,1,110.000003356934,12|12,0:0|0:0,0:0:0:0:
216,200,127359,1,2,0:0:0:0:
216,200,127516,2,0,B|160:156|160:156|88:156|88:156|36:212|36:212|36:284|36:284|88:336|88:336|168:336,1,440.000013427735,12|12,0:0|0:0,0:0:0:0:
424,324,129703,5,10,0:0:0:0:
388,244,130016,2,0,L|396:120,2,110.000003356934,6|10|2,0:0|0:0|0:0,0:0:0:0:
312,288,130953,1,10,0:0:0:0:
256,220,131266,2,0,L|256:100,2,110.000003356934,6|2|8,0:0|0:0|0:0,0:0:0:0:
200,288,132203,1,8,0:0:0:0:
124,244,132516,6,0,L|96:20,2,220.000006713867,6|6|2,0:0|0:0|0:0,0:0:0:0:
88,324,134078,1,6,0:0:0:0:
256,192,134156,12,0,136578,0:0:0:0:
