osu file format v14

[General]
AudioFilename: Dreadnought1.mp3
AudioLeadIn: 0
PreviewTime: 93141
Countdown: 0
SampleSet: Normal
StackLeniency: 0.3
Mode: 1
LetterboxInBreaks: 0
WidescreenStoryboard: 0

[Editor]
Bookmarks: 13766,23766,33766,43766,53766,63766,73766,83766,90016,93766,104078,113766,123766,134078
DistanceSpacing: 1.2
BeatDivisor: 4
GridSize: 32
TimelineZoom: 2.499999

[Metadata]
Title:Dreadnought
TitleUnicode:Dreadnought
Artist:Mastermind(xi+nora2r)
ArtistUnicode:Mastermind(xi+nora2r)
Creator:Cherry Blossom
Version:Inner Oni
Source:BMS
Tags:bofu2015 of fighter ultimate Breakthrough sayaka- dialgadu77
BeatmapID:795198
BeatmapSetID:361306

[Difficulty]
HPDrainRate:6
CircleSize:4
OverallDifficulty:6
ApproachRate:9.3
SliderMultiplier:1.4
SliderTickRate:1

[Events]
//Background and Video events
0,0,"dreadnought.jpg",0,0
//Break Periods
//Storyboard Layer 0 (Background)
//Storyboard Layer 1 (Fail)
//Storyboard Layer 2 (Pass)
//Storyboard Layer 3 (Foreground)
//Storyboard Sound Samples

[TimingPoints]
1266,312.5,4,1,0,75,1,0
1266,-200,4,1,0,75,0,0
6187,-133.333333333333,4,1,0,75,0,0
8687,-114.285714285714,4,1,0,75,0,0
12516,-100,4,1,0,100,0,0
53922,-200,4,1,0,100,0,0
71930,-192.307692307692,4,1,0,100,0,0
72008,-185.185185185185,4,1,0,100,0,0
72086,-178.571428571429,4,1,0,100,0,0
72164,-172.413793103448,4,1,0,100,0,0
72242,-166.666666666667,4,1,0,100,0,0
72320,-161.290322580645,4,1,0,100,0,0
72398,-156.25,4,1,0,100,0,0
72476,-151.515151515152,4,1,0,100,0,0
72555,-147.058823529412,4,1,0,100,0,0
72633,-142.857142857143,4,1,0,100,0,0
72711,-138.888888888889,4,1,0,100,0,0
72789,-135.135135135135,4,1,0,100,0,0
72867,-131.578947368421,4,1,0,100,0,0
72945,-128.205128205128,4,1,0,100,0,0
73023,-125,4,1,0,100,0,0
73101,-121.951219512195,4,1,0,100,0,0
73180,-119.047619047619,4,1,0,100,0,0
73258,-116.279069767442,4,1,0,100,0,0
73375,-111.111111111111,4,1,0,100,0,0
73687,-100,4,1,0,100,0,0
84937,-66.6666666666667,4,1,0,100,0,0
86187,-50,4,1,0,100,0,0
87437,-40,4,1,0,100,0,0
88687,-33.3333333333333,4,1,0,100,0,0
89937,-28.5714285714286,4,1,0,100,0,0
91187,-25,4,1,0,100,0,0
91344,-100,4,1,0,100,0,0
93766,-100,4,1,0,100,0,1
103766,-100,4,1,0,100,0,0
104078,-100,4,1,0,100,0,1
113766,-100,4,1,0,100,0,0
123766,-100,4,1,0,100,0,1
133766,-100,4,1,0,100,0,0
134078,-100,4,1,0,100,0,1
136578,-100,4,1,0,100,0,0

[Colours]
Combo1 : 239,5,75
Combo2 : 100,238,232

[HitObjects]
256,192,1266,5,4,0:0:0:0:
256,192,2516,1,8,0:0:0:0:
256,192,3141,1,0,0:0:0:0:
256,192,3453,1,0,0:0:0:0:
256,192,3766,1,8,0:0:0:0:
256,192,4391,1,8,0:0:0:0:
256,192,5016,1,0,0:0:0:0:
256,192,5641,1,8,0:0:0:0:
256,192,5953,1,8,0:0:0:0:
256,192,6031,1,8,0:0:0:0:
256,192,6109,1,8,0:0:0:0:
256,192,6266,1,4,0:0:0:0:
256,192,6734,1,0,0:0:0:0:
256,192,6891,1,0,0:0:0:0:
256,192,7516,1,8,0:0:0:0:
256,192,7984,1,0,0:0:0:0:
256,192,8141,1,8,0:0:0:0:
256,192,8609,1,0,0:0:0:0:
256,192,8766,1,4,0:0:0:0:
256,192,9000,1,8,0:0:0:0:
256,192,9234,1,0,0:0:0:0:
256,192,9391,1,8,0:0:0:0:
256,192,9469,1,8,0:0:0:0:
256,192,9547,1,0,0:0:0:0:
256,192,9625,1,0,0:0:0:0:
256,192,9703,1,8,0:0:0:0:
256,192,9755,1,8,0:0:0:0:
256,192,9807,1,8,0:0:0:0:
256,192,9859,1,8,0:0:0:0:
256,192,9937,1,8,0:0:0:0:
256,192,10016,1,0,0:0:0:0:
256,192,11266,1,8,0:0:0:0:
256,192,13141,1,0,0:0:0:0:
256,192,13297,1,0,0:0:0:0:
256,192,13375,1,0,0:0:0:0:
256,192,13453,1,8,0:0:0:0:
256,192,13531,1,0,0:0:0:0:
256,192,13609,1,8,0:0:0:0:
256,192,13687,1,8,0:0:0:0:
256,192,13766,1,0,0:0:0:0:
256,192,14234,1,0,0:0:0:0:
256,192,14703,1,0,0:0:0:0:
256,192,15172,1,8,0:0:0:0:
256,192,15641,1,0,0:0:0:0:
256,192,15953,1,8,0:0:0:0:
256,192,16266,1,4,0:0:0:0:
256,192,16578,1,8,0:0:0:0:
256,192,17047,1,0,0:0:0:0:
256,192,17516,1,8,0:0:0:0:
256,192,17984,1,8,0:0:0:0:
256,192,18297,1,0,0:0:0:0:
256,192,18453,1,0,0:0:0:0:
256,192,18531,1,0,0:0:0:0:
256,192,18609,1,8,0:0:0:0:
256,192,18766,1,4,0:0:0:0:
256,192,18922,1,0,0:0:0:0:
256,192,19000,1,0,0:0:0:0:
256,192,19078,1,8,0:0:0:0:
256,192,19156,1,0,0:0:0:0:
256,192,19234,1,8,0:0:0:0:
256,192,19312,1,8,0:0:0:0:
256,192,19391,1,0,0:0:0:0:
256,192,19443,1,0,0:0:0:0:
256,192,19547,1,0,0:0:0:0:
256,192,19599,1,0,0:0:0:0:
256,192,19703,1,8,0:0:0:0:
256,192,19781,1,0,0:0:0:0:
256,192,19859,1,8,0:0:0:0:
256,192,19937,1,8,0:0:0:0:
256,192,20016,1,0,0:0:0:0:
256,192,20172,1,8,0:0:0:0:
256,192,20250,1,0,0:0:0:0:
256,192,20328,1,8,0:0:0:0:
256,192,20406,1,8,0:0:0:0:
256,192,20484,1,0,0:0:0:0:
256,192,20562,1,8,0:0:0:0:
256,192,20641,1,0,0:0:0:0:
256,192,20693,1,0,0:0:0:0:
256,192,20745,1,0,0:0:0:0:
256,192,20797,1,8,0:0:0:0:
256,192,20875,1,0,0:0:0:0:
256,192,20953,1,8,0:0:0:0:
256,192,21031,1,8,0:0:0:0:
256,192,21109,1,0,0:0:0:0:
256,192,21187,1,8,0:0:0:0:
256,192,21266,1,0,0:0:0:0:
256,192,21422,1,0,0:0:0:0:
256,192,21500,1,0,0:0:0:0:
256,192,21578,1,8,0:0:0:0:
256,192,21734,1,8,0:0:0:0:
256,192,21812,1,8,0:0:0:0:
256,192,21891,1,0,0:0:0:0:
256,192,22047,1,0,0:0:0:0:
256,192,22125,1,8,0:0:0:0:
256,192,22203,1,8,0:0:0:0:
256,192,22359,1,8,0:0:0:0:
256,192,22437,1,0,0:0:0:0:
256,192,22516,1,0,0:0:0:0:
256,192,22828,1,0,0:0:0:0:
256,192,23141,1,8,0:0:0:0:
256,192,23453,1,12,0:0:0:0:
256,192,23766,1,4,0:0:0:0:
256,192,23922,1,0,0:0:0:0:
256,192,24000,1,0,0:0:0:0:
256,192,24078,1,8,0:0:0:0:
256,192,24156,1,0,0:0:0:0:
256,192,24234,1,8,0:0:0:0:
256,192,24312,1,8,0:0:0:0:
256,192,24391,1,0,0:0:0:0:
256,192,24547,1,8,0:0:0:0:
256,192,24625,1,0,0:0:0:0:
256,192,24703,1,8,0:0:0:0:
256,192,24781,1,8,0:0:0:0:
256,192,24859,1,0,0:0:0:0:
256,192,24937,1,8,0:0:0:0:
256,192,25016,1,0,0:0:0:0:
256,192,25172,1,0,0:0:0:0:
256,192,25250,1,8,0:0:0:0:
256,192,25328,1,8,0:0:0:0:
256,192,25406,1,0,0:0:0:0:
256,192,25484,1,8,0:0:0:0:
256,192,25562,1,0,0:0:0:0:
256,192,25641,1,8,0:0:0:0:
256,192,25719,1,8,0:0:0:0:
256,192,25797,1,0,0:0:0:0:
256,192,25875,1,8,0:0:0:0:
256,192,25953,1,8,0:0:0:0:
256,192,26031,1,0,0:0:0:0:
256,192,26109,1,8,0:0:0:0:
256,192,26187,1,8,0:0:0:0:
256,192,26266,1,0,0:0:0:0:
256,192,26422,1,0,0:0:0:0:
256,192,26500,1,0,0:0:0:0:
256,192,26578,1,8,0:0:0:0:
256,192,26656,1,0,0:0:0:0:
256,192,26734,1,8,0:0:0:0:
256,192,26812,1,8,0:0:0:0:
256,192,26891,1,0,0:0:0:0:
256,192,27047,1,0,0:0:0:0:
256,192,27125,1,8,0:0:0:0:
256,192,27203,1,8,0:0:0:0:
256,192,27281,1,0,0:0:0:0:
256,192,27359,1,8,0:0:0:0:
256,192,27437,1,8,0:0:0:0:
256,192,27516,1,0,0:0:0:0:
256,192,27672,1,8,0:0:0:0:
256,192,27750,1,0,0:0:0:0:
256,192,27828,1,8,0:0:0:0:
256,192,27906,1,8,0:0:0:0:
256,192,27984,1,0,0:0:0:0:
256,192,28062,1,8,0:0:0:0:
256,192,28141,1,0,0:0:0:0:
256,192,28219,1,8,0:0:0:0:
256,192,28297,1,8,0:0:0:0:
256,192,28375,1,0,0:0:0:0:
256,192,28453,1,8,0:0:0:0:
256,192,28531,1,8,0:0:0:0:
256,192,28609,1,0,0:0:0:0:
256,192,28687,1,0,0:0:0:0:
256,192,28766,1,8,0:0:0:0:
256,192,28844,1,0,0:0:0:0:
256,192,28922,1,0,0:0:0:0:
256,192,29000,1,0,0:0:0:0:
256,192,29078,1,8,0:0:0:0:
256,192,29156,1,0,0:0:0:0:
256,192,29234,1,0,0:0:0:0:
256,192,29312,1,0,0:0:0:0:
256,192,29391,1,8,0:0:0:0:
256,192,29469,1,8,0:0:0:0:
256,192,29547,1,0,0:0:0:0:
256,192,29625,1,0,0:0:0:0:
256,192,29703,1,8,0:0:0:0:
256,192,29781,1,8,0:0:0:0:
256,192,29859,1,0,0:0:0:0:
256,192,29937,1,0,0:0:0:0:
256,192,30016,1,8,0:0:0:0:
256,192,30094,1,0,0:0:0:0:
256,192,30172,1,8,0:0:0:0:
256,192,30250,1,0,0:0:0:0:
256,192,30328,1,8,0:0:0:0:
256,192,30406,1,0,0:0:0:0:
256,192,30484,1,8,0:0:0:0:
256,192,30562,1,8,0:0:0:0:
256,192,30641,1,0,0:0:0:0:
256,192,30693,1,0,0:0:0:0:
256,192,30745,1,0,0:0:0:0:
256,192,30797,1,8,0:0:0:0:
256,192,30875,1,8,0:0:0:0:
256,192,30953,1,0,0:0:0:0:
256,192,31005,1,8,0:0:0:0:
256,192,31057,1,8,0:0:0:0:
256,192,31109,1,8,0:0:0:0:
256,192,31187,1,8,0:0:0:0:
256,192,31266,1,0,0:0:0:0:
256,192,32516,1,0,0:0:0:0:
256,192,32594,1,0,0:0:0:0:
256,192,32672,1,0,0:0:0:0:
256,192,32750,1,0,0:0:0:0:
256,192,32828,1,0,0:0:0:0:
256,192,32984,1,0,0:0:0:0:
256,192,33062,1,0,0:0:0:0:
256,192,33141,1,0,0:0:0:0:
256,192,33297,1,0,0:0:0:0:
256,192,33453,1,12,0:0:0:0:
256,192,33766,1,4,0:0:0:0:
256,192,33922,1,8,0:0:0:0:
256,192,34078,1,4,0:0:0:0:
256,192,34234,1,8,0:0:0:0:
256,192,34391,1,0,0:0:0:0:
256,192,34469,1,0,0:0:0:0:
256,192,34547,1,8,0:0:0:0:
256,192,34625,1,8,0:0:0:0:
256,192,34703,1,0,0:0:0:0:
256,192,34859,1,8,0:0:0:0:
256,192,35016,1,0,0:0:0:0:
256,192,35094,1,8,0:0:0:0:
256,192,35172,1,8,0:0:0:0:
256,192,35328,1,0,0:0:0:0:
256,192,35484,1,8,0:0:0:0:
256,192,35562,1,8,0:0:0:0:
256,192,35641,1,0,0:0:0:0:
256,192,35719,1,8,0:0:0:0:
256,192,35797,1,8,0:0:0:0:
256,192,35875,1,8,0:0:0:0:
256,192,35953,1,0,0:0:0:0:
256,192,36109,1,8,0:0:0:0:
256,192,36266,1,4,0:0:0:0:
256,192,36422,1,8,0:0:0:0:
256,192,36578,1,4,0:0:0:0:
256,192,36734,1,8,0:0:0:0:
256,192,36891,1,0,0:0:0:0:
256,192,36969,1,0,0:0:0:0:
256,192,37047,1,8,0:0:0:0:
256,192,37125,1,8,0:0:0:0:
256,192,37203,1,0,0:0:0:0:
256,192,37359,1,8,0:0:0:0:
256,192,37516,1,0,0:0:0:0:
256,192,37594,1,8,0:0:0:0:
256,192,37672,1,8,0:0:0:0:
256,192,37828,1,0,0:0:0:0:
256,192,37906,1,8,0:0:0:0:
256,192,37984,1,8,0:0:0:0:
256,192,38062,1,0,0:0:0:0:
256,192,38141,1,8,0:0:0:0:
256,192,38219,1,0,0:0:0:0:
256,192,38297,1,8,0:0:0:0:
256,192,38375,1,8,0:0:0:0:
256,192,38453,1,0,0:0:0:0:
256,192,38609,1,8,0:0:0:0:
256,192,38766,1,4,0:0:0:0:
256,192,38922,1,8,0:0:0:0:
256,192,39078,1,4,0:0:0:0:
256,192,39234,1,8,0:0:0:0:
256,192,39391,1,0,0:0:0:0:
256,192,39469,1,0,0:0:0:0:
256,192,39547,1,8,0:0:0:0:
256,192,39625,1,8,0:0:0:0:
256,192,39703,1,0,0:0:0:0:
256,192,39859,1,8,0:0:0:0:
256,192,40016,1,0,0:0:0:0:
256,192,40094,1,8,0:0:0:0:
256,192,40172,1,8,0:0:0:0:
256,192,40328,1,0,0:0:0:0:
256,192,40484,1,8,0:0:0:0:
256,192,40562,1,8,0:0:0:0:
256,192,40641,1,0,0:0:0:0:
256,192,40719,1,8,0:0:0:0:
256,192,40797,1,8,0:0:0:0:
256,192,40875,1,8,0:0:0:0:
256,192,40953,1,0,0:0:0:0:
256,192,41109,1,8,0:0:0:0:
256,192,41266,1,4,0:0:0:0:
256,192,41422,1,8,0:0:0:0:
256,192,41578,1,4,0:0:0:0:
256,192,41734,1,8,0:0:0:0:
256,192,41812,1,8,0:0:0:0:
256,192,41891,1,0,0:0:0:0:
256,192,41969,1,0,0:0:0:0:
256,192,42047,1,8,0:0:0:0:
256,192,42125,1,8,0:0:0:0:
256,192,42203,1,0,0:0:0:0:
256,192,42281,1,8,0:0:0:0:
256,192,42359,1,8,0:0:0:0:
256,192,42437,1,0,0:0:0:0:
256,192,42516,1,8,0:0:0:0:
256,192,42672,1,0,0:0:0:0:
256,192,42750,1,0,0:0:0:0:
256,192,42828,1,8,0:0:0:0:
256,192,42906,1,0,0:0:0:0:
256,192,42984,1,8,0:0:0:0:
256,192,43062,1,8,0:0:0:0:
256,192,43141,1,0,0:0:0:0:
256,192,43219,1,8,0:0:0:0:
256,192,43297,1,0,0:0:0:0:
256,192,43375,1,0,0:0:0:0:
256,192,43453,1,8,0:0:0:0:
256,192,43531,1,0,0:0:0:0:
256,192,43609,1,8,0:0:0:0:
256,192,43687,1,8,0:0:0:0:
256,192,43766,1,0,0:0:0:0:
256,192,43922,1,8,0:0:0:0:
256,192,44000,1,8,0:0:0:0:
256,192,44078,1,0,0:0:0:0:
256,192,44234,1,8,0:0:0:0:
256,192,44391,1,0,0:0:0:0:
256,192,44547,1,8,0:0:0:0:
256,192,44625,1,0,0:0:0:0:
256,192,44781,1,0,0:0:0:0:
256,192,44859,1,8,0:0:0:0:
256,192,44937,1,8,0:0:0:0:
256,192,45016,1,0,0:0:0:0:
256,192,45172,1,8,0:0:0:0:
256,192,45250,1,8,0:0:0:0:
256,192,45328,1,0,0:0:0:0:
256,192,45432,1,8,0:0:0:0:
256,192,45536,1,8,0:0:0:0:
256,192,45641,1,0,0:0:0:0:
256,192,45719,1,0,0:0:0:0:
256,192,45797,1,8,0:0:0:0:
256,192,45875,1,8,0:0:0:0:
256,192,45953,1,0,0:0:0:0:
256,192,46109,1,8,0:0:0:0:
256,192,46266,1,0,0:0:0:0:
256,192,46422,1,8,0:0:0:0:
256,192,46500,1,8,0:0:0:0:
256,192,46578,1,0,0:0:0:0:
256,192,46734,1,8,0:0:0:0:
256,192,46891,1,0,0:0:0:0:
256,192,47047,1,8,0:0:0:0:
256,192,47125,1,0,0:0:0:0:
256,192,47281,1,0,0:0:0:0:
256,192,47359,1,8,0:0:0:0:
256,192,47516,1,0,0:0:0:0:
256,192,47672,1,8,0:0:0:0:
256,192,47750,1,8,0:0:0:0:
256,192,47828,1,0,0:0:0:0:
256,192,47932,1,8,0:0:0:0:
256,192,48036,1,8,0:0:0:0:
256,192,48141,1,0,0:0:0:0:
256,192,48297,1,8,0:0:0:0:
256,192,48375,1,8,0:0:0:0:
256,192,48453,1,0,0:0:0:0:
256,192,48531,1,8,0:0:0:0:
256,192,48609,1,0,0:0:0:0:
256,192,48687,1,8,0:0:0:0:
256,192,48766,1,0,0:0:0:0:
256,192,48922,1,0,0:0:0:0:
256,192,49000,1,0,0:0:0:0:
256,192,49078,1,8,0:0:0:0:
256,192,49234,1,8,0:0:0:0:
256,192,49312,1,8,0:0:0:0:
256,192,49391,1,0,0:0:0:0:
256,192,49547,1,8,0:0:0:0:
256,192,49703,1,0,0:0:0:0:
256,192,49781,1,8,0:0:0:0:
256,192,49859,1,0,0:0:0:0:
256,192,49937,1,8,0:0:0:0:
256,192,50016,1,0,0:0:0:0:
256,192,50172,1,8,0:0:0:0:
256,192,50250,1,8,0:0:0:0:
256,192,50328,1,0,0:0:0:0:
256,192,50484,1,8,0:0:0:0:
256,192,50562,1,0,0:0:0:0:
256,192,50641,1,8,0:0:0:0:
256,192,50797,1,0,0:0:0:0:
256,192,50875,1,0,0:0:0:0:
256,192,50953,1,8,0:0:0:0:
256,192,51057,1,8,0:0:0:0:
256,192,51161,1,0,0:0:0:0:
256,192,51266,1,8,0:0:0:0:
256,192,51344,1,8,0:0:0:0:
256,192,51422,1,0,0:0:0:0:
256,192,51500,1,8,0:0:0:0:
256,192,51578,1,8,0:0:0:0:
256,192,51656,1,8,0:0:0:0:
256,192,51734,1,0,0:0:0:0:
256,192,51812,1,8,0:0:0:0:
256,192,51891,1,0,0:0:0:0:
256,192,51969,1,0,0:0:0:0:
256,192,52047,1,8,0:0:0:0:
256,192,52125,1,8,0:0:0:0:
256,192,52203,1,0,0:0:0:0:
256,192,52281,1,8,0:0:0:0:
256,192,52359,1,0,0:0:0:0:
256,192,52437,1,8,0:0:0:0:
256,192,52516,1,0,0:0:0:0:
256,192,52672,1,0,0:0:0:0:
256,192,52750,1,0,0:0:0:0:
256,192,52828,1,8,0:0:0:0:
256,192,52932,1,8,0:0:0:0:
256,192,53036,1,8,0:0:0:0:
256,192,53141,1,0,0:0:0:0:
256,192,53297,1,0,0:0:0:0:
256,192,53453,1,12,0:0:0:0:
256,192,53766,1,4,0:0:0:0:
256,192,55016,1,0,0:0:0:0:
256,192,55641,1,0,0:0:0:0:
256,192,56266,1,8,0:0:0:0:
256,192,57203,1,0,0:0:0:0:
256,192,57516,1,8,0:0:0:0:
256,192,58141,1,8,0:0:0:0:
256,192,58766,1,0,0:0:0:0:
256,192,60641,1,0,0:0:0:0:
256,192,61266,1,8,0:0:0:0:
256,192,61891,1,0,0:0:0:0:
256,192,62516,1,0,0:0:0:0:
256,192,63141,1,8,0:0:0:0:
256,192,63297,1,8,0:0:0:0:
256,192,63375,1,8,0:0:0:0:
256,192,63453,1,8,0:0:0:0:
256,192,63531,1,8,0:0:0:0:
256,192,63609,1,8,0:0:0:0:
256,192,63687,1,8,0:0:0:0:
256,192,63766,1,0,0:0:0:0:
256,192,64391,1,8,0:0:0:0:
256,192,65016,1,0,0:0:0:0:
256,192,65641,1,0,0:0:0:0:
256,192,66266,1,8,0:0:0:0:
256,192,66891,1,0,0:0:0:0:
256,192,67203,1,8,0:0:0:0:
256,192,67516,1,8,0:0:0:0:
256,192,68141,1,8,0:0:0:0:
256,192,68766,1,0,0:0:0:0:
256,192,70016,1,8,0:0:0:0:
256,192,70641,1,8,0:0:0:0:
256,192,70875,1,0,0:0:0:0:
256,192,71109,1,8,0:0:0:0:
256,192,71266,1,0,0:0:0:0:
256,192,71891,1,8,0:0:0:0:
256,192,71969,1,8,0:0:0:0:
256,192,72047,1,8,0:0:0:0:
256,192,72125,1,8,0:0:0:0:
256,192,72203,1,8,0:0:0:0:
256,192,72281,1,8,0:0:0:0:
256,192,72359,1,8,0:0:0:0:
256,192,72437,1,8,0:0:0:0:
256,192,72516,1,0,0:0:0:0:
256,192,72594,1,0,0:0:0:0:
256,192,72672,1,0,0:0:0:0:
256,192,72750,1,0,0:0:0:0:
256,192,72828,1,0,0:0:0:0:
256,192,72906,1,0,0:0:0:0:
256,192,72984,1,0,0:0:0:0:
256,192,73062,1,0,0:0:0:0:
256,192,73141,1,8,0:0:0:0:
256,192,73219,1,0,0:0:0:0:
256,192,73297,1,8,0:0:0:0:
256,192,73453,1,12,0:0:0:0:
256,192,73766,1,4,0:0:0:0:
256,192,73922,1,0,0:0:0:0:
256,192,74000,1,0,0:0:0:0:
256,192,74078,1,8,0:0:0:0:
256,192,74156,1,0,0:0:0:0:
256,192,74234,1,8,0:0:0:0:
256,192,74312,1,8,0:0:0:0:
256,192,74391,1,0,0:0:0:0:
256,192,74469,1,8,0:0:0:0:
256,192,74547,1,8,0:0:0:0:
256,192,74625,1,0,0:0:0:0:
256,192,74703,1,8,0:0:0:0:
256,192,74781,1,0,0:0:0:0:
256,192,74859,1,8,0:0:0:0:
256,192,74937,1,8,0:0:0:0:
256,192,75016,1,0,0:0:0:0:
256,192,75094,1,8,0:0:0:0:
256,192,75172,1,0,0:0:0:0:
256,192,75250,1,0,0:0:0:0:
256,192,75328,1,8,0:0:0:0:
256,192,75406,1,0,0:0:0:0:
256,192,75484,1,8,0:0:0:0:
256,192,75562,1,8,0:0:0:0:
256,192,75641,1,8,0:0:0:0:
256,192,75719,1,0,0:0:0:0:
256,192,75797,1,8,0:0:0:0:
256,192,75875,1,0,0:0:0:0:
256,192,75953,1,8,0:0:0:0:
256,192,76031,1,8,0:0:0:0:
256,192,76109,1,0,0:0:0:0:
256,192,76187,1,0,0:0:0:0:
256,192,76266,1,0,0:0:0:0:
256,192,76422,1,0,0:0:0:0:
256,192,76500,1,0,0:0:0:0:
256,192,76578,1,8,0:0:0:0:
256,192,76656,1,0,0:0:0:0:
256,192,76734,1,8,0:0:0:0:
256,192,76812,1,8,0:0:0:0:
256,192,76891,1,0,0:0:0:0:
256,192,76969,1,8,0:0:0:0:
256,192,77047,1,0,0:0:0:0:
256,192,77125,1,0,0:0:0:0:
256,192,77203,1,8,0:0:0:0:
256,192,77281,1,0,0:0:0:0:
256,192,77359,1,8,0:0:0:0:
256,192,77437,1,8,0:0:0:0:
256,192,77516,1,0,0:0:0:0:
256,192,77594,1,8,0:0:0:0:
256,192,77672,1,0,0:0:0:0:
256,192,77750,1,0,0:0:0:0:
256,192,77828,1,8,0:0:0:0:
256,192,77906,1,0,0:0:0:0:
256,192,77984,1,8,0:0:0:0:
256,192,78062,1,8,0:0:0:0:
256,192,78141,1,8,0:0:0:0:
256,192,78219,1,0,0:0:0:0:
256,192,78297,1,0,0:0:0:0:
256,192,78375,1,8,0:0:0:0:
256,192,78453,1,8,0:0:0:0:
256,192,78531,1,0,0:0:0:0:
256,192,78609,1,8,0:0:0:0:
256,192,78687,1,8,0:0:0:0:
256,192,78766,1,0,0:0:0:0:
256,192,78922,1,0,0:0:0:0:
256,192,79000,1,0,0:0:0:0:
256,192,79078,1,8,0:0:0:0:
256,192,79156,1,0,0:0:0:0:
256,192,79234,1,8,0:0:0:0:
256,192,79312,1,8,0:0:0:0:
256,192,79391,1,0,0:0:0:0:
256,192,79469,1,8,0:0:0:0:
256,192,79547,1,0,0:0:0:0:
256,192,79625,1,0,0:0:0:0:
256,192,79703,1,8,0:0:0:0:
256,192,79781,1,0,0:0:0:0:
256,192,79859,1,8,0:0:0:0:
256,192,79937,1,8,0:0:0:0:
256,192,80016,1,0,0:0:0:0:
256,192,80172,1,0,0:0:0:0:
256,192,80250,1,0,0:0:0:0:
256,192,80328,1,8,0:0:0:0:
256,192,80406,1,0,0:0:0:0:
256,192,80484,1,8,0:0:0:0:
256,192,80562,1,8,0:0:0:0:
256,192,80641,1,0,0:0:0:0:
256,192,80719,1,8,0:0:0:0:
256,192,80797,1,0,0:0:0:0:
256,192,80875,1,0,0:0:0:0:
256,192,80953,1,8,0:0:0:0:
256,192,81031,1,0,0:0:0:0:
256,192,81109,1,8,0:0:0:0:
256,192,81187,1,8,0:0:0:0:
256,192,81266,1,0,0:0:0:0:
256,192,81422,1,0,0:0:0:0:
256,192,81500,1,0,0:0:0:0:
256,192,81578,1,8,0:0:0:0:
256,192,81656,1,0,0:0:0:0:
256,192,81734,1,8,0:0:0:0:
256,192,81812,1,8,0:0:0:0:
256,192,81891,1,0,0:0:0:0:
256,192,82047,1,0,0:0:0:0:
256,192,82125,1,0,0:0:0:0:
256,192,82203,1,8,0:0:0:0:
256,192,82281,1,0,0:0:0:0:
256,192,82359,1,8,0:0:0:0:
256,192,82437,1,8,0:0:0:0:
256,192,82516,1,0,0:0:0:0:
256,192,82828,1,0,0:0:0:0:
256,192,83141,1,8,0:0:0:0:
256,192,83297,1,8,0:0:0:0:
256,192,83453,1,0,0:0:0:0:
256,192,83766,1,4,0:0:0:0:
256,192,83922,12,0,91266,0:0:0:0:
256,192,91578,5,12,0:0:0:0:
256,192,92047,1,0,0:0:0:0:
256,192,92203,1,8,0:0:0:0:
256,192,92516,1,8,0:0:0:0:
256,192,92828,1,8,0:0:0:0:
256,192,93141,1,8,0:0:0:0:
256,192,93219,1,8,0:0:0:0:
256,192,93297,1,0,0:0:0:0:
256,192,93375,1,0,0:0:0:0:
256,192,93453,1,8,0:0:0:0:
256,192,93531,1,0,0:0:0:0:
256,192,93609,1,8,0:0:0:0:
256,192,93687,1,8,0:0:0:0:
256,192,93766,1,0,0:0:0:0:
256,192,93922,1,0,0:0:0:0:
256,192,94000,1,0,0:0:0:0:
256,192,94078,1,8,0:0:0:0:
256,192,94156,1,0,0:0:0:0:
256,192,94234,1,8,0:0:0:0:
256,192,94312,1,8,0:0:0:0:
256,192,94391,1,0,0:0:0:0:
256,192,94547,1,8,0:0:0:0:
256,192,94625,1,8,0:0:0:0:
256,192,94703,1,0,0:0:0:0:
256,192,94859,1,8,0:0:0:0:
256,192,94937,1,8,0:0:0:0:
256,192,95016,1,0,0:0:0:0:
256,192,95094,1,8,0:0:0:0:
256,192,95172,1,8,0:0:0:0:
256,192,95328,1,0,0:0:0:0:
256,192,95484,1,8,0:0:0:0:
256,192,95641,1,0,0:0:0:0:
256,192,95719,1,0,0:0:0:0:
256,192,95797,1,8,0:0:0:0:
256,192,95875,1,0,0:0:0:0:
256,192,95953,1,8,0:0:0:0:
256,192,96109,1,0,0:0:0:0:
256,192,96266,1,8,0:0:0:0:
256,192,96422,1,0,0:0:0:0:
256,192,96500,1,0,0:0:0:0:
256,192,96578,1,8,0:0:0:0:
256,192,96656,1,0,0:0:0:0:
256,192,96734,1,8,0:0:0:0:
256,192,96812,1,8,0:0:0:0:
256,192,96891,1,0,0:0:0:0:
256,192,97047,1,8,0:0:0:0:
256,192,97125,1,8,0:0:0:0:
256,192,97203,1,0,0:0:0:0:
256,192,97281,1,0,0:0:0:0:
256,192,97359,1,8,0:0:0:0:
256,192,97437,1,0,0:0:0:0:
256,192,97516,1,8,0:0:0:0:
256,192,97672,1,0,0:0:0:0:
256,192,97750,1,0,0:0:0:0:
256,192,97828,1,8,0:0:0:0:
256,192,97984,1,0,0:0:0:0:
256,192,98062,1,0,0:0:0:0:
256,192,98141,1,8,0:0:0:0:
256,192,98219,1,0,0:0:0:0:
256,192,98297,1,0,0:0:0:0:
256,192,98375,1,0,0:0:0:0:
256,192,98453,1,8,0:0:0:0:
256,192,98531,1,0,0:0:0:0:
256,192,98609,1,8,0:0:0:0:
256,192,98687,1,8,0:0:0:0:
256,192,98766,1,0,0:0:0:0:
256,192,98922,1,0,0:0:0:0:
256,192,99000,1,0,0:0:0:0:
256,192,99078,1,8,0:0:0:0:
256,192,99156,1,0,0:0:0:0:
256,192,99234,1,8,0:0:0:0:
256,192,99312,1,8,0:0:0:0:
256,192,99391,1,0,0:0:0:0:
256,192,99547,1,8,0:0:0:0:
256,192,99625,1,8,0:0:0:0:
256,192,99703,1,0,0:0:0:0:
256,192,99859,1,8,0:0:0:0:
256,192,99937,1,8,0:0:0:0:
256,192,100016,1,0,0:0:0:0:
256,192,100094,1,8,0:0:0:0:
256,192,100172,1,8,0:0:0:0:
256,192,100328,1,0,0:0:0:0:
256,192,100484,1,0,0:0:0:0:
256,192,100562,1,0,0:0:0:0:
256,192,100641,1,8,0:0:0:0:
256,192,100719,1,0,0:0:0:0:
256,192,100797,1,8,0:0:0:0:
256,192,100849,1,8,0:0:0:0:
256,192,100901,1,8,0:0:0:0:
256,192,100953,1,0,0:0:0:0:
256,192,101031,1,0,0:0:0:0:
256,192,101109,1,8,0:0:0:0:
256,192,101266,1,4,0:0:0:0:
256,192,101422,1,0,0:0:0:0:
256,192,101500,1,0,0:0:0:0:
256,192,101578,1,8,0:0:0:0:
256,192,101656,1,0,0:0:0:0:
256,192,101734,1,8,0:0:0:0:
256,192,101891,1,12,0:0:0:0:
256,192,102125,1,4,0:0:0:0:
256,192,102359,1,4,0:0:0:0:
256,192,102594,1,12,0:0:0:0:
256,192,102828,1,12,0:0:0:0:
256,192,103062,1,4,0:0:0:0:
256,192,103297,1,12,0:0:0:0:
256,192,103453,1,0,0:0:0:0:
256,192,103531,1,8,0:0:0:0:
256,192,103609,1,0,0:0:0:0:
256,192,103766,1,0,0:0:0:0:
256,192,104078,1,12,0:0:0:0:
256,192,104234,1,8,0:0:0:0:
256,192,104312,1,8,0:0:0:0:
256,192,104391,1,0,0:0:0:0:
256,192,104469,1,0,0:0:0:0:
256,192,104547,1,8,0:0:0:0:
256,192,104703,1,0,0:0:0:0:
256,192,104859,1,8,0:0:0:0:
256,192,104937,1,8,0:0:0:0:
256,192,105016,1,0,0:0:0:0:
256,192,105094,1,8,0:0:0:0:
256,192,105172,1,8,0:0:0:0:
256,192,105328,1,0,0:0:0:0:
256,192,105484,1,8,0:0:0:0:
256,192,105562,1,8,0:0:0:0:
256,192,105641,1,0,0:0:0:0:
256,192,105719,1,0,0:0:0:0:
256,192,105797,1,8,0:0:0:0:
256,192,105875,1,0,0:0:0:0:
256,192,105953,1,8,0:0:0:0:
256,192,106031,1,8,0:0:0:0:
256,192,106109,1,0,0:0:0:0:
256,192,106161,1,0,0:0:0:0:
256,192,106213,1,0,0:0:0:0:
256,192,106266,1,8,0:0:0:0:
256,192,106344,1,8,0:0:0:0:
256,192,106422,1,0,0:0:0:0:
256,192,106500,1,0,0:0:0:0:
256,192,106578,1,8,0:0:0:0:
256,192,106734,1,8,0:0:0:0:
256,192,106891,1,0,0:0:0:0:
256,192,106969,1,0,0:0:0:0:
256,192,107047,1,8,0:0:0:0:
256,192,107203,1,8,0:0:0:0:
256,192,107359,1,0,0:0:0:0:
256,192,107437,1,0,0:0:0:0:
256,192,107516,1,8,0:0:0:0:
256,192,107724,1,4,0:0:0:0:
256,192,107932,1,12,0:0:0:0:
256,192,108141,1,12,0:0:0:0:
256,192,108349,1,4,0:0:0:0:
256,192,108557,1,4,0:0:0:0:
256,192,108766,1,12,0:0:0:0:
256,192,108922,1,0,0:0:0:0:
256,192,109000,1,0,0:0:0:0:
256,192,109078,1,8,0:0:0:0:
256,192,109234,1,8,0:0:0:0:
256,192,109312,1,8,0:0:0:0:
256,192,109391,1,0,0:0:0:0:
256,192,109469,1,0,0:0:0:0:
256,192,109547,1,8,0:0:0:0:
256,192,109625,1,0,0:0:0:0:
256,192,109703,1,8,0:0:0:0:
256,192,109859,1,0,0:0:0:0:
256,192,109937,1,0,0:0:0:0:
256,192,110016,1,8,0:0:0:0:
256,192,110172,1,0,0:0:0:0:
256,192,110250,1,0,0:0:0:0:
256,192,110328,1,8,0:0:0:0:
256,192,110484,1,8,0:0:0:0:
256,192,110562,1,8,0:0:0:0:
256,192,110641,1,0,0:0:0:0:
256,192,110719,1,8,0:0:0:0:
256,192,110797,1,0,0:0:0:0:
256,192,110875,1,0,0:0:0:0:
256,192,110953,1,8,0:0:0:0:
256,192,111031,1,0,0:0:0:0:
256,192,111109,1,8,0:0:0:0:
256,192,111187,1,8,0:0:0:0:
256,192,111266,1,0,0:0:0:0:
256,192,111422,1,0,0:0:0:0:
256,192,111500,1,0,0:0:0:0:
256,192,111578,1,8,0:0:0:0:
256,192,111656,1,0,0:0:0:0:
256,192,111734,1,8,0:0:0:0:
256,192,111812,1,8,0:0:0:0:
256,192,111891,1,0,0:0:0:0:
256,192,111969,1,8,0:0:0:0:
256,192,112047,1,0,0:0:0:0:
256,192,112125,1,0,0:0:0:0:
256,192,112203,1,8,0:0:0:0:
256,192,112255,1,8,0:0:0:0:
256,192,112307,1,8,0:0:0:0:
256,192,112359,1,0,0:0:0:0:
256,192,112411,1,0,0:0:0:0:
256,192,112463,1,0,0:0:0:0:
256,192,112516,1,8,0:0:0:0:
256,192,112828,1,8,0:0:0:0:
256,192,113141,1,8,0:0:0:0:
256,192,113219,1,8,0:0:0:0:
256,192,113297,1,0,0:0:0:0:
256,192,113453,1,12,0:0:0:0:
256,192,113766,1,4,0:0:0:0:
256,192,113922,1,8,0:0:0:0:
256,192,114078,1,4,0:0:0:0:
256,192,114234,1,8,0:0:0:0:
256,192,114391,1,0,0:0:0:0:
256,192,114469,1,0,0:0:0:0:
256,192,114547,1,8,0:0:0:0:
256,192,114625,1,8,0:0:0:0:
256,192,114703,1,0,0:0:0:0:
256,192,114859,1,8,0:0:0:0:
256,192,115016,1,0,0:0:0:0:
256,192,115094,1,8,0:0:0:0:
256,192,115172,1,8,0:0:0:0:
256,192,115328,1,0,0:0:0:0:
256,192,115406,1,8,0:0:0:0:
256,192,115484,1,8,0:0:0:0:
256,192,115562,1,0,0:0:0:0:
256,192,115641,1,8,0:0:0:0:
256,192,115719,1,8,0:0:0:0:
256,192,115797,1,0,0:0:0:0:
256,192,115875,1,0,0:0:0:0:
256,192,115953,1,8,0:0:0:0:
256,192,116031,1,8,0:0:0:0:
256,192,116109,1,0,0:0:0:0:
256,192,116266,1,4,0:0:0:0:
256,192,116422,1,8,0:0:0:0:
256,192,116578,1,4,0:0:0:0:
256,192,116734,1,8,0:0:0:0:
256,192,116891,1,0,0:0:0:0:
256,192,116969,1,0,0:0:0:0:
256,192,117047,1,8,0:0:0:0:
256,192,117125,1,8,0:0:0:0:
256,192,117203,1,0,0:0:0:0:
256,192,117359,1,8,0:0:0:0:
256,192,117516,1,0,0:0:0:0:
256,192,117594,1,8,0:0:0:0:
256,192,117672,1,8,0:0:0:0:
256,192,117828,1,0,0:0:0:0:
256,192,117906,1,0,0:0:0:0:
256,192,117984,1,8,0:0:0:0:
256,192,118062,1,0,0:0:0:0:
256,192,118141,1,8,0:0:0:0:
256,192,118219,1,8,0:0:0:0:
256,192,118297,1,0,0:0:0:0:
256,192,118375,1,0,0:0:0:0:
256,192,118453,1,8,0:0:0:0:
256,192,118531,1,0,0:0:0:0:
256,192,118609,1,8,0:0:0:0:
256,192,118766,1,4,0:0:0:0:
256,192,118922,1,8,0:0:0:0:
256,192,119078,1,4,0:0:0:0:
256,192,119234,1,8,0:0:0:0:
256,192,119391,1,8,0:0:0:0:
256,192,119469,1,0,0:0:0:0:
256,192,119547,1,0,0:0:0:0:
256,192,119625,1,8,0:0:0:0:
256,192,119703,1,0,0:0:0:0:
256,192,119781,1,0,0:0:0:0:
256,192,119859,1,8,0:0:0:0:
256,192,120016,1,4,0:0:0:0:
256,192,120172,1,8,0:0:0:0:
256,192,120328,1,0,0:0:0:0:
256,192,120406,1,0,0:0:0:0:
256,192,120484,1,8,0:0:0:0:
256,192,120562,1,0,0:0:0:0:
256,192,120641,1,8,0:0:0:0:
256,192,120719,1,8,0:0:0:0:
256,192,120797,1,0,0:0:0:0:
256,192,120875,1,0,0:0:0:0:
256,192,120953,1,8,0:0:0:0:
256,192,121109,1,8,0:0:0:0:
256,192,121266,1,4,0:0:0:0:
256,192,121422,1,0,0:0:0:0:
256,192,121500,1,0,0:0:0:0:
256,192,121578,1,8,0:0:0:0:
256,192,121656,1,0,0:0:0:0:
256,192,121734,1,8,0:0:0:0:
256,192,121891,1,4,0:0:0:0:
256,192,122047,1,0,0:0:0:0:
256,192,122125,1,0,0:0:0:0:
256,192,122203,1,8,0:0:0:0:
256,192,122281,1,0,0:0:0:0:
256,192,122359,1,8,0:0:0:0:
256,192,122516,1,4,0:0:0:0:
256,192,122672,1,0,0:0:0:0:
256,192,122750,1,0,0:0:0:0:
256,192,122828,1,8,0:0:0:0:
256,192,122906,1,0,0:0:0:0:
256,192,122984,1,8,0:0:0:0:
256,192,123062,1,8,0:0:0:0:
256,192,123141,1,0,0:0:0:0:
256,192,123297,1,0,0:0:0:0:
256,192,123453,1,12,0:0:0:0:
256,192,123766,1,4,0:0:0:0:
256,192,123922,1,0,0:0:0:0:
256,192,124000,1,0,0:0:0:0:
256,192,124078,1,8,0:0:0:0:
256,192,124156,1,0,0:0:0:0:
256,192,124234,1,8,0:0:0:0:
256,192,124312,1,8,0:0:0:0:
256,192,124391,1,0,0:0:0:0:
256,192,124547,1,8,0:0:0:0:
256,192,124625,1,8,0:0:0:0:
256,192,124703,1,0,0:0:0:0:
256,192,124859,1,8,0:0:0:0:
256,192,124937,1,8,0:0:0:0:
256,192,125016,1,0,0:0:0:0:
256,192,125094,1,8,0:0:0:0:
256,192,125172,1,8,0:0:0:0:
256,192,125328,1,0,0:0:0:0:
256,192,125484,1,8,0:0:0:0:
256,192,125562,1,8,0:0:0:0:
256,192,125641,1,0,0:0:0:0:
256,192,125719,1,0,0:0:0:0:
256,192,125797,1,8,0:0:0:0:
256,192,125875,1,0,0:0:0:0:
256,192,125953,1,8,0:0:0:0:
256,192,126031,1,8,0:0:0:0:
256,192,126109,1,0,0:0:0:0:
256,192,126161,1,0,0:0:0:0:
256,192,126213,1,0,0:0:0:0:
256,192,126266,1,8,0:0:0:0:
256,192,126344,1,8,0:0:0:0:
256,192,126422,1,0,0:0:0:0:
256,192,126500,1,0,0:0:0:0:
256,192,126578,1,8,0:0:0:0:
256,192,126734,1,8,0:0:0:0:
256,192,126891,1,0,0:0:0:0:
256,192,126969,1,0,0:0:0:0:
256,192,127047,1,8,0:0:0:0:
256,192,127203,1,8,0:0:0:0:
256,192,127359,1,0,0:0:0:0:
256,192,127437,1,0,0:0:0:0:
256,192,127516,1,8,0:0:0:0:
256,192,127724,1,4,0:0:0:0:
256,192,127932,1,12,0:0:0:0:
256,192,128141,1,12,0:0:0:0:
256,192,128349,1,4,0:0:0:0:
256,192,128557,1,4,0:0:0:0:
256,192,128766,1,12,0:0:0:0:
256,192,128922,1,0,0:0:0:0:
256,192,129000,1,0,0:0:0:0:
256,192,129078,1,8,0:0:0:0:
256,192,129234,1,8,0:0:0:0:
256,192,129312,1,8,0:0:0:0:
256,192,129391,1,0,0:0:0:0:
256,192,129469,1,0,0:0:0:0:
256,192,129547,1,8,0:0:0:0:
256,192,129625,1,0,0:0:0:0:
256,192,129703,1,8,0:0:0:0:
256,192,129859,1,0,0:0:0:0:
256,192,129937,1,0,0:0:0:0:
256,192,130016,1,8,0:0:0:0:
256,192,130172,1,0,0:0:0:0:
256,192,130250,1,0,0:0:0:0:
256,192,130328,1,8,0:0:0:0:
256,192,130484,1,8,0:0:0:0:
256,192,130562,1,8,0:0:0:0:
256,192,130641,1,0,0:0:0:0:
256,192,130719,1,8,0:0:0:0:
256,192,130797,1,0,0:0:0:0:
256,192,130875,1,0,0:0:0:0:
256,192,130953,1,8,0:0:0:0:
256,192,131031,1,0,0:0:0:0:
256,192,131109,1,8,0:0:0:0:
256,192,131187,1,8,0:0:0:0:
256,192,131266,1,0,0:0:0:0:
256,192,131422,1,0,0:0:0:0:
256,192,131500,1,0,0:0:0:0:
256,192,131578,1,8,0:0:0:0:
256,192,131656,1,0,0:0:0:0:
256,192,131734,1,8,0:0:0:0:
256,192,131812,1,8,0:0:0:0:
256,192,131891,1,0,0:0:0:0:
256,192,131969,1,8,0:0:0:0:
256,192,132047,1,0,0:0:0:0:
256,192,132125,1,0,0:0:0:0:
256,192,132203,1,8,0:0:0:0:
256,192,132255,1,8,0:0:0:0:
256,192,132307,1,8,0:0:0:0:
256,192,132359,1,0,0:0:0:0:
256,192,132411,1,0,0:0:0:0:
256,192,132463,1,0,0:0:0:0:
256,192,132516,1,8,0:0:0:0:
256,192,132828,1,8,0:0:0:0:
256,192,133141,1,8,0:0:0:0:
256,192,133219,1,8,0:0:0:0:
256,192,133297,1,0,0:0:0:0:
256,192,133453,1,12,0:0:0:0:
256,192,133766,1,8,0:0:0:0:
256,192,134078,1,4,0:0:0:0:
256,192,134234,12,0,136578,0:0:0:0:
