osu file format v14

[General]
AudioFilename: Dreadnought1.mp3
AudioLeadIn: 0
PreviewTime: 93141
Countdown: 0
SampleSet: Soft
StackLeniency: 0.3
Mode: 0
LetterboxInBreaks: 0
WidescreenStoryboard: 0

[Editor]
Bookmarks: 13766,23766,33766,43766,53766,63766,73766,83766,90016,93766,104078,113766,123766,134078
DistanceSpacing: 1.3
BeatDivisor: 4
GridSize: 4
TimelineZoom: 2.999999

[Metadata]
Title:Dreadnought
TitleUnicode:Dreadnought
Artist:Mastermind(xi+nora2r)
ArtistUnicode:Mastermind(xi+nora2r)
Creator:Cherry Blossom
Version:Hyper
Source:BMS
Tags:bofu2015 of fighter ultimate Breakthrough sayaka- dialgadu77
BeatmapID:1364268
BeatmapSetID:361306

[Difficulty]
HPDrainRate:5
CircleSize:4
OverallDifficulty:6
ApproachRate:8
SliderMultiplier:1.5
SliderTickRate:1

[Events]
//Background and Video events
0,0,"dreadnought.jpg",0,0
//Break Periods
2,11466,12391
2,53966,58016
//Storyboard Layer 0 (Background)
//Storyboard Layer 1 (Fail)
//Storyboard Layer 2 (Pass)
//Storyboard Layer 3 (Foreground)
//Storyboard Sound Samples

[TimingPoints]
1266,312.5,4,2,0,70,1,0
1266,-200,4,2,0,70,0,0
1344,-200,4,2,0,30,0,0
6266,-133.333333333333,4,2,0,50,0,0
6344,-133.333333333333,4,2,2,20,0,0
7516,-133.333333333333,4,2,0,30,0,0
7594,-133.333333333333,4,2,2,30,0,0
8766,-133.333333333333,4,2,2,60,0,0
10094,-133.333333333333,4,2,0,60,0,0
13141,-100,4,2,0,60,0,0
13844,-100,4,2,0,60,0,0
16266,-100,4,2,2,60,0,0
16344,-100,4,2,0,60,0,0
18766,-100,4,2,2,60,0,0
22516,-100,4,2,0,60,0,0
23766,-100,4,2,2,60,0,0
23844,-100,4,2,0,60,0,0
27516,-100,4,2,97,70,0,0
28531,-100,4,2,97,60,0,0
28766,-100,4,2,2,60,0,0
32516,-100,4,2,97,80,0,0
33453,-100,4,2,2,60,0,0
33766,-100,4,2,2,60,0,0
38766,-100,4,2,3,60,0,0
41266,-100,4,2,2,60,0,0
53766,-200,4,2,99,100,0,0
53844,-200,4,2,0,45,0,0
72516,-100,4,2,0,60,0,0
73141,-100,4,2,2,60,0,0
73844,-100,4,2,0,60,0,0
76266,-100,4,2,2,60,0,0
76344,-100,4,2,0,60,0,0
78766,-100,4,2,2,60,0,0
78844,-100,4,2,0,60,0,0
80016,-100,4,2,2,60,0,0
80094,-100,4,2,0,60,0,0
81266,-100,4,2,2,60,0,0
81344,-100,4,2,0,60,0,0
81891,-100,4,2,2,60,0,0
81969,-100,4,2,0,60,0,0
83766,-200,4,2,2,60,0,0
83844,-200,4,2,97,30,0,0
84391,-200,4,2,97,35,0,0
85016,-200,4,2,97,40,0,0
85641,-200,4,2,97,45,0,0
86266,-200,4,2,97,50,0,0
86891,-200,4,2,97,55,0,0
87516,-200,4,2,97,60,0,0
88141,-200,4,2,97,65,0,0
88766,-200,4,2,97,70,0,0
91266,-100,4,2,98,100,0,0
91578,-100,4,2,2,60,0,0
91656,-100,4,2,0,60,0,0
93766,-86.9565217391304,4,2,4,80,0,1
103609,-133.333333333333,4,2,4,60,0,0
104078,-86.9565217391304,4,2,4,80,0,1
108766,-86.9565217391304,4,2,2,80,0,1
111891,-86.9565217391304,4,2,97,80,0,1
112516,-86.9565217391304,4,2,0,70,0,1
113766,-100,4,2,2,60,0,0
118766,-100,4,2,2,70,0,0
121344,-100,4,2,0,70,0,0
121891,-100,4,2,2,70,0,0
121969,-100,4,2,0,70,0,0
122516,-100,4,2,2,70,0,0
123531,-100,4,2,0,70,0,0
123766,-86.9565217391304,4,2,4,80,0,1
128766,-86.9565217391304,4,2,2,80,0,1
131891,-86.9565217391304,4,2,97,80,0,1
132516,-86.9565217391304,4,2,0,80,0,1
133766,-86.9565217391304,4,2,98,100,0,0
133818,-86.9565217391304,4,2,0,60,0,0
134078,-86.9565217391304,4,2,2,80,0,0
134156,-100,4,2,0,60,0,0
136578,-100,4,2,0,30,0,0

[Colours]
Combo1 : 239,5,75
Combo2 : 100,238,232

[HitObjects]
152,84,1266,6,0,P|256:120|360:84,1,225,4|0,0:0|0:0,0:0:0:0:
432,56,2516,2,0,L|424:208,1,150,2|2,0:0|0:0,0:0:0:0:
416,280,3453,1,2,0:0:0:0:
408,356,3766,6,0,L|244:348,1,150,2|2,0:0|0:0,0:0:0:0:
180,220,5016,2,0,L|329:212,1,150,2|2,0:0|0:0,0:0:0:0:
472,40,6266,6,0,P|392:60|308:40,1,168.750006437302,2|2,0:0|0:0,0:0:0:0:
256,20,6891,1,8,0:0:0:0:
44,96,7516,2,0,L|52:268,1,168.750006437302,2|2,0:0|0:0,0:0:0:0:
68,320,8141,2,0,P|152:340|232:300,1,168.750006437302,8|2,0:0|0:0,0:0:0:0:
256,260,8766,5,6,0:0:0:0:
256,260,9391,2,0,L|256:136,1,112.500004291535,8|0,0:0|0:0,0:0:0:0:
158,90,10016,2,0,P|256:42|354:90,1,225.000008583069,6|0,0:0|0:0,0:0:0:0:
353,89,11266,5,2,0:0:0:0:
112,68,13141,6,0,L|172:64,7,37.5,2|0|2|0|2|2|2|2,0:0|0:0|0:0|0:0|0:0|0:0|0:0|0:0,0:0:0:0:
184,80,13766,6,0,P|256:96|332:80,1,150,6|0,0:0|0:0,0:0:0:0:
404,44,14234,2,0,L|400:208,1,150,2|0,0:0|0:0,0:0:0:0:
364,268,14703,2,0,P|404:276|440:268,2,75,2|0|0,0:0|0:0|0:0,0:0:0:0:
256,192,15172,6,0,P|180:180|108:192,1,150,2|0,0:0|0:0,0:0:0:0:
44,240,15641,2,0,L|52:336,1,75,2|0,0:0|0:0,0:0:0:0:
120,356,15953,2,0,P|156:364|200:356,1,75,2|0,0:0|0:0,0:0:0:0:
256,304,16266,5,6,0:0:0:0:
184,156,16578,2,0,P|256:136|328:156,1,150,2|0,0:0|0:0,0:0:0:0:
392,204,17047,2,0,L|476:200,2,75,2|0|0,0:0|0:0|0:0,0:0:0:0:
292,296,17516,6,0,L|212:292,1,75,2|0,0:0|0:0,0:0:0:0:
136,288,17828,1,0,0:0:0:0:
56,280,17984,2,0,P|52:240|56:204,1,75,2|0,0:0|0:0,0:0:0:0:
80,128,18297,2,0,L|128:124,5,37.5,2|0|2|0|2|0,0:0|0:0|0:0|0:0|0:0|0:0,0:0:0:0:
136,108,18766,6,0,L|236:100,1,75,6|0,0:0|0:0,0:0:0:0:
280,148,19078,2,0,L|380:140,1,75,8|0,0:0|0:0,0:0:0:0:
432,172,19391,2,0,B|440:208|440:208|432:248,1,75,8|0,0:0|0:0,0:0:0:0:
404,324,19703,2,0,L|328:320,1,75,8|0,0:0|0:0,0:0:0:0:
184,304,20016,6,0,B|176:266|176:266|184:230,1,75,6|0,0:0|0:0,0:0:0:0:
256,188,20328,1,8,0:0:0:0:
328,232,20484,2,0,L|376:228,2,37.5,8|0|8,0:0|0:0|0:0,0:0:0:0:
256,188,20797,1,0,0:0:0:0:
296,116,20953,2,0,L|400:108,1,75,8|0,0:0|0:0,0:0:0:0:
216,64,21266,6,0,L|112:56,1,75,6|0,0:0|0:0,0:0:0:0:
60,52,21578,1,8,0:0:0:0:
296,116,21891,2,0,L|400:108,1,75,6|0,0:0|0:0,0:0:0:0:
452,104,22203,1,8,0:0:0:0:
216,168,22516,6,0,L|112:160,1,75,2|0,0:0|0:0,0:0:0:0:
64,196,22828,2,0,P|60:232|64:276,1,75,2|0,0:0|0:0,0:0:0:0:
108,340,23141,2,0,L|192:336,1,75,2|2,0:0|0:0,0:0:0:0:
256,300,23453,1,2,0:0:0:0:
200,92,23766,6,0,L|144:88,7,37.5,6|0|0|0|2|0|0|0,0:0|0:0|0:0|0:0|0:0|0:0|0:0|0:0,0:0:0:0:
142,126,24391,2,0,L|146:202,1,75,2|0,0:0|0:0,0:0:0:0:
218,238,24703,2,0,B|256:246|294:238,1,75,2|0,0:0|0:0,0:0:0:0:
312,92,25016,6,0,L|368:88,7,37.5,4|0|0|0|2|0|0|0,0:0|0:0|0:0|0:0|0:0|0:0|0:0|0:0,0:0:0:0:
370,126,25641,2,0,L|366:202,1,75,2|0,0:0|0:0,0:0:0:0:
392,280,25953,2,0,P|432:288|472:280,1,75,2|0,0:0|0:0,0:0:0:0:
294,236,26266,6,0,P|255:231|214:236,1,75,4|0,0:0|0:0,0:0:0:0:
156,284,26578,1,2,0:0:0:0:
156,284,26734,1,0,0:0:0:0:
88,236,26891,2,0,L|84:148,1,75,6|0,0:0|0:0,0:0:0:0:
124,88,27203,2,0,P|160:84|204:88,1,75,2|0,0:0|0:0,0:0:0:0:
256,148,27516,6,0,L|252:192,2,37.5,12|8|8,0:0|0:0|0:0,0:0:0:0:
312,88,27828,2,0,L|308:44,2,37.5,8|0|8,0:0|0:0|0:0,0:0:0:0:
372,148,28141,2,0,L|368:192,2,37.5,12|0|0,0:0|0:0|0:0,0:0:0:0:
428,88,28453,1,12,0:0:0:0:
484,148,28609,5,0,0:0:0:0:
484,148,28687,1,0,0:0:0:0:
484,148,28766,2,0,L|480:252,1,75,6|0,0:0|0:0,0:0:0:0:
444,296,29078,2,0,B|408:304|408:304|368:296,1,75,6|0,0:0|0:0,0:0:0:0:
304,248,29391,2,0,L|300:164,1,75,6|0,0:0|0:0,0:0:0:0:
211,173,29703,2,0,L|208:248,1,75,6|0,0:0|0:0,0:0:0:0:
256,316,30016,5,6,0:0:0:0:
256,316,30172,1,6,0:0:0:0:
184,356,30328,2,0,L|104:348,1,75,6|6,0:0|0:0,0:0:0:0:
328,356,30641,2,0,L|408:348,1,75,6|6,0:0|0:0,0:0:0:0:
500,340,30953,1,6,0:0:0:0:
500,340,31109,1,0,0:0:0:0:
444,260,31266,5,4,0:0:0:0:
436,276,32516,6,0,L|488:272,4,37.5,12|8|8|8|8,0:0|0:0|0:0|0:0|0:0,0:0:0:0:
420,196,32984,2,0,L|472:192,4,37.5,12|8|8|8|8,0:0|0:0|0:0|0:0|0:0,0:0:0:0:
404,116,33453,1,12,0:0:0:0:
404,116,33766,6,0,L|312:112,1,75,2|0,0:0|0:0,0:0:0:0:
292,188,34078,2,0,L|200:184,1,75,2|0,0:0|0:0,0:0:0:0:
180,260,34391,2,0,L|112:256,3,37.5,2|0|0|0,0:0|0:0|0:0|0:0,0:0:0:0:
104,248,34703,2,0,P|100:208|104:172,1,75,2|0,0:0|0:0,0:0:0:0:
180,72,35016,6,0,L|260:72,1,75,2|0,0:0|0:0,0:0:0:0:
324,116,35328,2,0,L|394:115,3,37.5,2|0|0|0,0:0|0:0|0:0|0:0,0:0:0:0:
400,132,35641,2,0,P|408:168|400:212,1,75,2|0,0:0|0:0,0:0:0:0:
392,224,35875,1,0,0:0:0:0:
380,240,35953,2,0,L|288:236,1,75,2|0,0:0|0:0,0:0:0:0:
208,320,36266,6,0,L|128:316,1,75,2|0,0:0|0:0,0:0:0:0:
52,308,36578,2,0,P|48:268|52:232,1,75,2|0,0:0|0:0,0:0:0:0:
80,156,36891,2,0,L|76:108,3,37.5,2|0|0|0,0:0|0:0|0:0|0:0,0:0:0:0:
72,76,37203,2,0,P|108:72|148:76,1,75,2|0,0:0|0:0,0:0:0:0:
256,144,37516,6,0,L|256:232,1,75,2|0,0:0|0:0,0:0:0:0:
256,300,37828,1,2,0:0:0:0:
256,300,37984,1,0,0:0:0:0:
184,340,38141,2,0,P|144:344|104:340,1,75,2|0,0:0|0:0,0:0:0:0:
328,256,38453,2,0,P|368:252|408:256,1,75,2|0,0:0|0:0,0:0:0:0:
424,260,38687,1,0,0:0:0:0:
448,264,38766,6,0,L|444:168,1,75,6|0,0:0|0:0,0:0:0:0:
440,108,39078,1,10,0:0:0:0:
440,108,39234,1,0,0:0:0:0:
368,152,39391,2,0,B|332:156|332:156|288:152,1,75,2|0,0:0|0:0,0:0:0:0:
256,80,39703,1,10,0:0:0:0:
256,80,39859,1,0,0:0:0:0:
218,152,40016,6,0,B|180:156|180:156|144:152,1,75,2|0,0:0|0:0,0:0:0:0:
72,108,40328,1,10,0:0:0:0:
28,176,40484,1,0,0:0:0:0:
28,176,40562,1,0,0:0:0:0:
28,176,40641,2,0,L|36:264,1,75,2|0,0:0|0:0,0:0:0:0:
92,308,40953,2,0,P|128:312|168:308,1,75,10|0,0:0|0:0,0:0:0:0:
292,220,41266,6,0,P|256:216|216:220,1,75,6|0,0:0|0:0,0:0:0:0:
345,308,41578,2,0,P|382:312|420:308,1,75,10|0,0:0|0:0,0:0:0:0:
484,256,41891,2,0,L|480:168,1,75,6|0,0:0|0:0,0:0:0:0:
476,100,42203,1,10,0:0:0:0:
476,100,42281,1,0,0:0:0:0:
476,100,42359,1,0,0:0:0:0:
404,140,42516,6,0,L|312:136,1,75,6|0,0:0|0:0,0:0:0:0:
256,176,42828,1,2,0:0:0:0:
256,176,42984,1,10,0:0:0:0:
184,212,43141,2,0,P|176:176|184:136,1,75,2|0,0:0|0:0,0:0:0:0:
204,60,43453,1,10,0:0:0:0:
124,84,43609,5,0,0:0:0:0:
124,84,43687,1,0,0:0:0:0:
124,84,43766,2,0,L|48:80,1,75,6|0,0:0|0:0,0:0:0:0:
0,148,44078,2,0,L|12:300,1,150,2|2,0:0|0:0,0:0:0:0:
76,348,44547,1,0,0:0:0:0:
76,348,44625,1,0,0:0:0:0:
76,348,44703,2,0,B|112:352|112:352|152:348,1,75,2|0,0:0|0:0,0:0:0:0:
210,290,45016,6,0,L|214:210,1,75,2|0,0:0|0:0,0:0:0:0:
298,215,45328,2,0,L|302:290,1,75,2|0,0:0|0:0,0:0:0:0:
361,348,45641,2,0,B|400:352|400:352|436:348,1,75,2|0,0:0|0:0,0:0:0:0:
456,344,45875,1,0,0:0:0:0:
480,340,45953,2,0,L|476:248,1,75,2|0,0:0|0:0,0:0:0:0:
448,140,46266,6,0,P|412:136|372:140,1,75,2|0,0:0|0:0,0:0:0:0:
320,200,46578,1,2,0:0:0:0:
296,120,46734,2,0,L|300:76,2,37.5,0|0|2,0:0|0:0|0:0,0:0:0:0:
216,120,47047,2,0,L|212:76,2,37.5,0|0|2,0:0|0:0|0:0,0:0:0:0:
192,200,47359,1,0,0:0:0:0:
138,139,47516,6,0,P|76:136|12:192,1,150,2|2,0:0|0:0,0:0:0:0:
28,272,47984,1,0,0:0:0:0:
44,352,48141,2,0,L|148:344,1,75,2|0,0:0|0:0,0:0:0:0:
176,288,48453,2,0,L|228:292,3,37.5,2|0|0|0,0:0|0:0|0:0|0:0,0:0:0:0:
256,296,48766,6,0,L|256:196,1,75,6|0,0:0|0:0,0:0:0:0:
256,140,49078,1,10,0:0:0:0:
256,140,49234,1,0,0:0:0:0:
332,104,49391,2,0,P|340:144|332:180,1,75,2|0,0:0|0:0,0:0:0:0:
178,177,49703,2,0,P|171:140|180:104,1,75,10|2,0:0|0:0,0:0:0:0:
256,20,50016,5,6,0:0:0:0:
208,284,50328,2,0,L|204:328,2,37.5,10|0|0,0:0|0:0|0:0,0:0:0:0:
256,216,50641,2,0,L|256:160,2,37.5,6|0|0,0:0|0:0|0:0,0:0:0:0:
304,284,50953,2,0,L|308:328,2,37.5,10|0|2,0:0|0:0|0:0,0:0:0:0:
348,216,51266,6,0,L|440:208,1,75,6|2,0:0|0:0,0:0:0:0:
500,148,51578,2,0,P|508:104|500:60,1,75,6|2,0:0|0:0,0:0:0:0:
416,28,51891,2,0,L|324:24,1,75,6|6,0:0|0:0,0:0:0:0:
256,72,52203,1,6,0:0:0:0:
256,72,52359,1,6,0:0:0:0:
168,28,52516,5,6,0:0:0:0:
231,212,52828,2,0,P|257:215|283:212,2,50,2|2|2,0:0|0:0|0:0,0:0:0:0:
180,196,53141,2,0,P|144:188|104:196,1,75,2|0,0:0|0:0,0:0:0:0:
36,236,53453,2,0,L|40:328,1,75,10|0,0:0|0:0,0:0:0:0:
112,356,53766,5,6,0:0:0:0:
256,192,58766,12,2,63141,0:0:0:0:
112,36,63766,6,0,B|56:48|40:112|72:160|123:164|123:164|98:231|120:304|219:348|306:287|304:200,1,525,6|0,0:0|0:0,0:0:0:0:
208,206,66266,6,0,B|206:287|293:348|392:304|414:231|389:164|389:164|440:160|472:112|456:48|400:36,1,525,2|0,0:0|0:0,0:0:0:0:
256,192,68766,12,2,72516,0:0:0:0:
152,40,73141,6,0,L|244:36,1,75,8|8,0:0|0:0,0:0:0:0:
288,92,73453,2,0,L|380:88,1,75,8|0,0:0|0:0,0:0:0:0:
436,52,73766,6,0,P|444:88|436:128,1,75,6|0,0:0|0:0,0:0:0:0:
368,172,74078,2,0,P|360:208|368:248,1,75,2|0,0:0|0:0,0:0:0:0:
392,324,74391,2,0,L|344:320,3,37.5,2|0|0|0,0:0|0:0|0:0|0:0,0:0:0:0:
316,336,74703,2,0,L|268:332,3,37.5,2|0|0|0,0:0|0:0|0:0|0:0,0:0:0:0:
256,296,75016,6,0,L|256:216,1,75,6|0,0:0|0:0,0:0:0:0:
256,140,75328,1,2,0:0:0:0:
184,176,75484,1,0,0:0:0:0:
184,176,75562,1,0,0:0:0:0:
184,176,75641,2,0,P|176:140|184:100,1,75,2|0,0:0|0:0,0:0:0:0:
329,102,75953,2,0,P|336:139|328:176,1,75,2|0,0:0|0:0,0:0:0:0:
256,296,76266,6,0,L|172:292,1,75,6|0,0:0|0:0,0:0:0:0:
108,332,76578,2,0,P|100:296|108:252,1,75,2|0,0:0|0:0,0:0:0:0:
140,184,76891,2,0,P|144:164|140:144,3,37.5,2|0|0|0,0:0|0:0|0:0|0:0,0:0:0:0:
116,116,77203,2,0,P|112:96|116:76,3,37.5,2|0|0|0,0:0|0:0|0:0|0:0,0:0:0:0:
124,40,77516,6,0,L|216:36,1,75,6|0,0:0|0:0,0:0:0:0:
256,96,77828,2,0,L|348:92,1,75,2|0,0:0|0:0,0:0:0:0:
348,76,78062,1,0,0:0:0:0:
364,60,78141,2,0,L|456:56,1,75,2|0,0:0|0:0,0:0:0:0:
504,108,78453,2,0,L|500:152,3,37.5,2|0|0|0,0:0|0:0|0:0|0:0,0:0:0:0:
496,188,78766,6,0,L|400:184,1,75,6|0,0:0|0:0,0:0:0:0:
344,152,79078,1,2,0:0:0:0:
344,152,79234,1,0,0:0:0:0:
316,228,79391,2,0,P|308:268|316:308,1,75,2|0,0:0|0:0,0:0:0:0:
256,360,79703,1,2,0:0:0:0:
256,360,79859,1,0,0:0:0:0:
196,228,80016,6,0,P|204:268|196:308,1,75,6|0,0:0|0:0,0:0:0:0:
128,344,80328,1,2,0:0:0:0:
128,344,80484,1,0,0:0:0:0:
56,304,80641,2,0,P|50:267|58:230,1,75,2|2,0:0|0:0,0:0:0:0:
44,148,80953,2,0,L|48:100,3,37.5,2|0|2|0,0:0|0:0|0:0|0:0,0:0:0:0:
84,92,81266,6,0,L|176:88,1,75,6|0,0:0|0:0,0:0:0:0:
200,185,81578,2,0,L|208:276,1,75,2|0,0:0|0:0,0:0:0:0:
305,259,81891,2,0,L|312:185,1,75,6|0,0:0|0:0,0:0:0:0:
353,88,82203,2,0,L|428:92,1,75,2|0,0:0|0:0,0:0:0:0:
500,172,82516,6,0,L|492:272,1,75,2|0,0:0|0:0,0:0:0:0:
448,316,82828,2,0,B|412:324|412:324|372:316,1,75,2|0,0:0|0:0,0:0:0:0:
296,288,83141,1,2,0:0:0:0:
296,288,83297,1,2,0:0:0:0:
256,360,83453,2,0,L|172:352,1,75,2|0,0:0|0:0,0:0:0:0:
100,348,83766,6,0,B|192:300|216:236|132:180|228:60|-52:8|-52:172|20:344|280:168|280:168|354:58|256:-100|152:60|232:168|232:168|492:344|556:172|564:8|280:60|381:181|296:236|316:300|408:352,1,1725,6|8,0:0|0:0,0:0:0:0:
256,352,91266,5,2,0:0:0:0:
256,204,91578,1,6,0:0:0:0:
256,192,91656,12,2,93141,0:0:0:0:
212,64,93766,6,0,L|316:56,1,86.2500016450882,12|0,0:0|0:0,0:0:0:0:
392,68,94078,2,0,B|400:112|400:112|392:156,1,86.2500016450882,10|2,0:0|0:0,0:0:0:0:
324,220,94391,1,8,0:0:0:0:
324,220,94547,1,2,0:0:0:0:
412,256,94703,2,0,L|508:252,1,86.2500016450882,8|2,0:0|0:0,0:0:0:0:
300,316,95016,6,0,L|204:312,1,86.2500016450882,10|0,0:0|0:0,0:0:0:0:
188,320,95250,1,0,0:0:0:0:
164,328,95328,2,0,L|68:324,1,86.2500016450882,10|0,0:0|0:0,0:0:0:0:
28,244,95641,2,0,P|24:200|32:160,1,86.2500016450882,10|0,0:0|0:0,0:0:0:0:
48,140,95875,1,0,0:0:0:0:
68,124,95953,2,0,L|168:120,1,86.2500016450882,10|0,0:0|0:0,0:0:0:0:
256,232,96266,6,0,L|252:324,2,86.2500016450882,10|0|10,0:0|0:0|0:0,0:0:0:0:
300,144,96734,1,2,0:0:0:0:
380,196,96891,1,8,0:0:0:0:
380,196,97047,1,2,0:0:0:0:
456,140,97203,2,0,L|452:48,1,86.2500016450882,8|2,0:0|0:0,0:0:0:0:
309,7,97516,6,0,L|305:93,1,86.2500016450882,10|0,0:0|0:0,0:0:0:0:
302,118,97750,1,0,0:0:0:0:
300,144,97828,2,0,P|256:152|212:144,1,86.2500016450882,10|0,0:0|0:0,0:0:0:0:
136,88,98141,1,10,0:0:0:0:
76,160,98297,1,0,0:0:0:0:
76,160,98375,1,0,0:0:0:0:
76,160,98453,2,0,L|80:208,3,43.1250008225441,10|0|2|0,0:0|0:0|0:0|0:0,0:0:0:0:
88,252,98766,6,0,P|132:244|176:252,1,86.2500016450882,12|0,0:0|0:0,0:0:0:0:
256,300,99078,2,0,P|298:306|340:298,1,86.2500016450882,10|2,0:0|0:0,0:0:0:0:
392,220,99391,1,8,0:0:0:0:
392,220,99547,1,2,0:0:0:0:
468,276,99703,2,0,L|464:372,1,86.2500016450882,8|2,0:0|0:0,0:0:0:0:
296,208,100016,6,0,L|300:112,1,86.2500016450882,10|0,0:0|0:0,0:0:0:0:
300,96,100250,1,0,0:0:0:0:
304,72,100328,2,0,P|348:68|392:76,1,86.2500016450882,10|0,0:0|0:0,0:0:0:0:
212,120,100641,2,0,P|168:124|124:116,1,86.2500016450882,10|0,0:0|0:0,0:0:0:0:
36,96,100953,1,10,0:0:0:0:
36,96,101109,1,2,0:0:0:0:
0,184,101266,6,0,L|8:276,1,86.2500016450882,12|2,0:0|0:0,0:0:0:0:
84,328,101578,1,10,0:0:0:0:
156,264,101734,1,2,0:0:0:0:
156,264,101812,1,0,0:0:0:0:
156,264,101891,2,0,B|196:260|196:260|240:276|240:276|284:272,6,129.375002467632,12|12|12|12|12|12|12,0:0|0:0|0:0|0:0|0:0|0:0|0:0,0:0:0:0:
100,188,103453,5,2,0:0:0:0:
100,188,103609,2,0,P|128:124|192:176,1,168.750006437302,2|12,0:0|0:0,0:0:0:0:
256,240,104234,5,2,0:0:0:0:
320,168,104391,2,0,B|416:172,1,86.2500016450882,8|2,0:0|0:0,0:0:0:0:
432,264,104703,2,0,B|345:260,1,86.2500016450882,8|2,0:0|0:0,0:0:0:0:
504,224,105016,6,0,P|512:272|500:312,1,86.2500016450882,10|0,0:0|0:0,0:0:0:0:
488,328,105250,1,0,0:0:0:0:
468,344,105328,2,0,B|381:340,1,86.2500016450882,10|0,0:0|0:0,0:0:0:0:
292,372,105641,2,0,P|288:328|296:284,1,86.2500016450882,10|0,0:0|0:0,0:0:0:0:
308,264,105875,1,0,0:0:0:0:
320,240,105953,2,0,P|324:196|316:152,1,86.2500016450882,10|0,0:0|0:0,0:0:0:0:
256,80,106266,5,12,0:0:0:0:
196,154,106422,1,0,0:0:0:0:
196,154,106500,1,0,0:0:0:0:
196,154,106578,1,10,0:0:0:0:
316,156,106734,2,0,L|408:152,1,86.2500016450882,12|0,0:0|0:0,0:0:0:0:
196,154,107047,2,0,L|104:150,1,86.2500016450882,12|0,0:0|0:0,0:0:0:0:
32,204,107359,5,2,0:0:0:0:
32,204,107437,1,0,0:0:0:0:
32,204,107516,2,0,B|40:244|40:244|28:276|28:276|36:316,6,115.000002193451,12|12|12|12|12|12|6,0:0|0:0|0:0|0:0|0:0|0:0|0:0,0:0:0:0:
112,32,109078,6,0,P|156:24|204:32,1,86.2500016450882,10|0,0:0|0:0,0:0:0:0:
256,104,109391,1,2,0:0:0:0:
256,104,109547,1,0,0:0:0:0:
315,29,109703,2,0,P|357:24|400:32,1,86.2500016450882,10|0,0:0|0:0,0:0:0:0:
420,48,109937,1,0,0:0:0:0:
440,64,110016,6,0,L|436:160,1,86.2500016450882,6|0,0:0|0:0,0:0:0:0:
424,244,110328,2,0,P|380:252|336:244,1,86.2500016450882,10|0,0:0|0:0,0:0:0:0:
256,200,110641,1,2,0:0:0:0:
256,200,110797,1,0,0:0:0:0:
172,245,110953,2,0,P|130:251|88:244,1,86.2500016450882,10|0,0:0|0:0,0:0:0:0:
64,232,111187,1,0,0:0:0:0:
44,216,111266,6,0,L|48:116,1,86.2500016450882,6|2,0:0|0:0,0:0:0:0:
152,52,111578,2,0,L|155:138,1,86.2500016450882,2|2,0:0|0:0,0:0:0:0:
256,220,111891,2,0,L|304:216,3,43.1250008225441,8|8|8|8,0:0|0:0|0:0|0:0,0:0:0:0:
340,240,112203,2,0,L|388:236,3,43.1250008225441,8|8|8|8,0:0|0:0|0:0|0:0,0:0:0:0:
432,232,112516,6,0,P|440:192|432:140,1,86.2500016450882,6|0,0:0|0:0,0:0:0:0:
380,68,112828,2,0,L|328:64,3,43.1250008225441,2|0|0|0,0:0|0:0|0:0|0:0,0:0:0:0:
296,92,113141,2,0,L|244:88,3,43.1250008225441,6|0|6|0,0:0|0:0|0:0|0:0,0:0:0:0:
208,104,113453,1,6,0:0:0:0:
76,204,113766,6,0,P|72:248|76:280,1,75,2|0,0:0|0:0,0:0:0:0:
144,328,114078,2,0,L|232:324,1,75,2|0,0:0|0:0,0:0:0:0:
288,280,114391,2,0,L|344:284,3,37.5,2|0|0|0,0:0|0:0|0:0|0:0,0:0:0:0:
360,300,114703,2,0,L|448:296,1,75,2|0,0:0|0:0,0:0:0:0:
504,180,115016,6,0,L|416:176,1,75,2|0,0:0|0:0,0:0:0:0:
348,168,115328,2,0,L|340:88,1,75,2|0,0:0|0:0,0:0:0:0:
316,16,115641,1,2,0:0:0:0:
256,72,115797,2,0,L|256:128,2,37.5,0|0|2,0:0|0:0|0:0,0:0:0:0:
192,20,116109,1,0,0:0:0:0:
148,92,116266,6,0,L|60:88,1,75,2|0,0:0|0:0,0:0:0:0:
24,156,116578,2,0,P|16:196|24:232,1,75,2|0,0:0|0:0,0:0:0:0:
52,308,116891,2,0,L|136:304,1,75,2|0,0:0|0:0,0:0:0:0:
148,300,117125,1,0,0:0:0:0:
168,292,117203,2,0,P|176:256|168:212,1,75,2|0,0:0|0:0,0:0:0:0:
100,112,117516,6,0,L|188:108,1,75,2|0,0:0|0:0,0:0:0:0:
220,40,117828,1,2,0:0:0:0:
292,84,117984,1,0,0:0:0:0:
292,84,118062,1,0,0:0:0:0:
292,84,118141,2,0,L|384:80,1,75,2|0,0:0|0:0,0:0:0:0:
448,88,118453,2,0,L|444:132,3,37.5,2|0|0|0,0:0|0:0|0:0|0:0,0:0:0:0:
456,164,118766,6,0,L|448:252,1,75,6|0,0:0|0:0,0:0:0:0:
400,304,119078,2,0,P|364:312|320:304,1,75,10|0,0:0|0:0,0:0:0:0:
256,272,119391,1,2,0:0:0:0:
256,272,119547,1,0,0:0:0:0:
186,306,119703,2,0,P|180:268|188:228,1,75,10|0,0:0|0:0,0:0:0:0:
325,232,120016,6,0,P|332:269|326:306,2,75,6|0|10,0:0|0:0|0:0,0:0:0:0:
304,152,120484,1,0,0:0:0:0:
304,152,120562,1,0,0:0:0:0:
304,152,120641,2,0,L|384:144,2,75,2|0|10,0:0|0:0|0:0,0:0:0:0:
256,84,121109,1,0,0:0:0:0:
208,152,121266,6,0,L|128:144,1,75,6|0,0:0|0:0,0:0:0:0:
52,140,121578,1,2,0:0:0:0:
52,140,121734,1,2,0:0:0:0:
20,216,121891,2,0,P|16:256|20:296,1,75,6|2,0:0|0:0,0:0:0:0:
64,360,122203,1,2,0:0:0:0:
64,360,122359,1,2,0:0:0:0:
128,304,122516,6,0,B|200:292|200:292|276:304,1,150,6|6,0:0|0:0,0:0:0:0:
356,328,122984,2,0,L|352:368,2,37.5,2|2|6,0:0|0:0|0:0,0:0:0:0:
344,244,123297,1,0,0:0:0:0:
420,272,123453,2,0,L|464:268,2,37.5,10|0|2,0:0|0:0|0:0,0:0:0:0:
404,176,123766,6,0,L|512:168,2,86.2500016450882,12|0|10,0:0|0:0|0:0,0:0:0:0:
312,136,124234,1,2,0:0:0:0:
256,212,124391,1,8,0:0:0:0:
256,212,124547,1,2,0:0:0:0:
200,136,124703,2,0,L|96:132,1,86.2500016450882,8|2,0:0|0:0,0:0:0:0:
256,56,125016,6,0,L|360:52,1,86.2500016450882,10|0,0:0|0:0,0:0:0:0:
368,60,125250,1,0,0:0:0:0:
392,68,125328,2,0,L|492:64,1,86.2500016450882,10|0,0:0|0:0,0:0:0:0:
512,152,125641,2,0,L|425:155,1,86.2500016450882,10|0,0:0|0:0,0:0:0:0:
400,164,125875,1,0,0:0:0:0:
376,176,125953,2,0,P|372:220|380:260,1,86.2500016450882,10|0,0:0|0:0,0:0:0:0:
412,352,126266,5,12,0:0:0:0:
472,280,126422,1,0,0:0:0:0:
472,280,126500,1,0,0:0:0:0:
472,280,126578,1,10,0:0:0:0:
380,260,126734,2,0,L|276:256,1,86.2500016450882,12|0,0:0|0:0,0:0:0:0:
216,200,127047,2,0,P|208:156|216:112,1,86.2500016450882,12|0,0:0|0:0,0:0:0:0:
256,28,127359,5,2,0:0:0:0:
256,28,127437,1,0,0:0:0:0:
256,28,127516,2,0,B|296:24|296:24|332:36|332:36|376:32,6,115.000002193451,12|12|12|12|12|12|6,0:0|0:0|0:0|0:0|0:0|0:0|0:0,0:0:0:0:
88,116,129078,6,0,L|92:216,1,86.2500016450882,10|0,0:0|0:0,0:0:0:0:
116,296,129391,2,0,P|160:304|204:296,1,86.2500016450882,2|0,0:0|0:0,0:0:0:0:
256,220,129703,1,10,0:0:0:0:
311,297,129859,1,0,0:0:0:0:
311,297,129937,1,0,0:0:0:0:
311,297,130016,2,0,P|353:303|396:296,1,86.2500016450882,6|0,0:0|0:0,0:0:0:0:
420,202,130328,2,0,L|424:116,1,86.2500016450882,10|0,0:0|0:0,0:0:0:0:
392,28,130641,2,0,P|348:20|304:28,1,86.2500016450882,2|0,0:0|0:0,0:0:0:0:
256,108,130953,1,10,0:0:0:0:
204,26,131109,5,0,0:0:0:0:
204,26,131187,1,0,0:0:0:0:
204,26,131266,2,0,P|162:20|120:28,1,86.2500016450882,6|2,0:0|0:0,0:0:0:0:
44,84,131578,1,2,0:0:0:0:
132,124,131734,1,2,0:0:0:0:
56,180,131891,2,0,L|60:228,3,43.1250008225441,8|8|8|8,0:0|0:0|0:0|0:0,0:0:0:0:
24,252,132203,2,0,L|32:304,3,43.1250008225441,8|8|8|8,0:0|0:0|0:0|0:0,0:0:0:0:
44,340,132516,6,0,P|88:348|132:340,1,86.2500016450882,6|0,0:0|0:0,0:0:0:0:
196,276,132828,2,0,L|184:216,3,43.1250008225441,2|0|0|0,0:0|0:0|0:0|0:0,0:0:0:0:
216,196,133141,2,0,L|204:136,3,43.1250008225441,6|0|6|0,0:0|0:0|0:0|0:0,0:0:0:0:
192,108,133453,1,6,0:0:0:0:
256,328,133766,6,0,L|256:364,4,28.7500005483627,2|0|0|0|0,0:0|0:0|0:0|0:0|0:0,0:0:0:0:
256,288,134078,1,6,0:0:0:0:
256,192,134156,12,0,136578,0:0:0:0:
