osu file format v14

[General]
AudioFilename: audio.mp3
AudioLeadIn: 0
PreviewTime: 93596
Countdown: 0
SampleSet: Soft
StackLeniency: 0.7
Mode: 2
LetterboxInBreaks: 0
WidescreenStoryboard: 1

[Editor]
Bookmarks: 62659,70784,90159
DistanceSpacing: 1
BeatDivisor: 6
GridSize: 32
TimelineZoom: 1.8

[Metadata]
Title:Dreadnought
TitleUnicode:Dreadnought
Artist:Mastermind (xi+nora2r)
ArtistUnicode:Mastermind (xi+nora2r)
Creator:Jemzuu
Version:Rain
Source:osu!
Tags:ajamez -momox razor sharp daletto NyalettOwO x3 featured artist mappers guild electronic instrumental video game SOUND VOLTEX IV HEAVENLY HAVEN CHUNITHM AIR bof bofu 2015 bms of fighters ultimate daikeesen World Fragments Diverse System 3rd solo album c89 comiket comic market Yusuke Ishiwata Breakthrough Arthas FA MG SDVX Arcaea 太鼓の達人 グリーンVer. のらねこさい Hardcore FRENZ2015
BeatmapID:2879381
BeatmapSetID:1393933

[Difficulty]
HPDrainRate:5.5
CircleSize:3.8
OverallDifficulty:9.1
ApproachRate:9.1
SliderMultiplier:1.8
SliderTickRate:2

[Events]
//Background and Video events
0,0,"science-fiction-game-digital-wallpaper.jpg",0,0
//Break Periods
//Storyboard Layer 0 (Background)
//Storyboard Layer 1 (Fail)
//Storyboard Layer 2 (Pass)
//Storyboard Layer 3 (Foreground)
//Storyboard Layer 4 (Overlay)
//Storyboard Sound Samples

[TimingPoints]
1409,312.5,4,2,7,70,1,0
1409,-100,4,2,7,70,0,0
1487,-100,4,2,0,30,0,0
6409,-100,4,2,2,50,0,0
6487,-100,4,2,2,20,0,0
7659,-100,4,2,0,30,0,0
7737,-100,4,2,2,30,0,0
8909,-100,4,2,2,60,0,0
9612,-100,4,2,0,60,0,0
10159,-100,4,2,2,60,0,0
10237,-100,4,2,0,60,0,0
13518,-100,4,2,0,60,0,0
13909,-100,4,2,2,60,0,0
14221,-100,4,2,0,60,0,0
16409,-100,4,2,2,60,0,0
16487,-100,4,2,0,60,0,0
18596,-100,4,2,0,60,0,0
18752,-100,4,2,2,60,0,0
18909,-100,4,2,2,60,0,0
20002,-100,4,2,2,60,0,0
22659,-100,4,2,0,60,0,0
22971,-100,4,2,0,60,0,0
23909,-100,4,2,2,60,0,0
23987,-100,4,2,2,60,0,0
27659,-100,4,2,97,70,0,0
28674,-100,4,2,97,60,0,0
28909,-100,4,2,2,60,0,0
29221,-100,4,2,2,60,0,0
29534,-100,4,2,2,60,0,0
29846,-100,4,2,2,60,0,0
30159,-100,4,2,2,60,0,0
30784,-100,4,2,2,60,0,0
31487,-100,4,2,0,60,0,0
32659,-100,4,2,97,80,0,0
33596,-100,4,2,2,60,0,0
33909,-100,4,2,7,60,0,0
34143,-100,4,2,2,60,0,0
38909,-100,4,2,3,60,0,0
39377,-100,4,2,3,60,0,0
41409,-100,4,2,3,60,0,0
43909,-100,4,2,2,60,0,0
52034,-100,4,2,97,60,0,0
52659,-100,4,2,2,60,0,0
53596,-100,4,2,2,60,0,0
53909,-100,4,2,99,100,0,0
53987,-100,4,2,0,45,0,0
70159,-117.647058823529,4,2,0,45,0,0
71018,-100,4,2,0,45,0,0
71409,-133.333333333333,4,2,0,45,0,0
72659,-100,4,2,0,60,0,0
73284,-100,4,2,2,60,0,0
73596,-100,4,2,2,60,0,0
73648,-100,4,2,0,60,0,0
73909,-100,4,2,2,60,0,0
73987,-100,4,2,0,60,0,0
75159,-100,4,2,2,60,0,0
75627,-100,4,2,0,60,0,0
76409,-100,4,2,2,60,0,0
76487,-100,4,2,0,60,0,0
77034,-100,4,2,2,60,0,0
77190,-100,4,2,0,60,0,0
77659,-100,4,2,2,60,0,0
78362,-100,4,2,0,60,0,0
78909,-100,4,2,2,60,0,0
78987,-100,4,2,2,60,0,0
80159,-100,4,2,2,60,0,0
80237,-100,4,2,2,60,0,0
81096,-100,4,2,0,60,0,0
81409,-100,4,2,2,60,0,0
81487,-100,4,2,2,60,0,0
82034,-100,4,2,2,60,0,0
82112,-100,4,2,2,60,0,0
83674,-100,4,2,0,60,0,0
83909,-100,4,2,2,60,0,0
83987,-100,4,2,97,30,0,0
84534,-100,4,2,97,35,0,0
85159,-100,4,2,97,40,0,0
85784,-100,4,2,97,45,0,0
86409,-100,4,2,97,50,0,0
87034,-100,4,2,97,55,0,0
87659,-100,4,2,97,60,0,0
88284,-100,4,2,97,65,0,0
88909,-100,4,2,97,70,0,0
90159,-100,4,2,97,70,0,0
91409,-100,4,2,98,100,0,0
91721,-100,4,2,2,60,0,0
91799,-100,4,2,0,60,0,0
93284,-100,4,2,2,60,0,0
93596,-100,4,2,2,60,0,0
93674,-100,4,2,0,60,0,0
93909,-88.4955752212389,4,2,99,80,0,1
93987,-88.4955752212389,4,2,4,80,0,1
97971,-88.4955752212389,4,2,4,80,0,1
98284,-88.4955752212389,4,2,4,80,0,1
100784,-88.4955752212389,4,2,4,80,0,1
100940,-88.4955752212389,4,2,4,80,0,1
103205,-88.4955752212389,4,2,4,80,0,1
103440,-100,4,2,4,80,0,0
103596,-100,4,2,4,80,0,0
103752,-100,4,2,4,60,0,0
104221,-88.4955752212389,4,2,2,80,0,1
104377,-88.4955752212389,4,2,4,80,0,1
107815,-88.4955752212389,4,2,4,5,0,1
107867,-88.4955752212389,4,2,4,80,0,1
108023,-88.4955752212389,4,2,4,5,0,1
108075,-88.4955752212389,4,2,4,80,0,1
108231,-88.4955752212389,4,2,4,5,0,1
108283,-88.4955752212389,4,2,4,80,0,1
108284,-88.4955752212389,4,2,4,80,0,1
108440,-88.4955752212389,4,2,4,5,0,1
108492,-88.4955752212389,4,2,4,80,0,1
108648,-88.4955752212389,4,2,4,5,0,1
108700,-88.4955752212389,4,2,4,80,0,1
108856,-88.4955752212389,4,2,4,5,0,1
108909,-88.4955752212389,4,2,2,80,0,1
112034,-88.4955752212389,4,2,97,80,0,1
112659,-88.4955752212389,4,2,2,70,0,1
112737,-88.4955752212389,4,2,0,70,0,1
113284,-88.4955752212389,4,2,2,70,0,1
113909,-100,4,2,2,60,0,0
118909,-100,4,2,2,70,0,0
121487,-100,4,2,2,70,0,0
122034,-100,4,2,2,70,0,0
122112,-100,4,2,2,70,0,0
122659,-100,4,2,2,70,0,0
123674,-100,4,2,0,70,0,0
123909,-86.9565217391304,4,2,4,80,0,1
127815,-86.9565217391304,4,2,4,5,0,1
127867,-86.9565217391304,4,2,4,80,0,1
128023,-86.9565217391304,4,2,4,5,0,1
128075,-86.9565217391304,4,2,4,80,0,1
128231,-86.9565217391304,4,2,4,5,0,1
128283,-86.9565217391304,4,2,4,80,0,1
128284,-86.9565217391304,4,2,4,80,0,1
128440,-86.9565217391304,4,2,4,5,0,1
128492,-86.9565217391304,4,2,4,80,0,1
128648,-86.9565217391304,4,2,4,5,0,1
128700,-86.9565217391304,4,2,4,80,0,1
128856,-86.9565217391304,4,2,4,5,0,1
128909,-86.9565217391304,4,2,2,80,0,1
132034,-86.9565217391304,4,2,97,80,0,1
132659,-86.9565217391304,4,2,0,80,0,1
133284,-86.9565217391304,4,2,2,80,0,1
133596,-100,4,2,2,80,0,0
133909,-100,4,2,98,80,0,0
133961,-100,4,2,0,40,0,0
134221,-100,4,2,7,80,0,0
134299,-100,4,2,0,60,0,0
136721,-100,4,2,99,30,0,0

[Colours]
Combo1 : 120,120,120
Combo2 : 192,192,192
Combo3 : 108,182,255

[HitObjects]
409,296,1409,6,0,P|401:142|81:316,1,720,6|2,0:0|0:0,0:0:0:0:
389,347,3284,2,0,L|403:132,1,180,2|2,0:0|0:0,0:0:0:0:
198,264,3909,6,0,P|129:247|234:71,3,360,2|2|2|2,0:0|0:0|0:0|0:0,0:0:0:0:
365,92,6096,2,0,L|374:129,3,30
101,58,6409,6,0,P|62:109|198:212,1,270,4|2,1:1|0:0,0:0:0:0:
312,239,7034,2,0,P|230:107|33:88,1,360,10|2,0:0|0:0,0:0:0:0:
328,57,8127,1,2,0:0:0:0:
213,68,8284,2,0,L|207:356,1,270,10|2,0:0|0:0,0:0:0:0:
339,323,8909,6,0,L|173:309,2,135,2|2|2,0:0|0:0|0:0,0:0:0:0:
225,342,9534,1,10,0:0:0:0:
184,329,9612,1,2,0:0:0:0:
166,289,9690,1,2,0:0:0:0:
186,250,9768,1,2,0:0:0:0:
228,239,9846,2,0,L|277:240,2,30,2|0|0,0:0|0:0|0:0,0:0:0:0:
197,235,10002,2,0,L|195:178,1,45,2|2,0:0|0:0,0:0:0:0:
393,270,10159,6,0,P|469:199|197:210,2,720,4|2|0,1:1|0:0|0:0,0:0:0:0:
256,192,12815,12,0,12834,0:0:0:0:
256,192,12854,12,0,12873,0:0:0:0:
256,192,12893,12,0,12912,0:0:0:0:
256,192,12932,12,0,12951,0:0:0:0:
256,192,12971,12,0,12990,0:0:0:0:
256,192,13010,12,0,13029,0:0:0:0:
256,192,13049,12,0,13068,0:0:0:0:
256,192,13088,12,0,13127,0:0:0:0:
296,230,13284,5,2,0:0:0:0:
317,192,13362,1,0,0:0:0:0:
298,153,13440,1,2,0:0:0:0:
256,146,13518,1,0,0:0:0:0:
192,152,13596,2,0,L|186:92,1,45,2|2,0:0|0:0,0:0:0:0:
260,102,13752,2,0,L|267:39,1,45,2|2,0:0|0:0,0:0:0:0:
59,47,13909,6,0,P|33:118|135:165,1,180,6|0,0:0|0:0,0:0:0:0:
234,165,14377,2,0,L|243:353,1,180,2|0,0:0|0:0,0:0:0:0:
373,352,14846,2,0,L|168:324,1,180,2|0,0:0|0:0,0:0:0:0:
326,300,15315,6,0,P|381:282|376:162,1,180,2|0,0:0|0:0,0:0:0:0:
243,211,15784,2,0,L|233:108,1,90,2|0,0:0|0:0,0:0:0:0:
383,146,16096,2,0,L|390:53,1,90,2|0,0:0|0:0,0:0:0:0:
117,58,16409,5,6,0:0:0:0:
376,27,16721,2,0,L|385:241,1,180,2|0,0:0|0:0,0:0:0:0:
237,114,17190,2,0,L|220:309,1,180,2|0,0:0|0:0,0:0:0:0:
358,327,17659,6,0,L|150:346,1,180,2|0,0:0|0:0,0:0:0:0:
305,270,18127,2,0,L|119:273,1,180,2|2,0:0|0:0,0:0:0:0:
272,209,18596,1,2,0:0:0:0:
313,197,18674,1,0,0:0:0:0:
330,157,18752,1,2,0:0:0:0:
308,120,18830,1,2,0:0:0:0:
112,86,18909,6,0,L|12:88,1,90,6|2,0:0|0:0,0:0:0:0:
173,25,19221,2,0,L|181:136,1,90,8|0,0:0|0:0,0:0:0:0:
127,136,19455,1,0,0:0:0:0:
68,142,19534,2,0,L|59:257,1,90,8|0,0:0|0:0,0:0:0:0:
202,217,19846,2,0,L|212:324,1,90,8|0,0:0|0:0,0:0:0:0:
462,340,20159,6,0,L|356:324,1,90,6|0,0:0|0:0,0:0:0:0:
234,297,20471,2,0,L|230:191,1,90,8|0,0:0|0:0,0:0:0:0:
286,193,20705,1,0,0:0:0:0:
346,191,20784,2,0,L|354:164,2,22.5,8|0|0,0:0|0:0|0:0,0:0:0:0:
286,193,20940,1,0,0:0:0:0:
158,205,21096,1,8,0:0:0:0:
139,165,21174,1,0,0:0:0:0:
159,127,21252,1,0,0:0:0:0:
201,119,21330,1,0,0:0:0:0:
392,104,21409,6,0,P|450:127|448:217,1,135,6|0,0:0|0:0,0:0:0:0:
406,213,21721,2,0,L|355:220,1,45,8|0,0:0|0:0,0:0:0:0:
422,242,21877,2,0,L|476:247,1,45,0|0,0:0|0:0,0:0:0:0:
277,331,22034,6,0,L|175:332,1,90,14|0,0:0|0:0,0:0:0:0:
144,323,22268,1,0,0:0:0:0:
125,284,22346,1,8,0:0:0:0:
144,245,22424,1,0,0:0:0:0:
187,237,22502,1,0,0:0:0:0:
43,209,22659,6,0,L|30:176,4,22.5,2|0|0|0|0,0:0|0:0|0:0|0:0|0:0,0:0:0:0:
174,155,22971,6,0,L|186:98,3,45,2|0|0|0,0:0|0:0|0:0|0:0,0:0:0:0:
373,47,23284,5,6,0:0:0:0:
391,86,23362,1,0,0:0:0:0:
375,126,23440,1,2,0:0:0:0:
334,140,23518,1,0,0:0:0:0:
267,144,23596,2,0,L|260:216,1,45,6|0,0:0|0:0,0:0:0:0:
336,208,23752,2,0,L|346:266,1,45,0|0,0:0|0:0,0:0:0:0:
154,301,23909,6,0,L|51:305,1,90,6|0,0:0|0:0,0:0:0:0:
195,350,24221,2,0,L|306:356,1,90,10|0,0:0|0:0,0:0:0:0:
143,353,24534,1,2,0:0:0:0:
100,342,24612,1,0,0:0:0:0:
83,302,24690,1,0,0:0:0:0:
104,264,24768,1,0,0:0:0:0:
147,257,24846,2,0,L|225:249,1,45,10|0,0:0|0:0,0:0:0:0:
135,232,25002,2,0,L|64:231,1,45,0|0,0:0|0:0,0:0:0:0:
277,175,25159,6,0,L|397:169,1,90,6|0,0:0|0:0,0:0:0:0:
314,143,25393,1,0,0:0:0:0:
254,138,25471,2,0,L|146:137,1,90,10|0,0:0|0:0,0:0:0:0:
223,109,25705,1,0,0:0:0:0:
293,106,25784,5,2,0:0:0:0:
314,143,25862,1,0,0:0:0:0:
299,184,25940,1,0,0:0:0:0:
258,199,26018,1,0,0:0:0:0:
194,215,26096,2,0,L|134:211,1,45,10|0,0:0|0:0,0:0:0:0:
213,248,26252,2,0,L|277:250,1,45,0|0,0:0|0:0,0:0:0:0:
446,244,26409,6,0,L|454:353,1,90,6|0,0:0|0:0,0:0:0:0:
319,347,26721,2,0,L|429:352,1,90,10|0,0:0|0:0,0:0:0:0:
160,365,27034,6,0,L|156:260,1,90,6|0,0:0|0:0,0:0:0:0:
219,255,27268,1,0,0:0:0:0:
286,264,27346,1,10,0:0:0:0:
304,224,27424,1,0,0:0:0:0:
287,183,27502,1,0,0:0:0:0:
246,169,27580,1,0,0:0:0:0:
62,171,27659,5,12,0:0:0:0:
43,131,27737,1,8,0:0:0:0:
60,90,27815,1,8,0:0:0:0:
101,76,27893,1,8,0:0:0:0:
169,77,27971,2,0,L|169:147,1,45,8|8,0:0|0:0,0:0:0:0:
97,133,28127,2,0,L|93:186,1,45,8|8,0:0|0:0,0:0:0:0:
272,210,28284,6,0,L|342:217,1,45,12|8,0:0|0:0,0:0:0:0:
261,246,28440,2,0,L|194:258,1,45,8|8,0:0|0:0,0:0:0:0:
281,278,28596,2,0,L|325:300,1,45,12|8,0:0|0:0,0:0:0:0:
259,305,28752,2,0,L|219:342,1,45,8|8,0:0|0:0,0:0:0:0:
421,357,28909,6,0,L|430:236,1,90,6|0,0:0|0:0,0:0:0:0:
184,253,29221,2,0,L|166:144,1,90,6|0,0:0|0:0,0:0:0:0:
325,171,29534,2,0,L|335:76,1,90,6|0,0:0|0:0,0:0:0:0:
66,154,29846,2,0,L|51:50,1,90,6|0,0:0|0:0,0:0:0:0:
313,29,30159,5,6,0:0:0:0:
355,37,30237,1,2,0:0:0:0:
374,75,30315,1,6,0:0:0:0:
354,114,30393,1,2,0:0:0:0:
312,121,30471,6,0,L|245:128,1,45,6|2,0:0|0:0,0:0:0:0:
332,151,30627,2,0,L|390:159,1,45,6|2,0:0|0:0,0:0:0:0:
304,191,30784,6,0,L|230:206,1,45,6|2,0:0|0:0,0:0:0:0:
330,226,30940,2,0,L|394:232,1,45,6|2,0:0|0:0,0:0:0:0:
193,285,31096,6,0,L|125:288,1,45,6|2,0:0|0:0,0:0:0:0:
217,314,31252,2,0,L|286:315,1,45,6|2,0:0|0:0,0:0:0:0:
76,373,31409,6,0,P|33:297|198:131,1,360,4|2,0:0|0:0,0:0:0:0:
311,129,32190,1,2,0:0:0:0:
439,128,32346,1,2,0:0:0:0:
460,165,32424,1,2,0:0:0:0:
447,207,32502,1,2,0:0:0:0:
407,224,32580,1,2,0:0:0:0:
215,250,32659,6,0,L|136:251,1,45,12|8,0:0|0:0,0:0:0:0:
230,278,32815,2,0,L|294:284,1,45,8|8,0:0|0:0,0:0:0:0:
213,304,32971,1,8,0:0:0:0:
66,344,33127,2,0,L|52:279,1,45,12|8,0:0|0:0,0:0:0:0:
135,268,33284,2,0,L|73:255,1,45,8|8,0:0|0:0,0:0:0:0:
23,257,33440,1,8,0:0:0:0:
272,186,33596,6,0,L|439:176,1,135,12|0,0:0|0:0,0:0:0:0:
215,101,33909,6,0,L|23:59,2,180,6|2|2,3:2|0:0|0:0,0:0:0:0:
90,146,34690,2,0,L|67:191,2,45,0|0|2,0:0|0:0|0:0,0:0:0:0:
215,99,35002,1,0,0:0:0:0:
462,237,35159,6,0,L|255:277,1,180,2|2,0:0|0:0,0:0:0:0:
415,354,35627,2,0,L|443:304,2,45,0|0|2,0:0|0:0|0:0,0:0:0:0:
283,271,35940,1,0,0:0:0:0:
150,276,36096,2,0,L|137:155,1,90,2|0,0:0|0:0,0:0:0:0:
393,50,36409,6,0,P|417:96|313:161,1,180,2|2,0:0|0:0,0:0:0:0:
98,88,37034,2,0,L|216:92,1,90,2|0,0:0|0:0,0:0:0:0:
214,121,37268,1,0,0:0:0:0:
187,91,37346,1,2,0:0:0:0:
52,163,37502,1,0,0:0:0:0:
203,238,37659,6,0,L|399:275,1,180,2|2,0:0|0:0,0:0:0:0:
249,324,38127,2,0,L|225:275,2,45,0|0|2,0:0|0:0|0:0,0:0:0:0:
379,271,38440,2,0,L|403:222,2,45,0|0|2,0:0|0:0|0:0,0:0:0:0:
241,330,38752,2,0,L|179:332,1,45,2|0,0:0|0:0,0:0:0:0:
388,364,38909,6,0,P|446:351|421:243,1,180,6|10,0:0|0:0,0:0:0:0:
297,211,39377,2,0,L|234:214,1,45,0|0,0:0|0:0,0:0:0:0:
331,188,39534,2,0,L|334:129,1,45,2|0,0:0|0:0,0:0:0:0:
259,137,39690,2,0,L|248:75,1,45,0|0,0:0|0:0,0:0:0:0:
327,66,39846,2,0,L|398:53,1,45,10|0,0:0|0:0,0:0:0:0:
309,41,40002,2,0,L|235:28,1,45,0|0,0:0|0:0,0:0:0:0:
85,97,40159,6,0,L|85:193,1,90,2|0,0:0|0:0,0:0:0:0:
146,209,40393,1,0,0:0:0:0:
217,215,40471,2,0,L|223:331,1,90,10|0,0:0|0:0,0:0:0:0:
155,322,40705,1,0,0:0:0:0:
83,333,40784,5,2,0:0:0:0:
60,296,40862,1,0,0:0:0:0:
81,259,40940,1,0,0:0:0:0:
127,251,41018,1,0,0:0:0:0:
313,252,41096,6,0,L|467:230,1,135,10|0,0:0|0:0,0:0:0:0:
259,144,41409,6,0,L|142:140,1,90,6|0,0:0|0:0,0:0:0:0:
223,114,41643,1,0,0:0:0:0:
281,108,41721,2,0,L|382:113,1,90,10|0,0:0|0:0,0:0:0:0:
319,87,41955,1,0,0:0:0:0:
138,57,42034,6,0,L|28:62,1,90,6|0,0:0|0:0,0:0:0:0:
105,95,42268,1,0,0:0:0:0:
168,115,42346,2,0,L|112:129,1,45,10|0,0:0|0:0,0:0:0:0:
65,145,42502,2,0,L|145:155,1,45,0|0,0:0|0:0,0:0:0:0:
296,209,42659,6,0,L|411:215,1,90,6|0,0:0|0:0,0:0:0:0:
329,244,42893,1,0,0:0:0:0:
267,257,42971,2,0,L|170:262,1,90,10|2,0:0|0:0,0:0:0:0:
224,289,43205,1,0,0:0:0:0:
285,307,43284,2,0,L|393:313,1,90,2|0,0:0|0:0,0:0:0:0:
121,362,43596,6,0,L|110:271,1,90,10|0,0:0|0:0,0:0:0:0:
159,262,43830,1,0,0:0:0:0:
351,191,43909,6,0,L|162:117,2,180,6|2|2,0:0|0:0|0:0,0:0:0:0:
218,242,44690,2,0,L|190:192,2,45,0|0|2,0:0|0:0|0:0,0:0:0:0:
350,191,45002,1,0,0:0:0:0:
99,312,45159,6,0,P|84:255|197:202,1,180,2|2,0:0|0:0,0:0:0:0:
254,177,45575,1,0,0:0:0:0:
170,192,45679,1,0,0:0:0:0:
259,241,45784,2,0,L|312:237,1,45,2|0,0:0|0:0,0:0:0:0:
254,267,45940,2,0,L|188:275,1,45,0|0,0:0|0:0,0:0:0:0:
269,297,46096,2,0,L|379:293,1,90,2|0,0:0|0:0,0:0:0:0:
105,358,46409,6,0,L|95:256,1,90,2|0,0:0|0:0,0:0:0:0:
231,267,46721,2,0,L|231:168,1,90,2|0,0:0|0:0,0:0:0:0:
376,178,47034,2,0,L|387:79,1,90,2|0,0:0|0:0,0:0:0:0:
222,69,47268,2,0,L|157:68,1,45,0|2,0:0|0:0,0:0:0:0:
312,31,47502,1,0,0:0:0:0:
55,50,47659,6,0,P|34:108|140:149,1,180,2|2,0:0|0:0,0:0:0:0:
30,201,48075,1,0,0:0:0:0:
30,201,48179,1,0,0:0:0:0:
235,242,48284,2,0,L|327:246,1,90,2|0,0:0|0:0,0:0:0:0:
195,322,48596,2,0,L|144:325,1,45,2|0,0:0|0:0,0:0:0:0:
325,355,48752,2,0,L|380:359,1,45,2|0,0:0|0:0,0:0:0:0:
176,359,48909,6,0,L|71:362,1,90,6|0,0:0|0:0,0:0:0:0:
222,300,49221,2,0,L|228:202,1,90,10|0,0:0|0:0,0:0:0:0:
161,197,49455,1,0,0:0:0:0:
92,197,49534,2,0,L|82:100,1,90,2|0,0:0|0:0,0:0:0:0:
231,37,49846,2,0,L|128:38,1,90,10|2,0:0|0:0,0:0:0:0:
397,97,50159,6,0,L|408:207,1,90,6|0,0:0|0:0,0:0:0:0:
249,175,50471,2,0,L|240:269,1,90,10|0,0:0|0:0,0:0:0:0:
292,279,50705,1,0,0:0:0:0:
472,322,50784,6,0,L|481:206,1,90,6|0,0:0|0:0,0:0:0:0:
415,214,51018,1,0,0:0:0:0:
346,210,51096,1,10,0:0:0:0:
474,147,51252,1,2,0:0:0:0:
220,124,51409,6,0,L|106:119,1,90,6|2,0:0|0:0,0:0:0:0:
260,57,51721,1,6,0:0:0:0:
396,62,51877,1,2,0:0:0:0:
133,45,52034,5,12,0:0:0:0:
92,60,52112,1,8,0:0:0:0:
77,101,52190,1,12,0:0:0:0:
99,139,52268,1,8,0:0:0:0:
141,147,52346,2,0,L|202:144,1,45,12|8,0:0|0:0,0:0:0:0:
23,236,52502,2,0,L|25:304,1,45,12|8,0:0|0:0,0:0:0:0:
206,313,52659,6,0,L|321:318,1,90,14|0,0:0|0:0,0:0:0:0:
150,246,52971,1,2,0:0:0:0:
75,214,53075,1,2,0:0:0:0:
150,246,53179,1,2,0:0:0:0:
368,228,53284,2,0,L|495:222,1,90,2|2,0:0|0:0,0:0:0:0:
189,166,53596,6,0,L|181:20,1,135,10|0,0:0|0:0,0:0:0:0:
403,15,53909,6,0,B|516:73|495:328|300:371|89:337|89:337|252:266|252:266|121:262|82:120|155:-22|307:-14|420:115|266:185,1,1350,6|0,0:0|0:0,0:0:0:0:
138,35,56409,6,0,B|26:39|-17:161|8:323|129:366|258:362|258:362|113:257|113:257|196:245|265:175|270:72|207:11|100:-2|20:80|8:190|65:285|228:260,1,1350,2|0,0:0|0:0,0:0:0:0:
451,307,58909,6,0,B|514:240|513:102|452:8|328:-18|194:59|171:189|250:291|394:278|394:278|301:68|109:137|109:137|303:68|358:225,1,1350,2|0,0:0|0:0,0:0:0:0:
112,328,61409,6,0,P|123:205|358:349,1,540,2|2,0:0|0:0,0:0:0:0:
249,354,62502,1,2,0:0:0:0:
120,354,62659,5,2,0:0:0:0:
86,324,62737,1,0,0:0:0:0:
66,284,62815,1,0,0:0:0:0:
61,239,62893,1,0,0:0:0:0:
73,196,62971,1,0,0:0:0:0:
100,160,63049,1,0,0:0:0:0:
137,136,63127,1,0,0:0:0:0:
181,127,63205,1,0,0:0:0:0:
234,120,63284,6,0,L|296:118,1,45,2|2,0:0|0:0,0:0:0:0:
223,89,63440,2,0,L|159:88,1,45,2|2,0:0|0:0,0:0:0:0:
258,65,63596,2,0,L|328:58,1,45,2|2,0:0|0:0,0:0:0:0:
236,40,63752,2,0,L|165:41,1,45,2|2,0:0|0:0,0:0:0:0:
365,12,63909,6,0,B|468:40|512:151|432:256|374:296|374:296|278:179|142:168|142:168|211:118|292:190|307:288|250:369|135:387|24:347|-11:217|50:100|299:137,1,1350,6|0,0:0|0:0,0:0:0:0:
41,235,66409,6,0,B|-8:135|43:8|167:-20|392:140|392:140|211:143|211:143|277:144|371:197|376:304|289:386|110:386|2:272|69:132|210:142,1,1350,2|0,0:0|0:0,0:0:0:0:
448,33,68909,6,0,P|463:128|169:28,1,630,2|0,0:0|0:0,0:0:0:0:
411,36,70159,6,0,P|437:129|263:222,1,306.000005836487,2|0,0:0|0:0,0:0:0:0:
458,348,71018,2,0,L|463:172,1,135,0|0,0:0|0:0,0:0:0:0:
225,6,71409,6,0,P|126:35|265:273,1,472.500018024445,2|0,0:0|0:0,0:0:0:0:
104,324,72659,5,2,0:0:0:0:
68,297,72737,1,0,0:0:0:0:
42,260,72815,1,0,0:0:0:0:
29,217,72893,1,0,0:0:0:0:
30,173,72971,1,2,0:0:0:0:
45,130,73049,1,0,0:0:0:0:
73,95,73127,1,0,0:0:0:0:
111,71,73205,1,0,0:0:0:0:
169,64,73284,6,0,L|231:62,1,45,8|0,0:0|0:0,0:0:0:0:
158,97,73440,2,0,L|219:91,1,45,8|0,0:0|0:0,0:0:0:0:
392,110,73596,5,10,0:0:0:0:
419,117,73648,1,2,0:0:0:0:
431,144,73700,1,2,0:0:0:0:
418,170,73752,1,2,0:0:0:0:
389,175,73804,1,2,0:0:0:0:
156,214,73909,6,0,L|33:218,1,90,6|0,0:0|0:0,0:0:0:0:
203,288,74221,2,0,L|310:287,1,90,2|0,0:0|0:0,0:0:0:0:
240,331,74455,1,0,0:0:0:0:
179,338,74534,2,0,L|82:331,1,90,2|0,0:0|0:0,0:0:0:0:
152,306,74768,1,0,0:0:0:0:
221,293,74846,2,0,L|224:221,1,45,2|0,0:0|0:0,0:0:0:0:
149,241,75002,2,0,L|146:186,1,45,0|0,0:0|0:0,0:0:0:0:
323,146,75159,6,0,L|432:136,1,90,14|2,0:0|0:0,0:0:0:0:
273,147,75471,2,0,L|267:43,1,90,2|0,0:0|0:0,0:0:0:0:
328,44,75705,1,0,0:0:0:0:
400,48,75784,5,2,0:0:0:0:
419,87,75862,1,0,0:0:0:0:
403,127,75940,1,0,0:0:0:0:
355,148,76018,1,0,0:0:0:0:
300,152,76096,1,2,0:0:0:0:
253,156,76174,1,0,0:0:0:0:
228,193,76252,1,0,0:0:0:0:
243,234,76330,1,0,0:0:0:0:
435,249,76409,6,0,L|445:351,1,90,6|0,0:0|0:0,0:0:0:0:
391,355,76643,1,0,0:0:0:0:
327,358,76721,2,0,L|224:353,1,90,2|0,0:0|0:0,0:0:0:0:
294,326,76955,1,0,0:0:0:0:
356,311,77034,2,0,L|451:302,1,90,10|0,0:0|0:0,0:0:0:0:
397,276,77268,1,0,0:0:0:0:
332,255,77346,2,0,L|394:238,1,45,2|0,0:0|0:0,0:0:0:0:
441,204,77502,2,0,L|363:202,1,45,0|0,0:0|0:0,0:0:0:0:
212,151,77659,6,0,L|111:149,1,90,6|2,0:0|0:0,0:0:0:0:
268,87,77971,1,10,0:0:0:0:
285,126,78049,1,0,0:0:0:0:
270,167,78127,1,0,0:0:0:0:
230,185,78205,1,0,0:0:0:0:
55,188,78284,5,2,0:0:0:0:
36,227,78362,1,0,0:0:0:0:
52,268,78440,1,0,0:0:0:0:
95,286,78518,1,0,0:0:0:0:
163,284,78596,2,0,L|167:340,1,45,2|0,0:0|0:0,0:0:0:0:
95,328,78752,2,0,L|86:388,1,45,0|0,0:0|0:0,0:0:0:0:
275,335,78909,6,0,L|377:323,1,90,6|0,0:0|0:0,0:0:0:0:
308,298,79143,1,0,0:0:0:0:
241,298,79221,2,0,L|231:204,1,90,10|0,0:0|0:0,0:0:0:0:
292,188,79455,5,0,0:0:0:0:
361,190,79534,2,0,L|366:91,1,90,0|2,0:0|0:0,0:0:0:0:
304,93,79768,1,0,0:0:0:0:
230,88,79846,1,8,0:0:0:0:
205,123,79924,1,0,0:0:0:0:
222,163,80002,1,0,0:0:0:0:
264,170,80080,1,0,0:0:0:0:
459,195,80159,6,0,L|464:299,1,90,6|0,0:0|0:0,0:0:0:0:
333,328,80471,1,10,0:0:0:0:
465,286,80627,1,2,0:0:0:0:
322,239,80784,6,0,L|213:235,1,90,2|0,0:0|0:0,0:0:0:0:
289,212,81018,1,0,0:0:0:0:
356,206,81096,1,2,0:0:0:0:
369,164,81174,1,0,0:0:0:0:
348,125,81252,1,0,0:0:0:0:
306,113,81330,1,0,0:0:0:0:
128,97,81409,6,0,L|9:107,1,90,6|2,0:0|0:0,0:0:0:0:
161,181,81721,1,10,0:0:0:0:
292,189,81877,1,0,0:0:0:0:
43,211,82034,6,0,L|36:324,1,90,6|2,0:0|0:0,0:0:0:0:
179,272,82346,2,0,L|187:336,1,45,10|0,0:0|0:0,0:0:0:0:
117,317,82502,2,0,L|112:371,1,45,0|0,0:0|0:0,0:0:0:0:
296,365,82659,6,0,L|398:359,1,90,10|0,0:0|0:0,0:0:0:0:
123,173,82971,6,0,L|85:175,1,22.5,10|0,0:0|0:0,0:0:0:0:
195,113,83127,2,0,L|229:107,1,22.5,0|0,0:0|0:0,0:0:0:0:
315,87,83284,1,2,0:0:0:0:
61,40,83440,6,0,L|57:139,1,90,2|2,0:0|0:0,0:0:0:0:
86,168,83674,1,2,0:0:0:0:
130,189,83752,1,2,0:0:0:0:
182,196,83830,1,2,0:0:0:0:
395,266,83909,5,6,0:0:0:0:
256,192,84065,12,8,91252,0:0:0:0:
252,245,91409,6,0,L|250:89,1,135,2|0,0:0|0:0,0:0:0:0:
455,49,91721,6,0,P|475:107|298:288,1,315,6|0,0:0|0:0,0:0:0:0:
293,290,92346,6,0,L|233:288,1,45,2|0,0:0|0:0,0:0:0:0:
320,241,92502,2,0,L|393:233,1,45,2|0,0:0|0:0,0:0:0:0:
292,208,92659,2,0,L|234:189,1,45,2|0,0:0|0:0,0:0:0:0:
319,176,92815,2,0,L|342:129,1,45,2|0,0:0|0:0,0:0:0:0:
274,137,92971,2,0,L|256:50,1,45,2|0,0:0|0:0,0:0:0:0:
325,77,93127,2,0,L|332:21,1,45,2|0,0:0|0:0,0:0:0:0:
281,31,93284,5,2,0:0:0:0:
235,37,93362,1,0,0:0:0:0:
190,39,93440,1,2,0:0:0:0:
146,42,93518,1,0,0:0:0:0:
319,176,93596,6,0,L|371:178,1,45,10|2,0:0|0:0,0:0:0:0:
194,262,93752,2,0,L|122:273,1,45,2|2,0:0|0:0,0:0:0:0:
361,351,93909,6,0,P|378:297|263:228,1,203.400000620728,10|10,0:0|0:0,0:0:0:0:
23,135,94377,2,0,P|86:74|211:63,1,203.400000620728,2|2,0:0|0:0,0:0:0:0:
325,50,94846,1,8,0:0:0:0:
198,58,95002,1,2,0:0:0:0:
462,146,95159,6,0,L|466:263,1,101.700000310364,10|0,0:0|0:0,0:0:0:0:
336,193,95471,2,0,L|326:325,1,101.700000310364,10|0,0:0|0:0,0:0:0:0:
188,182,95784,2,0,L|170:298,1,101.700000310364,10|0,0:0|0:0,0:0:0:0:
335,53,96096,2,0,L|349:179,1,101.700000310364,10|0,0:0|0:0,0:0:0:0:
293,174,96330,1,0,0:0:0:0:
98,317,96409,6,0,P|81:250|193:184,1,203.400000620728,10|10,0:0|0:0,0:0:0:0:
429,118,96877,2,0,P|366:57|241:46,1,203.400000620728,2|2,0:0|0:0,0:0:0:0:
398,50,97346,2,0,L|408:180,1,101.700000310364,8|2,0:0|0:0,0:0:0:0:
165,188,97659,6,0,L|60:202,1,101.700000310364,10|0,0:0|0:0,0:0:0:0:
321,326,97971,2,0,L|334:218,1,101.700000310364,10|0,0:0|0:0,0:0:0:0:
83,229,98284,2,0,L|67:126,1,101.700000310364,10|0,0:0|0:0,0:0:0:0:
203,78,98596,2,8,L|266:79,1,50.8500001551819,10|8,0:0|0:0,0:0:0:0:
195,60,98752,2,8,L|126:59,1,50.8500001551819,10|8,0:0|0:0,0:0:0:0:
341,156,98909,6,0,P|414:171|372:290,1,203.400000620728,12|10,0:0|0:0,0:0:0:0:
148,332,99377,2,0,P|219:270|349:273,1,203.400000620728,2|2,0:0|0:0,0:0:0:0:
208,213,99846,1,8,0:0:0:0:
78,212,100002,1,2,0:0:0:0:
345,179,100159,6,0,L|354:70,1,101.700000310364,10|0,0:0|0:0,0:0:0:0:
294,62,100393,1,0,0:0:0:0:
230,55,100471,2,0,L|110:68,1,101.700000310364,10|0,0:0|0:0,0:0:0:0:
387,155,100784,6,0,L|280:173,1,101.700000310364,10|0,0:0|0:0,0:0:0:0:
345,213,101018,1,0,0:0:0:0:
411,227,101096,2,0,L|414:340,1,101.700000310364,10|2,0:0|0:0,0:0:0:0:
143,354,101409,6,0,L|136:244,1,101.700000310364,12|2,0:0|0:0,0:0:0:0:
194,218,101643,1,0,0:0:0:0:
257,210,101721,2,0,L|371:205,1,101.700000310364,10|2,0:0|0:0,0:0:0:0:
89,194,102034,6,0,L|82:86,1,101.700000310364,12|0,0:0|0:0,0:0:0:0:
157,71,102268,2,0,L|269:62,1,101.700000310364,12|0,0:0|0:0,0:0:0:0:
333,94,102502,2,0,L|212:105,1,101.700000310364,12|0,0:0|0:0,0:0:0:0:
44,240,102737,6,0,L|32:132,1,101.700000310364,12|0,0:0|0:0,0:0:0:0:
201,199,102971,2,0,L|323:204,1,101.700000310364,12|0,0:0|0:0,0:0:0:0:
228,244,103205,2,0,L|108:248,1,101.700000310364,12|0,0:0|0:0,0:0:0:0:
301,318,103440,6,0,L|434:319,1,90,12|10,0:0|0:0,0:0:0:0:
337,346,103674,1,10,0:0:0:0:
278,352,103752,1,14,0:0:0:0:
137,360,103909,6,0,L|133:204,1,135,10|0,0:0|0:0,0:0:0:0:
345,231,104221,5,14,0:0:0:0:
461,245,104377,2,0,P|482:178|379:107,1,203.400000620728,2|2,0:0|0:0,0:0:0:0:
255,114,104846,1,8,0:0:0:0:
388,105,105002,1,2,0:0:0:0:
136,238,105159,6,0,L|18:245,1,101.700000310364,10|0,0:0|0:0,0:0:0:0:
184,166,105471,2,0,L|46:160,1,101.700000310364,10|0,0:0|0:0,0:0:0:0:
339,73,105784,2,0,L|351:195,1,101.700000310364,10|0,0:0|0:0,0:0:0:0:
285,187,106018,1,0,0:0:0:0:
215,191,106096,2,0,L|210:298,1,101.700000310364,10|0,0:0|0:0,0:0:0:0:
266,314,106330,1,0,0:0:0:0:
443,339,106409,6,0,L|447:210,1,101.700000310364,12|0,0:0|0:0,0:0:0:0:
390,219,106643,1,0,0:0:0:0:
333,216,106721,1,10,0:0:0:0:
82,215,106877,2,0,L|71:109,1,101.700000310364,14|2,0:0|0:0,0:0:0:0:
127,98,107112,1,2,0:0:0:0:
309,42,107190,6,0,P|357:71|282:165,1,203.400000620728,12|10,0:0|0:0,0:0:0:0:
240,169,107580,1,10,0:0:0:0:
52,213,107659,5,12,0:0:0:0:
220,281,107867,1,12,0:0:0:0:
52,213,108075,1,12,0:0:0:0:
344,155,108284,1,12,0:0:0:0:
190,263,108492,1,12,0:0:0:0:
30,298,108700,1,12,0:0:0:0:
331,359,108909,6,0,P|349:294|229:232,1,203.400000620728,6|10,0:0|0:0,0:0:0:0:
372,175,109377,1,0,0:0:0:0:
249,125,109534,2,0,L|131:117,1,101.700000310364,2|0,0:0|0:0,0:0:0:0:
287,47,109846,2,0,L|399:42,1,101.700000310364,10|0,0:0|0:0,0:0:0:0:
336,74,110080,1,0,0:0:0:0:
146,93,110159,6,0,P|123:153|235:214,1,203.400000620728,6|10,0:0|0:0,0:0:0:0:
346,238,110627,1,0,0:0:0:0:
219,270,110784,2,0,L|119:282,1,101.700000310364,2|0,0:0|0:0,0:0:0:0:
256,344,111096,2,0,L|135:353,1,101.700000310364,10|0,0:0|0:0,0:0:0:0:
208,323,111330,1,0,0:0:0:0:
404,301,111409,6,0,L|413:186,1,101.700000310364,6|2,0:0|0:0,0:0:0:0:
269,169,111721,1,2,0:0:0:0:
412,200,111877,1,2,0:0:0:0:
168,47,112034,5,12,0:0:0:0:
120,58,112112,1,8,0:0:0:0:
101,103,112190,1,8,0:0:0:0:
125,146,112268,1,8,0:0:0:0:
174,152,112346,2,0,L|267:157,1,50.8500001551819,8|8,0:0|0:0,0:0:0:0:
169,178,112502,2,0,L|99:190,1,50.8500001551819,8|8,0:0|0:0,0:0:0:0:
317,165,112659,5,6,0:0:0:0:
339,208,112737,1,0,0:0:0:0:
318,252,112815,1,2,0:0:0:0:
262,258,112893,1,0,0:0:0:0:
198,244,112971,5,2,0:0:0:0:
175,287,113049,1,0,0:0:0:0:
196,331,113127,1,2,0:0:0:0:
244,341,113205,1,0,0:0:0:0:
417,339,113284,6,0,L|470:328,1,50.8500001551819,6|0,0:0|0:0,0:0:0:0:
284,190,113440,2,0,L|189:188,1,50.8500001551819,6|0,0:0|0:0,0:0:0:0:
426,230,113596,6,0,P|458:165|389:97,1,152.550000465546,14|0,0:0|0:0,0:0:0:0:
225,73,113909,6,0,P|166:81|180:208,1,180,2|2,0:0|0:0,0:0:0:0:
261,221,114377,1,0,0:0:0:0:
392,236,114534,2,0,L|403:336,1,90,2|0,0:0|0:0,0:0:0:0:
262,254,114846,2,0,L|255:351,1,90,2|0,0:0|0:0,0:0:0:0:
23,155,115159,6,0,L|121:149,1,90,2|0,0:0|0:0,0:0:0:0:
247,70,115471,2,0,L|256:172,1,90,2|0,0:0|0:0,0:0:0:0:
201,183,115705,1,0,0:0:0:0:
142,193,115784,2,0,L|39:202,1,90,2|0,0:0|0:0,0:0:0:0:
194,289,116096,2,0,L|79:290,1,90,2|0,0:0|0:0,0:0:0:0:
350,243,116409,6,0,L|444:232,1,90,2|0,0:0|0:0,0:0:0:0:
300,211,116721,2,0,L|293:108,1,90,2|0,0:0|0:0,0:0:0:0:
153,76,117034,2,0,L|264:74,1,90,2|0,0:0|0:0,0:0:0:0:
301,57,117268,1,0,0:0:0:0:
242,74,117346,2,0,L|131:80,1,90,2|0,0:0|0:0,0:0:0:0:
422,166,117659,6,0,L|436:273,1,90,2|0,0:0|0:0,0:0:0:0:
289,213,117971,2,0,L|278:329,1,90,2|0,0:0|0:0,0:0:0:0:
332,320,118205,1,0,0:0:0:0:
390,324,118284,2,0,L|492:317,1,90,2|0,0:0|0:0,0:0:0:0:
427,293,118518,1,0,0:0:0:0:
366,280,118596,2,0,L|305:277,1,45,2|0,0:0|0:0,0:0:0:0:
385,246,118752,2,0,L|325:240,1,45,0|0,0:0|0:0,0:0:0:0:
157,178,118909,6,0,L|35:185,1,90,6|0,0:0|0:0,0:0:0:0:
204,99,119221,2,0,L|217:217,1,90,10|0,0:0|0:0,0:0:0:0:
67,198,119534,2,0,L|56:308,1,90,2|0,0:0|0:0,0:0:0:0:
108,299,119768,1,0,0:0:0:0:
172,305,119846,1,10,0:0:0:0:
33,360,120002,1,0,0:0:0:0:
291,354,120159,6,0,P|312:291|209:244,1,180,6|10,0:0|0:0,0:0:0:0:
97,188,120627,2,0,L|73:145,2,45,0|0|2,0:0|0:0|0:0,0:0:0:0:
247,87,120940,2,0,L|270:47,1,45,0|0,0:0|0:0,0:0:0:0:
247,87,121096,2,0,L|107:87,1,135,10|0,0:0|0:0,0:0:0:0:
305,197,121409,6,0,L|423:201,1,90,6|0,0:0|0:0,0:0:0:0:
343,238,121643,1,0,0:0:0:0:
286,254,121721,2,0,L|184:267,1,90,10|0,0:0|0:0,0:0:0:0:
249,289,121955,1,0,0:0:0:0:
427,350,122034,6,0,L|430:243,1,90,6|0,0:0|0:0,0:0:0:0:
372,242,122268,1,0,0:0:0:0:
310,234,122346,2,0,L|468:214,1,135,10|0,0:0|0:0,0:0:0:0:
262,154,122659,6,0,L|152:144,1,90,6|0,0:0|0:0,0:0:0:0:
227,123,122893,1,0,0:0:0:0:
287,110,122971,2,0,L|393:99,1,90,14|2,0:0|0:0,0:0:0:0:
325,84,123205,1,2,0:0:0:0:
152,59,123284,6,0,L|54:57,1,90,6|2,0:0|0:0,0:0:0:0:
331,104,123596,1,10,0:0:0:0:
354,140,123674,1,2,0:0:0:0:
338,180,123752,1,2,0:0:0:0:
296,191,123830,1,2,0:0:0:0:
86,321,123909,6,0,P|63:270|174:201,1,207.000003948212,12|10,0:0|0:0,0:0:0:0:
418,208,124377,2,0,P|371:153|217:128,1,207.000003948212,2|2,0:0|0:0,0:0:0:0:
357,60,124846,1,8,0:0:0:0:
487,43,125002,1,2,0:0:0:0:
211,47,125159,6,0,L|198:176,1,103.500001974106,10|0,0:0|0:0,0:0:0:0:
262,168,125393,1,0,0:0:0:0:
327,173,125471,2,0,L|338:287,1,103.500001974106,10|0,0:0|0:0,0:0:0:0:
285,291,125705,1,0,0:0:0:0:
102,323,125784,6,0,L|91:206,1,103.500001974106,10|0,0:0|0:0,0:0:0:0:
156,197,126018,1,0,0:0:0:0:
220,192,126096,2,0,L|97:174,1,103.500001974106,10|0,0:0|0:0,0:0:0:0:
375,110,126409,6,0,L|260:92,1,103.500001974106,12|2,0:0|0:0,0:0:0:0:
219,81,126643,1,2,0:0:0:0:
155,77,126721,1,10,0:0:0:0:
417,42,126877,2,0,L|422:160,1,103.500001974106,12|2,0:0|0:0,0:0:0:0:
368,157,127112,1,2,0:0:0:0:
167,348,127190,6,0,P|117:316|194:225,1,207.000003948212,12|10,0:0|0:0,0:0:0:0:
236,221,127580,1,10,0:0:0:0:
430,178,127659,5,12,0:0:0:0:
262,110,127867,1,12,0:0:0:0:
430,178,128075,1,12,0:0:0:0:
138,236,128284,1,12,0:0:0:0:
295,132,128492,1,12,0:0:0:0:
460,95,128700,1,12,0:0:0:0:
151,32,128909,6,0,P|131:96|253:159,1,207.000003948212,6|10,0:0|0:0,0:0:0:0:
99,215,129377,1,0,0:0:0:0:
235,265,129534,2,0,L|350:275,1,103.500001974106,2|0,0:0|0:0,0:0:0:0:
194,349,129846,2,0,L|86:357,1,103.500001974106,10|0,0:0|0:0,0:0:0:0:
143,332,130080,1,0,0:0:0:0:
345,347,130159,6,0,P|375:289|266:218,1,207.000003948212,6|10,0:0|0:0,0:0:0:0:
143,198,130627,1,0,0:0:0:0:
282,211,130784,2,0,L|398:197,1,103.500001974106,2|0,0:0|0:0,0:0:0:0:
228,136,131096,2,0,L|356:120,1,103.500001974106,10|0,0:0|0:0,0:0:0:0:
274,107,131330,1,0,0:0:0:0:
74,153,131409,6,0,L|59:30,1,103.500001974106,6|2,0:0|0:0,0:0:0:0:
212,47,131721,1,2,0:0:0:0:
63,51,131877,1,2,0:0:0:0:
344,93,132034,6,0,L|354:153,1,51.7500009870529,12|8,0:0|0:0,0:0:0:0:
283,154,132190,2,0,L|275:213,1,51.7500009870529,8|8,0:0|0:0,0:0:0:0:
345,231,132346,2,0,L|403:239,1,51.7500009870529,8|8,0:0|0:0,0:0:0:0:
324,275,132502,2,0,L|266:286,1,51.7500009870529,8|8,0:0|0:0,0:0:0:0:
76,333,132659,5,6,0:0:0:0:
54,290,132737,1,2,0:0:0:0:
75,246,132815,1,2,0:0:0:0:
131,240,132893,1,2,0:0:0:0:
195,254,132971,6,0,L|258:250,1,51.7500009870529,2|2,0:0|0:0,0:0:0:0:
184,218,133127,2,0,L|114:212,1,51.7500009870529,2|2,0:0|0:0,0:0:0:0:
332,222,133284,6,0,L|386:211,1,51.7500009870529,6|0,0:0|0:0,0:0:0:0:
199,73,133440,2,0,L|103:68,1,51.7500009870529,6|0,0:0|0:0,0:0:0:0:
342,264,133596,6,0,P|374:199|282:146,1,180,14|2,0:0|0:0,0:0:0:0:
270,138,133961,1,0,0:0:0:0:
241,136,134013,1,0,0:0:0:0:
211,134,134065,1,2,0:0:0:0:
181,132,134117,1,0,0:0:0:0:
432,83,134221,5,6,0:0:0:0:
256,192,134377,12,4,136721,0:0:0:0:
