osu file format v14

[General]
AudioFilename: audio.mp3
AudioLeadIn: 0
PreviewTime: 93596
Countdown: 0
SampleSet: Soft
StackLeniency: 0.7
Mode: 2
LetterboxInBreaks: 0
WidescreenStoryboard: 1

[Editor]
Bookmarks: 62659,70784,90159
DistanceSpacing: 1
BeatDivisor: 4
GridSize: 32
TimelineZoom: 0.9999999

[Metadata]
Title:Dreadnought
TitleUnicode:Dreadnought
Artist:Mastermind (xi+nora2r)
ArtistUnicode:Mastermind (xi+nora2r)
Creator:Jemzuu
Version:Cup
Source:osu!
Tags:ajamez -momox razor sharp daletto NyalettOwO x3 featured artist mappers guild electronic instrumental video game SOUND VOLTEX IV HEAVENLY HAVEN CHUNITHM AIR bof bofu 2015 bms of fighters ultimate daikeesen World Fragments Diverse System 3rd solo album c89 comiket comic market Yusuke Ishiwata Breakthrough Arthas FA MG SDVX Arcaea 太鼓の達人 グリーンVer. のらねこさい Hardcore FRENZ2015
BeatmapID:2882490
BeatmapSetID:1393933

[Difficulty]
HPDrainRate:3
CircleSize:2.5
OverallDifficulty:6
ApproachRate:6
SliderMultiplier:1.2
SliderTickRate:1

[Events]
//Background and Video events
0,0,"science-fiction-game-digital-wallpaper.jpg",0,0
//Break Periods
//Storyboard Layer 0 (Background)
//Storyboard Layer 1 (Fail)
//Storyboard Layer 2 (Pass)
//Storyboard Layer 3 (Foreground)
//Storyboard Layer 4 (Overlay)
//Storyboard Sound Samples

[TimingPoints]
1409,312.5,4,2,7,70,1,0
1409,-133.333333333333,4,2,7,70,0,0
1487,-133.333333333333,4,2,0,30,0,0
6409,-100,4,2,2,50,0,0
6487,-100,4,2,2,20,0,0
7659,-100,4,2,0,30,0,0
7737,-100,4,2,2,30,0,0
8909,-100,4,2,2,60,0,0
9612,-100,4,2,0,60,0,0
10159,-100,4,2,2,60,0,0
10237,-100,4,2,0,60,0,0
13518,-100,4,2,0,60,0,0
13909,-100,4,2,2,60,0,0
14221,-100,4,2,0,60,0,0
16409,-100,4,2,2,60,0,0
16487,-100,4,2,0,60,0,0
18596,-100,4,2,0,60,0,0
18752,-100,4,2,2,60,0,0
18909,-100,4,2,2,60,0,0
20002,-100,4,2,2,60,0,0
22659,-100,4,2,0,60,0,0
22971,-100,4,2,0,60,0,0
23909,-100,4,2,2,60,0,0
23987,-100,4,2,2,60,0,0
27659,-100,4,2,97,70,0,0
28674,-100,4,2,97,60,0,0
28909,-100,4,2,2,60,0,0
29221,-100,4,2,2,60,0,0
29534,-100,4,2,2,60,0,0
29846,-100,4,2,2,60,0,0
30159,-100,4,2,2,60,0,0
30784,-100,4,2,2,60,0,0
31487,-100,4,2,0,60,0,0
32659,-100,4,2,97,80,0,0
33596,-100,4,2,2,60,0,0
33909,-100,4,2,7,60,0,0
34143,-100,4,2,2,60,0,0
38909,-100,4,2,3,60,0,0
39377,-100,4,2,3,60,0,0
41409,-100,4,2,3,60,0,0
43909,-100,4,2,2,60,0,0
52034,-100,4,2,97,60,0,0
52659,-100,4,2,2,60,0,0
53596,-100,4,2,2,60,0,0
53909,-100,4,2,99,100,0,0
53987,-100,4,2,0,45,0,0
66409,-100,4,2,0,45,0,0
70159,-100,4,2,0,45,0,0
71018,-100,4,2,0,45,0,0
71409,-100,4,2,0,45,0,0
72659,-100,4,2,0,60,0,0
73284,-100,4,2,2,60,0,0
73596,-100,4,2,2,60,0,0
73648,-100,4,2,0,60,0,0
73909,-100,4,2,2,60,0,0
73987,-100,4,2,0,60,0,0
75159,-100,4,2,2,60,0,0
75627,-100,4,2,0,60,0,0
76409,-100,4,2,2,60,0,0
76487,-100,4,2,0,60,0,0
77034,-100,4,2,2,60,0,0
77190,-100,4,2,0,60,0,0
77659,-100,4,2,2,60,0,0
78362,-100,4,2,0,60,0,0
78909,-100,4,2,2,60,0,0
78987,-100,4,2,2,60,0,0
80159,-100,4,2,2,60,0,0
80237,-100,4,2,2,60,0,0
81096,-100,4,2,0,60,0,0
81409,-100,4,2,2,60,0,0
81487,-100,4,2,2,60,0,0
82034,-100,4,2,2,60,0,0
82112,-100,4,2,2,60,0,0
83674,-100,4,2,0,60,0,0
83909,-100,4,2,2,60,0,0
83987,-100,4,2,97,30,0,0
84534,-100,4,2,97,35,0,0
85159,-100,4,2,97,40,0,0
85784,-100,4,2,97,45,0,0
86409,-100,4,2,97,50,0,0
87034,-100,4,2,97,55,0,0
87659,-100,4,2,97,60,0,0
88284,-100,4,2,97,65,0,0
88909,-100,4,2,97,70,0,0
90159,-100,4,2,97,70,0,0
91409,-100,4,2,98,100,0,0
91721,-100,4,2,2,60,0,0
91799,-100,4,2,0,60,0,0
93284,-100,4,2,2,60,0,0
93596,-100,4,2,2,60,0,0
93674,-100,4,2,0,60,0,0
93909,-100,4,2,99,80,0,1
93987,-100,4,2,4,80,0,1
97971,-100,4,2,4,80,0,1
98284,-100,4,2,4,80,0,1
100784,-100,4,2,4,80,0,1
100940,-100,4,2,4,80,0,1
103205,-100,4,2,4,80,0,1
103440,-100,4,2,4,80,0,0
103596,-100,4,2,4,80,0,0
103752,-100,4,2,4,60,0,0
104221,-100,4,2,2,80,0,1
104377,-100,4,2,4,80,0,1
107815,-100,4,2,4,5,0,1
107867,-100,4,2,4,80,0,1
108023,-100,4,2,4,5,0,1
108075,-100,4,2,4,80,0,1
108231,-100,4,2,4,5,0,1
108283,-100,4,2,4,80,0,1
108284,-100,4,2,4,80,0,1
108440,-100,4,2,4,5,0,1
108492,-100,4,2,4,80,0,1
108648,-100,4,2,4,5,0,1
108700,-100,4,2,4,80,0,1
108856,-100,4,2,4,5,0,1
108909,-100,4,2,2,80,0,1
112034,-100,4,2,97,80,0,1
112659,-100,4,2,2,70,0,1
112737,-100,4,2,0,70,0,1
113284,-100,4,2,2,70,0,1
113909,-100,4,2,2,60,0,0
118909,-100,4,2,2,70,0,0
121487,-100,4,2,2,70,0,0
122034,-100,4,2,2,70,0,0
122112,-100,4,2,2,70,0,0
122659,-100,4,2,2,70,0,0
123674,-100,4,2,0,70,0,0
123909,-100,4,2,4,80,0,1
127815,-100,4,2,4,5,0,1
127867,-100,4,2,4,80,0,1
128023,-100,4,2,4,5,0,1
128075,-100,4,2,4,80,0,1
128231,-100,4,2,4,5,0,1
128283,-100,4,2,4,80,0,1
128284,-100,4,2,4,80,0,1
128440,-100,4,2,4,5,0,1
128492,-100,4,2,4,80,0,1
128648,-100,4,2,4,5,0,1
128700,-100,4,2,4,80,0,1
128856,-100,4,2,4,5,0,1
128909,-100,4,2,2,80,0,1
132034,-100,4,2,97,80,0,1
132659,-100,4,2,0,80,0,1
133284,-100,4,2,2,80,0,1
133596,-100,4,2,2,80,0,0
133909,-100,4,2,98,80,0,0
133961,-100,4,2,0,60,0,0
134221,-100,4,2,7,80,0,0
134299,-100,4,2,0,60,0,0
136721,-100,4,2,99,30,0,0

[Colours]
Combo1 : 120,120,120
Combo2 : 192,192,192
Combo3 : 108,182,255

[HitObjects]
168,248,1409,6,0,P|151:178|298:248,1,360.000013732911,6|2,0:0|0:0,0:0:0:0:
156,282,3284,2,0,L|53:281,1,90.0000034332277,2|2,0:0|0:0,0:0:0:0:
169,231,3909,6,0,L|326:138,3,180.000006866455,2|2|2|2,0:0|0:0|0:0|0:0,0:0:0:0:
421,128,6096,1,0,0:0:0:0:
266,64,6409,6,0,P|215:73|210:198,1,180,4|2,1:1|0:0,0:0:0:0:
257,210,7034,1,10,0:0:0:0:
467,151,7659,2,0,P|477:221|378:278,1,180,2|2,0:0|0:0,0:0:0:0:
334,281,8284,1,10,0:0:0:0:
168,311,8752,1,2,0:0:0:0:
99,300,8909,6,0,L|283:247,1,180,2|2,0:0|0:0,0:0:0:0:
341,262,9534,2,0,P|365:211|314:101,1,180,10|2,0:0|0:0,0:0:0:0:
235,100,10159,5,4,1:1:0:0:
256,192,10471,12,0,12971,0:0:0:0:
246,104,13284,6,0,L|117:135,1,120,2|2,0:0|0:0,0:0:0:0:
189,171,13752,1,2,0:0:0:0:
269,188,13909,6,0,L|446:295,2,180,6|2|2,0:0|0:0|0:0,0:0:0:0:
88,209,15315,5,2,0:0:0:0:
269,142,15784,2,0,L|407:125,1,120,2|2,0:0|0:0,0:0:0:0:
237,58,16409,5,6,0:0:0:0:
125,91,16721,2,0,L|119:279,1,180,2|2,0:0|0:0,0:0:0:0:
320,337,17659,6,0,L|145:291,1,180,2|2,0:0|0:0,0:0:0:0:
30,202,18440,1,2,0:0:0:0:
91,150,18596,1,2,0:0:0:0:
248,214,18909,6,0,L|252:71,1,120,6|8,0:0|0:0,0:0:0:0:
386,48,19534,2,0,L|399:175,1,120,8|8,0:0|0:0,0:0:0:0:
245,220,20159,6,0,L|312:255,1,60,6|0,0:0|0:0,0:0:0:0:
363,253,20471,1,8,0:0:0:0:
232,340,20784,2,0,L|88:325,1,120,8|8,0:0|0:0,0:0:0:0:
268,273,21409,6,0,L|273:135,1,120,6|8,0:0|0:0,0:0:0:0:
127,158,22034,2,0,L|115:35,1,120,14|8,0:0|0:0,0:0:0:0:
258,71,22659,6,0,L|401:80,1,120,2|2,0:0|0:0,0:0:0:0:
235,180,23284,2,0,L|88:201,1,120,6|6,0:0|0:0,0:0:0:0:
177,239,23752,1,0,0:0:0:0:
257,262,23909,6,0,L|382:268,2,120,6|10|2,0:0|0:0|0:0,0:0:0:0:
131,326,24846,1,10,0:0:0:0:
267,357,25159,6,0,L|271:209,1,120,6|10,0:0|0:0,0:0:0:0:
407,236,25784,2,0,L|415:105,1,120,2|10,0:0|0:0,0:0:0:0:
267,89,26409,6,0,L|137:79,1,120,6|10,0:0|0:0,0:0:0:0:
290,129,27034,2,0,L|297:257,1,120,6|10,0:0|0:0,0:0:0:0:
148,277,27659,6,0,L|30:328,1,120,12|8,0:0|0:0,0:0:0:0:
166,349,28284,1,12,0:0:0:0:
225,343,28440,1,8,0:0:0:0:
285,338,28596,1,12,0:0:0:0:
135,297,28909,6,0,L|122:163,1,120,6|6,0:0|0:0,0:0:0:0:
266,179,29534,2,0,L|268:49,1,120,6|6,0:0|0:0,0:0:0:0:
417,71,30159,6,6,L|358:111,1,60,6|6,0:2|0:2,0:2:0:0:
305,113,30471,1,6,0:2:0:0:
173,55,30784,2,0,L|181:123,1,60,6|6,0:0|0:0,0:0:0:0:
248,129,31096,2,0,L|322:141,1,60,6|6,0:0|0:0,0:0:0:0:
235,155,31409,6,0,P|179:160|259:337,1,360,4|2,0:0|0:0,0:0:0:0:
395,337,32659,6,0,L|419:275,2,60,12|8|8,0:0|0:0|0:0,0:0:0:0:
327,345,33127,2,0,L|248:343,2,60,12|8|8,0:0|0:0|0:0,0:0:0:0:
397,340,33596,1,12,0:0:0:0:
242,246,33909,6,0,L|105:211,2,120,6|2|2,3:2|0:0|0:0,0:0:0:0:
370,127,34846,2,0,L|303:118,1,60,2|0,0:0|0:0,0:0:0:0:
242,125,35159,6,0,L|232:255,1,120,2|2,0:0|0:0,0:0:0:0:
93,266,35784,2,0,L|57:201,2,60,2|0|2,0:0|0:0|0:0,0:0:0:0:
239,238,36409,6,0,L|376:203,2,120,2|2|2,0:0|0:0|0:0,0:0:0:0:
108,211,37346,2,0,L|43:193,1,60,2|0,0:0|0:0,0:0:0:0:
114,171,37659,6,0,L|250:137,1,120,2|2,0:0|0:0,0:0:0:0:
368,110,38284,2,0,L|377:244,1,120,2|2,0:0|0:0,0:0:0:0:
313,249,38752,1,2,0:0:0:0:
239,251,38909,6,0,L|112:237,2,120,6|10|2,0:0|0:0|0:0,0:0:0:0:
371,217,39846,2,0,L|437:193,1,60,10|0,0:0|0:0,0:0:0:0:
365,173,40159,6,0,L|234:149,1,120,2|10,0:0|0:0,0:0:0:0:
385,69,40784,2,0,L|460:58,2,60,2|0|10,0:0|0:0|0:0,0:0:0:0:
229,95,41409,6,0,L|225:230,1,120,6|10,0:0|0:0,0:0:0:0:
374,287,42034,2,0,L|246:313,1,120,6|10,0:0|0:0,0:0:0:0:
119,335,42659,6,0,P|105:295|159:225,1,120,6|10,0:0|0:0,0:0:0:0:
205,218,43127,1,2,0:0:0:0:
273,207,43284,2,0,L|411:182,1,120,2|10,0:0|0:0,0:0:0:0:
241,104,43909,6,0,L|114:83,2,120,6|2|2,0:0|0:0|0:0,0:0:0:0:
340,110,44768,2,0,L|348:215,1,90,0|0,0:0|0:0,0:0:0:0:
273,227,45159,6,0,L|133:249,1,120,2|2,0:0|0:0,0:0:0:0:
122,286,45627,1,0,0:0:0:0:
155,246,45784,1,2,0:0:0:0:
283,280,46096,1,2,0:0:0:0:
144,162,46409,6,0,L|2:135,2,120,2|2|2,0:0|0:0|0:0,0:0:0:0:
241,168,47268,2,0,L|145:197,1,90,0|0,0:0|0:0,0:0:0:0:
85,213,47659,6,0,P|52:253|74:331,1,120,2|2,0:0|0:0,0:0:0:0:
122,330,48127,1,0,0:0:0:0:
189,327,48284,1,2,0:0:0:0:
332,232,48596,2,0,L|259:220,1,60,2|2,0:0|0:0,0:0:0:0:
198,224,48909,6,0,L|184:89,1,120,6|10,0:0|0:0,0:0:0:0:
326,78,49534,2,0,L|339:206,1,120,2|10,0:0|0:0,0:0:0:0:
485,257,50159,6,0,L|361:279,1,120,6|10,0:0|0:0,0:0:0:0:
226,170,50784,2,0,L|365:147,1,120,6|10,0:0|0:0,0:0:0:0:
411,131,51252,1,2,0:0:0:0:
341,124,51409,6,0,L|206:113,1,120,6|6,0:0|0:0,0:0:0:0:
155,86,51877,1,2,0:0:0:0:
225,77,52034,2,0,L|348:55,1,120,12|12,0:0|0:0,0:0:0:0:
196,28,52659,6,0,L|185:163,1,120,14|2,0:0|0:0,0:0:0:0:
250,175,53127,1,0,0:0:0:0:
316,188,53284,1,2,0:0:0:0:
173,277,53596,1,10,0:0:0:0:
333,319,53909,6,0,P|377:284|192:328,1,900,6|0,0:0|0:0,0:0:0:0:
260,328,56409,6,0,P|333:302|141:294,1,900,2|0,0:0|0:0,0:0:0:0:
200,311,58909,6,0,P|281:273|125:304,1,900,2|0,0:0|0:0,0:0:0:0:
187,312,61409,6,0,P|357:295|425:118,1,360,2|2,0:0|0:0,0:0:0:0:
366,112,62502,1,2,0:0:0:0:
297,92,62659,6,0,P|243:92|306:275,1,360,2|2,0:0|0:0,0:0:0:0:
366,283,63752,1,2,0:0:0:0:
443,289,63909,6,0,P|472:230|269:358,1,900,6|0,0:0|0:0,0:0:0:0:
313,355,66409,6,0,P|363:321|156:347,1,900,2|0,0:0|0:0,0:0:0:0:
205,346,68909,6,0,P|305:328|217:111,1,420,2|0,0:0|0:0,0:0:0:0:
155,100,70159,6,0,P|97:109|123:255,1,240,2|0,0:0|0:0,0:0:0:0:
210,271,71018,2,0,L|308:238,1,90,0|0,0:0|0:0,0:0:0:0:
229,206,71409,6,0,P|174:190|317:124,1,420,2|0,0:0|0:0,0:0:0:0:
250,140,72659,6,0,P|205:134|99:281,1,240,2|8,0:0|0:0,0:0:0:0:
156,306,73440,1,8,0:0:0:0:
221,318,73596,1,10,0:0:0:0:
371,231,73909,6,0,L|239:206,2,120,6|2|2,0:0|0:0|0:0,0:0:0:0:
493,198,74846,1,2,0:0:0:0:
363,122,75159,6,0,L|233:101,1,120,14|2,0:0|0:0,0:0:0:0:
108,213,75784,2,0,L|98:82,1,120,2|2,0:0|0:0,0:0:0:0:
243,83,76409,6,0,L|375:51,2,120,6|2|10,0:0|0:0|0:0,0:0:0:0:
117,81,77346,1,2,0:0:0:0:
257,138,77659,6,0,L|285:71,2,60,6|2|10,0:0|0:0|0:0,0:0:0:0:
122,162,78284,2,0,P|61:178|50:250,1,120,2|2,0:0|0:0,0:0:0:0:
193,275,78909,6,0,L|317:248,2,120,6|10|0,0:0|0:0|0:0,0:0:0:0:
65,285,79846,1,8,0:0:0:0:
208,311,80159,6,0,L|343:280,1,120,6|10,0:0|0:0,0:0:0:0:
356,253,80627,1,2,0:0:0:0:
325,284,80784,1,2,0:0:0:0:
194,242,81096,1,2,0:0:0:0:
341,189,81409,6,0,L|473:165,1,120,6|10,0:0|0:0,0:0:0:0:
315,93,82034,2,0,L|181:76,1,120,6|10,0:0|0:0,0:0:0:0:
342,26,82659,6,0,L|352:154,1,120,10|10,0:0|0:0,0:0:0:0:
212,193,83284,2,0,L|140:200,1,60,2|2,0:0|0:0,0:0:0:0:
370,300,83909,5,6,0:0:0:0:
256,192,84221,12,2,91409,0:0:0:0:
246,88,91721,6,0,P|195:92|268:188,1,240,6|2,0:0|0:0,0:0:0:0:
378,263,92659,1,2,0:0:0:0:
247,257,92971,2,0,L|117:271,1,120,2|2,0:0|0:0,0:0:0:0:
259,348,93596,2,0,L|335:337,1,60,10|2,0:0|0:0,0:0:0:0:
241,281,93909,6,0,L|97:268,1,120,10|10,0:0|0:0,0:0:0:0:
57,284,94377,2,0,P|34:216|80:171,1,120,2|2,0:0|0:0,0:0:0:0:
115,154,94846,1,8,0:0:0:0:
174,148,95002,1,2,0:0:0:0:
242,146,95159,6,0,L|371:107,2,120,10|10|10,0:0|0:0|0:0,0:0:0:0:
118,137,96096,1,10,0:0:0:0:
255,203,96409,6,0,L|380:219,1,120,10|10,0:0|0:0,0:0:0:0:
442,241,96877,2,0,P|470:197|432:135,1,120,2|2,0:0|0:0,0:0:0:0:
383,134,97346,1,8,0:0:0:0:
323,131,97502,1,2,0:0:0:0:
259,122,97659,6,0,L|135:106,1,120,10|10,0:0|0:0,0:0:0:0:
283,73,98284,2,0,L|291:210,1,120,10|10,0:0|0:0,0:0:0:0:
225,208,98752,1,10,0:0:0:0:
157,217,98909,6,0,L|29:217,1,120,12|10,0:0|0:0,0:0:0:0:
101,265,99377,2,0,L|232:278,1,120,2|2,0:0|0:0,0:0:0:0:
284,321,99846,2,0,L|209:344,1,60,8|2,0:0|0:0,0:0:0:0:
155,342,100159,6,0,L|148:217,1,120,10|10,0:0|0:0,0:0:0:0:
295,168,100784,2,0,L|170:156,1,120,10|10,0:0|0:0,0:0:0:0:
242,126,101252,1,2,0:0:0:0:
309,111,101409,6,0,L|450:104,1,120,12|10,0:0|0:0,0:0:0:0:
295,52,102034,6,0,L|201:58,1,90,12|12,0:0|0:0,0:0:0:0:
305,142,102502,2,0,L|413:148,1,90,12|12,0:0|0:0,0:0:0:0:
289,253,102971,2,0,L|192:268,1,90,12|12,0:0|0:0,0:0:0:0:
309,342,103440,5,12,0:0:0:0:
331,288,103596,1,10,0:0:0:0:
310,233,103752,1,14,0:0:0:0:
247,220,103909,1,10,0:0:0:0:
101,197,104221,5,14,0:0:0:0:
41,179,104377,2,0,L|177:157,1,120,2|2,0:0|0:0,0:0:0:0:
225,113,104846,2,0,L|152:102,1,60,8|2,0:0|0:0,0:0:0:0:
96,98,105159,6,0,L|77:225,1,120,10|10,0:0|0:0,0:0:0:0:
213,189,105784,2,0,L|222:325,1,120,10|10,0:0|0:0,0:0:0:0:
372,332,106409,6,0,L|246:303,1,120,12|10,0:0|0:0,0:0:0:0:
191,296,106877,1,14,0:0:0:0:
328,226,107190,2,0,L|455:202,1,120,12|10,0:0|0:0,0:0:0:0:
368,167,107659,6,0,L|276:157,2,80,12|12|12,0:0|0:0|0:0,0:0:0:0:
459,160,108284,2,0,L|493:73,2,80,12|12|12,0:0|0:0|0:0,0:0:0:0:
364,175,108909,6,0,L|216:187,1,120,6|10,0:0|0:0,0:0:0:0:
107,265,109534,2,0,L|97:126,1,120,2|10,0:0|0:0,0:0:0:0:
162,117,110002,1,0,0:0:0:0:
230,102,110159,6,0,L|361:89,1,120,6|10,0:0|0:0,0:0:0:0:
217,219,110784,2,0,L|85:221,1,120,2|10,0:0|0:0,0:0:0:0:
157,263,111252,1,0,0:0:0:0:
231,276,111409,6,0,L|304:282,2,60,6|2|2,0:0|0:0|0:0,0:0:0:0:
80,332,112034,6,0,L|71:206,1,120,12|8,0:0|0:0,0:0:0:0:
219,168,112659,6,0,L|356:156,2,120,6|2|6,0:0|0:0|0:0,0:0:0:0:
187,138,113440,1,6,0:0:0:0:
219,167,113596,1,14,0:0:0:0:
370,269,113909,6,0,L|375:143,1,120,2|2,0:0|0:0,0:0:0:0:
246,111,114534,2,0,L|119:104,1,120,2|2,0:0|0:0,0:0:0:0:
190,78,115002,1,0,0:0:0:0:
259,72,115159,6,0,L|382:72,2,120,2|2|2,0:0|0:0|0:0,0:0:0:0:
135,88,116096,1,2,0:0:0:0:
270,170,116409,6,0,L|404:181,1,120,2|2,0:0|0:0,0:0:0:0:
252,317,117034,2,0,L|240:182,1,120,2|2,0:0|0:0,0:0:0:0:
303,173,117502,1,0,0:0:0:0:
370,166,117659,6,0,L|502:164,2,120,2|2|2,0:0|0:0|0:0,0:0:0:0:
233,128,118596,2,0,L|155:125,1,60,2|0,0:0|0:0,0:0:0:0:
241,111,118909,6,0,L|373:98,2,120,6|10|2,0:0|0:0|0:0,0:0:0:0:
149,162,119768,1,0,0:0:0:0:
243,110,120002,1,0,0:0:0:0:
310,106,120159,6,0,L|318:236,1,120,6|10,0:0|0:0,0:0:0:0:
253,257,120627,1,0,0:0:0:0:
184,275,120784,2,0,L|47:291,1,120,2|10,0:0|0:0,0:0:0:0:
208,361,121409,6,0,L|213:222,1,120,6|10,0:0|0:0,0:0:0:0:
63,229,122034,2,0,L|59:106,1,120,6|10,0:0|0:0,0:0:0:0:
208,80,122659,6,0,L|346:71,1,120,6|14,0:0|0:0,0:0:0:0:
264,117,123127,1,2,0:0:0:0:
190,131,123284,2,0,L|186:257,1,120,6|10,0:0|0:0,0:0:0:0:
339,278,123909,6,0,L|212:292,1,120,12|10,0:0|0:0,0:0:0:0:
286,331,124377,2,0,L|406:316,1,120,2|2,0:0|0:0,0:0:0:0:
470,260,124846,2,0,L|398:261,1,60,8|2,0:0|0:0,0:0:0:0:
336,263,125159,6,0,L|329:128,1,120,10|10,0:0|0:0,0:0:0:0:
475,162,125784,2,0,L|483:31,1,120,10|10,0:0|0:0,0:0:0:0:
329,61,126409,6,0,L|188:64,1,120,12|10,0:0|0:0,0:0:0:0:
147,67,126877,1,12,0:0:0:0:
288,137,127190,2,0,L|294:269,1,120,12|10,0:0|0:0,0:0:0:0:
218,276,127659,6,0,L|125:285,2,80,12|12|12,0:0|0:0|0:0,0:0:0:0:
310,282,128284,2,0,L|345:197,2,80,12|12|12,0:0|0:0|0:0,0:0:0:0:
214,309,128909,6,0,L|70:300,1,120,6|10,0:0|0:0,0:0:0:0:
232,211,129534,2,0,L|376:195,1,120,2|10,0:0|0:0,0:0:0:0:
287,171,130002,1,0,0:0:0:0:
216,157,130159,6,0,L|82:139,1,120,6|10,0:0|0:0,0:0:0:0:
238,95,130784,2,0,L|246:242,1,120,2|10,0:0|0:0,0:0:0:0:
179,239,131252,1,0,0:0:0:0:
103,246,131409,6,0,L|32:242,2,60,6|2|2,0:0|0:0|0:0,0:0:0:0:
253,340,132034,2,0,L|130:326,1,120,12|8,0:0|0:0,0:0:0:0:
285,252,132659,6,0,L|397:198,1,120,6|2,0:0|0:0,0:0:0:0:
255,169,133284,2,0,L|230:111,2,60,6|6|14,0:0|0:0|0:0,0:0:0:0:
387,188,133909,1,2,0:0:0:0:
225,280,134221,5,6,0:0:0:0:
256,192,134534,12,4,136721,0:0:0:0:
