osu file format v14

[General]
AudioFilename: audio.mp3
AudioLeadIn: 0
PreviewTime: 75005
Countdown: 1
SampleSet: None
StackLeniency: 0.7
Mode: 0
LetterboxInBreaks: 0
WidescreenStoryboard: 0

[Editor]
DistanceSpacing: 1.7
BeatDivisor: 4
GridSize: 8
TimelineZoom: 1

[Metadata]
Title:nightbird lost wing
TitleUnicode:nightbird lost wing
Artist:Master+
ArtistUnicode:猫叉Master+
Creator:EvilElvis
Version:emas
Source:
Tags:
BeatmapID:1296940
BeatmapSetID:614827

[Difficulty]
HPDrainRate:6
CircleSize:4
OverallDifficulty:8
ApproachRate:9
SliderMultiplier:1.8
SliderTickRate:1

[Events]
//Background and Video events
0,0,"gg.jpg",0,0
//Break Periods
//Storyboard Layer 0 (Background)
//Storyboard Layer 1 (Fail)
//Storyboard Layer 2 (Pass)
//Storyboard Layer 3 (Foreground)
//Storyboard Sound Samples

[TimingPoints]
479,315.789473684211,4,2,1,20,1,0
479,-100,4,2,1,20,0,0
3005,-142.857142857143,4,2,1,50,0,0
6794,-200,4,2,1,10,0,0
7900,-200,4,2,1,50,0,0
8057,-142.857142857143,4,2,1,50,0,0
9794,-142.857142857143,4,2,1,10,0,0
10426,-142.857142857143,4,2,1,50,0,0
11847,-100,4,2,1,50,0,0
13110,-100,4,2,1,80,0,0
14373,-125,4,2,1,80,0,0
15636,-100,4,2,1,80,0,0
21952,-200,4,2,1,80,0,0
23215,-100,4,2,1,80,0,0
54005,-200,4,2,1,80,0,0
54479,-100,4,2,1,80,0,0
55742,-125,4,2,1,80,0,0
56057,-100,4,2,1,80,0,0
56531,-142.857142857143,4,2,1,80,0,0
58584,-100,4,2,1,80,0,0
59531,-142.857142857143,4,2,1,80,0,0
60479,-100,4,2,1,80,0,0
60794,-142.857142857143,4,2,1,80,0,0
61110,-100,4,2,1,80,0,0
66084,-100,4,2,1,80,0,0
74689,-142.857142857143,4,2,1,80,0,0
75005,-100,4,2,1,85,0,1
95215,-100,4,2,1,80,0,0

[Colours]
Combo1 : 241,184,240
Combo2 : 209,196,247
Combo3 : 157,201,255
Combo4 : 159,236,155

[HitObjects]
256,192,479,12,2,2847,0:0:0:0:
144,240,3005,6,0,L|152:320,2,62.9999980773926,4|0|2,0:0|0:0|0:0,0:0:0:0:
361,125,3479,2,0,L|368:62,2,62.9999980773926,0|0|2,0:0|0:0|0:0,0:0:0:0:
257,193,4900,5,0,0:0:0:0:
257,193,5531,6,0,P|300:186|326:184,1,62.9999980773926
407,201,5847,1,2,0:0:0:0:
291,322,6005,2,0,P|248:315|222:313,1,62.9999980773926
141,330,6321,1,2,0:0:0:0:
141,330,6794,6,0,L|131:192,1,135,0|8,0:0|0:0,0:0:0:0:
219,99,7426,1,8,0:3:0:0:
136,182,7584,1,4,0:3:0:0:
43,123,7742,1,8,0:3:0:0:
300,144,7900,1,8,0:0:0:0:
300,144,7979,1,0,0:0:0:0:
300,144,8057,6,0,P|329:145|366:159,1,62.9999980773926
307,231,8373,1,2,0:0:0:0:
445,185,8531,2,0,L|452:98,1,62.9999980773926
399,315,8847,1,2,0:0:0:0:
399,315,9794,5,0,0:0:0:0:
365,300,9952,1,0,0:0:0:0:
328,297,10110,1,0,0:0:0:0:
292,307,10268,1,0,0:0:0:0:
128,262,10426,1,8,0:0:0:0:
128,262,10505,1,0,0:0:0:0:
128,262,10584,6,0,P|136:292|141:323,1,62.9999980773926
210,122,10900,1,2,0:0:0:0:
283,178,11057,2,0,P|276:208|269:261,1,62.9999980773926
23,214,11373,1,2,0:0:0:0:
23,214,11847,5,4,0:3:0:0:
210,122,12057,1,8,0:3:0:0:
34,41,12268,1,8,0:0:0:0:
34,41,12373,1,8,0:0:0:0:
34,41,12479,2,2,L|40:93,3,45
210,122,12794,2,2,L|216:77,2,45
158,203,13031,1,0,0:0:0:0:
158,203,13110,6,0,P|207:218|300:140,1,180,4|2,0:0|0:0,0:0:0:0:
446,198,13584,1,0,0:0:0:0:
377,121,13742,2,0,P|371:71|370:-1,1,90,0|2,0:0|0:0,0:0:0:0:
500,124,14057,1,0,0:0:0:0:
321,225,14215,1,0,0:0:0:0:
428,276,14373,6,0,P|462:301|489:333,1,72
337,344,14689,2,0,L|220:331,1,108
200,352,15005,1,2,0:0:0:0:
225,210,15163,1,0,0:0:0:0:
225,210,15242,1,0,0:0:0:0:
225,210,15321,1,0,0:0:0:0:
87,168,15479,1,0,0:0:0:0:
311,297,15636,6,0,B|337:256|337:256|320:111,1,180,2|0,0:0|0:0,0:0:0:0:
189,67,16110,1,0,0:0:0:0:
342,120,16268,1,2,0:0:0:0:
168,75,16426,2,0,P|142:84|116:94,1,45
367,114,16584,2,0,P|377:63|380:17,1,90
491,157,16900,6,0,P|471:243|455:335,1,180,2|0,0:0|0:0,0:0:0:0:
233,293,17373,1,0,0:0:0:0:
350,358,17531,2,0,B|367:314|367:314|358:267,1,90,2|0,0:0|0:0,0:0:0:0:
353,250,17768,1,0,0:0:0:0:
347,228,17847,1,0,0:0:0:0:
190,283,18005,2,0,P|226:290|258:303,1,45,2|2,0:0|0:0,0:0:0:0:
119,347,18163,6,0,P|97:297|167:197,1,180,2|2,0:0|0:0,0:0:0:0:
239,209,18636,1,0,0:0:0:0:
25,353,18794,2,0,L|11:256,1,90,0|2,0:0|0:0,0:0:0:0:
171,110,19110,2,0,L|159:199,1,90
14,40,19426,2,0,B|58:27|58:27|117:30,2,90
160,199,19900,5,2,0:0:0:0:
365,125,20058,1,2,0:0:0:0:
243,306,20215,1,2,0:0:0:0:
235,87,20373,1,2,0:0:0:0:
369,260,20531,1,2,0:0:0:0:
67,173,20689,6,0,L|80:288,1,90,2|2,0:0|0:0,0:0:0:0:
78,262,20926,1,0,0:0:0:0:
78,262,21005,1,0,0:0:0:0:
298,365,21163,1,0,0:0:0:0:
244,139,21321,2,0,P|251:88|274:28,1,90,0|2,0:0|0:0,0:0:0:0:
186,245,21636,1,0,0:0:0:0:
436,142,21794,1,0,0:0:0:0:
303,320,21952,6,0,L|298:372,2,45,0|0|2,0:0|0:0|0:0,0:0:0:0:
456,279,22426,1,0,0:0:0:0:
456,279,22479,1,0,0:0:0:0:
456,279,22531,1,0,0:0:0:0:
456,279,22584,2,0,L|457:324,1,45
339,233,22900,2,0,P|338:198|342:157,1,67.5
430,117,23215,6,0,P|382:143|280:83,1,180,6|8,0:0|0:0,0:0:0:0:
108,192,23689,1,0,0:0:0:0:
108,192,24005,2,0,P|148:185|179:182,1,45
148,65,24163,2,0,P|95:59|11:53,1,135,10|0,0:0|0:0,0:0:0:0:
14,53,24479,5,2,0:0:0:0:
175,151,24636,2,2,P|187:146|203:142,2,30
153,184,24794,2,0,P|147:228|133:271,1,90,8|0,0:0|0:0,0:0:0:0:
278,359,25110,2,0,P|264:316|258:271,1,90,2|0,0:0|0:0,0:0:0:0:
363,180,25347,1,0,0:0:0:0:
363,180,25426,2,0,L|461:188,1,90,10|0,0:0|0:0,0:0:0:0:
457,377,25742,6,0,L|259:356,1,180,2|8,0:0|0:0,0:0:0:0:
380,268,26215,1,0,0:0:0:0:
380,268,26531,2,0,L|378:217,1,45
484,238,26689,2,0,P|496:182|471:81,1,135,10|0,0:0|0:0,0:0:0:0:
409,70,27005,6,0,P|451:64|494:26,1,90,2|0,0:0|0:0,0:0:0:0:
319,143,27321,2,0,P|285:115|241:108,1,90,10|0,0:0|0:0,0:0:0:0:
325,36,27636,1,0,0:0:0:0:
253,196,27794,2,0,P|257:232|258:257,1,45
134,350,27952,1,8,0:0:0:0:
100,316,28057,2,2,L|106:248,1,60
32,215,28268,6,0,B|97:202|97:202|141:217|141:217|216:200,1,180,0|8,0:0|0:0,0:0:0:0:
453,293,28742,1,0,0:0:0:0:
453,293,29057,2,0,P|440:315|426:342,1,45
426,359,29215,1,8,0:0:0:0:
293,262,29373,1,2,0:0:0:0:
485,212,29531,6,0,P|501:168|491:114,1,90,0|0,1:0|0:0,0:0:0:0:
293,262,29847,1,8,0:0:0:0:
407,162,30005,1,2,0:0:0:0:
205,166,30163,6,0,P|189:122|199:68,1,90,0|0,0:0|1:0,0:0:0:0:
212,58,30400,1,0,0:0:0:0:
232,38,30479,1,8,0:0:0:0:
407,162,30636,1,2,0:0:0:0:
194,256,30794,6,0,B|105:227|110:285|5:260,1,180,0|8,0:0|0:0,0:0:0:0:
146,326,31268,2,0,L|156:378,1,45,2|0,0:0|0:0,0:0:0:0:
56,185,31426,2,0,L|70:88,1,90
181,51,31663,1,0,0:0:0:0:
181,51,31742,2,0,L|169:140,1,90,8|2,0:0|0:0,0:0:0:0:
356,349,32057,6,0,P|420:351|473:286,1,135
469,303,32373,1,8,0:0:0:0:
169,140,32531,1,8,0:0:0:0:
380,266,32689,1,8,0:3:0:0:
398,237,32767,1,0,0:0:0:0:
407,204,32846,1,8,0:3:0:0:
406,171,32925,1,0,0:0:0:0:
396,139,33004,1,8,0:0:0:0:
245,270,33163,2,0,P|246:297|250:324,1,45
486,229,33321,6,0,L|496:46,1,180,4|8,0:0|0:0,0:0:0:0:
289,125,33794,1,0,0:0:0:0:
289,125,34110,2,0,P|299:93|302:58,1,45
216,96,34268,2,0,P|158:100|121:105,1,90,8|2,0:0|0:0,0:0:0:0:
305,208,34584,6,0,P|322:157|367:61,1,135
356,82,34900,1,10,0:0:0:0:
445,183,35057,1,0,0:0:0:0:
367,292,35215,2,0,P|327:295|272:312,1,90,2|0,0:0|0:0,0:0:0:0:
175,354,35452,1,2,0:0:0:0:
175,354,35531,2,0,P|188:310|192:266,1,90,8|0,0:0|0:0,0:0:0:0:
71,213,35768,5,2,0:0:0:0:
71,213,35847,6,0,P|129:242|226:180,1,180,0|8,0:0|0:0,0:0:0:0:
288,95,36321,2,0,P|230:66|133:128,1,180
312,174,36715,1,0,0:0:0:0:
312,174,36794,2,0,L|405:155,1,90,8|0,0:0|0:0,0:0:0:0:
401,155,37110,6,0,L|380:58,1,90,2|0,0:0|0:0,0:0:0:0:
495,102,37426,1,8,0:0:0:0:
462,214,37584,1,0,0:0:0:0:
428,325,37742,1,2,0:0:0:0:
333,257,37900,2,0,P|295:261|273:269,1,45
179,325,38057,1,8,0:0:0:0:
179,325,38163,2,2,P|220:334|251:351,1,60
86,368,38373,6,0,P|78:306|82:180,1,180,0|8,0:0|0:0,0:0:0:0:
289,262,38847,1,0,0:0:0:0:
289,262,39163,2,0,P|275:235|265:210,1,45
261,186,39321,1,8,0:0:0:0:
325,87,39479,1,2,0:0:0:0:
221,36,39636,6,0,L|204:215,1,180,0|8,0:0|0:0,0:0:0:0:
204,215,40110,2,0,L|145:222,1,45,2|0,0:0|0:0,0:0:0:0:
352,172,40268,2,0,L|449:179,1,90
457,195,40505,1,0,0:0:0:0:
471,213,40584,2,0,P|484:158|478:116,1,90,8|2,0:0|0:0,0:0:0:0:
315,268,40900,6,0,P|381:266|462:366,1,180,0|8,0:0|0:0,0:0:0:0:
349,360,41373,1,2,0:0:0:0:
314,356,41452,1,0,0:0:0:0:
279,352,41531,2,0,L|179:347,1,90,10|0,0:0|0:0,0:0:0:0:
9,262,41847,1,8,0:0:0:0:
176,369,42005,2,0,P|183:335|184:311,1,45,2|0,0:0|0:0,0:0:0:0:
27,174,42163,6,0,P|12:226|10:272,1,90,10|0,0:0|0:0,0:0:0:0:
264,285,42479,1,8,0:0:0:0:
212,302,42557,1,0,0:0:0:0:
160,284,42636,1,0,0:0:0:0:
131,237,42715,1,0,0:0:0:0:
138,182,42794,1,10,0:0:0:0:
172,152,42873,1,0,0:0:0:0:
212,143,42952,1,0,0:0:0:0:
248,150,43031,1,0,0:0:0:0:
274,168,43110,5,10,0:0:0:0:
49,97,43268,1,8,0:0:0:0:
307,31,43426,6,0,P|405:15|455:87,1,180,4|8,1:0|0:0,0:0:0:0:
189,302,43900,2,0,P|91:318|41:246,1,180,4|8,1:0|0:0,0:0:0:0:
389,191,44373,2,0,L|376:298,1,90,4|0,0:1|0:0,0:0:0:0:
189,302,44689,1,8,1:0:0:0:
150,214,44847,6,0,L|160:151,1,45,2|0,0:0|0:0,0:0:0:0:
178,144,45005,1,10,0:0:0:0:
342,218,45163,1,10,0:0:0:0:
486,109,45321,1,2,1:0:0:0:
312,64,45479,2,2,P|317:50|322:36,2,30
344,14,45636,2,0,P|346:66|343:112,1,90,8|8,1:0|0:0,0:0:0:0:
284,348,45952,6,0,B|304:308|304:308|440:265,1,180,4|8,0:0|0:0,0:0:0:0:
190,241,46426,2,0,B|170:201|170:201|34:158,1,180,4|8,0:0|0:0,0:0:0:0:
272,125,46900,2,0,B|292:85|292:85|428:42,1,180,4|8,0:0|0:0,0:0:0:0:
426,134,47373,1,2,0:0:0:0:
241,42,47531,1,10,0:0:0:0:
77,167,47689,1,10,0:0:0:0:
259,266,47847,1,2,0:0:0:0:
340,208,48005,1,0,0:0:0:0:
330,168,48084,1,0,0:0:0:0:
320,128,48163,1,10,0:0:0:0:
368,31,48321,1,10,0:0:0:0:
148,223,48479,6,0,L|157:322,1,90,4|0,0:0|0:0,0:0:0:0:
305,363,48715,1,0,0:0:0:0:
305,363,48794,2,0,L|318:310,1,45,8|0,0:0|0:0,0:0:0:0:
481,276,48952,2,0,P|430:286|339:192,1,180,6|8,0:0|0:0,0:0:0:0:
410,78,49426,2,0,P|413:124|397:168,1,90,2|0,0:0|0:0,0:0:0:0:
369,185,49663,1,0,0:0:0:0:
341,207,49742,6,0,L|223:198,1,90,8|0,0:0|0:0,0:0:0:0:
314,48,50057,1,8,0:0:0:0:
314,48,50215,1,8,0:0:0:0:
235,283,50373,1,2,0:0:0:0:
166,125,50531,1,2,0:0:0:0:
166,125,50689,1,8,0:0:0:0:
371,293,50847,1,0,0:0:0:0:
150,209,51005,6,0,P|87:226|34:341,1,180,4|8,0:0|0:0,0:0:0:0:
371,293,51479,2,0,P|434:276|487:161,1,180,4|0,0:0|0:0,0:0:0:0:
382,96,51952,2,0,L|373:189,1,90,8|0,0:0|0:0,0:0:0:0:
473,95,52268,5,0,0:0:0:0:
286,150,52426,1,0,0:0:0:0:
286,150,52505,1,0,0:0:0:0:
286,150,52584,2,0,L|186:138,1,90,8|0,0:0|0:0,0:0:0:0:
191,316,52900,1,2,0:0:0:0:
287,290,53057,1,2,0:0:0:0:
133,240,53215,1,10,0:0:0:0:
367,261,53373,1,2,0:0:0:0:
197,139,53531,6,0,P|191:96|202:45,1,90,4|0,0:0|0:0,0:0:0:0:
409,159,53847,1,8,0:0:0:0:
191,316,54005,6,0,L|66:307,1,112.5,4|0,0:0|0:0,0:0:0:0:
50,279,54479,2,0,L|56:351,2,60,0|0|0,0:3|0:3|0:3,0:3:0:0:
73,251,54794,5,2,0:3:0:0:
150,225,54952,1,2,0:3:0:0:
228,199,55110,1,2,0:3:0:0:
108,90,55268,1,0,0:0:0:0:
73,251,55426,2,2,L|65:297,2,30
49,228,55584,1,8,0:0:0:0:
228,199,55742,2,0,P|271:200|320:207,1,72,0|8,0:0|0:0,0:0:0:0:
464,357,56057,5,6,0:0:0:0:
386,249,56215,2,0,L|390:142,1,90,0|8,0:0|0:0,0:0:0:0:
489,50,56531,2,0,P|504:87|482:168,1,125.999996154785,6|0,0:0|0:0,0:0:0:0:
300,203,57005,1,0,0:0:0:0:
323,81,57163,2,0,P|371:60|393:59,1,62.9999980773926
483,167,57479,5,2,0:0:0:0:
404,147,57636,1,2,0:0:0:0:
135,250,57794,5,2,0:0:0:0:
214,230,57951,1,10,0:0:0:0:
334,357,58110,1,8,0:0:0:0:
38,289,58268,1,8,0:3:0:0:
38,289,58347,1,2,0:0:0:0:
38,289,58426,1,8,0:3:0:0:
38,289,58505,1,2,0:0:0:0:
38,289,58584,2,0,L|51:105,1,180,4|8,0:0|0:0,0:0:0:0:
345,129,59057,1,0,0:0:0:0:
345,129,59373,5,2,0:0:0:0:
345,129,59531,2,0,B|364:69|364:69|308:52|256:60|256:60|263:91,1,188.999994232178,2|0,0:0|0:0,0:0:0:0:
260,76,60163,1,2,0:0:0:0:
427,165,60321,1,2,0:0:0:0:
292,238,60479,2,2,L|294:272,2,30
289,212,60636,1,4,0:3:0:0:
440,283,60794,2,4,L|431:353,1,62.9999980773926,4|4,0:3|0:3,0:3:0:0:
201,313,61110,6,0,P|200:267|194:209,1,90,4|0,0:0|0:0,0:0:0:0:
427,165,61426,1,8,0:0:0:0:
432,345,61584,2,0,P|424:244|428:155,1,180,4|8,0:0|0:0,0:0:0:0:
463,91,62057,1,4,0:0:0:0:
256,192,62136,12,0,64110,0:0:0:0:
437,159,64268,5,0,0:0:0:0:
404,171,64347,1,0,0:0:0:0:
369,164,64426,1,0,0:0:0:0:
347,135,64505,1,0,0:0:0:0:
344,99,64584,1,0,0:0:0:0:
388,30,64742,1,0,0:0:0:0:
221,78,64900,6,0,P|223:124|225:174,1,90
225,167,65136,1,0,0:0:0:0:
225,167,65215,1,8,0:0:0:0:
114,107,65373,1,0,0:0:0:0:
91,219,65531,6,0,P|80:247|68:266,1,45
225,167,65689,2,0,P|246:167|271:172,1,45
241,267,65847,2,0,P|191:271|148:294,1,90,8|0,0:0|0:0,0:0:0:0:
225,357,66084,1,0,0:0:0:0:
225,357,66163,6,0,P|275:353|318:330,1,90
495,197,66479,1,8,0:0:0:0:
412,230,66636,1,0,0:0:0:0:
404,245,66715,1,0,0:0:0:0:
398,261,66794,2,0,P|392:312|395:354,1,90
495,197,67110,2,0,P|501:153|437:80,1,135,8|0,0:0|0:0,0:0:0:0:
468,56,67426,6,0,L|282:68,1,180,0|8,0:0|0:0,0:0:0:0:
262,161,67900,1,0,0:0:0:0:
262,161,67979,1,0,0:0:0:0:
262,161,68057,2,0,L|353:151,1,90
170,17,68373,2,0,L|180:106,1,90,8|0,0:0|0:0,0:0:0:0:
231,248,68689,6,0,P|184:254|108:155,1,180,0|8,0:0|0:0,0:0:0:0:
181,106,69163,1,0,0:0:0:0:
19,230,69321,2,0,P|66:230|111:240,1,90
118,248,69557,1,0,0:0:0:0:
127,258,69636,1,8,0:0:0:0:
226,351,69794,2,0,P|239:322|264:290,1,45
315,258,69952,6,0,P|370:232|408:222,2,90,0|2|10,0:0|0:0|0:0,0:0:0:0:
479,357,70426,2,0,P|424:331|386:321,1,90,0|2,0:0|0:0,0:0:0:0:
494,252,70742,1,2,0:0:0:0:
494,252,70821,1,0,0:0:0:0:
494,252,70900,2,0,L|501:150,1,90,8|0,0:0|0:0,0:0:0:0:
477,72,71215,5,0,0:0:0:0:
407,130,71373,1,0,0:0:0:0:
373,47,71531,1,8,0:0:0:0:
501,162,71689,1,0,0:0:0:0:
442,0,71847,1,0,0:0:0:0:
308,121,72005,2,0,L|271:131,2,30
336,138,72163,2,0,P|321:178|310:234,1,90,8|0,0:0|0:0,0:0:0:0:
434,332,72479,5,0,0:0:0:0:
293,254,72636,1,2,0:0:0:0:
155,338,72794,2,0,P|112:337|49:326,1,90,10|0,0:0|0:0,0:0:0:0:
280,266,73110,1,2,0:0:0:0:
122,239,73268,2,0,P|82:223|27:191,1,90,2|8,0:0|0:0,0:0:0:0:
267,280,73584,1,0,0:0:0:0:
122,146,73742,5,2,0:0:0:0:
155,114,73821,1,0,0:0:0:0:
198,100,73900,1,2,0:0:0:0:
243,103,73979,1,0,0:0:0:0:
280,127,74057,1,10,0:0:0:0:
306,164,74136,1,0,0:0:0:0:
342,191,74215,1,2,0:0:0:0:
387,195,74294,1,0,0:0:0:0:
432,186,74373,6,0,P|459:171|481:154,1,45,8|0,0:0|0:0,0:0:0:0:
267,280,74531,2,0,P|261:301|257:323,1,45,8|0,0:0|0:0,0:0:0:0:
382,110,74689,2,8,L|375:25,1,62.9999980773926,8|8,0:3|0:2,0:0:0:0:
59,86,75005,6,0,P|43:141|34:194,1,90,6|0,1:0|0:0,0:0:0:0:
257,323,75321,2,0,P|248:278|235:235,1,90,10|0,0:0|0:0,0:0:0:0:
125,304,75636,1,2,1:0:0:0:
375,199,75794,1,0,1:0:0:0:
375,199,75873,1,0,0:0:0:0:
375,199,75952,2,0,L|386:70,1,90,10|0,0:0|0:0,0:0:0:0:
236,235,76268,5,0,1:0:0:0:
428,333,76426,1,0,0:0:0:0:
293,158,76584,2,0,P|253:148|196:144,1,90,10|0,0:0|0:0,0:0:0:0:
65,221,76821,1,0,0:0:0:0:
65,221,76900,2,0,P|55:181|51:124,1,90,2|0,0:1|1:0,0:0:0:0:
161,46,77136,1,0,0:0:0:0:
161,46,77215,2,0,L|166:-15,1,45,8|0,0:0|0:0,0:0:0:0:
312,116,77373,2,0,L|293:158,1,45,8|0,1:2|0:0,0:0:0:0:
171,268,77531,6,0,P|236:263|364:259,1,180,2|8,1:0|0:0,0:0:0:0:
488,351,78005,1,0,0:0:0:0:
413,167,78163,1,2,1:0:0:0:
351,259,78321,2,0,P|340:289|334:309,1,45,2|0,1:0|0:0,0:0:0:0:
504,196,78479,2,0,L|494:92,1,90,10|0,0:0|0:0,0:0:0:0:
240,48,78794,6,0,B|248:116|248:116|232:162|232:162|241:242,1,180,0|8,1:0|0:0,0:0:0:0:
333,114,79268,1,0,0:0:0:0:
333,114,79347,1,0,0:0:0:0:
333,114,79426,1,0,0:0:0:0:
142,210,79584,2,0,P|125:220|101:243,1,45,2|0,1:0|0:0,0:0:0:0:
345,237,79742,2,0,P|362:247|386:270,1,45,8|0,0:0|0:0,0:0:0:0:
220,326,79900,2,0,P|203:336|179:359,1,45,8|0,1:2|0:0,0:0:0:0:
80,312,80057,6,0,L|56:126,2,180,6|8|2,1:0|0:0|1:0,0:0:0:0:
397,347,80847,1,0,1:0:0:0:
397,347,80926,1,0,0:0:0:0:
397,347,81005,2,0,L|415:237,1,90,10|0,0:0|0:0,0:0:0:0:
458,156,81321,6,0,P|401:147|309:227,1,180,0|8,1:0|0:0,0:0:0:0:
507,283,81794,1,0,0:0:0:0:
359,132,81952,2,0,L|370:37,1,90,2|0,0:1|1:0,0:0:0:0:
265,169,82189,1,0,0:0:0:0:
265,169,82268,2,0,L|276:258,1,90,8|0,0:0|0:0,0:0:0:0:
26,93,82584,6,0,P|86:64|191:122,1,180,6|8,1:0|0:0,0:0:0:0:
277,258,82979,1,2,0:0:0:0:
277,258,83057,2,0,P|217:287|112:229,1,180,2|0,1:0|1:0,0:0:0:0:
89,182,83452,1,2,0:0:0:0:
89,182,83531,2,0,L|82:284,1,90,10|0,1:2|0:0,0:0:0:0:
304,350,83847,6,0,L|495:334,1,180,0|8,1:0|0:0,0:0:0:0:
340,182,84321,2,0,P|332:219|328:248,1,45
469,264,84479,1,2,0:0:0:0:
475,219,84557,1,2,0:0:0:0:
479,174,84636,1,0,1:0:0:0:
479,129,84715,1,0,0:0:0:0:
477,84,84794,1,8,0:0:0:0:
254,40,84952,1,8,1:2:0:0:
340,182,85110,6,0,B|241:156|261:224|164:199,1,180,6|8,1:0|0:0,0:0:0:0:
325,267,85584,1,0,0:0:0:0:
325,267,85663,1,0,0:0:0:0:
325,267,85742,2,0,L|311:372,1,90,2|0,1:0|1:0,0:0:0:0:
167,199,86057,1,10,0:0:0:0:
467,264,86215,1,0,0:2:0:0:
238,305,86373,6,0,L|31:323,1,180,0|8,1:0|0:0,0:0:0:0:
44,152,86847,1,0,0:0:0:0:
44,152,86926,1,0,0:0:0:0:
44,152,87005,2,0,P|38:200|60:244,1,90,2|0,0:1|1:0,0:0:0:0:
199,118,87242,1,0,0:0:0:0:
199,118,87321,2,0,P|216:76|210:32,1,90,10|0,0:0|1:0,0:0:0:0:
119,73,87636,6,0,B|209:42|218:106|297:75,1,180,2|8,1:0|0:0,0:0:0:0:
450,24,88110,1,0,0:0:0:0:
381,170,88268,1,2,1:0:0:0:
356,9,88426,2,0,P|369:39|378:69,1,45,0|0,1:0|0:0,0:0:0:0:
324,244,88584,2,0,P|294:202|289:157,1,90,10|0,0:0|0:0,0:0:0:0:
483,107,88900,6,0,L|464:301,1,180,0|8,1:0|0:0,0:0:0:0:
155,358,89373,1,0,0:0:0:0:
142,259,89531,1,2,0:1:0:0:
128,160,89689,1,0,1:0:0:0:
113,151,89768,1,0,0:0:0:0:
97,142,89847,1,8,0:0:0:0:
20,229,90005,1,0,1:0:0:0:
218,147,90163,6,0,P|281:142|419:157,1,180,6|8,1:0|0:0,0:0:0:0:
472,42,90636,1,0,0:0:0:0:
315,102,90794,2,0,P|276:68|241:26,1,90,2|0,1:0|1:0,0:0:0:0:
398,152,91110,2,0,P|402:203|397:258,1,90,10|0,0:0|0:0,0:0:0:0:
483,307,91426,6,0,B|442:271|442:271|293:298,1,180,0|8,1:0|0:0,0:0:0:0:
185,339,91900,1,0,0:0:0:0:
357,371,92057,1,0,0:0:0:0:
249,237,92215,1,2,1:0:0:0:
267,232,92294,1,0,0:0:0:0:
285,227,92373,1,8,0:0:0:0:
400,241,92531,1,0,0:0:0:0:
185,339,92689,6,0,P|143:350|58:310,1,135,6|0,1:0|0:0,0:0:0:0:
50,290,93005,2,0,P|51:263|62:235,1,45,8|0,0:0|0:0,0:0:0:0:
243,102,93163,2,0,L|250:258,1,135,6|0,1:0|0:0,0:0:0:0:
270,254,93479,2,0,L|272:316,1,45,8|0,0:0|0:0,0:0:0:0:
57,245,93636,2,0,P|50:197|51:145,1,90,6|0,1:1|0:0,0:0:0:0:
212,22,93952,6,0,P|276:27|322:35,1,90,0|0,0:0|1:0,0:0:0:0:
486,138,94268,2,0,P|463:167|450:186,1,45,8|0,0:0|0:0,0:0:0:0:
375,132,94426,2,0,P|364:167|358:189,1,45
358,321,94584,1,8,0:0:0:0:
310,347,94663,1,0,0:0:0:0:
254,343,94742,1,0,1:0:0:0:
209,311,94820,1,0,0:0:0:0:
187,260,94900,2,0,P|235:245|328:234,1,135,8|0,0:0|0:0,0:0:0:0:
362,174,95215,5,4,0:0:0:0:
