osu file format v14

[General]
AudioFilename: audio.mp3
AudioLeadIn: 0
PreviewTime: 7220
Countdown: 0
SampleSet: Drum
StackLeniency: 0.2
Mode: 0
LetterboxInBreaks: 0
WidescreenStoryboard: 0

[Editor]
DistanceSpacing: 2.3
BeatDivisor: 4
GridSize: 16
TimelineZoom: 3.199999

[Metadata]
Title:Scary Swings
TitleUnicode:Scary Swings
Artist:Master Sword
ArtistUnicode:Master Sword
Creator:zDelirium II
Version:...and he showed me the Stars!
Source:
Tags:IT'S A SPOOKY MONTH
BeatmapID:2802045
BeatmapSetID:1353574

[Difficulty]
HPDrainRate:4.5
CircleSize:4.2
OverallDifficulty:9.2
ApproachRate:9.5
SliderMultiplier:2.15
SliderTickRate:1

[Events]
//Background and Video events
0,0,"the stars.jpg",0,0
//Break Periods
//Storyboard Layer 0 (Background)
//Storyboard Layer 1 (Fail)
//Storyboard Layer 2 (Pass)
//Storyboard Layer 3 (Foreground)
//Storyboard Layer 4 (Overlay)
//Storyboard Sound Samples

[TimingPoints]
144,288.461538461539,4,3,2,5,1,0
436,546.697038724375,4,3,2,5,1,0
984,260.869565217392,4,3,2,5,1,0
1247,571.428571428573,4,3,2,5,1,0
1819,315.789473684211,4,3,2,5,1,0
2134,333.333333333334,4,3,2,5,1,0
2804,571.428571428573,4,3,2,5,1,0
3125,784.313725490199,4,3,2,5,1,0
3911,425.531914893618,4,3,2,5,1,0
4339,960.000000000004,4,3,2,5,1,0
5303,532.150776053216,4,3,2,5,1,0
5838,1379.31034482759,4,3,2,5,1,0
7220,315.789473684211,4,3,2,5,1,0
7220,-100,4,3,2,90,0,0
8246,-66.6666666666667,4,3,2,40,0,0
8325,-66.6666666666667,4,3,2,50,0,0
8404,-66.6666666666667,4,3,2,60,0,0
8483,315.789473684211,4,3,2,80,1,0
8483,-66.6666666666667,4,3,2,80,0,0
10298,-66.6666666666667,4,3,2,40,0,0
10377,-66.6666666666667,4,3,2,50,0,0
10456,-66.6666666666667,4,3,2,60,0,0
10614,-66.6666666666667,4,3,2,40,0,0
10693,-66.6666666666667,4,3,2,50,0,0
10772,-66.6666666666667,4,3,2,60,0,0
10851,-66.6666666666667,4,3,2,80,0,0
11009,-100,4,3,2,80,0,0
11088,-100,4,3,2,80,0,0
15035,-100,4,3,2,5,0,0
15114,-100,4,3,2,80,0,0
15351,-100,4,3,2,5,0,0
15430,-100,4,3,2,80,0,0
15667,-100,4,3,2,5,0,0
15746,-100,4,3,2,80,0,0
15983,-100,4,3,2,5,0,0
16062,-100,4,3,2,80,0,0
20088,-100,4,3,2,5,0,0
20167,-100,4,3,2,80,0,0
20404,-100,4,3,2,5,0,0
20483,-100,4,3,2,80,0,0
20720,-100,4,3,2,5,0,0
20799,-100,4,3,2,80,0,0
21036,-100,4,3,2,5,0,0
21114,-80,4,3,1,80,0,1
31219,-100,4,3,2,80,0,0
35009,-400,4,3,2,80,0,0
35246,-400,4,3,2,5,0,0
35325,-200,4,3,2,80,0,0
35561,-200,4,3,2,5,0,0
35640,-133.333333333333,4,3,2,80,0,0
35877,-133.333333333333,4,3,2,5,0,0
35956,-100,4,3,2,80,0,0
36193,-100,4,3,2,5,0,0
36272,-100,4,3,2,80,0,0
40061,-400,4,3,2,80,0,0
40298,-400,4,3,2,5,0,0
40377,-200,4,3,2,80,0,0
40614,-200,4,3,2,5,0,0
40693,-100,4,3,2,40,0,0
40772,-100,4,3,2,50,0,0
40851,-100,4,3,2,60,0,0
41009,-100,4,3,2,40,0,0
41088,-100,4,3,2,50,0,0
41167,-100,4,3,2,60,0,0
41325,-66.6666666666667,4,3,1,80,0,1
61535,-100,4,3,2,80,0,0
65561,-100,4,3,2,5,0,0
65640,-100,4,3,2,80,0,0
65877,-100,4,3,2,5,0,0
65956,-100,4,3,2,80,0,0
66193,-100,4,3,2,5,0,0
66272,-100,4,3,2,80,0,0
66509,-100,4,3,2,5,0,0
66588,-100,4,3,2,80,0,0
70377,-100,4,3,2,80,0,0
70614,-100,4,3,2,5,0,0
70693,-100,4,3,2,80,0,0
70930,-100,4,3,2,5,0,0
71009,-100,4,3,2,80,0,0
71246,-100,4,3,2,5,0,0
71325,-100,4,3,2,80,0,0
71562,-100,4,3,2,5,0,0
71640,315.789473684211,4,3,2,80,1,0
71640,-200,4,3,2,80,0,0
71718,-200,4,3,2,5,0,0
71797,-200,4,3,2,80,0,0
71875,-200,4,3,2,5,0,0
71955,-200,4,3,2,80,0,0
72033,-200,4,3,2,5,0,0
72113,-200,4,3,2,80,0,0
72191,-200,4,3,2,5,0,0
72271,-200,4,3,2,80,0,0
72349,-200,4,3,2,5,0,0
72429,-200,4,3,2,80,0,0
72507,-200,4,3,2,5,0,0
72587,-200,4,3,2,80,0,0
72665,-200,4,3,2,5,0,0
72745,-200,4,3,2,80,0,0
72823,-200,4,3,2,5,0,0
72903,-133.333333333333,4,3,2,80,0,0
72981,-133.333333333333,4,3,2,5,0,0
73061,-133.333333333333,4,3,2,80,0,0
73139,-133.333333333333,4,3,2,5,0,0
73218,-133.333333333333,4,3,2,80,0,0
73296,-133.333333333333,4,3,2,5,0,0
73376,-133.333333333333,4,3,2,80,0,0
73454,-133.333333333333,4,3,2,5,0,0
73534,-133.333333333333,4,3,2,80,0,0
73612,-133.333333333333,4,3,2,5,0,0
73692,-133.333333333333,4,3,2,80,0,0
73770,-133.333333333333,4,3,2,5,0,0
73850,-133.333333333333,4,3,2,80,0,0
73928,-133.333333333333,4,3,2,5,0,0
74008,-133.333333333333,4,3,2,80,0,0
74086,-133.333333333333,4,3,2,5,0,0
74166,-100,4,3,2,80,0,0
74244,-100,4,3,2,5,0,0
74324,-100,4,3,2,80,0,0
74402,-100,4,3,2,5,0,0
74481,-100,4,3,2,80,0,0
74559,-100,4,3,2,5,0,0
74639,-100,4,3,2,80,0,0
74717,-100,4,3,2,5,0,0
74797,-100,4,3,2,80,0,0
74875,-100,4,3,2,5,0,0
74955,-100,4,3,2,80,0,0
75033,-100,4,3,2,5,0,0
75113,-100,4,3,2,80,0,0
75191,-100,4,3,2,5,0,0
75271,-100,4,3,2,80,0,0
75349,-100,4,3,2,5,0,0
75429,-80,4,3,2,80,0,0
75507,-80,4,3,2,5,0,0
75587,-80,4,3,2,80,0,0
75665,-80,4,3,2,5,0,0
75745,-80,4,3,2,80,0,0
75823,-80,4,3,2,5,0,0
75903,-80,4,3,2,80,0,0
75981,-80,4,3,2,5,0,0
76061,-80,4,3,2,80,0,0
76139,-80,4,3,2,5,0,0
76218,-100,4,3,2,80,0,0
76692,-200,4,3,2,80,0,0
76770,-200,4,3,2,5,0,0
76849,-200,4,3,2,80,0,0
76927,-200,4,3,2,5,0,0
77007,-200,4,3,2,80,0,0
77085,-200,4,3,2,5,0,0
77165,-200,4,3,2,80,0,0
77243,-200,4,3,2,5,0,0
77323,-200,4,3,2,80,0,0
77401,-200,4,3,2,5,0,0
77481,-200,4,3,2,80,0,0
77559,-200,4,3,2,5,0,0
77639,-200,4,3,2,80,0,0
77717,-200,4,3,2,5,0,0
77797,-200,4,3,2,80,0,0
77875,-200,4,3,2,5,0,0
77955,-133.333333333333,4,3,2,80,0,0
78033,-133.333333333333,4,3,2,5,0,0
78113,-133.333333333333,4,3,2,80,0,0
78191,-133.333333333333,4,3,2,5,0,0
78270,-133.333333333333,4,3,2,80,0,0
78348,-133.333333333333,4,3,2,5,0,0
78428,-133.333333333333,4,3,2,80,0,0
78506,-133.333333333333,4,3,2,5,0,0
78586,-133.333333333333,4,3,2,80,0,0
78664,-133.333333333333,4,3,2,5,0,0
78744,-133.333333333333,4,3,2,80,0,0
78822,-133.333333333333,4,3,2,5,0,0
78902,-133.333333333333,4,3,2,80,0,0
78980,-133.333333333333,4,3,2,5,0,0
79060,-133.333333333333,4,3,2,80,0,0
79138,-133.333333333333,4,3,2,5,0,0
79218,-100,4,3,2,80,0,0
79296,-100,4,3,2,5,0,0
79376,-100,4,3,2,80,0,0
79454,-100,4,3,2,5,0,0
79533,-100,4,3,2,80,0,0
79611,-100,4,3,2,5,0,0
79691,-100,4,3,2,80,0,0
79769,-100,4,3,2,5,0,0
79849,-100,4,3,2,80,0,0
79927,-100,4,3,2,5,0,0
80007,-100,4,3,2,80,0,0
80085,-100,4,3,2,5,0,0
80165,-100,4,3,2,80,0,0
80243,-100,4,3,2,5,0,0
80323,-100,4,3,2,80,0,0
80401,-100,4,3,2,5,0,0
80481,-80,4,3,2,80,0,0
80559,-80,4,3,2,5,0,0
80639,-80,4,3,2,80,0,0
80717,-80,4,3,2,5,0,0
80797,-80,4,3,2,80,0,0
80875,-80,4,3,2,5,0,0
80955,-80,4,3,2,80,0,0
81033,-80,4,3,2,5,0,0
81113,-80,4,3,2,80,0,0
81191,-80,4,3,2,5,0,0
81271,-100,4,3,2,80,0,0
81824,-100,4,3,2,5,0,0
83008,-100,4,3,2,60,0,0

[Colours]
Combo1 : 51,112,169
Combo2 : 22,37,88
Combo3 : 111,220,241
Combo4 : 31,59,106

[HitObjects]
256,192,7220,5,4,0:0:0:0:
256,192,7535,1,4,0:0:0:0:
256,192,7851,1,4,0:0:0:0:
256,192,8167,1,12,0:0:0:0:
256,192,8246,5,8,0:0:0:0:
256,192,8325,1,8,0:0:0:0:
256,192,8404,1,8,0:0:0:0:
256,192,8483,22,0,P|232:269|162:311,1,161.2500061512,2|2,0:0|0:0,0:0:0:0:
173,229,8798,2,0,P|197:152|267:110,1,161.2500061512,2|2,0:0|0:0,0:0:0:0:
256,192,9114,2,0,P|179:168|137:98,1,161.2500061512,2|2,0:0|0:0,0:0:0:0:
219,109,9430,2,0,P|296:133|338:203,1,161.2500061512,2|2,0:0|0:0,0:0:0:0:
256,192,9746,2,0,P|280:115|350:73,1,161.2500061512,2|2,0:0|0:0,0:0:0:0:
339,155,10061,2,0,P|315:232|245:274,1,161.2500061512,2|2,0:0|0:0,0:0:0:0:
256,192,10298,21,8,0:0:0:0:
256,192,10377,1,8,0:0:0:0:
256,192,10456,1,8,0:0:0:0:
130,293,10614,21,8,0:0:0:0:
130,293,10693,1,8,0:0:0:0:
130,293,10772,1,8,0:0:0:0:
115,140,10851,2,0,P|198:139|263:218,1,161.2500061512,2|0,0:0|0:0,0:0:0:0:
263,208,11088,21,6,0:0:0:0:
289,253,11166,1,0,0:0:0:0:
338,274,11245,1,2,0:0:0:0:
389,262,11324,1,0,0:0:0:0:
423,221,11403,1,2,0:0:0:0:
426,168,11482,1,0,0:0:0:0:
398,124,11561,1,2,0:0:0:0:
348,106,11640,1,0,0:0:0:0:
297,120,11719,1,2,0:0:0:0:
267,165,11798,1,0,0:0:0:0:
238,209,11877,1,2,0:0:0:0:
187,223,11955,1,0,0:0:0:0:
139,203,12034,1,2,0:0:0:0:
115,155,12113,1,0,0:0:0:0:
127,104,12192,1,2,0:0:0:0:
151,55,12272,22,0,P|138:25|116:10,3,53.75,4|2|0|2,0:0|0:0|0:0|0:0,0:0:0:0:
228,96,12588,2,0,P|237:64|230:39,3,53.75,0|2|0|2,0:0|0:0|0:0|0:0,0:0:0:0:
265,176,12904,2,0,P|292:157|303:133,3,53.75,0|2|0|2,0:0|0:0|0:0|0:0,0:0:0:0:
238,259,13220,2,0,P|270:262|294:251,3,53.75,0|2|0|2,0:0|0:0|0:0|0:0,0:0:0:0:
162,299,13535,21,4,0:0:0:0:
110,288,13613,1,2,0:0:0:0:
84,242,13692,1,0,0:0:0:0:
100,193,13771,1,2,0:0:0:0:
148,171,13850,1,0,0:0:0:0:
195,192,13930,1,2,0:0:0:0:
236,228,14009,1,0,0:0:0:0:
284,248,14087,1,2,0:0:0:0:
335,235,14166,1,0,0:0:0:0:
368,194,14246,1,2,0:0:0:0:
369,141,14324,1,0,0:0:0:0:
338,98,14403,1,2,0:0:0:0:
288,83,14482,1,0,0:0:0:0:
238,102,14561,1,2,0:0:0:0:
184,100,14640,1,0,0:0:0:0:
141,67,14719,1,2,0:0:0:0:
100,31,14798,22,0,L|60:218,1,161.25,4|0,0:0|0:0,0:0:0:0:
129,277,15114,2,0,L|162:119,1,161.25,4|0,0:0|0:0,0:0:0:0:
271,116,15430,2,0,L|304:273,1,161.25,4|0,0:0|0:0,0:0:0:0:
368,185,15746,2,0,L|334:27,1,161.25,4|0,0:0|0:0,0:0:0:0:
304,273,16061,21,6,0:0:0:0:
291,323,16139,1,0,0:0:0:0:
247,352,16218,1,2,0:0:0:0:
196,342,16297,1,0,0:0:0:0:
165,299,16376,1,2,0:0:0:0:
173,247,16455,1,0,0:0:0:0:
214,215,16535,1,2,0:0:0:0:
244,170,16614,1,0,0:0:0:0:
257,119,16693,1,2,0:0:0:0:
227,77,16772,1,0,0:0:0:0:
175,71,16851,1,2,0:0:0:0:
137,107,16930,1,0,0:0:0:0:
106,152,17009,2,0,P|75:175|32:177,3,53.75,2|0|2|0,0:0|0:0|0:0|0:0,0:0:0:0:
158,226,17325,21,6,0:0:0:0:
209,211,17403,1,0,0:0:0:0:
260,226,17482,1,2,0:0:0:0:
295,266,17561,1,0,0:0:0:0:
347,278,17640,1,2,0:0:0:0:
394,254,17718,1,0,0:0:0:0:
417,207,17798,1,2,0:0:0:0:
406,155,17876,1,0,0:0:0:0:
367,120,17955,1,2,0:0:0:0:
314,117,18034,1,0,0:0:0:0:
270,147,18113,1,2,0:0:0:0:
253,197,18192,1,0,0:0:0:0:
224,243,18272,2,0,P|208:268|152:279,3,53.75,2|0|2|0,0:0|0:0|0:0|0:0,0:0:0:0:
176,171,18588,21,6,0:0:0:0:
187,119,18666,1,0,0:0:0:0:
165,71,18745,1,2,0:0:0:0:
119,46,18824,1,0,0:0:0:0:
66,55,18903,1,2,0:0:0:0:
30,93,18982,1,0,0:0:0:0:
24,145,19061,1,2,0:0:0:0:
52,190,19140,1,0,0:0:0:0:
101,210,19219,1,2,0:0:0:0:
128,256,19298,1,0,0:0:0:0:
127,309,19376,1,2,0:0:0:0:
89,345,19455,1,0,0:0:0:0:
35,355,19535,2,0,P|8:346|-19:322,3,53.75,2|0|2|0,0:0|0:0|0:0|0:0,0:0:0:0:
118,290,19851,22,0,L|283:271,1,161.25,4|0,0:0|0:0,0:0:0:0:
401,214,20167,2,0,L|240:195,1,161.25,4|0,0:0|0:0,0:0:0:0:
120,131,20483,2,0,L|285:112,1,161.25,4|0,0:0|0:0,0:0:0:0:
403,55,20799,2,0,L|242:36,1,161.25,4|0,0:0|0:0,0:0:0:0:
74,33,21114,5,6,0:0:0:0:
44,91,21193,1,8,0:0:0:0:
62,154,21271,1,2,0:0:0:0:
117,189,21352,1,8,0:0:0:0:
182,177,21429,1,2,0:0:0:0:
222,125,21510,1,8,0:0:0:0:
276,84,21588,1,2,0:0:0:0:
338,61,21668,1,8,0:0:0:0:
400,82,21745,1,6,0:0:0:0:
436,137,21825,1,8,0:0:0:0:
431,203,21903,1,2,0:0:0:0:
386,251,21983,1,8,0:0:0:0:
320,261,22061,1,2,0:0:0:0:
263,228,22141,1,8,0:0:0:0:
195,228,22219,1,2,0:0:0:0:
138,259,22298,1,8,0:0:0:0:
126,323,22377,21,6,0:0:0:0:
167,373,22456,1,8,0:0:0:0:
232,373,22534,1,2,0:0:0:0:
273,322,22614,1,8,0:0:0:0:
301,260,22693,1,2,0:0:0:0:
337,206,22772,1,8,0:0:0:0:
402,203,22850,1,2,0:0:0:0:
444,252,22929,1,8,0:0:0:0:
430,315,23008,1,6,0:0:0:0:
371,342,23087,1,8,0:0:0:0:
304,327,23167,1,2,0:0:0:0:
259,278,23245,1,8,0:0:0:0:
245,213,23324,1,2,0:0:0:0:
208,155,23404,1,8,0:0:0:0:
146,127,23483,1,2,0:0:0:0:
83,150,23561,1,8,0:0:0:0:
36,198,23640,22,0,P|17:232|20:280,3,67.1875,6|8|2|8,0:0|0:0|0:0|0:0,0:0:0:0:
83,261,23956,2,8,P|90:299|123:334,3,67.1875,2|8|2|8,0:0|0:0|0:0|0:0,0:0:0:0:
160,280,24272,2,0,P|190:304|237:309,3,67.1875,6|8|2|8,3:0|3:0|3:0|3:0,3:0:0:0:
230,245,24588,2,0,P|268:244|309:217,3,67.1875,2|8|2|8,3:0|3:0|3:0|3:0,3:0:0:0:
254,177,24904,21,6,0:0:0:0:
218,123,24982,1,8,0:0:0:0:
154,126,25061,1,2,0:0:0:0:
125,183,25140,1,8,0:0:0:0:
159,237,25219,1,2,0:0:0:0:
141,302,25298,1,8,0:0:0:0:
82,331,25376,1,2,0:0:0:0:
21,307,25455,1,8,0:0:0:0:
0,246,25534,1,6,0:0:0:0:
28,188,25613,1,8,0:0:0:0:
91,171,25692,1,2,0:0:0:0:
146,206,25771,1,8,0:0:0:0:
186,262,25851,1,2,0:0:0:0:
243,296,25929,1,8,0:0:0:0:
306,281,26008,1,2,0:0:0:0:
342,226,26088,1,8,0:0:0:0:
407,176,26167,21,4,0:0:0:0:
374,173,26245,1,8,0:0:0:0:
340,170,26324,1,0,0:0:0:0:
307,167,26403,1,8,0:0:0:0:
274,164,26482,1,0,0:0:0:0:
240,161,26561,1,8,0:0:0:0:
207,158,26640,1,0,0:0:0:0:
173,155,26719,1,8,0:0:0:0:
101,118,26798,21,4,0:0:0:0:
120,146,26877,1,8,0:0:0:0:
139,173,26955,1,0,0:0:0:0:
158,201,27034,1,8,0:0:0:0:
177,229,27113,1,0,0:0:0:0:
196,256,27192,1,8,0:0:0:0:
215,284,27271,1,0,0:0:0:0:
234,312,27350,1,8,0:0:0:0:
217,378,27430,21,4,0:0:0:0:
244,358,27508,1,8,0:0:0:0:
271,338,27587,1,0,0:0:0:0:
297,318,27667,1,8,0:0:0:0:
324,297,27745,1,0,0:0:0:0:
351,277,27824,1,8,0:0:0:0:
378,257,27903,1,0,0:0:0:0:
405,237,27982,1,8,0:0:0:0:
445,183,28061,21,4,0:0:0:0:
413,193,28139,1,8,0:0:0:0:
380,203,28218,1,0,0:0:0:0:
348,212,28297,1,8,0:0:0:0:
316,222,28376,1,0,0:0:0:0:
284,232,28455,1,8,0:0:0:0:
252,242,28534,1,0,0:0:0:0:
220,251,28614,1,8,0:0:0:0:
187,261,28693,22,0,L|93:291,3,67.1875,4|8|0|8,0:0|0:0|0:0|0:0,0:0:0:0:
230,197,29009,2,8,L|138:159,3,67.1875,4|8|0|8,0:0|0:0|0:0|0:0,0:0:0:0:
303,181,29325,2,0,L|257:93,3,67.1875,4|8|0|8,0:0|0:0|0:0|0:0,0:0:0:0:
374,212,29640,2,0,L|395:115,3,67.1875,4|8|0|8,0:0|0:0|0:0|0:0,0:0:0:0:
359,277,29956,21,4,0:0:0:0:
334,336,30034,1,8,0:0:0:0:
270,347,30113,1,0,0:0:0:0:
226,300,30192,1,8,0:0:0:0:
242,238,30271,1,4,0:0:0:0:
302,216,30350,1,8,0:0:0:0:
350,167,30430,1,0,0:0:0:0:
353,102,30509,1,8,0:0:0:0:
301,63,30587,1,4,0:0:0:0:
240,82,30666,1,8,0:0:0:0:
220,144,30745,1,0,0:0:0:0:
250,204,30825,1,8,0:0:0:0:
235,269,30904,2,0,P|225:302|159:337,3,67.1875,4|8|0|8,0:0|0:0|0:0|0:0,0:0:0:0:
147,232,31219,5,6,0:0:0:0:
348,156,31377,1,2,0:0:0:0:
226,50,31535,21,2,0:0:0:0:
302,251,31693,1,2,0:0:0:0:
302,251,31851,1,2,0:0:0:0:
423,144,32009,21,2,0:0:0:0:
224,220,32167,1,2,0:0:0:0:
325,343,32324,21,2,3:0:0:0:
249,142,32483,1,6,3:0:0:0:
249,142,32640,1,2,3:0:0:0:
207,241,32798,21,2,0:0:0:0:
207,134,32956,1,2,0:0:0:0:
301,188,33114,1,2,0:0:0:0:
139,182,33272,21,2,0:0:0:0:
280,102,33430,1,6,0:0:0:0:
279,264,33588,1,2,0:0:0:0:
125,213,33746,21,6,0:0:0:0:
59,64,33904,1,2,0:0:0:0:
207,0,34061,1,2,0:0:0:0:
273,146,34219,1,2,0:0:0:0:
172,106,34377,21,2,0:0:0:0:
321,40,34535,1,2,0:0:0:0:
384,188,34692,1,2,0:0:0:0:
239,254,34850,1,2,0:0:0:0:
271,179,35009,22,0,L|250:144,1,40.3125,4|0,0:0|0:0,0:0:0:0:
219,237,35325,2,0,L|176:168,1,80.625,4|0,0:0|0:0,0:0:0:0:
164,296,35640,2,0,L|82:171,1,120.9375046134,4|0,0:0|0:0,0:0:0:0:
103,358,35956,2,0,L|4:194,1,161.25,4|0,0:0|0:0,0:0:0:0:
185,138,36272,21,6,3:0:0:0:
330,180,36430,1,2,3:0:0:0:
188,232,36588,1,2,3:0:0:0:
273,106,36746,1,2,3:0:0:0:
278,258,36903,1,2,3:0:0:0:
179,116,37061,21,2,3:0:0:0:
397,179,37219,1,2,3:0:0:0:
183,258,37377,1,2,3:0:0:0:
311,68,37535,1,6,3:0:0:0:
319,296,37692,1,2,3:0:0:0:
154,92,37851,21,2,3:0:0:0:
445,175,38009,1,2,3:0:0:0:
160,280,38167,1,2,3:0:0:0:
330,27,38325,1,2,3:0:0:0:
341,331,38483,2,0,P|309:260|260:233,1,107.5,4|0,0:0|0:0,0:0:0:0:
182,241,38798,21,6,0:0:0:0:
325,44,38956,1,2,0:0:0:0:
155,71,39114,1,2,0:0:0:0:
352,214,39272,1,2,0:0:0:0:
325,44,39430,21,2,0:0:0:0:
182,241,39588,1,2,0:0:0:0:
155,71,39746,1,2,0:0:0:0:
352,214,39903,1,2,0:0:0:0:
155,71,40061,22,0,L|169:113,1,40.3125,4|0,0:0|0:0,0:0:0:0:
286,57,40377,2,0,L|266:153,1,80.625,4|0,0:0|0:0,0:0:0:0:
147,123,40693,21,8,0:0:0:0:
147,123,40772,1,8,0:0:0:0:
147,123,40851,1,8,0:0:0:0:
356,76,41009,21,8,0:0:0:0:
356,76,41088,1,8,0:0:0:0:
356,76,41167,1,8,0:0:0:0:
292,280,41325,5,6,0:0:0:0:
245,343,41403,1,8,0:0:0:0:
167,355,41482,1,2,0:0:0:0:
103,310,41561,1,8,0:0:0:0:
90,232,41640,1,6,0:0:0:0:
134,168,41719,1,8,0:0:0:0:
211,153,41798,1,2,0:0:0:0:
284,187,41877,1,8,0:0:0:0:
362,191,41956,1,6,0:0:0:0:
418,136,42034,1,8,0:0:0:0:
417,58,42113,1,2,0:0:0:0:
358,6,42192,1,8,0:0:0:0:
280,13,42271,1,6,0:0:0:0:
233,76,42350,1,8,0:0:0:0:
244,156,42430,1,2,0:0:0:0:
196,220,42508,1,8,0:0:0:0:
118,246,42588,22,0,P|84:228|71:156,3,80.6250030755998,6|8|2|8,0:0|0:0|0:0|0:0,0:0:0:0:
144,169,42904,2,0,P|135:131|182:75,3,80.6250030755998,6|8|2|8,3:0|3:0|3:0|3:0,3:0:0:0:
215,144,43219,2,0,P|238:113|311:113,3,80.6250030755998,6|8|2|8,0:0|0:0|0:0|0:0,0:0:0:0:
286,183,43535,2,0,P|324:181|371:237,3,80.6250030755998,6|8|2|8,3:0|3:0|3:0|3:0,3:0:0:0:
288,264,43851,21,6,0:0:0:0:
235,321,43929,1,8,0:0:0:0:
157,314,44008,1,2,0:0:0:0:
116,248,44088,1,8,0:0:0:0:
143,175,44166,1,6,0:0:0:0:
218,153,44245,1,8,0:0:0:0:
293,183,44325,1,2,0:0:0:0:
366,210,44403,1,8,0:0:0:0:
433,170,44482,1,6,0:0:0:0:
444,93,44561,1,8,0:0:0:0:
390,36,44640,1,2,0:0:0:0:
313,42,44719,1,8,0:0:0:0:
268,106,44798,1,6,0:0:0:0:
214,166,44877,1,8,0:0:0:0:
140,189,44955,1,2,0:0:0:0:
79,142,45034,1,8,0:0:0:0:
46,69,45114,22,0,L|29:-21,3,80.6250030755998,6|8|2|8,0:0|0:0|0:0|0:0,0:0:0:0:
149,156,45430,2,0,L|163:235,3,80.6250030755998,6|8|2|8,0:0|0:0|0:0|0:0,0:0:0:0:
270,111,45746,2,0,L|253:21,3,80.6250030755998,6|8|2|8,0:0|0:0|0:0|0:0,0:0:0:0:
373,198,46061,2,0,L|387:277,3,80.6250030755998,6|8|2|8,0:0|0:0|0:0|0:0,0:0:0:0:
361,117,46377,21,6,0:0:0:0:
315,52,46455,1,8,0:0:0:0:
238,37,46534,1,2,0:0:0:0:
172,80,46614,1,8,0:0:0:0:
155,157,46692,1,6,0:0:0:0:
175,235,46772,1,8,0:0:0:0:
167,311,46850,1,2,0:0:0:0:
98,347,46929,1,8,0:0:0:0:
31,308,47009,1,6,0:0:0:0:
28,230,47087,1,8,0:0:0:0:
92,186,47166,1,2,0:0:0:0:
172,198,47246,1,8,0:0:0:0:
248,182,47324,1,6,0:0:0:0:
276,110,47403,1,8,0:0:0:0:
232,46,47483,1,2,0:0:0:0:
154,47,47561,1,8,0:0:0:0:
99,108,47640,22,0,P|80:155|87:212,3,80.6250030755998,6|8|2|8,0:0|0:0|0:0|0:0,0:0:0:0:
159,168,47956,2,0,P|182:212|230:244,3,80.6250030755998,6|8|2|8,3:0|3:0|3:0|3:0,3:0:0:0:
239,157,48272,2,0,P|288:167|343:150,3,80.6250030755998,6|8|2|8,3:0|3:0|3:0|3:0,3:0:0:0:
288,87,48588,2,0,P|327:55|350:2,3,80.6250030755998,6|8|2|8,3:0|3:0|3:0|3:0,3:0:0:0:
261,19,48904,21,6,0:0:0:0:
188,48,48983,1,8,0:0:0:0:
165,123,49061,1,2,0:0:0:0:
209,188,49140,1,8,0:0:0:0:
286,195,49219,1,6,0:0:0:0:
346,248,49298,1,8,0:0:0:0:
342,326,49376,1,2,0:0:0:0:
276,368,49455,1,8,0:0:0:0:
204,341,49534,1,6,0:0:0:0:
183,266,49613,1,8,0:0:0:0:
230,205,49692,1,2,0:0:0:0:
249,133,49773,1,8,0:0:0:0:
223,61,49852,1,6,0:0:0:0:
147,57,49930,1,8,0:0:0:0:
115,126,50009,1,2,0:0:0:0:
167,182,50088,1,8,0:0:0:0:
211,256,50167,22,0,P|223:289|189:357,3,80.6250030755998,6|8|2|8,0:0|0:0|0:0|0:0,0:0:0:0:
225,169,50483,2,0,P|257:181|288:250,3,80.6250030755998,6|8|2|8,0:0|0:0|0:0|0:0,0:0:0:0:
171,101,50798,2,0,P|201:83|274:105,3,80.6250030755998,6|8|2|8,0:0|0:0|0:0|0:0,0:0:0:0:
83,103,51114,2,4,P|89:68|152:26,3,80.6250030755998,6|8|2|8,0:0|0:0|0:0|0:0,0:0:0:0:
101,198,51430,21,6,0:0:0:0:
133,267,51508,1,8,0:0:0:0:
209,260,51587,1,2,0:0:0:0:
227,186,51666,1,8,0:0:0:0:
164,144,51745,1,6,0:0:0:0:
164,70,51825,1,8,0:0:0:0:
235,42,51903,1,2,0:0:0:0:
290,96,51983,1,8,0:0:0:0:
264,167,52061,1,6,0:0:0:0:
188,174,52140,1,8,0:0:0:0:
132,232,52219,1,2,0:0:0:0:
106,306,52298,1,8,0:0:0:0:
152,369,52376,1,6,0:0:0:0:
229,368,52455,1,8,0:0:0:0:
273,304,52534,1,2,0:0:0:0:
247,231,52613,1,8,0:0:0:0:
236,142,52693,22,0,P|272:112|343:128,3,80.6250030755998,6|8|2|8,0:0|0:0|0:0|0:0,0:0:0:0:
114,183,53009,2,0,P|84:155|45:149,3,80.6250030755998,6|8|2|8,0:0|0:0|0:0|0:0,0:0:0:0:
267,253,53325,2,0,P|303:223|374:239,3,80.6250030755998,6|8|2|8,0:0|0:0|0:0|0:0,0:0:0:0:
85,320,53640,2,0,P|55:292|16:286,3,80.6250030755998,6|8|2|8,0:0|0:0|0:0|0:0,0:0:0:0:
277,338,53956,21,6,0:0:0:0:
350,309,54034,1,8,0:0:0:0:
380,236,54113,1,2,0:0:0:0:
350,164,54193,1,8,0:0:0:0:
277,134,54271,1,6,0:0:0:0:
205,166,54350,1,8,0:0:0:0:
168,238,54430,1,2,0:0:0:0:
98,273,54509,1,8,0:0:0:0:
26,244,54588,1,6,0:0:0:0:
2,169,54667,1,8,0:0:0:0:
43,103,54746,1,2,0:0:0:0:
120,91,54824,1,8,0:0:0:0:
179,142,54903,1,6,0:0:0:0:
237,198,54983,1,8,0:0:0:0:
313,208,55061,1,2,0:0:0:0:
352,143,55140,1,8,0:0:0:0:
400,81,55219,22,0,L|483:26,3,80.6250030755998,6|8|2|8,0:0|0:0|0:0|0:0,0:0:0:0:
377,172,55535,2,0,L|472:200,3,80.6250030755998,6|8|2|8,0:0|0:0|0:0|0:0,0:0:0:0:
293,221,55851,2,0,L|332:312,3,80.6250030755998,6|8|2|8,0:0|0:0|0:0|0:0,0:0:0:0:
207,183,56167,2,0,L|162:272,3,80.6250030755998,6|8|2|8,0:0|0:0|0:0|0:0,0:0:0:0:
168,91,56483,21,6,0:0:0:0:
93,115,56561,1,8,0:0:0:0:
67,188,56640,1,2,0:0:0:0:
109,253,56719,1,8,0:0:0:0:
187,260,56798,1,6,0:0:0:0:
240,203,56877,1,8,0:0:0:0:
294,144,56956,1,2,0:0:0:0:
371,131,57034,1,8,0:0:0:0:
434,179,57113,1,6,0:0:0:0:
442,257,57192,1,8,0:0:0:0:
391,316,57271,1,2,0:0:0:0:
312,319,57351,1,8,0:0:0:0:
256,264,57429,1,6,0:0:0:0:
257,190,57509,1,8,0:0:0:0:
229,119,57587,1,2,0:0:0:0:
153,115,57666,1,8,0:0:0:0:
88,165,57746,22,0,P|62:200|69:286,3,80.6250030755998,6|8|2|8,0:0|0:0|0:0|0:0,0:0:0:0:
135,232,58061,2,0,P|152:272|230:308,3,80.6250030755998,6|8|2|8,0:0|0:0|0:0|0:0,0:0:0:0:
218,224,58377,2,0,P|261:229|332:179,3,80.6250030755998,6|8|2|8,0:0|0:0|0:0|0:0,0:0:0:0:
253,150,58693,2,0,P|279:114|272:29,3,80.6250030755998,6|8|2|8,0:0|0:0|0:0|0:0,0:0:0:0:
212,78,59009,21,6,0:0:0:0:
153,129,59088,1,8,0:0:0:0:
154,208,59166,1,2,0:0:0:0:
215,257,59246,1,8,0:0:0:0:
292,244,59324,1,6,0:0:0:0:
332,177,59403,1,8,0:0:0:0:
385,126,59483,1,2,0:0:0:0:
461,128,59561,1,8,0:0:0:0:
496,196,59640,1,6,0:0:0:0:
454,260,59719,1,8,0:0:0:0:
377,253,59798,1,2,0:0:0:0:
309,209,59877,1,8,0:0:0:0:
237,178,59956,1,6,0:0:0:0:
167,214,60034,1,8,0:0:0:0:
151,290,60113,1,2,0:0:0:0:
200,351,60192,1,8,0:0:0:0:
282,329,60272,22,0,P|316:320|391:336,3,80.6250030755998,6|8|2|8,0:0|0:0|0:0|0:0,0:0:0:0:
164,267,60588,2,0,P|124:263|85:272,3,80.6250030755998,6|8|2|8,0:0|0:0|0:0|0:0,0:0:0:0:
306,215,60904,2,0,P|340:206|415:222,3,80.6250030755998,6|8|2|8,0:0|0:0|0:0|0:0,0:0:0:0:
134,147,61219,2,0,P|94:143|55:152,3,80.6250030755998,6|8|2|8,0:0|0:0|0:0|0:0,0:0:0:0:
368,111,61535,5,6,0:0:0:0:
334,213,61693,1,2,0:0:0:0:
127,273,61851,5,2,0:0:0:0:
161,171,62009,1,2,0:0:0:0:
169,60,62167,5,2,0:0:0:0:
271,94,62325,1,2,0:0:0:0:
331,301,62483,5,2,0:0:0:0:
229,267,62641,1,2,0:0:0:0:
165,215,62798,5,6,0:0:0:0:
315,157,62956,1,2,0:0:0:0:
132,152,63114,1,2,0:0:0:0:
335,222,63272,1,2,0:0:0:0:
120,78,63430,1,2,0:0:0:0:
344,294,63588,1,2,0:0:0:0:
133,8,63746,1,6,0:0:0:0:
330,365,63904,1,2,0:0:0:0:
261,196,64061,5,6,0:0:0:0:
199,59,64219,1,2,0:0:0:0:
62,120,64377,1,2,0:0:0:0:
122,258,64535,1,2,0:0:0:0:
261,196,64693,5,2,0:0:0:0:
323,62,64851,1,2,0:0:0:0:
460,120,65009,1,2,0:0:0:0:
400,258,65167,1,2,0:0:0:0:
128,94,65325,22,0,L|304:107,1,161.25,4|0,0:0|0:0,0:0:0:0:
401,179,65640,2,0,L|240:190,1,161.25,4|0,0:0|0:0,0:0:0:0:
125,266,65956,2,0,L|301:279,1,161.25,4|0,0:0|0:0,0:0:0:0:
397,352,66272,2,0,L|236:363,1,161.25,4|0,0:0|0:0,0:0:0:0:
139,283,66588,5,6,0:0:0:0:
139,164,66746,1,2,0:0:0:0:
242,223,66904,1,2,0:0:0:0:
94,286,67061,5,2,3:0:0:0:
169,124,67219,1,2,3:0:0:0:
272,270,67377,1,2,3:0:0:0:
46,254,67535,5,2,3:0:0:0:
233,96,67693,1,2,3:0:0:0:
276,338,67851,5,6,3:0:0:0:
163,35,68009,1,2,0:0:0:0:
163,35,68167,1,2,0:0:0:0:
121,300,68325,5,2,3:0:0:0:
279,19,68483,1,2,0:0:0:0:
279,19,68641,5,2,0:0:0:0:
278,260,68798,1,6,0:0:0:0:
69,139,68956,1,2,0:0:0:0:
279,19,69114,5,6,0:0:0:0:
149,148,69272,1,2,0:0:0:0:
279,277,69430,1,2,0:0:0:0:
408,148,69588,1,2,0:0:0:0:
149,148,69746,5,2,0:0:0:0:
408,148,69904,1,2,0:0:0:0:
279,277,70062,1,2,0:0:0:0:
279,19,70219,1,2,0:0:0:0:
367,116,70377,22,0,L|341:297,1,161.25,4|0,0:0|0:0,0:0:0:0:
135,100,70693,2,0,L|157:259,1,161.25,4|0,0:0|0:0,0:0:0:0:
438,92,71009,2,0,L|412:273,1,161.25,4|0,0:0|0:0,0:0:0:0:
62,81,71325,2,0,L|84:240,1,161.25,4|0,0:0|0:0,0:0:0:0:
93,307,71640,5,6,0:0:0:0:
104,313,71718,1,2,0:0:0:0:
117,317,71797,1,2,0:0:0:0:
131,318,71876,1,2,0:0:0:0:
144,315,71955,1,2,0:0:0:0:
156,310,72034,1,2,0:0:0:0:
167,303,72113,1,2,0:0:0:0:
176,293,72192,1,2,0:0:0:0:
183,281,72271,1,2,0:0:0:0:
187,268,72350,1,2,0:0:0:0:
188,255,72429,1,2,0:0:0:0:
186,242,72508,1,2,0:0:0:0:
181,229,72587,1,2,0:0:0:0:
173,218,72666,1,2,0:0:0:0:
164,209,72745,1,2,0:0:0:0:
157,198,72824,1,2,0:0:0:0:
125,192,72903,5,6,0:0:0:0:
137,171,72981,1,2,0:0:0:0:
155,155,73060,1,2,0:0:0:0:
177,145,73139,1,2,0:0:0:0:
201,143,73218,1,2,0:0:0:0:
224,149,73297,1,2,0:0:0:0:
244,162,73376,1,2,0:0:0:0:
259,181,73455,1,2,0:0:0:0:
268,204,73534,1,2,0:0:0:0:
269,228,73613,1,2,0:0:0:0:
262,251,73692,1,2,0:0:0:0:
258,275,73771,1,2,0:0:0:0:
261,298,73850,1,2,0:0:0:0:
272,319,73929,1,2,0:0:0:0:
288,337,74008,1,2,0:0:0:0:
308,349,74087,1,2,0:0:0:0:
350,325,74166,5,6,0:0:0:0:
323,306,74244,1,2,0:0:0:0:
295,291,74323,1,2,0:0:0:0:
264,280,74402,1,2,0:0:0:0:
233,274,74481,1,2,0:0:0:0:
200,272,74560,1,2,0:0:0:0:
169,265,74640,1,2,0:0:0:0:
140,252,74718,1,2,0:0:0:0:
117,229,74797,1,2,0:0:0:0:
105,199,74876,1,2,0:0:0:0:
105,167,74955,1,2,0:0:0:0:
117,137,75034,1,2,0:0:0:0:
139,114,75113,1,2,0:0:0:0:
168,101,75192,1,2,0:0:0:0:
200,100,75271,1,2,0:0:0:0:
230,110,75350,1,2,0:0:0:0:
245,72,75429,5,6,0:0:0:0:
259,102,75507,1,2,0:0:0:0:
267,135,75586,1,2,0:0:0:0:
269,169,75665,1,2,0:0:0:0:
264,202,75744,1,2,0:0:0:0:
253,234,75823,1,2,0:0:0:0:
236,263,75902,1,2,0:0:0:0:
215,288,75981,1,2,0:0:0:0:
189,309,76060,1,2,0:0:0:0:
146,341,76218,21,10,0:0:0:0:
210,79,76376,1,10,0:0:0:0:
297,333,76534,1,10,0:0:0:0:
384,79,76692,5,6,0:0:0:0:
378,99,76770,1,2,0:0:0:0:
369,118,76849,1,2,0:0:0:0:
355,135,76928,1,2,0:0:0:0:
337,147,77007,1,2,0:0:0:0:
317,155,77086,1,2,0:0:0:0:
296,157,77165,1,2,0:0:0:0:
274,155,77244,1,2,0:0:0:0:
254,147,77323,1,6,0:0:0:0:
237,135,77402,1,2,0:0:0:0:
222,119,77481,1,2,0:0:0:0:
209,102,77561,1,2,0:0:0:0:
194,86,77639,1,2,0:0:0:0:
173,82,77718,1,2,0:0:0:0:
155,92,77797,1,2,0:0:0:0:
146,111,77876,1,2,0:0:0:0:
136,150,77955,5,6,0:0:0:0:
136,182,78033,1,2,0:0:0:0:
132,214,78112,1,2,0:0:0:0:
124,245,78191,1,2,0:0:0:0:
111,274,78270,1,2,0:0:0:0:
94,302,78349,1,2,0:0:0:0:
122,285,78429,1,2,0:0:0:0:
146,263,78507,1,2,0:0:0:0:
175,249,78587,1,6,0:0:0:0:
206,244,78665,1,2,0:0:0:0:
238,248,78744,1,2,0:0:0:0:
267,261,78823,1,2,0:0:0:0:
299,267,78903,1,2,0:0:0:0:
331,267,78981,1,2,0:0:0:0:
359,252,79060,1,2,0:0:0:0:
377,225,79139,1,2,0:0:0:0:
418,190,79218,5,6,0:0:0:0:
375,183,79296,1,2,0:0:0:0:
332,184,79375,1,2,0:0:0:0:
290,193,79454,1,2,0:0:0:0:
250,209,79533,1,6,0:0:0:0:
214,231,79612,1,2,0:0:0:0:
182,260,79691,1,2,0:0:0:0:
223,246,79771,1,2,0:0:0:0:
236,205,79850,1,6,0:0:0:0:
232,162,79928,1,2,0:0:0:0:
211,125,80007,1,2,0:0:0:0:
177,99,80086,1,2,0:0:0:0:
136,89,80166,1,6,0:0:0:0:
93,79,80245,1,2,0:0:0:0:
52,65,80323,1,2,0:0:0:0:
21,36,80402,1,2,0:0:0:0:
35,88,80482,6,0,P|50:128|98:164,1,67.1875,6|0,0:0|0:0,0:0:0:0:
163,268,80640,2,0,P|152:236|132:210,1,67.1875,6|0,0:0|0:0,0:0:0:0:
35,88,80797,2,0,P|50:128|98:164,1,67.1875,6|0,0:0|0:0,0:0:0:0:
163,268,80955,2,0,P|152:236|132:210,1,67.1875,6|0,0:0|0:0,0:0:0:0:
65,145,81113,1,6,0:0:0:0:
47,17,81271,21,14,0:0:0:0:
315,128,81429,1,14,0:0:0:0:
97,320,81587,1,14,0:0:0:0:
256,192,81746,12,2,83008,0:0:0:0:
