osu file format v14

[General]
AudioFilename: audio.mp3
AudioLeadIn: 0
PreviewTime: 41090
Countdown: 0
SampleSet: Soft
StackLeniency: 0.4
Mode: 0
LetterboxInBreaks: 0
WidescreenStoryboard: 1

[Editor]
Bookmarks: 14683,142607
DistanceSpacing: 1.3
BeatDivisor: 4
GridSize: 4
TimelineZoom: 2.3

[Metadata]
Title:WANNABE
TitleUnicode:WANNABE
Artist:Master Andross feat. Annapantsu, Rachie, Suiren & Takara
ArtistUnicode:Master Andross feat. Annapantsu, Rachie, Suiren & Takara
Creator:schoolboy
Version:Normal
Source:
Tags:Frakturehawkens komore cover english pop ITZY 있지
BeatmapID:2405128
BeatmapSetID:1152306

[Difficulty]
HPDrainRate:4
CircleSize:3.5
OverallDifficulty:4
ApproachRate:5
SliderMultiplier:1.2
SliderTickRate:1

[Events]
//Background and Video events
0,0,"TXCsnAor6Io.jpg",0,0
//Break Periods
2,27683,33140
2,111683,120569
//Storyboard Layer 0 (Background)
//Storyboard Layer 1 (Fail)
//Storyboard Layer 2 (Pass)
//Storyboard Layer 3 (Foreground)
//Storyboard Layer 4 (Overlay)
//Storyboard Sound Samples

[TimingPoints]
55,428.571428571429,4,2,1,65,1,0
41197,-100,4,2,1,75,0,0
54912,-100,4,2,1,79,0,0
70340,-100,4,2,1,65,0,0
97769,-100,4,2,1,75,0,0
111483,-100,4,2,1,40,0,0
121769,-100,4,2,1,50,0,0
130340,-100,4,2,1,60,0,0
150912,-100,4,2,1,65,0,0
152626,-100,4,2,1,78,0,0
180483,-100,4,2,1,50,0,0

[Colours]
Combo1 : 250,56,124
Combo2 : 89,249,153
Combo3 : 77,177,253
Combo4 : 162,116,248

[HitObjects]
6,125,55,5,2,1:2:0:0:
6,125,269,2,0,L|131:107,1,120,2|0,0:2|0:0,0:0:0:0:
186,59,912,2,2,P|323:89|318:162,1,240,2|0,0:2|1:2,0:0:0:0:
258,210,1983,1,2,0:2:0:0:
430,367,2626,2,2,P|443:220|462:178,1,180,2|0,0:2|0:0,0:0:0:0:
500,129,3483,5,2,1:2:0:0:
500,129,3697,2,0,P|442:157|383:150,1,120,2|0,0:2|0:0,0:0:0:0:
335,94,4340,2,2,P|260:84|212:227,1,240,2|0,0:2|1:2,0:0:0:0:
332,304,5626,2,0,L|460:282,2,120,2|2|2,0:2|1:2|1:2,0:0:0:0:
201,384,6912,5,2,1:2:0:0:
201,384,7126,2,0,P|116:362|90:325,1,120,2|0,0:0|0:0,0:0:0:0:
27,375,7769,2,2,L|2:117,1,240,2|2,0:0|1:2,0:0:0:0:
54,76,8840,1,2,0:0:0:0:
238,219,9483,2,2,P|311:210|359:105,1,180,2|0,0:0|0:0,0:0:0:0:
429,83,10340,5,2,1:2:0:0:
429,83,10555,2,0,L|302:66,1,120,2|0,0:0|0:0,0:0:0:0:
256,192,11197,12,6,13769,1:3:0:0:
102,121,14626,5,8,0:2:0:0:
221,221,15055,2,0,L|339:203,1,120,2|2,1:2|0:2,0:0:0:0:
396,149,15697,1,0,1:2:0:0:
396,149,15912,2,0,L|479:158,2,60,2|2|8,1:2|0:2|0:2,0:0:0:0:
272,53,16769,1,2,1:2:0:0:
154,155,17197,6,0,L|170:285,1,120,6|2,1:2|0:2,0:0:0:0:
127,342,17840,1,0,0:2:0:0:
127,342,18055,2,0,P|186:309|257:326,1,120,10|2,0:2|1:2,0:0:0:0:
386,372,18912,1,2,0:2:0:0:
386,372,19126,2,0,L|460:365,2,60,0|2|0,1:2|1:2|1:2,0:0:0:0:
325,321,19769,2,0,P|315:262|329:195,1,120,8|0,0:2|1:2,0:0:0:0:
381,148,20412,1,0,3:2:0:0:
381,148,20626,5,6,1:3:0:0:
256,53,21055,2,0,L|266:-8,2,60,2|0|8,0:2|1:2|0:2,0:0:0:0:
146,164,21912,2,0,L|151:223,1,60,2|2,1:2|0:2,0:0:0:0:
87,268,22340,2,0,P|42:266|5:241,2,90,0|0|2,0:0|0:0|0:2,0:0:0:0:
147,319,23197,2,0,P|206:289|341:297,1,180,8|2,0:2|0:2,0:0:0:0:
385,329,24055,5,4,1:3:0:0:
483,208,24483,2,0,L|475:139,1,60,2|2,0:2|0:2,0:0:0:0:
506,76,24912,2,0,P|468:114|401:117,1,120,8|2,0:2|1:2,0:0:0:0:
276,28,25769,1,2,0:2:0:0:
276,28,25983,2,0,P|294:91|290:149,1,120,0|2,1:2|1:2,0:0:0:0:
226,188,26626,2,0,P|165:187|63:333,1,240,8|6,0:2|0:2,0:0:0:0:
345,379,34340,6,0,P|305:353|266:350,1,60
221,383,34769,1,0,0:2:0:0:
78,319,35197,2,0,P|93:284|89:250,1,60,10|10,0:2|0:2,0:0:0:0:
158,221,35626,2,0,P|149:142|114:100,1,120,10|10,0:2|0:2,0:0:0:0:
242,6,36483,2,0,L|309:19,1,60,8|0,0:2|3:2,0:0:0:0:
302,95,36912,2,0,L|436:80,1,120,10|10,0:2|0:2,0:0:0:0:
502,72,37555,1,8,0:2:0:0:
502,72,37769,5,0,3:2:0:0:
437,213,38197,2,0,P|408:202|379:199,1,60,8|2,0:2|0:2,0:0:0:0:
323,143,38626,2,0,P|268:164|208:167,2,120,10|8|0,0:2|0:2|3:2,0:0:0:0:
455,365,41197,6,0,P|442:302|373:291,1,120,6|10,1:3|0:2,0:0:0:0:
313,151,42055,2,0,P|266:177|192:170,1,120,2|10,1:2|0:2,0:0:0:0:
133,135,42697,1,2,0:2:0:0:
133,135,42912,2,0,P|160:179|159:272,1,120,2|10,1:2|0:2,0:0:0:0:
108,298,43555,1,2,0:2:0:0:
257,342,43983,2,0,P|292:350|319:376,2,60,2|10|2,0:2|0:2|0:2,0:0:0:0:
189,379,44626,5,6,1:2:0:0:
275,249,45055,2,0,P|282:219|271:184,1,60,8|2,0:2|0:2,0:0:0:0:
213,143,45483,2,0,P|272:136|323:105,2,120,2|10|0,1:2|0:2|1:2,0:0:0:0:
138,145,46555,1,2,0:2:0:0:
138,145,46769,2,0,P|136:105|127:76,1,60,10|2,0:2|0:2,0:0:0:0:
66,41,47197,2,0,P|29:44|0:107,2,90,2|10|10,1:2|0:2|0:2,0:0:0:0:
137,7,48055,5,4,1:2:0:0:
230,131,48483,2,0,L|368:116,1,120,8|2,0:2|1:2,0:0:0:0:
449,238,49340,2,0,L|389:228,1,60,10|2,0:2|0:2,0:0:0:0:
347,294,49769,2,0,P|302:263|230:281,1,120,0|8,1:2|0:2,0:0:0:0:
175,317,50412,1,2,0:2:0:0:
56,217,50840,2,0,L|-16:223,2,60,2|10|2,0:2|0:2|0:2,0:0:0:0:
110,161,51483,5,6,1:2:0:0:
110,161,51697,2,0,P|165:196|236:189,1,120,2|2,0:0|0:2,0:0:0:0:
279,146,52340,2,0,L|267:79,2,60,2|2|10,1:2|0:2|0:2,0:0:0:0:
293,222,52983,1,2,0:2:0:0:
427,301,53412,2,0,P|455:254|436:167,1,120,2|2,0:2|0:2,0:0:0:0:
436,113,54055,2,0,P|464:74|519:65,2,90,10|2|8,1:2|1:2|1:2,0:0:0:0:
366,78,54912,6,0,L|290:88,1,60,14|0,1:3|0:0,0:0:0:0:
242,130,55340,2,0,P|214:119|182:120,2,60,0|2|10,1:2|0:0|1:2,0:0:0:0:
373,216,56197,2,0,L|381:291,1,60,0|0,0:0|0:0,0:0:0:0:
325,332,56626,2,0,P|266:334|222:295,1,120,10|2,1:3|1:2,0:0:0:0:
108,188,57483,2,0,L|27:203,2,60,10|2|2,1:2|0:0|1:2,0:0:0:0:
171,142,58126,1,0,0:0:0:0:
171,142,58340,6,0,P|186:106|186:71,1,60,14|0,1:3|0:0,0:0:0:0:
124,39,58769,2,0,L|-10:24,2,120,0|10|2,0:0|1:2|1:2,0:0:0:0:
192,1,59840,1,2,0:2:0:0:
251,145,60269,2,0,P|306:119|382:116,1,120,2|2,0:0|0:0,0:0:0:0:
419,58,60912,2,0,L|521:73,2,90,10|0|0,1:2|0:0|0:0,0:0:0:0:
351,18,61769,5,14,1:3:0:0:
272,152,62197,2,0,L|281:221,1,60,0|2,1:2|0:0,0:0:0:0:
347,250,62626,2,0,P|331:303|330:373,2,120,10|0|10,1:2|0:0|1:3,0:0:0:0:
460,143,63912,1,2,1:2:0:0:
460,143,64126,2,0,L|521:150,2,60,2|10|0,0:0|1:2|0:0,0:0:0:0:
400,92,64769,1,2,1:2:0:0:
269,177,65197,5,14,1:3:0:0:
368,304,65626,1,0,0:0:0:0:
368,304,65840,2,0,P|286:304|184:344,1,180,2|2,0:0|1:2,0:0:0:0:
118,321,66697,1,2,0:0:0:0:
25,195,67126,1,2,0:0:0:0:
92,155,67340,2,0,L|227:169,1,120,0|10,1:2|1:2,0:0:0:0:
273,119,67983,1,2,1:2:0:0:
273,119,68197,2,0,L|260:43,1,60,0|0,1:0|1:0,0:0:0:0:
256,192,68626,12,6,70340,1:3:0:0:
173,259,71197,5,8,0:2:0:0:
302,346,71626,2,0,P|383:303|495:310,1,180,2|0,1:2|1:2,0:0:0:0:
507,233,72483,2,0,P|504:202|488:164,1,60,2|2,1:2|0:2,0:0:0:0:
432,126,72912,2,0,L|443:-18,1,120,8|2,0:2|1:2,0:0:0:0:
306,85,73769,6,0,L|296:204,1,120,6|2,1:2|0:2,0:0:0:0:
228,345,74626,2,0,P|170:348|118:301,2,120,10|2|2,0:2|1:2|0:2,0:0:0:0:
304,382,75697,1,0,1:2:0:0:
304,382,75912,2,0,L|375:377,2,60,2|0|8,1:2|1:2|0:2,0:0:0:0:
20,252,77197,6,0,P|34:184|154:157,1,180,6|2,1:3|1:2,0:0:0:0:
192,100,78055,2,0,P|200:72|200:31,1,60,10|0,0:2|0:0,0:0:0:0:
133,3,78483,1,2,1:2:0:0:
24,115,78912,2,0,L|37:213,2,90,2|2|0,1:2|0:2|1:2,1:2:0:0:
101,126,79769,2,0,P|152:141|172:213,1,120,8|0,0:2|0:0,0:0:0:0:
258,337,80626,5,4,1:3:0:0:
258,337,80840,2,0,P|315:337|362:280,1,120,0|10,0:0|0:2,0:0:0:0:
431,319,81483,2,0,L|449:176,1,120,8|2,0:2|1:2,0:0:0:0:
361,68,82340,2,0,L|368:130,1,60,2|0,0:2|1:2,0:0:0:0:
307,177,82769,2,0,P|272:163|241:162,1,60,0|0,1:2|1:2,0:0:0:0:
187,113,83197,2,0,L|64:126,2,120,10|0|6,0:2|0:0|1:3,0:0:0:0:
187,113,85769,6,0,L|178:174,1,60,10|0,1:2|0:2,0:0:0:0:
167,249,86197,2,0,P|139:264|95:263,1,60,8|0,0:2|0:0,0:0:0:0:
39,298,86626,2,0,P|110:311|146:354,1,120,8|0,0:2|0:0,0:0:0:0:
297,366,87483,6,0,L|361:354,1,60,6|0,1:3|0:2,0:0:0:0:
431,376,87912,2,0,P|453:328|437:249,1,120,8|2,0:2|1:2,0:0:0:0:
337,149,88769,2,0,L|325:81,1,60,8|0,0:2|0:2,0:0:0:0:
378,31,89197,2,0,L|483:47,2,90,2|0|0,1:2|0:2|3:2,0:0:0:0:
326,89,90055,2,0,P|263:92|189:114,1,120,2|10,1:2|0:2,0:0:0:0:
66,39,90912,6,0,L|80:101,1,60,2|0,1:2|0:2,0:0:0:0:
26,155,91340,2,0,L|15:278,2,120,8|2|8,0:2|1:2|0:2,0:0:0:0:
141,260,92626,2,0,L|204:250,1,60,2|0,1:2|0:2,0:0:0:0:
257,197,93055,2,0,L|334:212,1,60,8|0,0:2|0:0,0:0:0:0:
376,258,93483,2,0,P|442:232|495:232,1,120,2|8,1:2|0:2,0:0:0:0:
511,158,94126,1,8,0:2:0:0:
511,158,94340,5,2,1:2:0:0:
435,21,94769,2,0,P|427:51|429:85,1,60,10|2,0:2|0:2,0:0:0:0:
376,138,95197,2,0,P|325:119|257:118,2,120,2|10|0,1:2|0:2|0:2,0:0:0:0:
509,301,97769,6,0,P|452:307|394:339,1,120,6|10,1:3|0:2,0:0:0:0:
265,252,98626,2,0,P|253:188|269:137,1,120,2|10,1:2|0:2,0:0:0:0:
307,70,99269,1,2,0:2:0:0:
307,70,99483,2,0,P|260:104|195:99,1,120,2|10,1:2|0:2,0:0:0:0:
131,63,100126,1,2,0:2:0:0:
11,163,100555,2,0,P|10:136|-9:92,2,60,2|10|2,0:2|0:2|0:2,0:0:0:0:
37,236,101197,5,6,1:2:0:0:
180,174,101626,2,0,P|217:181|249:197,1,60,8|2,0:2|0:2,0:0:0:0:
295,137,102055,2,0,L|421:127,1,120,2|10,1:2|0:2,0:0:0:0:
469,182,102697,1,2,0:2:0:0:
410,37,103126,1,2,0:2:0:0:
336,12,103340,2,0,L|251:20,1,60,10|2,0:2|0:2,0:0:0:0:
221,73,103769,2,0,L|230:180,2,90,2|10|10,1:2|0:2|0:2,0:0:0:0:
177,8,104626,5,4,1:2:0:0:
79,130,105055,2,0,P|71:172|75:205,1,60,8|2,0:2|0:2,0:0:0:0:
15,242,105483,2,0,P|67:242|133:298,1,120,2|10,1:2|0:2,0:0:0:0:
192,326,106126,1,2,0:2:0:0:
192,326,106340,2,0,P|169:254|186:199,1,120,0|10,1:2|0:2,0:0:0:0:
235,159,106983,1,2,0:2:0:0:
155,24,107412,2,0,L|74:38,2,60,2|10|2,0:2|0:2|0:2,0:0:0:0:
229,48,108055,5,6,1:2:0:0:
327,168,108483,2,0,P|356:152|391:151,1,60,10|2,0:2|0:2,0:0:0:0:
439,96,108912,2,0,L|514:110,2,60,2|2|10,1:2|0:2|0:2,0:0:0:0:
378,46,109555,1,2,0:2:0:0:
301,181,109983,2,0,P|309:243|318:311,1,120,2|2,0:2|0:2,0:0:0:0:
388,330,110626,2,0,P|435:327|481:285,2,90,10|2|8,1:2|0:2|1:2,0:0:0:0:
327,379,111483,5,0,0:0:0:0:
256,192,121769,12,2,125197,0:2:0:0:
256,192,125305,12,2,128626,1:1:0:0:
457,341,130340,6,0,P|410:322|328:322,1,120,6|10,1:3|0:2,0:0:0:0:
237,202,131197,2,0,L|222:84,2,90,2|2|2,0:2|0:2|0:2,0:0:0:0:
181,257,132055,2,0,P|115:264|60:217,1,120,2|10,1:2|0:2,0:0:0:0:
37,88,132912,1,2,0:2:0:0:
37,88,133126,2,0,L|54:10,2,60,10|8|10,0:0|0:0|0:2,0:0:0:0:
98,135,133769,5,6,1:2:0:0:
239,70,134197,1,8,0:2:0:0:
372,150,134626,2,0,P|434:141|460:100,2,90,2|2|2,1:2|0:2|0:2,0:0:0:0:
293,150,135483,2,0,P|320:196|311:281,1,120,2|10,0:2|0:2,0:0:0:0:
191,351,136340,1,2,1:2:0:0:
70,251,136769,2,0,L|81:173,1,60,8|2,0:0|1:2,0:0:0:0:
19,140,137197,6,0,P|62:101|130:106,1,120,6|10,1:2|0:2,0:0:0:0:
271,145,138055,2,0,P|292:104|289:48,2,90,2|2|2,0:2|0:2|0:2,0:0:0:0:
202,181,138912,2,0,L|216:321,1,120,2|10,1:2|0:2,0:0:0:0:
363,360,139769,1,2,0:2:0:0:
363,360,139983,2,0,P|395:346|438:344,2,60,10|8|10,0:0|0:0|0:2,0:0:0:0:
297,317,140626,5,6,1:2:0:0:
337,166,141055,1,8,0:2:0:0:
191,221,141483,2,0,P|146:216|110:177,2,90,2|2|2,1:2|0:2|0:2,0:0:0:0:
245,277,142340,2,0,P|315:274|356:310,1,120,2|10,0:2|0:2,0:0:0:0:
492,370,143197,2,0,P|500:348|501:310,1,60,2|0,1:2|0:0,0:0:0:0:
447,254,143626,1,8,0:0:0:0:
503,110,144055,5,6,1:2:0:0:
503,110,144269,2,0,P|439:113|388:75,1,120,0|2,0:0|1:2,0:0:0:0:
395,4,144912,2,0,P|324:57|234:52,1,180,0|0,1:2|0:0,0:0:0:0:
168,14,145769,1,6,1:2:0:0:
142,169,146197,2,0,L|153:235,1,60,8|2,0:0|1:2,0:0:0:0:
96,283,146626,1,2,0:2:0:0:
96,283,146840,2,0,P|54:270|23:270,2,60,10|10|10,0:2|1:2|0:2,0:0:0:0:
146,342,147483,6,0,P|205:317|279:326,1,120,2|10,1:2|0:2,0:0:0:0:
327,359,148126,1,10,0:2:0:0:
392,316,148340,2,0,P|407:245|388:183,2,120,0|10|4,0:0|0:2|1:2,0:0:0:0:
92,369,150055,2,0,P|40:342|0:343,2,90,2|2|2,1:2|1:2|1:2,0:0:0:0:
162,335,150912,1,8,1:2:0:0:
162,335,152626,6,2,P|111:295|55:301,1,120,6|2,1:3|0:0,0:0:0:0:
0,245,153269,1,2,0:0:0:0:
0,245,153483,2,0,P|6:204|21:174,1,60,8|2,0:2|0:2,0:0:0:0:
74,130,153912,2,0,L|57:-4,2,120,2|2|6,1:2|1:2|1:2,0:0:0:0:
3,268,155197,1,10,0:2:0:0:
146,329,155626,1,2,0:2:0:0:
222,193,156055,6,0,P|276:224|342:222,1,120,6|0,1:3|0:0,0:0:0:0:
393,283,156697,1,2,0:0:0:0:
393,283,156912,2,0,L|522:267,2,120,8|2|2,0:2|1:2|1:2,0:0:0:0:
265,369,158197,2,0,P|217:350|198:352,1,60,6|2,1:2|1:2,0:0:0:0:
148,302,158626,2,0,P|100:318|51:311,2,90,10|2|2,0:2|0:0|0:2,0:0:0:0:
203,246,159483,5,6,1:3:0:0:
286,114,159912,2,0,L|270:35,1,60,0|0,0:0|0:0,0:0:0:0:
331,2,160340,2,0,P|382:17|409:86,1,120,8|0,0:2|0:0,0:0:0:0:
504,198,161197,2,0,P|477:242|392:250,1,120,2|2,1:2|1:2,0:0:0:0:
340,230,161840,2,0,P|286:243|260:306,1,120,2|2,0:2|0:2,0:0:0:0:
211,359,162483,1,2,0:0:0:0:
84,267,162912,6,0,P|70:243|68:144,1,120,6|0,1:3|0:0,0:0:0:0:
117,94,163555,1,0,3:0:0:0:
186,128,163769,2,0,P|255:126|307:83,1,120,8|2,3:2|1:2,0:0:0:0:
421,0,164626,1,2,1:2:0:0:
421,0,164840,2,0,P|404:60|409:123,1,120,0|2,0:2|1:2,0:0:0:0:
435,190,165483,2,0,P|480:200|511:244,2,90,10|2|8,1:2|0:2|1:2,0:0:0:0:
363,219,166340,5,14,1:3:0:0:
256,333,166769,2,0,P|229:323|181:322,1,60,0|2,1:2|0:0,0:0:0:0:
168,248,167197,2,0,P|103:282|37:266,2,120,10|2|10,1:2|1:2|1:3,0:0:0:0:
223,192,168269,1,2,1:2:0:0:
223,192,168483,1,0,1:2:0:0:
352,104,168912,1,10,1:2:0:0:
470,204,169340,1,2,1:2:0:0:
384,334,169769,6,0,P|354:327|313:326,1,60,14|0,1:3|0:0,0:0:0:0:
264,276,170197,2,0,L|125:294,1,120,0|10,1:2|1:2,0:0:0:0:
9,213,171055,2,0,P|8:138|45:91,1,120,2|0,1:2|0:0,0:0:0:0:
91,52,171697,2,0,P|80:24|39:8,2,60,2|0|2,1:2|1:2|0:0,0:0:0:0:
148,105,172340,2,0,P|225:97|305:9,1,180,10|0,1:2|0:0,0:0:0:0:
364,69,173197,5,14,1:3:0:0:
443,203,173626,2,0,L|433:274,1,60,0|2,1:2|0:0,0:0:0:0:
478,327,174055,2,0,P|411:329|363:369,1,120,10|2,1:2|1:2,0:0:0:0:
244,265,174912,1,10,1:3:0:0:
244,265,175126,2,0,L|256:119,1,120,0|2,0:0|0:0,0:0:0:0:
311,92,175769,1,10,1:2:0:0:
412,209,176197,1,2,1:2:0:0:
334,344,176626,6,0,P|272:338|209:390,1,120,14|0,1:3|1:2,0:0:0:0:
107,263,177483,2,0,P|96:236|97:173,2,90,10|2|0,1:2|0:0|0:0,0:0:0:0:
64,328,178340,1,10,1:3:0:0:
64,328,178555,2,0,L|-12:321,2,60,2|0|2,1:2|1:2|0:0,0:0:0:0:
131,367,179197,1,10,1:2:0:0:
219,238,179626,2,0,P|213:179|212:167,1,60,2|2,1:2|1:2,0:0:0:0:
202,100,180055,5,2,0:0:0:0:
256,192,180162,12,2,181769,0:0:0:0:
