osu file format v14

[General]
AudioFilename: audio.mp3
AudioLeadIn: 0
PreviewTime: 41090
Countdown: 0
SampleSet: Soft
StackLeniency: 0.7
Mode: 0
LetterboxInBreaks: 0
WidescreenStoryboard: 1

[Editor]
Bookmarks: 14683,111428,152571,180000
DistanceSpacing: 0.3
BeatDivisor: 4
GridSize: 32
TimelineZoom: 2.3

[Metadata]
Title:WANNABE
TitleUnicode:WANNABE
Artist:Master Andross feat. Annapantsu, Rachie, Suiren & Takara
ArtistUnicode:Master Andross feat. Annapantsu, Rachie, Suiren & Takara
Creator:schoolboy
Version:Hard
Source:
Tags:Frakturehawkens komore cover english pop ITZY 있지
BeatmapID:2405127
BeatmapSetID:1152306

[Difficulty]
HPDrainRate:5
CircleSize:4
OverallDifficulty:6.5
ApproachRate:8
SliderMultiplier:1.4
SliderTickRate:1

[Events]
//Background and Video events
0,0,"TXCsnAor6Io.jpg",0,0
//Break Periods
2,111683,121019
//Storyboard Layer 0 (Background)
//Storyboard Layer 1 (Fail)
//Storyboard Layer 2 (Pass)
//Storyboard Layer 3 (Foreground)
//Storyboard Layer 4 (Overlay)
//Storyboard Sound Samples

[TimingPoints]
55,428.571428571429,4,2,1,65,1,0
55,-133.333333333333,4,2,1,65,0,0
911,-100,4,2,1,65,0,0
1768,-133.333333333333,4,2,1,65,0,0
2624,-100,4,2,1,65,0,0
3695,-133.333333333333,4,2,1,65,0,0
4337,-100,4,2,1,65,0,0
5194,-181.818181818181,4,2,1,65,0,0
6050,-133.333333333333,4,2,1,65,0,0
7121,-133.333333333333,4,2,1,65,0,0
7763,-100,4,2,1,65,0,0
8834,-133.333333333333,4,2,1,65,0,0
9476,-100,4,2,1,65,0,0
10547,-133.333333333333,4,2,1,65,0,0
11189,-80,4,2,1,65,0,0
13126,-100,4,2,1,65,0,0
13759,-100,4,2,1,65,0,0
27483,-111.111111111111,4,2,1,65,0,0
41197,-100,4,2,1,75,0,0
54055,-83.3333333333333,4,2,1,75,0,0
54912,-100,4,2,1,79,0,0
70340,-100,4,2,1,65,0,0
76340,-111.111111111111,4,2,1,65,0,0
77197,-83.3333333333333,4,2,1,65,0,0
77626,-100,4,2,1,65,0,0
96912,-133.333333333333,4,2,1,65,0,0
97769,-100,4,2,1,75,0,0
110626,-83.3333333333333,4,2,1,75,0,0
111483,-83.3333333333333,4,2,1,40,0,0
121769,-83.3333333333333,4,2,1,50,0,0
128626,-100,4,2,1,50,0,0
130340,-111.111111111111,4,2,1,60,0,0
150912,-100,4,2,1,65,0,0
152626,-100,4,2,1,78,0,0
165483,-83.3333333333333,4,2,1,78,0,0
166340,-100,4,2,1,78,0,0
180483,-100,4,2,1,50,0,0

[Colours]
Combo1 : 250,56,124
Combo2 : 89,249,153
Combo3 : 77,177,253
Combo4 : 162,116,248

[HitObjects]
101,205,55,5,2,1:2:0:0:
101,205,269,2,0,P|152:224|167:286,1,105.000004005432,2|0,0:2|0:0,0:0:0:0:
114,340,912,2,2,P|187:297|314:305,1,210,2|0,0:2|0:0,0:0:0:0:
426,364,1769,5,2,1:2:0:0:
426,364,1983,2,0,P|403:297|416:244,1,105.000004005432,2|0,0:2|0:0,0:0:0:0:
492,231,2626,2,2,P|453:265|382:156,1,210,2|0,0:2|0:0,0:0:0:0:
277,105,3483,5,2,1:2:0:0:
277,105,3697,2,0,P|216:114|161:148,1,105.000004005432,2|0,0:2|0:0,0:0:0:0:
96,75,4340,2,2,P|140:138|117:280,1,210,2|0,0:2|0:0,0:0:0:0:
67,346,5197,5,0,1:2:0:0:
380,282,5626,1,2,0:2:0:0:
380,282,6055,2,0,P|378:250|370:222,1,52.5000020027161,2|2,1:2|0:2,0:0:0:0:
455,327,6483,2,0,P|456:302|464:264,1,52.5000020027161,2|2,1:2|0:2,0:0:0:0:
384,375,6912,5,2,1:2:0:0:
384,375,7126,2,0,P|314:347|269:354,1,105.000004005432,2|0,0:0|0:0,0:0:0:0:
311,260,7769,2,2,P|257:303|113:298,1,210,2|0,0:0|0:0,0:0:0:0:
23,367,8626,5,2,1:2:0:0:
23,367,8840,2,0,P|42:320|33:254,1,105.000004005432,2|0,0:0|0:0,0:0:0:0:
108,208,9483,2,2,P|130:150|37:179,1,210,2|0,0:0|0:0,0:0:0:0:
122,294,10340,5,2,1:2:0:0:
122,294,10555,2,0,P|175:275|241:282,1,105.000004005432,2|0,0:0|0:0,0:0:0:0:
325,326,11197,2,2,B|269:353|197:297|190:229|236:191|246:187|252:180|347:136|433:79|325:-10|150:-49|228:1|126:21|133:121|205:153|133:208|10:188|8:89|77:72,1,700,2|0,0:0|0:0,0:0:0:0:
94,19,13126,2,0,P|65:-1|12:-4,2,70,0|0|2,0:0|0:0|0:0,0:0:0:0:
167,92,13769,6,0,P|218:94|264:69,1,105,6|0,1:3|0:2,0:0:0:0:
329,28,14197,2,0,P|366:30|400:53,2,70,2|2|8,0:2|0:2|0:2,0:0:0:0:
452,116,14840,1,0,0:0:0:0:
507,45,15055,2,0,L|500:7,2,35,2|0|2,1:2|0:2|0:2,0:0:0:0:
452,116,15483,5,2,0:2:0:0:
425,197,15697,2,0,P|451:219|485:226,2,70,0|2|2,1:2|1:2|0:2,0:0:0:0:
350,153,16340,2,0,L|259:167,1,70,8|0,0:2|0:0,0:0:0:0:
253,171,16662,1,2,0:2:0:0:
253,171,16769,2,0,L|162:185,1,70,2|2,1:2|0:2,0:0:0:0:
24,207,17197,6,0,P|59:204|93:214,1,70,6|0,1:2|0:0,0:0:0:0:
108,220,17519,2,0,P|128:173|118:119,1,105,0|0,0:0|0:2,0:0:0:0:
55,73,18055,1,10,0:2:0:0:
134,38,18269,1,0,0:2:0:0:
47,84,18483,2,0,P|12:66|-45:67,1,70,2|2,1:2|0:2,0:0:0:0:
121,124,18912,5,2,0:2:0:0:
131,132,19126,2,0,P|170:125|206:92,2,70,0|2|0,1:2|1:2|1:2,0:0:0:0:
67,191,19769,2,0,L|53:261,1,70,8|0,0:2|3:2,0:0:0:0:
79,293,20090,1,0,3:2:0:0:
79,293,20197,2,0,L|86:352,2,35,0|0|0,1:2|3:2|3:2,0:0:0:0:
5,380,20626,5,6,1:3:0:0:
207,285,21055,2,0,P|249:295|277:321,2,70,2|2|8,0:2|1:2|0:2,0:0:0:0:
134,237,21697,1,0,0:0:0:0:
69,296,21912,2,0,L|85:371,1,70,2|2,1:2|0:2,0:0:0:0:
134,237,22340,6,0,P|150:207|148:154,1,70,0|0,0:0|1:2,0:0:0:0:
141,160,22662,2,0,L|59:170,1,70,0|0,0:0|0:2,0:0:0:0:
0,173,22983,2,0,L|7:121,2,35,2|0|8,0:2|0:2|0:2,0:0:0:0:
145,44,23412,1,0,0:0:0:0:
63,21,23626,2,0,L|77:100,1,70,2|2,0:2|0:2,0:0:0:0:
147,190,24055,6,0,P|196:169|248:167,1,105,4|0,1:3|0:0,0:0:0:0:
313,123,24483,2,0,L|388:138,2,70,2|2|8,0:2|0:2|0:2,0:0:0:0:
242,57,25126,1,0,0:2:0:0:
239,43,25340,1,2,1:2:0:0:
237,29,25555,1,2,0:2:0:0:
178,111,25769,5,2,0:2:0:0:
168,121,25983,2,0,B|99:150|109:119|27:153,1,140,0|2,1:2|1:2,0:0:0:0:
96,300,26626,2,0,P|119:264|111:220,1,70,8|0,0:2|0:0,0:0:0:0:
105,230,26947,2,0,L|10:247,1,70,2|2,0:0|0:0,0:0:0:0:
225,364,27483,5,6,0:2:0:0:
189,184,27912,1,2,0:2:0:0:
225,364,28340,2,0,L|298:350,1,62.9999980773926,0|2,0:0|0:2,0:0:0:0:
349,312,28662,2,0,P|399:314|455:349,1,94.499997116089,0|2,0:0|0:2,0:0:0:0:
512,206,29197,6,0,P|469:226|422:227,1,94.499997116089,2|0,0:2|0:0,0:0:0:0:
398,216,29626,1,2,0:2:0:0:
398,216,29733,2,0,L|296:228,1,94.499997116089,0|0,0:0|0:0,0:0:0:0:
230,157,30269,1,2,0:2:0:0:
230,157,30376,2,0,P|236:116|247:47,1,94.499997116089,0|2,0:0|0:2,0:0:0:0:
147,223,30912,6,0,P|116:239|81:242,1,62.9999980773926,2|0,0:2|0:2,0:0:0:0:
10,182,31340,1,2,0:2:0:0:
0,189,31555,1,0,0:0:0:0:
82,114,31769,2,0,L|146:127,1,62.9999980773926,0|2,0:0|0:2,0:0:0:0:
160,119,32090,2,0,P|173:81|156:7,1,94.499997116089,0|2,0:0|0:2,0:0:0:0:
83,0,32626,5,10,0:2:0:0:
76,17,32840,1,2,0:2:0:0:
160,119,33055,1,10,0:2:0:0:
167,102,33269,1,0,0:0:0:0:
59,173,33483,2,0,L|73:244,1,62.9999980773926,8|2,0:0|0:2,0:0:0:0:
136,277,33805,2,0,P|197:285|239:325,1,94.499997116089,0|8,0:0|0:2,0:0:0:0:
322,362,34340,6,0,L|352:356,4,31.4999990386963,10|0|0|2|10,0:2|0:0|0:2|0:2|0:2,0:0:0:0:
478,188,35197,2,0,L|508:193,1,31.4999990386963,10|0,0:2|0:2,0:0:0:0:
476,172,35412,2,0,L|506:166,1,31.4999990386963,10|0,0:2|0:2,0:0:0:0:
396,213,35626,2,0,P|432:166|422:87,1,125.999996154785,10|10,0:2|0:2,0:0:0:0:
334,27,36269,5,0,0:2:0:0:
325,42,36483,2,0,L|339:155,1,94.499997116089,8|0,0:2|3:2,0:0:0:0:
278,191,36912,2,0,L|201:179,1,62.9999980773926,10|2,0:2|0:2,0:0:0:0:
154,140,37233,1,0,0:0:0:0:
154,140,37340,2,0,L|90:151,1,62.9999980773926,10|8,0:2|0:2,0:0:0:0:
0,245,37769,6,0,P|12:224|13:206,4,31.4999990386963,0|0|0|0|8,3:2|3:2|3:2|3:2|0:2,0:0:0:0:
130,43,38626,2,0,P|142:64|143:82,1,31.4999990386963,10|0,0:2|0:0,0:0:0:0:
205,119,38840,2,0,P|217:98|218:80,1,31.4999990386963,0|0,0:0|0:0,0:0:0:0:
285,51,39055,2,0,L|413:37,1,125.999996154785,8|0,0:2|3:2,0:0:0:0:
256,192,39590,12,6,40769,0:2:0:0:
99,67,41197,6,0,B|105:127|112:109|117:170,1,105,6|0,1:3|0:2,0:0:0:0:
102,183,41626,2,0,P|68:178|18:171,1,70,10|2,0:2|0:2,0:0:0:0:
180,256,42055,2,0,P|213:251|264:244,1,70,2|2,1:2|0:2,0:0:0:0:
109,330,42483,1,10,0:2:0:0:
42,286,42697,1,2,0:2:0:0:
178,371,42912,6,0,P|221:364|262:336,1,70,2|2,1:2|0:2,0:0:0:0:
312,307,43233,2,0,P|355:314|396:342,1,70,2|0,0:0|0:2,0:0:0:0:
450,366,43555,2,0,L|490:360,2,35,2|0|2,0:2|0:2|1:2,0:0:0:0:
363,230,43983,5,10,0:2:0:0:
410,161,44197,1,10,1:2:0:0:
493,149,44412,1,10,0:2:0:0:
362,229,44626,6,0,P|314:211|262:204,1,105,6|0,1:2|0:2,0:0:0:0:
248,195,45055,2,0,L|179:209,1,70,8|2,0:2|0:2,0:0:0:0:
67,155,45483,1,2,1:2:0:0:
154,103,45697,1,2,0:2:0:0:
158,87,45912,1,10,0:2:0:0:
99,247,46126,6,0,P|169:260|226:308,1,140,2|2,0:2|0:2,0:0:0:0:
331,242,46769,2,0,P|338:212|336:194,1,35,10|0,0:2|0:2,0:0:0:0:
282,148,46983,1,2,0:2:0:0:
339,20,47197,2,0,L|349:94,1,70,2|0,1:2|0:2,0:0:0:0:
422,130,47519,1,10,0:2:0:0:
422,130,47626,2,0,L|488:118,2,35,8|0|10,1:2|0:2|0:2,0:0:0:0:
331,242,48055,6,0,P|266:235|233:194,1,105,4|0,1:2|0:0,0:0:0:0:
224,209,48483,2,0,P|228:177|234:128,1,70,8|2,0:2|0:2,0:0:0:0:
143,309,48912,2,0,P|139:277|133:228,1,70,2|2,1:2|0:2,0:0:0:0:
229,336,49340,1,10,0:2:0:0:
80,373,49555,1,2,0:2:0:0:
229,336,49769,6,0,P|267:336|326:361,1,70,0|2,1:2|0:2,0:0:0:0:
371,378,50090,2,0,P|405:378|439:369,1,70,2|0,0:0|0:2,0:0:0:0:
494,309,50412,2,0,L|486:265,2,35,2|0|0,0:2|0:2|1:2,0:0:0:0:
388,193,50840,5,2,0:2:0:0:
405,110,51055,1,10,1:2:0:0:
473,62,51269,1,10,0:2:0:0:
388,193,51483,5,6,1:2:0:0:
380,203,51697,2,0,P|345:220|287:226,1,70,0|10,0:0|0:2,0:0:0:0:
480,293,52126,1,2,0:2:0:0:
374,382,52340,2,0,P|381:345|389:305,1,70,2|2,1:2|0:2,0:0:0:0:
236,200,52769,2,0,P|243:237|251:277,1,70,10|2,0:2|0:2,0:0:0:0:
170,356,53197,5,0,1:2:0:0:
159,346,53412,2,0,P|106:355|73:381,1,70,2|10,0:2|0:2,0:0:0:0:
20,327,53733,1,2,0:2:0:0:
28,306,53840,1,2,0:2:0:0:
74,161,54055,6,0,L|92:242,1,83.9999974365235,10|0,1:2|0:2,0:0:0:0:
178,229,54376,2,0,L|169:281,1,41.9999987182618,2|10,0:2|1:2,0:0:0:0:
252,280,54590,1,0,0:2:0:0:
255,296,54697,1,8,1:2:0:0:
258,312,54805,1,0,0:2:0:0:
261,328,54912,5,14,1:3:0:0:
509,224,55340,2,0,P|479:208|428:206,1,70,0|2,1:2|0:0,0:0:0:0:
420,193,55662,1,0,0:0:0:0:
420,193,55769,2,0,P|406:154|418:114,1,70,10|0,1:2|0:0,0:0:0:0:
480,64,56197,1,0,0:0:0:0:
314,154,56412,5,2,0:0:0:0:
303,162,56626,2,0,P|244:152|193:91,1,140,10|2,1:3|1:2,0:0:0:0:
39,147,57269,1,2,0:0:0:0:
86,21,57483,2,0,P|102:51|105:106,2,70,10|0|2,1:2|0:0|1:2,0:0:0:0:
36,162,58126,1,2,0:0:0:0:
36,162,58233,1,2,0:0:0:0:
36,162,58340,6,0,B|108:192|100:162|183:196,1,140,14|0,1:3|0:0,0:0:0:0:
230,124,58983,1,2,0:0:0:0:
230,124,59090,1,2,0:0:0:0:
230,124,59197,2,0,B|259:196|275:169|309:251,1,140,10|2,1:2|1:2,0:0:0:0:
262,316,59840,1,0,0:0:0:0:
350,365,60055,5,2,1:2:0:0:
350,365,60162,1,2,0:0:0:0:
350,365,60269,2,0,P|396:354|426:322,1,70,2|2,0:0|1:2,0:0:0:0:
498,305,60697,1,2,0:0:0:0:
450,159,60912,2,0,P|437:201|440:238,1,70,10|2,1:2|0:0,0:0:0:0:
444,242,61233,2,0,L|362:228,1,70,2|2,0:0|0:0,0:0:0:0:
316,184,61555,2,0,L|279:187,1,35,2|0,0:0|0:0,0:0:0:0:
220,240,61769,6,0,P|150:247|94:195,1,140,14|0,1:3|1:2,0:0:0:0:
47,121,62412,1,2,0:0:0:0:
47,121,62519,1,0,0:0:0:0:
47,121,62626,2,0,P|82:113|121:107,1,70,10|0,1:2|0:0,0:0:0:0:
30,266,63055,2,0,P|12:243|10:191,1,70
110,325,63483,6,0,P|48:316|-8:371,1,140,10|0,1:3|1:2,0:0:0:0:
170,258,64126,1,2,0:0:0:0:
225,384,64340,2,0,P|236:345|238:313,1,70,10|0,1:2|0:0,0:0:0:0:
76,151,64769,2,0,L|89:226,1,70,2|0,1:2|0:0,0:0:0:0:
92,233,65090,1,0,0:0:0:0:
95,246,65197,6,0,B|181:218|139:203|236:173,1,140,14|0,1:3|0:0,0:0:0:0:
274,101,65840,1,2,0:0:0:0:
274,101,65947,1,0,0:0:0:0:
274,101,66055,2,0,B|341:161|333:117|407:186,1,140,10|2,1:2|1:2,0:0:0:0:
465,132,66697,1,0,0:0:0:0:
499,221,66912,5,10,1:3:0:0:
499,221,67019,1,2,0:0:0:0:
499,220,67126,2,0,P|484:252|479:297,1,70,0|2,0:0|1:2,0:0:0:0:
394,380,67555,2,0,P|373:351|373:306,1,70,2|10,0:0|0:0,0:0:0:0:
324,243,67983,1,2,1:2:0:0:
262,303,68197,1,0,1:0:0:0:
254,317,68305,1,0,1:0:0:0:
245,300,68412,1,0,1:0:0:0:
169,349,68626,6,0,P|127:368|49:366,1,105,10|2,1:2|0:2,0:0:0:0:
2,321,69055,2,0,L|7:265,1,35,10|0,1:2|0:2,0:0:0:0:
75,207,69269,6,0,P|117:226|195:224,1,105,8|10,1:2|0:2,0:0:0:0:
242,179,69698,2,0,L|237:123,1,35,2|8,0:0|0:0,0:0:0:0:
297,84,69912,2,0,P|345:91|370:177,1,140,10|6,1:2|1:3,0:0:0:0:
481,236,70555,5,2,0:2:0:0:
477,226,70662,2,0,L|485:180,1,35,2|2,0:0|0:2,0:0:0:0:
394,316,70983,5,2,0:2:0:0:
400,292,71090,2,0,L|392:246,1,35,2|8,0:2|0:2,0:0:0:0:
479,384,71412,5,2,0:0:0:0:
470,359,71519,2,0,L|478:313,1,35,2|2,0:2|1:2,0:0:0:0:
346,380,71840,5,2,0:2:0:0:
332,376,72055,1,2,0:2:0:0:
318,373,72269,1,0,1:2:0:0:
254,317,72483,2,0,P|237:287|238:239,1,70,2|2,1:2|0:2,0:0:0:0:
303,205,72912,1,8,0:2:0:0:
184,375,73126,1,0,0:0:0:0:
174,366,73340,2,2,P|107:345|37:348,1,140,2|6,1:2|1:2,0:0:0:0:
3,249,73983,5,2,0:0:0:0:
0,238,74090,2,0,P|7:215|20:204,1,35,2|2,0:0|0:2,0:0:0:0:
68,92,74412,5,2,0:2:0:0:
62,110,74519,2,0,P|69:133|82:144,1,35,2|10,0:2|0:2,0:0:0:0:
182,220,74840,5,2,0:2:0:0:
168,199,74947,2,0,P|175:176|188:165,1,35,2|2,0:2|1:2,0:0:0:0:
260,119,75269,2,0,P|293:131|328:136,1,70,2|2,0:2|0:2,0:0:0:0:
473,40,75697,1,0,1:2:0:0:
384,4,75912,1,2,1:2:0:0:
401,78,76126,1,0,1:2:0:0:
416,153,76340,6,2,B|394:271|364:207|337:334,1,188.999994232178,10|0,0:2|3:2,0:0:0:0:
389,384,77197,6,0,P|332:358|269:360,1,125.999996154785,6|0,1:3|0:0,0:0:0:0:
259,355,77626,6,0,L|250:306,1,35,2|0,0:2|0:0,0:0:0:0:
175,384,77840,2,0,L|180:345,1,35,2|2,1:2|0:2,0:0:0:0:
100,352,78055,2,0,L|89:314,1,35,10|0,0:2|0:0,0:0:0:0:
0,384,78269,6,0,L|15:289,1,70,0|2,0:0|1:2,0:0:0:0:
65,244,78697,1,2,0:2:0:0:
0,102,78912,6,0,L|8:177,1,70,2|0,0:2|1:2,0:0:0:0:
11,196,79233,1,2,0:0:0:0:
11,196,79340,2,0,L|18:277,1,70,2|2,1:2|0:2,0:0:0:0:
170,350,79769,1,8,0:2:0:0:
87,373,79983,2,0,P|91:338|95:303,1,70
101,158,80412,2,0,L|106:199,1,35,2|2,0:2|0:2,0:0:0:0:
161,255,80626,6,0,P|197:253|235:237,1,70,6|2,1:2|0:0,0:0:0:0:
295,188,81055,2,0,L|305:144,1,35,10|0,0:2|0:0,0:0:0:0:
308,192,81269,2,0,L|318:148,1,35,10|0,0:2|0:0,0:0:0:0:
373,249,81483,6,0,P|409:251|447:267,1,70,14|0,1:2|0:0,0:0:0:0:
512,201,81912,2,0,L|502:157,1,35,10|0,0:2|0:0,0:0:0:0:
499,205,82126,2,0,L|489:161,1,35,10|0,0:2|0:0,0:0:0:0:
425,118,82340,5,2,0:2:0:0:
368,56,82555,1,2,1:2:0:0:
277,44,82769,1,2,1:2:0:0:
186,95,82983,1,2,1:2:0:0:
85,45,83197,6,0,L|81:2,3,35,10|0|0|0,0:2|0:0|0:0|3:2,0:0:0:0:
6,53,83626,2,0,L|3:19,3,35,0|0|0|0,0:0|0:0|3:2|3:2,0:0:0:0:
54,118,84055,5,6,1:3:0:0:
123,354,85769,6,0,P|147:321|147:287,1,70,10|0,1:2|0:2,0:0:0:0:
140,281,86090,1,8,0:2:0:0:
130,272,86197,2,0,L|81:269,2,35,8|8|0,0:2|0:2|0:0,0:0:0:0:
219,205,86626,2,0,L|226:159,4,35,8|8|8|8|0,0:2|0:2|0:2|0:2|0:0,0:0:0:0:
286,293,87269,1,10,0:2:0:0:
286,293,87376,1,10,0:2:0:0:
286,293,87483,6,0,P|324:302|363:328,1,70,6|0,1:3|0:2,0:0:0:0:
414,370,87805,1,0,0:2:0:0:
425,368,87912,2,0,L|486:361,2,35,8|0|0,0:2|3:2|3:2,0:0:0:0:
286,293,88340,2,0,L|195:303,1,70,2|2,1:2|0:2,0:0:0:0:
391,222,88769,2,0,P|425:225|460:229,1,70,8|0,0:2|0:2,0:0:0:0:
299,177,89197,5,2,1:2:0:0:
280,82,89412,1,2,0:0:0:0:
280,82,89519,1,2,0:0:0:0:
280,82,89626,2,0,L|268:18,2,35,10|2|2,0:0|0:0|0:0,0:0:0:0:
366,110,90055,1,2,1:2:0:0:
209,145,90269,2,0,P|175:133|122:133,2,70,2|10|2,1:2|0:2|0:2,0:0:0:0:
326,248,90912,6,0,P|364:245|401:227,1,70,2|0,1:2|0:2,0:0:0:0:
462,193,91233,1,0,0:2:0:0:
462,193,91340,2,0,L|519:201,2,35,8|0|0,0:2|3:2|3:2,0:0:0:0:
382,46,91769,2,0,L|394:141,1,70,2|2,1:2|0:2,0:0:0:0:
312,166,92197,1,8,0:2:0:0:
247,98,92412,5,0,0:2:0:0:
240,85,92626,2,0,P|212:67|171:67,1,70,2|0,1:2|0:2,0:0:0:0:
109,36,92947,1,0,0:2:0:0:
109,36,93055,2,0,L|97:-18,2,35,8|0|0,0:2|0:0|0:0,0:0:0:0:
42,107,93483,1,2,1:2:0:0:
116,176,93697,1,8,0:0:0:0:
116,176,93805,1,8,0:0:0:0:
116,176,93912,2,0,L|103:250,1,70,10|2,0:0|0:0,0:0:0:0:
90,358,94340,5,2,1:2:0:0:
34,296,94555,2,0,P|13:297|-18:307,2,35,2|2|10,0:2|0:2|0:2,0:0:0:0:
111,252,94983,1,2,0:2:0:0:
111,252,95090,1,0,0:2:0:0:
111,252,95197,2,0,L|204:238,1,70,2|2,1:2|0:2,0:0:0:0:
196,251,95519,2,0,P|244:253|293:283,1,105,2|2,0:0|0:2,0:0:0:0:
358,219,96055,5,0,0:2:0:0:
22,25,96912,2,2,B|27:86|59:173|110:108|91:68|28:114,1,183.750007009506,2|0,0:2|0:2,0:0:0:0:
16,107,97769,6,0,P|30:168|43:223,1,105,6|0,1:3|0:2,0:0:0:0:
45,226,98197,2,0,P|9:254|-37:258,1,70,10|2,0:2|0:2,0:0:0:0:
148,152,98626,2,0,P|186:163|213:183,1,70,2|2,1:2|0:2,0:0:0:0:
54,85,99055,1,10,0:2:0:0:
33,7,99269,1,2,0:2:0:0:
76,161,99483,6,0,P|82:198|93:258,1,70,2|2,1:2|0:2,0:0:0:0:
10,261,99805,2,0,L|-1:351,1,70,2|2,0:0|0:2,0:0:0:0:
83,350,100126,2,0,L|85:384,2,35,2|0|2,0:2|0:2|1:2,0:0:0:0:
192,242,100555,5,10,0:2:0:0:
273,261,100769,1,10,1:2:0:0:
310,335,100983,1,10,0:2:0:0:
192,242,101197,6,0,P|179:187|195:118,1,105,6|0,1:2|0:2,0:0:0:0:
198,131,101626,2,0,L|284:147,1,70,8|2,0:2|0:2,0:0:0:0:
136,59,102055,1,2,1:2:0:0:
204,0,102269,1,2,0:2:0:0:
220,2,102483,1,10,0:2:0:0:
185,139,102697,6,0,P|248:183|341:171,1,140,2|2,0:2|0:2,0:0:0:0:
467,115,103340,2,0,L|420:107,1,35,10|0,0:2|0:2,0:0:0:0:
371,59,103555,1,2,0:2:0:0:
399,270,103769,2,0,P|412:224|404:183,1,70,2|0,1:2|0:2,0:0:0:0:
347,160,104090,1,10,0:2:0:0:
347,160,104197,2,0,L|284:174,2,35,10|0|10,1:2|0:2|0:2,0:0:0:0:
444,56,104626,5,4,1:2:0:0:
444,56,105055,2,0,L|461:141,1,70,8|2,0:2|0:2,0:0:0:0:
362,264,105483,2,0,P|365:213|378:182,1,70,2|2,1:2|0:2,0:0:0:0:
289,135,105912,2,0,L|213:148,1,70,10|2,0:2|0:2,0:0:0:0:
124,159,106340,6,0,P|74:161|13:109,2,105,0|2|2,1:2|0:0|0:2,0:0:0:0:
199,106,107197,1,2,1:2:0:0:
227,303,107412,5,10,0:2:0:0:
159,253,107626,1,10,1:2:0:0:
76,265,107840,1,10,0:2:0:0:
227,303,108055,5,6,1:2:0:0:
239,302,108269,2,0,L|321:290,1,70,0|10,0:0|0:2,0:0:0:0:
425,300,108697,1,2,0:2:0:0:
388,171,108912,2,0,P|379:205|371:243,1,70,2|2,1:2|0:2,0:0:0:0:
487,375,109340,2,0,P|495:340|504:303,1,70,10|2,0:2|0:2,0:0:0:0:
457,232,109769,5,0,1:2:0:0:
378,370,109983,2,0,P|345:356|303:356,1,70,2|10,0:2|0:2,0:0:0:0:
244,305,110305,1,2,0:2:0:0:
224,310,110412,1,2,0:2:0:0:
333,210,110626,6,0,L|432:228,1,83.9999974365235,10|0,1:2|0:0,0:0:0:0:
416,141,110947,2,0,L|464:132,1,41.9999987182618,2|10,0:2|1:2,0:0:0:0:
441,52,111162,1,0,0:2:0:0:
453,49,111269,1,8,1:2:0:0:
465,46,111376,1,0,0:2:0:0:
477,44,111483,5,0,0:0:0:0:
256,192,121769,12,2,125197,0:2:0:0:
256,192,125305,12,8,128197,0:2:0:0:
224,265,128626,6,2,B|332:305|371:244|362:111|275:98|197:223|115:187|135:49|171:19|228:33|281:57,1,490,2|0,1:1|0:2,0:2:0:0:
268,51,130340,6,0,P|299:49|328:36,1,62.9999980773926,6|0,1:3|0:2,0:0:0:0:
397,72,130662,1,2,1:2:0:0:
397,72,130769,2,0,P|422:29|427:-4,1,62.9999980773926
493,91,131197,2,0,P|507:118|506:152,1,62.9999980773926,2|0,0:2|0:0,0:0:0:0:
454,203,131519,2,0,P|408:207|372:261,1,94.499997116089,2|2,0:2|0:2,0:0:0:0:
278,316,132055,6,0,P|292:286|290:245,1,62.9999980773926,2|0,1:2|0:2,0:0:0:0:
232,206,132376,2,0,L|123:226,1,94.499997116089,2|0,0:2|1:2,0:0:0:0:
15,148,132912,2,0,P|50:148|89:169,1,62.9999980773926,2|10,0:2|0:0,0:0:0:0:
139,112,133233,1,2,0:2:0:0:
139,112,133340,2,0,L|131:61,2,31.4999990386963,10|0|2,0:0|0:0|1:2,0:0:0:0:
156,248,133769,6,0,P|128:273|56:275,1,94.499997116089,6|0,1:2|0:2,0:0:0:0:
7,244,134197,2,0,L|19:169,1,62.9999980773926,8|0,0:2|0:2,0:0:0:0:
53,48,134626,2,0,L|67:130,1,62.9999980773926,2|2,1:2|0:2,0:0:0:0:
134,151,134947,1,2,0:2:0:0:
134,151,135055,2,0,P|177:155|207:174,1,62.9999980773926,10|2,0:2|0:2,0:0:0:0:
318,61,135483,6,0,P|215:77|196:80,1,94.499997116089,2|2,0:2|0:2,0:0:0:0:
214,67,135912,2,0,L|227:-13,1,62.9999980773926,2|2,1:2|0:2,0:0:0:0:
145,163,136340,2,0,L|126:72,1,62.9999980773926,2|0,1:2|0:0,0:0:0:0:
127,92,136662,1,10,0:2:0:0:
123,83,136769,2,0,L|35:99,1,62.9999980773926,0|2,0:0|0:2,0:0:0:0:
155,171,137197,6,0,P|149:210|145:237,1,62.9999980773926,6|0,1:2|0:2,0:0:0:0:
90,292,137519,1,0,0:0:0:0:
90,292,137626,2,0,P|55:298|11:288,1,62.9999980773926,2|0,0:2|1:2,0:0:0:0:
139,384,138055,2,0,P|175:366|223:371,1,62.9999980773926,2|0,0:2|0:0,0:0:0:0:
257,313,138376,2,0,P|303:330|350:334,1,94.499997116089,2|2,0:2|0:2,0:0:0:0:
471,370,138912,6,0,P|459:337|462:296,1,62.9999980773926,2|0,1:2|0:2,0:0:0:0:
406,251,139233,2,0,P|414:205|446:171,1,94.499997116089,2|0,0:2|1:2,0:0:0:0:
512,74,139769,2,0,P|480:88|424:82,1,62.9999980773926,2|10,1:2|0:0,0:0:0:0:
393,40,140090,1,2,0:2:0:0:
393,40,140197,2,0,L|400:-6,2,31.4999990386963,10|0|2,0:0|0:0|1:2,0:0:0:0:
303,85,140626,6,0,P|257:92|210:98,1,94.499997116089,6|0,1:2|0:2,0:0:0:0:
139,64,141055,2,0,P|140:30|155:-10,1,62.9999980773926,8|0,0:2|0:2,0:0:0:0:
66,114,141483,2,0,L|27:123,2,31.4999990386963,2|0|2,1:2|0:0|0:2,0:0:0:0:
148,169,141912,2,0,P|180:171|209:183,1,62.9999980773926,10|2,0:2|0:2,0:0:0:0:
287,107,142340,6,0,L|274:30,1,62.9999980773926,2|0,0:2|0:0,0:0:0:0:
273,35,142662,1,2,0:2:0:0:
270,25,142769,1,2,1:2:0:0:
195,92,142983,1,2,0:2:0:0:
283,182,143197,2,0,L|296:105,1,62.9999980773926,2|10,1:2|0:0,0:0:0:0:
321,106,143519,1,8,0:2:0:0:
321,106,143626,2,0,L|383:95,1,62.9999980773926,10|2,0:0|1:2,0:0:0:0:
484,204,144055,6,0,L|383:189,1,94.499997116089,6|0,1:2|0:0,0:0:0:0:
376,188,144483,2,0,L|384:245,2,31.4999990386963,10|2|2,0:2|0:0|1:2,0:0:0:0:
296,112,144912,2,0,P|257:137|210:135,1,94.499997116089,0|0,1:2|0:0,0:0:0:0:
149,86,145340,2,0,L|163:0,1,62.9999980773926,10|0,0:2|0:0,0:0:0:0:
46,134,145769,6,0,P|61:216|67:250,1,94.499997116089,6|0,1:2|0:0,0:0:0:0:
58,240,146197,2,0,P|20:260|-15:255,2,62.9999980773926,8|2|2,0:0|1:2|1:2,0:0:0:0:
175,344,146840,2,0,L|180:296,1,31.4999990386963,2|0,1:2|0:2,0:0:0:0:
187,234,147055,1,10,0:2:0:0:
187,234,147269,1,2,0:2:0:0:
258,360,147483,6,0,P|309:358|363:328,1,94.499997116089,2|0,1:2|0:0,0:0:0:0:
413,299,147912,2,0,P|444:307|480:369,1,94.499997116089,10|2,0:2|0:2,0:0:0:0:
507,231,148447,2,0,L|492:144,2,62.9999980773926,2|2|2,0:2|0:2|0:2,0:0:0:0:
501,246,148983,1,2,0:2:0:0:
421,119,149197,5,4,1:2:0:0:
255,289,150055,2,0,P|215:266|187:268,1,62.9999980773926,2|0,1:2|0:0,0:0:0:0:
142,214,150376,2,0,L|61:222,1,62.9999980773926,2|0,1:2|0:0,0:0:0:0:
64,225,150697,2,0,L|56:283,1,31.4999990386963,2|0,1:2|0:0,0:0:0:0:
53,372,150912,6,0,P|107:348|166:349,1,105,12|0,1:2|0:2,0:0:0:0:
218,300,151340,2,0,L|255:309,1,35,2|2,1:2|1:2,0:0:0:0:
293,235,151555,6,0,P|239:211|180:212,1,105,10|10,1:2|0:2,0:0:0:0:
128,163,151983,2,0,L|91:172,1,35,2|10,1:2|0:2,0:0:0:0:
18,212,152197,2,2,P|40:181|27:90,1,105,10|0,0:2|0:0,0:0:0:0:
3,42,152626,6,0,L|13:3,7,35,6|0|0|0|0|0|0|0,1:3|3:0|3:0|3:0|3:0|3:0|3:0|3:0,0:0:0:0:
24,0,153483,1,10,3:2:0:0:
183,215,153912,1,2,1:2:0:0:
236,151,154126,1,2,0:2:0:0:
175,97,154340,6,0,P|146:77|112:71,1,70,2|2,1:2|1:2,0:0:0:0:
49,142,154662,2,0,L|62:218,1,70,2|0,0:2|0:0,0:0:0:0:
65,224,154983,2,0,L|75:288,1,35,2|0,1:2|0:0,0:0:0:0:
24,345,155197,5,10,0:2:0:0:
31,334,155412,2,0,P|117:284|162:288,1,140,2|2,3:2|3:2,0:0:0:0:
234,240,156055,6,0,L|245:184,7,35,6|0|0|0|0|0|0|0,1:3|3:0|3:0|3:0|3:0|3:0|3:0|3:0,0:0:0:0:
230,192,156912,1,8,3:2:0:0:
459,75,157340,1,2,1:2:0:0:
383,29,157555,6,0,B|399:109|421:72|434:157,1,140,2|2,0:2|1:2,0:0:0:0:
336,228,158197,1,6,1:2:0:0:
340,210,158305,1,2,0:0:0:0:
350,195,158412,1,2,1:2:0:0:
288,122,158626,2,0,P|251:125|218:146,1,70,10|2,0:2|0:2,0:0:0:0:
162,194,158947,2,0,P|124:191|91:170,1,70,2|2,0:0|0:0,0:0:0:0:
36,123,159269,2,0,L|27:85,1,35,2|0,0:2|0:0,0:0:0:0:
41,233,159483,6,0,L|34:277,7,35,6|0|0|0|0|0|0|0,1:3|3:0|3:0|3:0|3:0|3:0|3:0|3:0,0:0:0:0:
24,277,160340,1,8,3:2:0:0:
289,375,160769,1,2,0:0:0:0:
214,346,160983,1,2,0:2:0:0:
366,335,161197,6,0,P|437:319|460:313,1,70,2|0,1:2|1:2,0:0:0:0:
489,247,161519,2,0,P|465:232|420:231,1,70,2|0,0:2|0:0,0:0:0:0:
370,173,161840,2,0,L|377:123,1,35,2|0,1:2|0:0,0:0:0:0:
432,79,162055,5,10,0:2:0:0:
288,169,162269,2,0,L|200:155,2,70,2|2|2,0:2|0:2|0:2,0:0:0:0:
410,306,162912,6,0,L|421:351,7,35,6|0|0|0|0|0|0|0,1:3|3:0|3:0|3:0|3:0|3:0|3:0|3:0,0:0:0:0:
407,353,163769,1,8,3:2:0:0:
512,75,164197,2,0,P|475:75|434:49,1,70,2|2,1:2|0:2,0:0:0:0:
381,8,164626,5,2,1:2:0:0:
365,115,164840,1,2,1:2:0:0:
438,94,165055,1,6,1:2:0:0:
512,75,165269,1,2,1:2:0:0:
440,211,165483,6,0,P|378:203|354:200,1,83.9999974365235,10|0,1:2|0:2,0:0:0:0:
294,145,165805,2,0,L|236:151,1,41.9999987182618,2|10,0:2|1:2,0:0:0:0:
191,204,166019,1,0,0:2:0:0:
190,216,166126,1,8,1:2:0:0:
189,228,166233,1,0,0:2:0:0:
189,238,166340,5,14,1:3:0:0:
360,384,166769,2,0,P|358:362|348:346,1,35,0|0,1:2|0:0,0:0:0:0:
372,236,166983,2,0,L|366:293,1,35,2|0,0:0|0:0,0:0:0:0:
432,324,167197,2,0,P|469:316|514:309,1,70,10|0,1:2|0:0,0:0:0:0:
372,236,167626,1,2,1:2:0:0:
448,180,167840,1,2,0:0:0:0:
383,121,168055,5,10,1:3:0:0:
375,111,168269,2,0,P|334:95|288:99,1,70,2|0,1:2|1:2,0:0:0:0:
238,147,168697,1,2,0:0:0:0:
171,87,168912,2,0,L|161:-2,2,70,10|0|2,1:2|0:0|1:2,0:0:0:0:
124,168,169555,1,0,0:0:0:0:
173,261,169769,5,14,1:3:0:0:
173,261,170197,2,0,L|182:201,3,35,0|0|2|0,1:2|3:0|3:2|3:0,0:0:0:0:
124,168,170626,2,0,P|74:169|37:224,2,105,0|2|2,0:0|0:0|0:0,0:0:0:0:
237,58,171483,5,2,1:2:0:0:
312,107,171697,1,0,1:2:0:0:
318,28,171912,1,2,1:2:0:0:
318,28,172019,1,2,0:0:0:0:
318,28,172126,1,2,0:0:0:0:
237,146,172340,6,0,L|228:223,1,70,10|2,1:2|0:0,0:0:0:0:
298,260,172662,2,0,L|307:344,1,70,2|2,0:0|0:0,0:0:0:0:
239,377,172983,2,0,L|200:385,1,35,0|0,0:0|0:0,0:0:0:0:
382,383,173197,6,0,B|417:324|492:333|503:363|446:353,1,140,14|0,1:3|1:2,0:0:0:0:
391,276,173840,1,2,0:0:0:0:
461,220,174055,2,0,P|505:222|545:246,1,70,10|0,1:2|0:0,0:0:0:0:
394,164,174483,2,0,P|383:134|385:85,1,70,2|0,1:2|0:0,0:0:0:0:
445,27,174912,5,10,1:3:0:0:
299,103,175126,1,0,0:0:0:0:
243,51,175340,1,0,1:2:0:0:
303,2,175555,1,2,0:0:0:0:
299,103,175769,5,10,1:2:0:0:
297,116,175983,2,0,L|285:204,2,70,0|2|0,0:0|1:2|0:0,0:0:0:0:
213,11,176626,5,14,1:3:0:0:
413,159,177055,2,0,L|447:153,3,35,0|0|2|0,1:2|0:0|0:0|0:0,0:0:0:0:
511,201,177483,1,10,1:2:0:0:
240,156,177912,1,0,0:0:0:0:
246,142,178126,1,0,0:0:0:0:
305,82,178340,6,0,P|299:41|284:13,1,70,10|2,1:3|1:2,0:0:0:0:
161,134,178769,1,0,1:2:0:0:
239,150,178983,1,2,0:0:0:0:
129,60,179197,6,0,P|93:59|44:88,1,70,10|2,1:2|1:2,0:0:0:0:
0,118,179519,2,0,L|12:164,1,35,0|2,0:0|1:2,0:0:0:0:
71,195,179733,1,2,1:2:0:0:
70,208,179840,1,2,1:2:0:0:
69,221,179947,1,2,1:2:0:0:
68,235,180055,1,2,0:0:0:0:
256,192,180162,12,2,181769,0:0:0:0:
