osu file format v14

[General]
AudioFilename: audio.mp3
AudioLeadIn: 0
PreviewTime: 41026
Countdown: 0
SampleSet: Normal
StackLeniency: 0.7
Mode: 3
LetterboxInBreaks: 0
SpecialStyle: 0
WidescreenStoryboard: 1

[Editor]
DistanceSpacing: 1
BeatDivisor: 4
GridSize: 32
TimelineZoom: 1.5

[Metadata]
Title:Kill 'Em All
TitleUnicode:Kill 'Em All
Artist:Massive New Krew
ArtistUnicode:Massive New Krew
Creator:Fawcro
Version:White Normal
Source:
Tags:featured artist fa electronic instrumental reborn ep dubstep hardcore hardstyle hardtek
BeatmapID:4046856
BeatmapSetID:1900450

[Difficulty]
HPDrainRate:7
CircleSize:4
OverallDifficulty:7
ApproachRate:5
SliderMultiplier:1.4
SliderTickRate:1

[Events]
//Background and Video events
0,0,"Kill em all BG.jpg",0,0
//Break Periods
//Storyboard Layer 0 (Background)
//Storyboard Layer 1 (Fail)
//Storyboard Layer 2 (Pass)
//Storyboard Layer 3 (Foreground)
//Storyboard Layer 4 (Overlay)
//Storyboard Sound Samples

[TimingPoints]
810,324.324324324324,4,1,1,60,1,0
9891,-100,4,1,1,80,0,0
42323,-100,4,1,1,80,0,1
51404,-100,4,1,1,80,0,0
52701,-100,4,1,1,80,0,1
61782,-100,4,1,1,80,0,0
73458,-100,4,1,1,80,0,1
82539,-100,4,1,1,80,0,0
83837,-100,4,1,1,80,0,1
92918,-100,4,1,1,80,0,0
94215,-100,4,1,1,60,0,0
104593,-100,4,1,1,80,0,0
140918,-100,4,1,1,80,0,1
149999,-100,4,1,1,80,0,0
151296,-100,4,1,1,80,0,1
160377,-100,4,1,1,80,0,0

[HitObjects]
64,192,810,128,0,1134:0:0:0:35:Kick med bass.wav
448,192,810,1,0,0:0:0:80:BassKickRXD.wav
320,192,1134,1,0,0:0:0:35:Snare Hat.wav
192,192,1296,128,0,1620:0:0:0:0:
448,192,1620,1,0,0:0:0:35:Kick med bass.wav
320,192,1782,128,0,2107:0:0:0:35:Snare Hat.wav
64,192,2107,1,0,0:0:0:35:Kick med bass.wav
448,192,2269,128,0,2593:0:0:0:0:
320,192,2431,1,0,0:0:0:35:Snare Hat.wav
192,192,2755,128,0,3404:0:0:0:0:
320,192,2918,1,0,0:0:0:35:Kick med bass.wav
64,192,3080,128,0,3404:0:0:0:35:Snare Hat.wav
448,192,3404,128,0,3728:0:0:0:40:Kick med bass.wav
192,192,3728,1,0,0:0:0:40:Snare Hat.wav
320,192,3891,128,0,4215:0:0:0:0:
64,192,4215,1,0,0:0:0:40:Kick med bass.wav
192,192,4377,128,0,4701:0:0:0:40:Snare Hat.wav
448,192,4701,1,0,0:0:0:40:Kick med bass.wav
64,192,4864,128,0,5188:0:0:0:0:
320,192,5026,1,0,0:0:0:40:Snare Hat.wav
192,192,5350,128,0,5512:0:0:0:0:
320,192,5512,128,0,5674:0:0:0:40:Kick med bass.wav
448,192,5674,128,0,5999:0:0:0:40:Snare Hat.wav
64,192,5999,128,0,6323:0:0:0:45:Kick med bass.wav
192,192,6323,1,0,0:0:0:45:Snare Hat.wav
320,192,6485,128,0,6809:0:0:0:0:
448,192,6809,1,0,0:0:0:45:Kick med bass.wav
192,192,6972,128,0,7296:0:0:0:45:Snare Hat.wav
320,192,7296,1,0,0:0:0:45:Kick med bass.wav
448,192,7458,128,0,7782:0:0:0:0:
192,192,7620,1,0,0:0:0:45:Snare Hat.wav
64,192,7945,128,0,8593:0:0:0:0:
320,192,8107,1,0,0:0:0:45:Kick med bass.wav
192,192,8269,128,0,8593:0:0:0:45:Snare Hat.wav
448,192,8593,128,0,8918:0:0:0:50:Kick med bass.wav
320,192,8918,1,0,0:0:0:50:Snare Hat.wav
192,192,9080,128,0,9404:0:0:0:0:
64,192,9404,1,0,0:0:0:50:Kick med bass.wav
320,192,9566,128,0,9891:0:0:0:50:Snare Hat.wav
64,192,9891,128,8,10377:0:0:0:0:
448,192,10053,128,0,10377:0:0:0:0:
192,192,10377,128,0,10539:0:0:0:0:
320,192,10539,128,0,10701:0:0:0:0:
448,192,10701,128,0,10864:0:0:0:0:
64,192,10864,128,0,11188:0:0:0:0:
320,192,11188,1,8,0:0:0:0:
448,192,11188,1,0,0:0:0:0:
64,192,11512,1,2,0:0:0:0:
448,192,11512,1,0,0:0:0:0:
192,192,11674,1,0,0:0:0:0:
320,192,11837,1,0,0:0:0:0:
64,192,11999,1,8,0:0:0:0:
192,192,11999,1,0,0:0:0:0:
64,192,12161,1,2,0:0:0:0:
448,192,12161,1,0,0:0:0:0:
64,192,12485,1,8,0:0:0:0:
192,192,12485,1,0,0:0:0:0:
64,192,12809,1,2,0:0:0:0:
448,192,12809,1,0,0:0:0:0:
320,192,12972,1,0,0:0:0:0:
192,192,13134,1,0,0:0:0:0:
320,192,13296,1,8,0:0:0:0:
448,192,13296,1,0,0:0:0:0:
64,192,13458,1,2,0:0:0:0:
448,192,13458,1,0,0:0:0:0:
320,192,13782,1,8,0:0:0:0:
448,192,13782,1,0,0:0:0:0:
192,192,14107,1,2,0:0:0:0:
448,192,14107,1,0,0:0:0:0:
64,192,14269,1,0,0:0:0:0:
320,192,14431,1,0,0:0:0:0:
64,192,14593,1,8,0:0:0:0:
192,192,14593,1,0,0:0:0:0:
64,192,14755,1,2,0:0:0:0:
448,192,14755,1,0,0:0:0:0:
64,192,15080,1,8,0:0:0:0:
192,192,15080,1,0,0:0:0:0:
64,192,15404,1,2,0:0:0:0:
320,192,15404,1,0,0:0:0:0:
448,192,15566,1,0,0:0:0:0:
192,192,15728,1,0,0:0:0:0:
320,192,15891,1,8,0:0:0:0:
448,192,15891,1,0,0:0:0:0:
64,192,16053,1,2,0:0:0:0:
448,192,16053,1,0,0:0:0:0:
320,192,16377,1,8,0:0:0:0:
448,192,16377,1,0,0:0:0:0:
64,192,16701,1,2,0:0:0:0:
320,192,16701,1,0,0:0:0:0:
192,192,16864,1,0,0:0:0:0:
448,192,17026,1,0,0:0:0:0:
64,192,17188,1,8,0:0:0:0:
192,192,17188,1,0,0:0:0:0:
64,192,17350,1,2,0:0:0:0:
320,192,17350,1,0,0:0:0:0:
64,192,17674,1,8,0:0:0:0:
192,192,17674,1,0,0:0:0:0:
192,192,17999,1,2,0:0:0:0:
448,192,17999,1,0,0:0:0:0:
320,192,18161,1,0,0:0:0:0:
64,192,18323,1,0,0:0:0:0:
320,192,18485,1,8,0:0:0:0:
448,192,18485,1,0,0:0:0:0:
192,192,18647,1,2,0:0:0:0:
448,192,18647,1,0,0:0:0:0:
320,192,18972,1,8,0:0:0:0:
448,192,18972,1,0,0:0:0:0:
192,192,19296,1,2,0:0:0:0:
320,192,19296,1,0,0:0:0:0:
64,192,19458,1,0,0:0:0:0:
448,192,19620,1,0,0:0:0:0:
64,192,19782,1,8,0:0:0:0:
192,192,19782,1,0,0:0:0:0:
64,192,19945,1,2,0:0:0:0:
320,192,19945,1,0,0:0:0:0:
64,192,20269,1,8,0:0:0:0:
192,192,20269,1,0,0:0:0:0:
192,192,20593,1,2,0:0:0:0:
320,192,20593,1,0,0:0:0:0:
448,192,20755,1,0,0:0:0:0:
64,192,20918,1,0,0:0:0:0:
320,192,21080,1,8,0:0:0:0:
448,192,21080,1,0,0:0:0:0:
192,192,21242,1,2,0:0:0:0:
448,192,21242,1,0,0:0:0:0:
64,192,21566,1,4,0:0:0:0:
448,192,21566,128,0,21891:0:0:0:60:KickHDSK.wav
192,192,21891,1,0,0:0:0:60:KickHDSK.wav
320,192,22053,128,0,22377:0:0:0:0:
64,192,22215,1,0,0:0:0:60:KickHDSK.wav
448,192,22539,128,0,22864:0:0:0:60:KickHDSK.wav
192,192,22864,1,0,0:0:0:60:KickHDSK.wav
320,192,23026,128,0,23350:0:0:0:0:
64,192,23188,1,0,0:0:0:60:KickHDSK.wav
448,192,23512,128,0,23837:0:0:0:60:KickHDSK.wav
320,192,23837,128,0,24161:0:0:0:60:KickHDSK.wav
64,192,24161,1,0,0:0:0:60:KickHDSK.wav
448,192,24161,128,0,24485:0:0:0:0:
320,192,24485,1,0,0:0:0:60:KickHDSK.wav
192,192,24647,128,0,24972:0:0:0:0:
448,192,24809,1,0,0:0:0:60:KickHDSK.wav
448,192,25134,128,0,25458:0:0:0:60:KickHDSK.wav
320,192,25458,1,0,0:0:0:60:KickHDSK.wav
192,192,25620,128,0,25945:0:0:0:0:
448,192,25782,1,0,0:0:0:60:KickHDSK.wav
448,192,26107,128,0,26431:0:0:0:60:KickHDSK.wav
192,192,26431,128,0,26755:0:0:0:60:KickHDSK.wav
64,192,26755,128,0,27080:0:0:0:60:KickHDSK.wav
448,192,26755,1,0,0:0:0:0:
192,192,27080,1,0,0:0:0:60:KickHDSK.wav
320,192,27242,128,0,27566:0:0:0:0:
64,192,27404,1,0,0:0:0:60:KickHDSK.wav
64,192,27728,128,0,28053:0:0:0:60:KickHDSK.wav
192,192,28053,1,0,0:0:0:60:KickHDSK.wav
320,192,28215,128,0,28539:0:0:0:0:
64,192,28377,1,0,0:0:0:60:KickHDSK.wav
64,192,28701,128,0,29026:0:0:0:60:KickHDSK.wav
320,192,29026,128,0,29350:0:0:0:60:KickHDSK.wav
64,192,29350,128,0,29674:0:0:0:60:KickHDSK.wav
448,192,29350,1,0,0:0:0:0:
320,192,29674,1,0,0:0:0:60:KickHDSK.wav
448,192,29837,128,0,30161:0:0:0:0:
64,192,29999,1,0,0:0:0:60:KickHDSK.wav
64,192,30323,128,0,30647:0:0:0:60:KickHDSK.wav
320,192,30647,1,8,0:0:0:0:
448,192,30647,1,2,0:0:0:0:
192,192,30809,1,8,0:0:0:0:
64,192,30972,1,8,0:0:0:0:
320,192,31134,1,8,0:0:0:0:
448,192,31134,1,2,0:0:0:0:
192,192,31296,1,0,0:0:0:100:Tom Hit 2.wav
64,192,31458,1,0,0:0:0:70:Tom Drop.wav
448,192,31458,1,0,0:0:0:0:
192,192,31620,1,8,0:0:0:0:
320,192,31782,1,8,0:0:0:0:
64,192,31945,1,4,0:0:0:0:
448,192,31945,1,0,0:0:0:75:KickGTWX.wav
64,192,32269,128,0,32755:0:0:0:75:KickGTWX.wav
320,192,32593,1,0,0:0:0:75:KickGTWX.wav
448,192,32755,128,0,33242:0:0:0:75:KickGTWX.wav
192,192,33080,1,0,0:0:0:75:KickGTWX.wav
64,192,33242,128,0,33728:0:0:0:75:KickGTWX.wav
320,192,33566,1,0,0:0:0:75:KickGTWX.wav
448,192,33728,128,0,34215:0:0:0:75:KickGTWX.wav
192,192,34053,1,0,0:0:0:75:KickGTWX.wav
64,192,34215,128,0,34539:0:0:0:75:KickGTWX.wav
320,192,34539,1,4,0:0:0:0:
448,192,34539,1,0,0:0:0:75:KickGTWX.wav
448,192,34864,128,0,35350:0:0:0:75:KickGTWX.wav
192,192,35188,1,0,0:0:0:75:KickGTWX.wav
64,192,35350,128,0,35837:0:0:0:75:KickGTWX.wav
320,192,35674,1,0,0:0:0:75:KickGTWX.wav
448,192,35837,128,0,36323:0:0:0:75:KickGTWX.wav
192,192,36161,1,0,0:0:0:75:KickGTWX.wav
64,192,36323,128,0,36809:0:0:0:75:KickGTWX.wav
320,192,36647,1,0,0:0:0:75:KickGTWX.wav
448,192,36809,128,0,37134:0:0:0:75:KickGTWX.wav
64,192,37134,128,4,38431:0:0:0:0:
192,192,37134,128,0,37458:0:0:0:75:KickGTWX.wav
448,192,37458,128,0,37782:0:0:0:0:
192,192,37782,128,0,38107:0:0:0:0:
448,192,38107,128,0,38431:0:0:0:0:
192,192,38431,1,0,0:0:0:0:
320,192,38593,1,0,0:0:0:0:
448,192,38755,1,0,0:0:0:0:
192,192,38918,1,0,0:0:0:0:
448,192,39080,1,0,0:0:0:0:
64,192,39242,1,0,0:0:0:0:
320,192,39404,1,0,0:0:0:0:
192,192,39566,1,0,0:0:0:0:
64,192,39728,128,0,40701:0:0:0:0:
448,192,40377,128,0,41026:0:0:0:0:
320,192,40701,128,0,41026:0:0:0:0:
64,192,41026,1,0,0:0:0:0:
192,192,41350,1,0,0:0:0:0:
64,192,41674,1,0,0:0:0:60:KickSWHBD.wav
448,192,41674,1,0,0:0:0:0:
192,192,41837,1,0,0:0:0:60:KickSWHBD.wav
320,192,41837,1,0,0:0:0:0:
64,192,41999,1,0,0:0:0:60:KickSWHBD.wav
448,192,41999,1,0,0:0:0:0:
64,192,42323,128,0,42485:0:0:0:90:KickDeepBass.wav
192,192,42323,128,0,42485:0:0:0:0:
64,192,42647,128,0,42809:0:0:0:90:KickDeepBass.wav
192,192,42647,128,0,42809:0:0:0:0:
64,192,42972,128,0,43134:0:0:0:90:KickDeepBass.wav
192,192,42972,128,0,43134:0:0:0:0:
64,192,43296,1,0,0:0:0:90:KickDeepBass.wav
448,192,43296,128,0,43458:0:0:0:0:
320,192,43458,1,0,0:0:0:0:
64,192,43620,128,0,43782:0:0:0:90:KickDeepBass.wav
448,192,43620,1,0,0:0:0:0:
192,192,43782,1,0,0:0:0:0:
64,192,43945,1,0,0:0:0:90:KickDeepBass.wav
448,192,43945,128,0,44107:0:0:0:0:
320,192,44107,1,0,0:0:0:0:
64,192,44269,128,0,44431:0:0:0:90:KickDeepBass.wav
192,192,44269,128,0,44431:0:0:0:0:
64,192,44593,128,0,44755:0:0:0:90:KickDeepBass.wav
448,192,44593,1,0,0:0:0:0:
192,192,44755,1,0,0:0:0:0:
320,192,44918,128,0,45080:0:0:0:90:KickDeepBass.wav
448,192,44918,128,0,45080:0:0:0:0:
320,192,45242,128,0,45404:0:0:0:90:KickDeepBass.wav
448,192,45242,128,0,45404:0:0:0:0:
320,192,45566,128,0,45728:0:0:0:90:KickDeepBass.wav
448,192,45566,128,0,45728:0:0:0:0:
64,192,45891,128,0,46053:0:0:0:90:KickDeepBass.wav
448,192,45891,1,0,0:0:0:0:
192,192,46053,1,0,0:0:0:0:
64,192,46215,1,0,0:0:0:90:KickDeepBass.wav
448,192,46215,128,0,46377:0:0:0:0:
320,192,46377,1,0,0:0:0:0:
64,192,46539,128,0,46701:0:0:0:90:KickDeepBass.wav
448,192,46539,1,0,0:0:0:0:
192,192,46701,1,0,0:0:0:0:
320,192,46864,128,0,47026:0:0:0:90:KickDeepBass.wav
448,192,46864,128,0,47026:0:0:0:0:
64,192,47188,1,0,0:0:0:90:KickDeepBass.wav
448,192,47188,128,0,47350:0:0:0:0:
320,192,47350,1,0,0:0:0:0:
64,192,47512,128,0,47674:0:0:0:90:KickDeepBass.wav
192,192,47512,128,0,47674:0:0:0:0:
64,192,47837,128,0,47999:0:0:0:90:KickDeepBass.wav
192,192,47837,128,0,47999:0:0:0:0:
64,192,48161,128,0,48323:0:0:0:90:KickDeepBass.wav
192,192,48161,128,0,48323:0:0:0:0:
64,192,48485,1,0,0:0:0:90:KickDeepBass.wav
448,192,48485,128,0,48647:0:0:0:0:
320,192,48647,1,0,0:0:0:0:
64,192,48809,128,0,48972:0:0:0:90:KickDeepBass.wav
448,192,48809,1,0,0:0:0:0:
192,192,48972,1,0,0:0:0:0:
64,192,49134,1,0,0:0:0:90:KickDeepBass.wav
448,192,49134,128,0,49296:0:0:0:0:
320,192,49296,1,0,0:0:0:0:
64,192,49458,128,0,49620:0:0:0:90:KickDeepBass.wav
192,192,49458,128,0,49620:0:0:0:0:
64,192,49782,128,0,49945:0:0:0:90:KickDeepBass.wav
448,192,49782,1,0,0:0:0:0:
192,192,49945,1,0,0:0:0:0:
320,192,50107,128,0,50269:0:0:0:90:KickDeepBass.wav
448,192,50107,128,0,50269:0:0:0:0:
320,192,50431,128,0,50593:0:0:0:90:KickDeepBass.wav
448,192,50431,128,0,50593:0:0:0:0:
320,192,50755,128,0,50918:0:0:0:90:KickDeepBass.wav
448,192,50755,128,0,50918:0:0:0:0:
64,192,51080,128,0,51242:0:0:0:90:KickDeepBass.wav
448,192,51080,1,0,0:0:0:0:
192,192,51242,1,0,0:0:0:0:
320,192,51404,128,0,51728:0:0:0:0:
64,192,51728,1,0,0:0:0:0:
192,192,52053,1,0,0:0:0:100:Tom Hit 2.wav
64,192,52215,1,0,0:0:0:70:Tom Drop.wav
448,192,52215,1,0,0:0:0:0:
320,192,52377,1,8,0:0:0:0:
192,192,52539,1,8,0:0:0:0:
64,192,52701,128,0,52864:0:0:0:90:KickDeepBass.wav
320,192,52701,128,0,52864:0:0:0:0:
64,192,53026,128,0,53188:0:0:0:90:KickDeepBass.wav
320,192,53026,128,0,53188:0:0:0:0:
64,192,53350,128,0,53512:0:0:0:90:KickDeepBass.wav
320,192,53350,128,0,53512:0:0:0:0:
64,192,53674,1,0,0:0:0:90:KickDeepBass.wav
448,192,53674,128,0,53837:0:0:0:0:
192,192,53837,1,0,0:0:0:0:
64,192,53999,128,0,54161:0:0:0:90:KickDeepBass.wav
448,192,53999,1,0,0:0:0:0:
320,192,54161,1,0,0:0:0:0:
64,192,54323,1,0,0:0:0:90:KickDeepBass.wav
448,192,54323,128,0,54485:0:0:0:0:
192,192,54485,1,0,0:0:0:0:
64,192,54647,128,0,54809:0:0:0:90:KickDeepBass.wav
320,192,54647,128,0,54809:0:0:0:0:
64,192,54972,128,0,55134:0:0:0:90:KickDeepBass.wav
448,192,54972,1,0,0:0:0:0:
320,192,55134,1,0,0:0:0:0:
192,192,55296,128,0,55458:0:0:0:90:KickDeepBass.wav
448,192,55296,128,0,55458:0:0:0:0:
192,192,55620,128,0,55782:0:0:0:90:KickDeepBass.wav
448,192,55620,128,0,55782:0:0:0:0:
192,192,55945,128,0,56107:0:0:0:90:KickDeepBass.wav
448,192,55945,128,0,56107:0:0:0:0:
64,192,56269,128,0,56431:0:0:0:90:KickDeepBass.wav
448,192,56269,1,0,0:0:0:0:
320,192,56431,1,0,0:0:0:0:
64,192,56593,1,0,0:0:0:90:KickDeepBass.wav
448,192,56593,128,0,56755:0:0:0:0:
192,192,56755,1,0,0:0:0:0:
64,192,56918,128,0,57080:0:0:0:90:KickDeepBass.wav
448,192,56918,1,0,0:0:0:0:
320,192,57080,1,0,0:0:0:0:
192,192,57242,128,0,57404:0:0:0:90:KickDeepBass.wav
448,192,57242,128,0,57404:0:0:0:0:
64,192,57566,1,0,0:0:0:90:KickDeepBass.wav
448,192,57566,128,0,57728:0:0:0:0:
192,192,57728,1,0,0:0:0:0:
64,192,57891,128,0,58053:0:0:0:90:KickDeepBass.wav
320,192,57891,128,0,58053:0:0:0:0:
64,192,58215,128,0,58377:0:0:0:90:KickDeepBass.wav
320,192,58215,128,0,58377:0:0:0:0:
64,192,58539,128,0,58701:0:0:0:90:KickDeepBass.wav
320,192,58539,128,0,58701:0:0:0:0:
64,192,58864,1,0,0:0:0:90:KickDeepBass.wav
448,192,58864,128,0,59026:0:0:0:0:
192,192,59026,1,0,0:0:0:0:
64,192,59188,128,0,59350:0:0:0:90:KickDeepBass.wav
448,192,59188,1,0,0:0:0:0:
320,192,59350,1,0,0:0:0:0:
64,192,59512,1,0,0:0:0:90:KickDeepBass.wav
448,192,59512,128,0,59674:0:0:0:0:
192,192,59674,1,0,0:0:0:0:
64,192,59837,128,0,59999:0:0:0:90:KickDeepBass.wav
320,192,59837,128,0,59999:0:0:0:0:
64,192,60161,128,0,60323:0:0:0:90:KickDeepBass.wav
448,192,60161,1,0,0:0:0:0:
320,192,60323,1,0,0:0:0:0:
192,192,60485,128,0,60647:0:0:0:90:KickDeepBass.wav
448,192,60485,128,0,60647:0:0:0:0:
192,192,60809,128,0,60972:0:0:0:90:KickDeepBass.wav
448,192,60809,128,0,60972:0:0:0:0:
192,192,61134,128,0,61296:0:0:0:90:KickDeepBass.wav
448,192,61134,128,0,61296:0:0:0:0:
64,192,61458,128,0,61620:0:0:0:90:KickDeepBass.wav
448,192,61458,1,0,0:0:0:0:
320,192,61620,1,0,0:0:0:0:
192,192,61782,1,0,0:0:0:0:
64,192,61945,128,0,62431:0:0:0:0:
448,192,62107,1,0,0:0:0:0:
448,192,62269,1,0,0:0:0:0:
320,192,62431,1,0,0:0:0:100:Tom Hit 2.wav
192,192,62593,1,0,0:0:0:100:Tom Hit 3.wav
64,192,62755,1,2,0:0:0:0:
448,192,62755,1,0,0:0:0:0:
320,192,63080,1,4,0:0:0:0:
448,192,63080,128,8,63404:0:0:0:0:
64,192,63404,1,0,0:0:0:60:Snare Hat.wav
192,192,63566,128,0,63891:0:0:0:0:
320,192,63891,1,0,0:0:0:60:Kick med bass.wav
448,192,64053,128,0,64377:0:0:0:60:Snare Hat.wav
320,192,64377,1,0,0:0:0:60:Kick med bass.wav
192,192,64539,128,0,64864:0:0:0:0:
64,192,64701,1,0,0:0:0:60:Snare Hat.wav
448,192,65026,128,0,65350:0:0:0:0:
320,192,65188,1,0,0:0:0:60:Kick med bass.wav
192,192,65350,128,0,65674:0:0:0:60:Snare Hat.wav
64,192,65674,1,0,0:0:0:60:Kick med bass.wav
448,192,65674,128,0,65999:0:0:0:0:
192,192,65999,1,0,0:0:0:60:Snare Hat.wav
64,192,66161,128,0,66485:0:0:0:0:
320,192,66485,1,0,0:0:0:60:Kick med bass.wav
448,192,66647,128,0,66972:0:0:0:60:Snare Hat.wav
320,192,66972,1,0,0:0:0:60:Kick med bass.wav
64,192,67134,128,0,67458:0:0:0:0:
192,192,67296,1,0,0:0:0:60:Snare Hat.wav
448,192,67620,128,0,67782:0:0:0:0:
64,192,67782,128,0,67945:0:0:0:60:Kick med bass.wav
448,192,67945,128,0,68269:0:0:0:60:Snare Hat.wav
192,192,68269,128,0,68431:0:0:0:0:
192,192,68593,128,0,68755:0:0:0:0:
192,192,68918,128,0,69080:0:0:0:0:
192,192,69242,128,0,69404:0:0:0:0:
320,192,69566,128,0,69728:0:0:0:0:
192,192,69728,128,0,69891:0:0:0:0:
320,192,69891,128,0,70053:0:0:0:0:
192,192,70053,128,0,70215:0:0:0:0:
448,192,70215,128,0,70377:0:0:0:0:
64,192,70377,128,0,70539:0:0:0:0:
448,192,70539,128,0,70701:0:0:0:0:
64,192,70701,128,0,70864:0:0:0:0:
320,192,70864,1,0,0:0:0:0:
320,192,71026,1,0,0:0:0:0:
192,192,71188,1,0,0:0:0:0:
192,192,71350,1,0,0:0:0:0:
320,192,71512,1,0,0:0:0:0:
320,192,71674,1,0,0:0:0:0:
192,192,71837,1,0,0:0:0:0:
192,192,71999,1,0,0:0:0:0:
320,192,72161,128,0,72485:0:0:0:0:
64,192,72485,128,0,72809:0:0:0:0:
448,192,72809,1,0,0:0:0:0:
192,192,72972,1,0,0:0:0:0:
64,192,73134,1,0,0:0:0:60:KickSWHBD.wav
320,192,73134,1,0,0:0:0:0:
192,192,73458,128,4,73620:0:0:0:0:
448,192,73458,128,0,73620:0:0:0:60:Kick Hard Bass.wav
192,192,73782,128,0,73945:0:0:0:60:Kick Hard Bass.wav
448,192,73782,128,0,73945:0:0:0:0:
320,192,73945,128,0,74107:0:0:0:0:
192,192,74107,128,0,74269:0:0:0:60:Kick Hard Bass.wav
448,192,74107,128,0,74269:0:0:0:0:
192,192,74431,128,0,74593:0:0:0:60:Kick Hard Bass.wav
448,192,74431,128,0,74593:0:0:0:0:
320,192,74593,128,0,74755:0:0:0:0:
192,192,74755,128,0,74918:0:0:0:60:Kick Hard Bass.wav
448,192,74755,128,0,74918:0:0:0:0:
192,192,75080,128,0,75242:0:0:0:60:Kick Hard Bass.wav
448,192,75080,128,0,75242:0:0:0:0:
320,192,75242,128,0,75404:0:0:0:0:
64,192,75404,1,0,0:0:0:60:Kick Hard Bass.wav
192,192,75404,1,0,0:0:0:0:
448,192,75566,1,0,0:0:0:0:
64,192,75728,1,0,0:0:0:60:Kick Hard Bass.wav
192,192,75728,1,0,0:0:0:0:
448,192,75891,1,0,0:0:0:0:
64,192,76053,128,0,76215:0:0:0:60:Kick Hard Bass.wav
320,192,76053,128,0,76215:0:0:0:0:
64,192,76377,128,0,76539:0:0:0:60:Kick Hard Bass.wav
320,192,76377,128,0,76539:0:0:0:0:
192,192,76539,128,0,76701:0:0:0:0:
64,192,76701,128,0,76864:0:0:0:60:Kick Hard Bass.wav
320,192,76701,128,0,76864:0:0:0:0:
64,192,77026,128,0,77188:0:0:0:60:Kick Hard Bass.wav
320,192,77026,128,0,77188:0:0:0:0:
192,192,77188,128,0,77350:0:0:0:0:
64,192,77350,128,0,77512:0:0:0:60:Kick Hard Bass.wav
320,192,77350,128,0,77512:0:0:0:0:
64,192,77674,128,0,77837:0:0:0:60:Kick Hard Bass.wav
320,192,77674,128,0,77837:0:0:0:0:
192,192,77837,128,0,77999:0:0:0:0:
320,192,77999,1,0,0:0:0:60:Kick Hard Bass.wav
448,192,77999,1,0,0:0:0:0:
64,192,78161,1,0,0:0:0:0:
320,192,78323,1,0,0:0:0:60:Kick Hard Bass.wav
448,192,78323,1,0,0:0:0:0:
64,192,78485,1,0,0:0:0:0:
192,192,78647,128,0,78809:0:0:0:60:Kick Hard Bass.wav
448,192,78647,128,0,78809:0:0:0:0:
192,192,78972,128,0,79134:0:0:0:60:Kick Hard Bass.wav
448,192,78972,128,0,79134:0:0:0:0:
320,192,79134,128,0,79296:0:0:0:0:
192,192,79296,128,0,79458:0:0:0:60:Kick Hard Bass.wav
448,192,79296,128,0,79458:0:0:0:0:
192,192,79620,128,0,79782:0:0:0:60:Kick Hard Bass.wav
448,192,79620,128,0,79782:0:0:0:0:
320,192,79782,128,0,79945:0:0:0:0:
192,192,79945,128,0,80107:0:0:0:60:Kick Hard Bass.wav
448,192,79945,128,0,80107:0:0:0:0:
192,192,80269,128,0,80431:0:0:0:60:Kick Hard Bass.wav
448,192,80269,128,0,80431:0:0:0:0:
320,192,80431,128,0,80593:0:0:0:0:
64,192,80593,1,0,0:0:0:60:Kick Hard Bass.wav
192,192,80593,1,0,0:0:0:0:
448,192,80755,1,0,0:0:0:0:
64,192,80918,1,0,0:0:0:60:Kick Hard Bass.wav
192,192,80918,1,0,0:0:0:0:
448,192,81080,1,0,0:0:0:0:
64,192,81242,128,0,81404:0:0:0:60:Kick Hard Bass.wav
320,192,81242,128,0,81404:0:0:0:0:
64,192,81566,128,0,81728:0:0:0:60:Kick Hard Bass.wav
320,192,81566,128,0,81728:0:0:0:0:
192,192,81728,128,0,81891:0:0:0:0:
64,192,81891,128,0,82053:0:0:0:60:Kick Hard Bass.wav
320,192,81891,128,0,82053:0:0:0:0:
64,192,82215,128,0,82377:0:0:0:60:Kick Hard Bass.wav
320,192,82215,128,0,82377:0:0:0:0:
192,192,82377,128,0,82539:0:0:0:0:
320,192,82539,128,0,82864:0:0:0:70:KickDeepBass.wav
448,192,82539,128,0,82864:0:0:0:0:
64,192,83026,128,0,83350:0:0:0:70:KickDeepBass.wav
192,192,83026,128,0,83350:0:0:0:0:
64,192,83512,1,0,0:0:0:60:KickSWHBD.wav
448,192,83512,1,0,0:0:0:0:
192,192,83837,128,4,84161:0:0:0:0:
448,192,83837,128,0,84161:0:0:0:60:Kick Hard Bass.wav
64,192,84161,128,0,84323:0:0:0:60:Kick Hard Bass.wav
320,192,84161,128,0,84323:0:0:0:0:
448,192,84323,128,0,84485:0:0:0:0:
64,192,84485,128,0,84647:0:0:0:60:Kick Hard Bass.wav
320,192,84485,128,0,84647:0:0:0:0:
192,192,84809,128,0,84972:0:0:0:60:Kick Hard Bass.wav
448,192,84809,128,0,84972:0:0:0:0:
64,192,84972,128,0,85134:0:0:0:0:
192,192,85134,128,0,85296:0:0:0:60:Kick Hard Bass.wav
448,192,85134,128,0,85296:0:0:0:0:
192,192,85458,128,0,85620:0:0:0:60:Kick Hard Bass.wav
448,192,85458,128,0,85620:0:0:0:0:
64,192,85620,128,0,85782:0:0:0:0:
320,192,85782,1,0,0:0:0:60:Kick Hard Bass.wav
448,192,85782,1,0,0:0:0:0:
192,192,85945,1,0,0:0:0:0:
320,192,86107,1,0,0:0:0:60:Kick Hard Bass.wav
448,192,86107,1,0,0:0:0:0:
192,192,86269,1,0,0:0:0:0:
64,192,86431,128,0,86755:0:0:0:60:Kick Hard Bass.wav
320,192,86431,128,0,86755:0:0:0:0:
192,192,86755,128,0,86918:0:0:0:60:Kick Hard Bass.wav
448,192,86755,128,0,86918:0:0:0:0:
64,192,86918,128,0,87080:0:0:0:0:
192,192,87080,128,0,87242:0:0:0:60:Kick Hard Bass.wav
448,192,87080,128,0,87242:0:0:0:0:
64,192,87404,128,0,87566:0:0:0:60:Kick Hard Bass.wav
320,192,87404,128,0,87566:0:0:0:0:
448,192,87566,128,0,87728:0:0:0:0:
64,192,87728,128,0,87891:0:0:0:60:Kick Hard Bass.wav
320,192,87728,128,0,87891:0:0:0:0:
64,192,88053,128,0,88215:0:0:0:60:Kick Hard Bass.wav
320,192,88053,128,0,88215:0:0:0:0:
448,192,88215,128,0,88377:0:0:0:0:
64,192,88377,1,0,0:0:0:60:Kick Hard Bass.wav
192,192,88377,1,0,0:0:0:0:
320,192,88539,1,0,0:0:0:0:
64,192,88701,1,0,0:0:0:60:Kick Hard Bass.wav
192,192,88701,1,0,0:0:0:0:
320,192,88864,1,0,0:0:0:0:
192,192,89026,128,0,89350:0:0:0:60:Kick Hard Bass.wav
448,192,89026,128,0,89350:0:0:0:0:
64,192,89350,128,0,89512:0:0:0:60:Kick Hard Bass.wav
320,192,89350,128,0,89512:0:0:0:0:
448,192,89512,128,0,89674:0:0:0:0:
64,192,89674,128,0,89837:0:0:0:60:Kick Hard Bass.wav
320,192,89674,128,0,89837:0:0:0:0:
192,192,89999,128,0,90161:0:0:0:60:Kick Hard Bass.wav
448,192,89999,128,0,90161:0:0:0:0:
64,192,90161,128,0,90323:0:0:0:0:
192,192,90323,128,0,90485:0:0:0:60:Kick Hard Bass.wav
448,192,90323,128,0,90485:0:0:0:0:
192,192,90647,128,0,90809:0:0:0:60:Kick Hard Bass.wav
448,192,90647,128,0,90809:0:0:0:0:
64,192,90809,128,0,90972:0:0:0:0:
320,192,90972,1,0,0:0:0:60:Kick Hard Bass.wav
448,192,90972,1,0,0:0:0:0:
192,192,91134,1,0,0:0:0:0:
320,192,91296,1,0,0:0:0:60:Kick Hard Bass.wav
448,192,91296,1,0,0:0:0:0:
192,192,91458,1,0,0:0:0:0:
64,192,91620,128,0,91945:0:0:0:60:Kick Hard Bass.wav
320,192,91620,128,0,91945:0:0:0:0:
192,192,91945,128,0,92107:0:0:0:60:Kick Hard Bass.wav
448,192,91945,128,0,92107:0:0:0:0:
64,192,92107,128,0,92269:0:0:0:0:
192,192,92269,128,0,92431:0:0:0:60:Kick Hard Bass.wav
448,192,92269,128,0,92431:0:0:0:0:
64,192,92593,128,0,92755:0:0:0:60:Kick Hard Bass.wav
320,192,92593,128,0,92755:0:0:0:0:
448,192,92755,128,0,92918:0:0:0:0:
64,192,92918,1,0,0:0:0:70:KickDeepBass.wav
192,192,92918,1,0,0:0:0:0:
320,192,93080,1,0,0:0:0:0:
192,192,93242,1,0,0:0:0:0:
320,192,93404,1,0,0:0:0:70:KickDeepBass.wav
448,192,93404,1,0,0:0:0:0:
64,192,93566,1,0,0:0:0:0:
448,192,93728,1,0,0:0:0:0:
192,192,93891,1,0,0:0:0:60:KickSWHBD.wav
320,192,93891,1,0,0:0:0:0:
64,192,94215,1,0,0:0:0:35:Kick med bass.wav
448,192,94215,1,0,0:0:0:80:BassKickRXD.wav
320,192,94539,1,0,0:0:0:35:Snare Hat.wav
448,192,94539,1,0,0:0:0:0:
192,192,95026,1,0,0:0:0:35:Kick med bass.wav
320,192,95188,1,0,0:0:0:35:Snare Hat.wav
448,192,95188,1,0,0:0:0:0:
192,192,95512,1,0,0:0:0:35:Kick med bass.wav
64,192,95837,1,0,0:0:0:35:Snare Hat.wav
192,192,95837,1,0,0:0:0:0:
320,192,96323,1,0,0:0:0:35:Kick med bass.wav
64,192,96485,1,0,0:0:0:35:Snare Hat.wav
192,192,96485,1,0,0:0:0:0:
448,192,96809,1,0,0:0:0:40:Kick med bass.wav
320,192,97134,1,0,0:0:0:40:Snare Hat.wav
448,192,97134,1,0,0:0:0:0:
64,192,97620,1,0,0:0:0:40:Kick med bass.wav
320,192,97782,1,0,0:0:0:40:Snare Hat.wav
448,192,97782,1,0,0:0:0:0:
64,192,98107,1,0,0:0:0:40:Kick med bass.wav
64,192,98431,1,0,0:0:0:40:Snare Hat.wav
192,192,98431,1,0,0:0:0:0:
448,192,98918,1,0,0:0:0:40:Kick med bass.wav
64,192,99080,1,0,0:0:0:40:Snare Hat.wav
192,192,99080,1,0,0:0:0:0:
320,192,99404,1,0,0:0:0:45:Kick med bass.wav
192,192,99728,1,0,0:0:0:45:Snare Hat.wav
448,192,99728,1,0,0:0:0:0:
64,192,99972,1,0,0:0:0:0:
320,192,100215,1,0,0:0:0:45:Kick med bass.wav
192,192,100377,1,0,0:0:0:45:Snare Hat.wav
448,192,100377,1,0,0:0:0:0:
320,192,100701,1,0,0:0:0:45:Kick med bass.wav
64,192,101026,1,0,0:0:0:45:Snare Hat.wav
320,192,101026,1,0,0:0:0:0:
448,192,101269,1,0,0:0:0:0:
192,192,101512,1,0,0:0:0:45:Kick med bass.wav
64,192,101674,1,0,0:0:0:45:Snare Hat.wav
320,192,101674,1,0,0:0:0:0:
448,192,101999,1,0,0:0:0:50:Kick med bass.wav
192,192,102323,1,0,0:0:0:50:Snare Hat.wav
448,192,102323,1,0,0:0:0:0:
320,192,102566,1,0,0:0:0:0:
64,192,102809,1,0,0:0:0:50:Kick med bass.wav
192,192,102972,1,0,0:0:0:50:Snare Hat.wav
448,192,102972,1,0,0:0:0:0:
320,192,103296,128,0,103458:0:0:0:0:
192,192,103458,1,0,0:0:0:0:
320,192,103620,128,0,103782:0:0:0:0:
192,192,103782,1,0,0:0:0:0:
320,192,103945,128,0,104107:0:0:0:0:
448,192,104107,128,0,104269:0:0:0:0:
64,192,104269,128,0,104431:0:0:0:0:
192,192,104431,128,0,104593:0:0:0:0:
320,192,104593,1,4,0:0:0:0:
448,192,104593,1,8,0:0:0:0:
64,192,104755,1,0,0:0:0:0:
320,192,104918,1,2,0:0:0:0:
448,192,104918,1,0,0:0:0:0:
192,192,105080,1,0,0:0:0:0:
192,192,105242,1,0,0:0:0:0:
448,192,105404,1,8,0:0:0:0:
64,192,105566,1,2,0:0:0:0:
192,192,105566,1,0,0:0:0:0:
448,192,105728,1,0,0:0:0:0:
64,192,105891,1,8,0:0:0:0:
64,192,106053,1,0,0:0:0:0:
320,192,106215,1,2,0:0:0:0:
448,192,106215,1,0,0:0:0:0:
192,192,106377,1,0,0:0:0:0:
320,192,106539,1,0,0:0:0:0:
192,192,106701,1,8,0:0:0:0:
320,192,106864,1,2,0:0:0:0:
448,192,106864,1,0,0:0:0:0:
192,192,107026,1,0,0:0:0:0:
448,192,107188,1,8,0:0:0:0:
448,192,107350,1,0,0:0:0:0:
64,192,107512,1,2,0:0:0:0:
192,192,107512,1,0,0:0:0:0:
320,192,107674,1,0,0:0:0:0:
192,192,107837,1,0,0:0:0:0:
320,192,107999,1,8,0:0:0:0:
64,192,108161,1,2,0:0:0:0:
192,192,108161,1,0,0:0:0:0:
64,192,108323,1,0,0:0:0:0:
448,192,108485,1,8,0:0:0:0:
192,192,108647,1,0,0:0:0:0:
320,192,108809,1,2,0:0:0:0:
448,192,108809,1,0,0:0:0:0:
192,192,108972,1,0,0:0:0:0:
448,192,109134,1,0,0:0:0:0:
448,192,109296,1,8,0:0:0:0:
64,192,109458,1,2,0:0:0:0:
320,192,109458,1,0,0:0:0:0:
192,192,109620,1,0,0:0:0:0:
64,192,109782,1,8,0:0:0:0:
448,192,109945,1,0,0:0:0:0:
64,192,110107,1,2,0:0:0:0:
192,192,110107,1,0,0:0:0:0:
320,192,110269,1,0,0:0:0:0:
320,192,110431,1,0,0:0:0:0:
64,192,110593,1,8,0:0:0:0:
320,192,110755,1,2,0:0:0:0:
448,192,110755,1,0,0:0:0:0:
64,192,110918,1,0,0:0:0:0:
448,192,111080,1,8,0:0:0:0:
448,192,111242,1,0,0:0:0:0:
64,192,111404,1,2,0:0:0:0:
192,192,111404,1,0,0:0:0:0:
320,192,111566,1,0,0:0:0:0:
192,192,111728,1,0,0:0:0:0:
320,192,111891,1,8,0:0:0:0:
64,192,112053,1,2,0:0:0:0:
192,192,112053,1,0,0:0:0:0:
320,192,112215,1,0,0:0:0:0:
64,192,112377,1,8,0:0:0:0:
64,192,112539,1,0,0:0:0:0:
320,192,112701,1,2,0:0:0:0:
448,192,112701,1,0,0:0:0:0:
192,192,112864,1,0,0:0:0:0:
320,192,113026,1,0,0:0:0:0:
192,192,113188,1,8,0:0:0:0:
320,192,113350,1,2,0:0:0:0:
448,192,113350,1,0,0:0:0:0:
448,192,113512,1,0,0:0:0:0:
64,192,113674,1,8,0:0:0:0:
320,192,113837,1,0,0:0:0:0:
64,192,113999,1,2,0:0:0:0:
192,192,113999,1,0,0:0:0:0:
320,192,114161,1,0,0:0:0:0:
64,192,114323,1,0,0:0:0:0:
64,192,114485,1,8,0:0:0:0:
192,192,114647,1,2,0:0:0:0:
448,192,114647,1,0,0:0:0:0:
320,192,114809,1,0,0:0:0:0:
64,192,114972,1,4,0:0:0:0:
448,192,114972,1,0,0:0:0:60:KickHDSK.wav
64,192,115296,1,0,0:0:0:60:KickHDSK.wav
192,192,115296,1,0,0:0:0:0:
320,192,115458,1,0,0:0:0:0:
64,192,115620,1,0,0:0:0:60:KickHDSK.wav
320,192,115620,1,0,0:0:0:0:
64,192,115945,1,0,0:0:0:60:KickHDSK.wav
192,192,115945,1,0,0:0:0:0:
64,192,116269,1,0,0:0:0:60:KickHDSK.wav
448,192,116269,1,0,0:0:0:0:
64,192,116431,1,0,0:0:0:0:
320,192,116593,1,0,0:0:0:60:KickHDSK.wav
448,192,116593,1,0,0:0:0:0:
192,192,116918,1,0,0:0:0:60:KickHDSK.wav
448,192,116918,1,0,0:0:0:0:
320,192,117242,1,0,0:0:0:60:KickHDSK.wav
448,192,117242,1,0,0:0:0:0:
64,192,117566,1,0,0:0:0:60:KickHDSK.wav
448,192,117566,1,0,0:0:0:0:
448,192,117728,1,0,0:0:0:0:
64,192,117891,1,0,0:0:0:60:KickHDSK.wav
192,192,117891,1,0,0:0:0:0:
64,192,118215,1,0,0:0:0:60:KickHDSK.wav
320,192,118215,1,0,0:0:0:0:
64,192,118539,1,0,0:0:0:60:KickHDSK.wav
192,192,118539,1,0,0:0:0:0:
192,192,118701,1,0,0:0:0:0:
64,192,118864,1,0,0:0:0:60:KickHDSK.wav
448,192,118864,1,0,0:0:0:0:
320,192,119188,1,0,0:0:0:60:KickHDSK.wav
448,192,119188,1,0,0:0:0:0:
192,192,119512,1,0,0:0:0:60:KickHDSK.wav
448,192,119512,1,0,0:0:0:0:
64,192,119674,1,0,0:0:0:0:
320,192,119837,1,0,0:0:0:60:KickHDSK.wav
448,192,119999,1,0,0:0:0:0:
64,192,120161,1,0,0:0:0:60:KickHDSK.wav
192,192,120161,1,0,0:0:0:0:
64,192,120485,1,0,0:0:0:60:KickHDSK.wav
320,192,120485,1,0,0:0:0:0:
448,192,120647,1,0,0:0:0:0:
64,192,120809,1,0,0:0:0:60:KickHDSK.wav
448,192,120809,1,0,0:0:0:0:
64,192,121134,1,0,0:0:0:60:KickHDSK.wav
192,192,121134,1,0,0:0:0:0:
320,192,121458,1,0,0:0:0:60:KickHDSK.wav
448,192,121458,1,0,0:0:0:0:
320,192,121620,1,0,0:0:0:0:
192,192,121782,1,0,0:0:0:60:KickHDSK.wav
448,192,121782,1,0,0:0:0:0:
64,192,122107,1,0,0:0:0:60:KickHDSK.wav
448,192,122107,1,0,0:0:0:0:
320,192,122431,1,0,0:0:0:60:KickHDSK.wav
448,192,122431,1,0,0:0:0:0:
64,192,122755,1,0,0:0:0:60:KickHDSK.wav
192,192,122755,1,0,0:0:0:0:
192,192,122918,1,0,0:0:0:0:
64,192,123080,1,0,0:0:0:60:KickHDSK.wav
320,192,123080,1,0,0:0:0:0:
64,192,123404,1,0,0:0:0:60:KickHDSK.wav
448,192,123404,1,0,0:0:0:0:
64,192,123728,1,0,0:0:0:60:KickHDSK.wav
192,192,123728,1,0,0:0:0:0:
64,192,123891,1,0,0:0:0:0:
320,192,124053,1,2,0:0:0:0:
448,192,124053,1,0,0:0:0:0:
192,192,124215,1,8,0:0:0:0:
64,192,124377,1,8,0:0:0:0:
320,192,124539,1,2,0:0:0:0:
448,192,124539,1,0,0:0:0:0:
192,192,124701,1,0,0:0:0:100:Tom Hit 2.wav
64,192,124864,1,0,0:0:0:50:Tom Drop.wav
448,192,124864,1,0,0:0:0:0:
192,192,125026,1,8,0:0:0:0:
320,192,125188,1,8,0:0:0:0:
64,192,125350,1,4,0:0:0:0:
192,192,125350,1,0,0:0:0:60:KickGTWX.wav
448,192,125674,128,0,126161:0:0:0:60:KickGTWX.wav
192,192,125999,1,0,0:0:0:60:KickGTWX.wav
64,192,126161,128,0,126647:0:0:0:60:KickGTWX.wav
320,192,126485,1,0,0:0:0:60:KickGTWX.wav
448,192,126647,128,0,127134:0:0:0:60:KickGTWX.wav
192,192,126972,1,0,0:0:0:60:KickGTWX.wav
64,192,127134,128,0,127620:0:0:0:60:KickGTWX.wav
320,192,127458,1,0,0:0:0:60:KickGTWX.wav
448,192,127620,128,0,127945:0:0:0:60:KickGTWX.wav
64,192,127945,1,0,0:0:0:60:KickGTWX.wav
192,192,127945,1,0,0:0:0:0:
64,192,128269,128,0,128755:0:0:0:60:KickGTWX.wav
320,192,128593,1,0,0:0:0:60:KickGTWX.wav
448,192,128755,128,0,129242:0:0:0:60:KickGTWX.wav
192,192,129080,1,0,0:0:0:60:KickGTWX.wav
64,192,129242,128,0,129728:0:0:0:60:KickGTWX.wav
320,192,129566,1,0,0:0:0:60:KickGTWX.wav
448,192,129728,128,0,130215:0:0:0:60:KickGTWX.wav
192,192,130053,1,0,0:0:0:60:KickGTWX.wav
64,192,130215,128,0,130539:0:0:0:60:KickGTWX.wav
320,192,130539,128,4,130864:0:0:0:0:
448,192,130539,128,0,131837:0:0:0:60:KickGTWX.wav
64,192,130864,128,0,131188:0:0:0:0:
320,192,131188,128,0,131512:0:0:0:0:
64,192,131512,128,0,131837:0:0:0:0:
320,192,131837,1,0,0:0:0:0:
192,192,131999,1,0,0:0:0:0:
64,192,132161,1,0,0:0:0:0:
320,192,132323,1,0,0:0:0:0:
64,192,132485,1,0,0:0:0:0:
448,192,132647,1,0,0:0:0:0:
192,192,132809,1,0,0:0:0:0:
320,192,132972,1,0,0:0:0:0:
448,192,133134,128,0,134107:0:0:0:0:
64,192,133782,128,0,134431:0:0:0:0:
192,192,134107,128,0,134431:0:0:0:0:
448,192,134431,1,0,0:0:0:0:
320,192,134755,1,0,0:0:0:0:
192,192,135080,1,0,0:0:0:0:
64,192,135242,1,0,0:0:0:0:
448,192,135404,128,0,135728:0:0:0:0:
192,192,135728,128,0,135891:0:0:0:80:ClapCRP.wav
192,192,136053,128,0,136215:0:0:0:80:ClapCRP.wav
192,192,136377,128,0,136539:0:0:0:80:ClapCRP.wav
448,192,136701,1,0,0:0:0:80:ClapCRP.wav
192,192,136864,128,0,137026:0:0:0:0:
448,192,137026,1,0,0:0:0:80:ClapCRP.wav
192,192,137188,128,0,137350:0:0:0:0:
448,192,137350,1,0,0:0:0:80:ClapCRP.wav
192,192,137512,128,0,137674:0:0:0:0:
320,192,137674,128,0,137837:0:0:0:80:ClapCRP.wav
192,192,137837,128,0,137999:0:0:0:0:
320,192,137999,128,0,138161:0:0:0:80:ClapCRP.wav
192,192,138161,128,0,138323:0:0:0:0:
320,192,138323,128,0,138485:0:0:0:80:ClapCRP.wav
64,192,138485,1,0,0:0:0:0:
320,192,138647,128,0,138809:0:0:0:80:ClapCRP.wav
192,192,138809,1,0,0:0:0:0:
320,192,138972,128,0,139134:0:0:0:80:ClapCRP.wav
448,192,139134,1,0,0:0:0:0:
192,192,139296,1,0,0:0:0:80:ClapCRP.wav
320,192,139458,128,0,139620:0:0:0:0:
320,192,140593,1,0,0:0:0:60:KickSWHBD.wav
448,192,140593,1,0,0:0:0:0:
192,192,140755,1,0,0:0:0:0:
64,192,140918,128,4,141080:0:0:0:0:
448,192,140918,128,0,141080:0:0:0:60:Kick Hard Bass.wav
64,192,141242,128,0,141404:0:0:0:60:Kick Hard Bass.wav
448,192,141242,128,0,141404:0:0:0:0:
64,192,141566,128,0,141728:0:0:0:60:Kick Hard Bass.wav
448,192,141566,128,0,141728:0:0:0:0:
192,192,141891,1,0,0:0:0:60:KickDeepBass.wav
320,192,141972,1,0,0:0:0:0:
448,192,142053,1,0,0:0:0:0:
448,192,142215,1,0,0:0:0:60:KickDeepBass.wav
320,192,142296,1,0,0:0:0:0:
192,192,142377,1,0,0:0:0:0:
192,192,142539,1,0,0:0:0:60:KickDeepBass.wav
320,192,142620,1,0,0:0:0:0:
448,192,142701,1,0,0:0:0:0:
448,192,142864,1,0,0:0:0:60:KickDeepBass.wav
320,192,142945,1,0,0:0:0:0:
192,192,143026,1,0,0:0:0:0:
192,192,143188,1,0,0:0:0:60:KickDeepBass.wav
320,192,143269,1,0,0:0:0:0:
448,192,143350,1,0,0:0:0:0:
64,192,143512,128,0,143674:0:0:0:60:Kick Hard Bass.wav
192,192,143512,128,0,143674:0:0:0:0:
64,192,143837,128,0,143999:0:0:0:60:Kick Hard Bass.wav
192,192,143837,128,0,143999:0:0:0:0:
64,192,144161,128,0,144323:0:0:0:60:Kick Hard Bass.wav
192,192,144161,128,0,144323:0:0:0:0:
448,192,144485,1,0,0:0:0:60:KickDeepBass.wav
320,192,144566,1,0,0:0:0:0:
192,192,144647,1,0,0:0:0:0:
320,192,144809,1,0,0:0:0:60:KickDeepBass.wav
192,192,144891,1,0,0:0:0:0:
64,192,144972,1,0,0:0:0:0:
448,192,145134,1,0,0:0:0:60:KickDeepBass.wav
320,192,145215,1,0,0:0:0:0:
192,192,145296,1,0,0:0:0:0:
320,192,145458,1,0,0:0:0:60:KickDeepBass.wav
192,192,145539,1,0,0:0:0:0:
64,192,145620,1,0,0:0:0:0:
448,192,145782,1,0,0:0:0:60:KickDeepBass.wav
320,192,145864,1,0,0:0:0:0:
192,192,145945,1,0,0:0:0:0:
64,192,146107,128,0,146269:0:0:0:60:Kick Hard Bass.wav
448,192,146107,128,0,146269:0:0:0:0:
64,192,146431,128,0,146593:0:0:0:60:Kick Hard Bass.wav
448,192,146431,128,0,146593:0:0:0:0:
64,192,146755,128,0,146918:0:0:0:60:Kick Hard Bass.wav
448,192,146755,128,0,146918:0:0:0:0:
320,192,147080,1,0,0:0:0:60:KickDeepBass.wav
192,192,147161,1,0,0:0:0:0:
64,192,147242,1,0,0:0:0:0:
64,192,147404,1,0,0:0:0:60:KickDeepBass.wav
192,192,147485,1,0,0:0:0:0:
320,192,147566,1,0,0:0:0:0:
320,192,147728,1,0,0:0:0:60:KickDeepBass.wav
192,192,147809,1,0,0:0:0:0:
64,192,147891,1,0,0:0:0:0:
64,192,148053,1,0,0:0:0:60:KickDeepBass.wav
192,192,148134,1,0,0:0:0:0:
320,192,148215,1,0,0:0:0:0:
320,192,148377,1,0,0:0:0:60:KickDeepBass.wav
192,192,148458,1,0,0:0:0:0:
64,192,148539,1,0,0:0:0:0:
320,192,148701,128,0,148864:0:0:0:60:Kick Hard Bass.wav
448,192,148701,128,0,148864:0:0:0:0:
320,192,149026,128,0,149188:0:0:0:60:Kick Hard Bass.wav
448,192,149026,128,0,149188:0:0:0:0:
320,192,149350,128,0,149512:0:0:0:60:Kick Hard Bass.wav
448,192,149350,128,0,149512:0:0:0:0:
64,192,149674,1,0,0:0:0:60:KickDeepBass.wav
192,192,149755,1,0,0:0:0:0:
320,192,149837,1,0,0:0:0:0:
448,192,149999,1,0,0:0:0:0:
448,192,150323,1,0,0:0:0:0:
448,192,150647,1,0,0:0:0:100:Tom Hit 2.wav
64,192,150809,1,0,0:0:0:50:Tom Drop.wav
192,192,150809,1,0,0:0:0:0:
320,192,150972,1,8,0:0:0:0:
192,192,151134,1,8,0:0:0:0:
64,192,151296,128,4,151458:0:0:0:0:
448,192,151296,128,0,151458:0:0:0:60:Kick Hard Bass.wav
64,192,151620,128,0,151782:0:0:0:60:Kick Hard Bass.wav
448,192,151620,128,0,151782:0:0:0:0:
64,192,151945,128,0,152107:0:0:0:60:Kick Hard Bass.wav
448,192,151945,128,0,152107:0:0:0:0:
448,192,152269,1,0,0:0:0:60:KickDeepBass.wav
192,192,152350,1,0,0:0:0:0:
448,192,152431,1,0,0:0:0:0:
64,192,152593,1,0,0:0:0:60:KickDeepBass.wav
320,192,152674,1,0,0:0:0:0:
64,192,152755,1,0,0:0:0:0:
448,192,152918,1,0,0:0:0:60:KickDeepBass.wav
192,192,152999,1,0,0:0:0:0:
448,192,153080,1,0,0:0:0:0:
64,192,153242,1,0,0:0:0:60:KickDeepBass.wav
320,192,153323,1,0,0:0:0:0:
64,192,153404,1,0,0:0:0:0:
448,192,153566,1,0,0:0:0:60:KickDeepBass.wav
192,192,153647,1,0,0:0:0:0:
448,192,153728,1,0,0:0:0:0:
64,192,153891,128,0,154053:0:0:0:60:Kick Hard Bass.wav
192,192,153891,128,0,154053:0:0:0:0:
64,192,154215,128,0,154377:0:0:0:60:Kick Hard Bass.wav
192,192,154215,128,0,154377:0:0:0:0:
64,192,154539,128,0,154701:0:0:0:60:Kick Hard Bass.wav
192,192,154539,128,0,154701:0:0:0:0:
64,192,154864,1,0,0:0:0:60:KickDeepBass.wav
320,192,154945,1,0,0:0:0:0:
192,192,155026,1,0,0:0:0:0:
320,192,155188,1,0,0:0:0:60:KickDeepBass.wav
64,192,155269,1,0,0:0:0:0:
448,192,155350,1,0,0:0:0:0:
64,192,155512,1,0,0:0:0:60:KickDeepBass.wav
320,192,155593,1,0,0:0:0:0:
192,192,155674,1,0,0:0:0:0:
320,192,155837,1,0,0:0:0:60:KickDeepBass.wav
64,192,155918,1,0,0:0:0:0:
448,192,155999,1,0,0:0:0:0:
64,192,156161,1,0,0:0:0:60:KickDeepBass.wav
320,192,156242,1,0,0:0:0:0:
192,192,156323,1,0,0:0:0:0:
64,192,156485,128,0,156647:0:0:0:60:Kick Hard Bass.wav
448,192,156485,128,0,156647:0:0:0:0:
64,192,156809,128,0,156972:0:0:0:60:Kick Hard Bass.wav
448,192,156809,128,0,156972:0:0:0:0:
64,192,157134,128,0,157296:0:0:0:60:Kick Hard Bass.wav
448,192,157134,128,0,157296:0:0:0:0:
64,192,157458,1,0,0:0:0:60:KickDeepBass.wav
320,192,157539,1,0,0:0:0:0:
64,192,157620,1,0,0:0:0:0:
448,192,157782,1,0,0:0:0:60:KickDeepBass.wav
192,192,157864,1,0,0:0:0:0:
448,192,157945,1,0,0:0:0:0:
64,192,158107,1,0,0:0:0:60:KickDeepBass.wav
320,192,158188,1,0,0:0:0:0:
64,192,158269,1,0,0:0:0:0:
448,192,158431,1,0,0:0:0:60:KickDeepBass.wav
192,192,158512,1,0,0:0:0:0:
448,192,158593,1,0,0:0:0:0:
64,192,158755,1,0,0:0:0:60:KickDeepBass.wav
320,192,158837,1,0,0:0:0:0:
64,192,158918,1,0,0:0:0:0:
320,192,159080,128,0,159242:0:0:0:60:Kick Hard Bass.wav
448,192,159080,128,0,159242:0:0:0:0:
320,192,159404,128,0,159566:0:0:0:60:Kick Hard Bass.wav
448,192,159404,128,0,159566:0:0:0:0:
320,192,159728,128,0,159891:0:0:0:60:Kick Hard Bass.wav
448,192,159728,128,0,159891:0:0:0:0:
448,192,160053,1,0,0:0:0:60:KickDeepBass.wav
192,192,160134,1,0,0:0:0:0:
320,192,160215,1,0,0:0:0:0:
64,192,160377,1,0,0:0:0:0:
64,192,160701,1,0,0:0:0:0:
64,192,161026,1,0,0:0:0:0:
192,192,161188,1,0,0:0:0:0:
64,192,161350,1,0,0:0:0:0:
320,192,161350,1,0,0:0:0:0:
320,192,161674,1,4,0:0:0:0:
448,192,161674,128,0,161999:0:0:0:60:KickHDSK.wav
64,192,161837,1,0,0:0:0:0:
192,192,161999,128,0,162323:0:0:0:60:KickHDSK.wav
320,192,162161,1,0,0:0:0:0:
448,192,162323,128,0,162647:0:0:0:60:KickHDSK.wav
64,192,162485,1,0,0:0:0:0:
192,192,162647,128,0,162972:0:0:0:60:KickHDSK.wav
448,192,162809,1,0,0:0:0:0:
320,192,162972,128,0,163296:0:0:0:60:KickHDSK.wav
192,192,163134,1,0,0:0:0:0:
64,192,163296,128,0,163620:0:0:0:60:KickHDSK.wav
448,192,163458,1,0,0:0:0:0:
320,192,163620,128,0,163945:0:0:0:60:KickHDSK.wav
192,192,163782,1,0,0:0:0:0:
64,192,163945,128,0,164269:0:0:0:60:KickHDSK.wav
448,192,164107,1,0,0:0:0:0:
192,192,164269,128,0,164593:0:0:0:60:KickHDSK.wav
320,192,164431,1,0,0:0:0:0:
448,192,164593,128,0,164918:0:0:0:60:KickHDSK.wav
64,192,164755,1,0,0:0:0:0:
192,192,164918,128,0,165242:0:0:0:60:KickHDSK.wav
320,192,165080,1,0,0:0:0:0:
448,192,165242,128,0,165566:0:0:0:60:KickHDSK.wav
192,192,165404,1,0,0:0:0:0:
64,192,165566,128,0,165891:0:0:0:60:KickHDSK.wav
448,192,165728,1,0,0:0:0:0:
320,192,165891,128,0,166215:0:0:0:60:KickHDSK.wav
192,192,166053,1,0,0:0:0:0:
64,192,166215,128,0,166864:0:0:0:60:KickHDSK.wav
448,192,166377,1,0,0:0:0:0:
192,192,166539,128,0,166864:0:0:0:60:KickHDSK.wav
320,192,166864,1,0,0:0:0:60:KickHDSK.wav
448,192,166864,128,0,167188:0:0:0:0:
192,192,167026,1,0,0:0:0:0:
64,192,167188,128,0,167512:0:0:0:60:KickHDSK.wav
320,192,167350,1,0,0:0:0:0:
448,192,167512,128,0,167837:0:0:0:60:KickHDSK.wav
192,192,167674,1,0,0:0:0:0:
64,192,167837,128,0,168161:0:0:0:60:KickHDSK.wav
448,192,167999,1,0,0:0:0:0:
320,192,168161,128,0,168485:0:0:0:60:KickHDSK.wav
64,192,168323,1,0,0:0:0:0:
192,192,168485,128,0,168809:0:0:0:60:KickHDSK.wav
448,192,168647,1,0,0:0:0:0:
320,192,168809,128,0,169134:0:0:0:60:KickHDSK.wav
64,192,168972,1,0,0:0:0:0:
192,192,169134,128,0,169458:0:0:0:60:KickHDSK.wav
448,192,169296,1,0,0:0:0:0:
64,192,169458,128,0,169782:0:0:0:60:KickHDSK.wav
320,192,169620,1,0,0:0:0:0:
448,192,169782,128,0,170107:0:0:0:60:KickHDSK.wav
192,192,169945,1,0,0:0:0:0:
64,192,170107,128,0,170431:0:0:0:60:KickHDSK.wav
320,192,170269,1,0,0:0:0:0:
448,192,170431,128,0,170755:0:0:0:60:KickHDSK.wav
320,192,170593,1,0,0:0:0:0:
64,192,170755,128,0,171080:0:0:0:70:KickDeepBass.wav
192,192,170755,128,0,171080:0:0:0:0:
320,192,171242,128,0,171566:0:0:0:70:KickDeepBass.wav
448,192,171242,128,0,171566:0:0:0:0:
64,192,171728,128,0,172053:0:0:0:0:
320,192,172053,1,4,0:0:0:0:
448,192,172053,128,0,172377:0:0:0:60:KickHDSK.wav
64,192,172215,1,0,0:0:0:0:
192,192,172377,128,0,172701:0:0:0:60:KickHDSK.wav
320,192,172539,1,0,0:0:0:0:
448,192,172701,128,0,173026:0:0:0:60:KickHDSK.wav
64,192,172864,1,0,0:0:0:0:
192,192,173026,128,0,173350:0:0:0:60:KickHDSK.wav
448,192,173188,1,0,0:0:0:0:
320,192,173350,128,0,173674:0:0:0:60:KickHDSK.wav
448,192,173512,1,0,0:0:0:0:
64,192,173674,128,0,173999:0:0:0:60:KickHDSK.wav
192,192,173837,1,0,0:0:0:0:
320,192,173999,128,0,174323:0:0:0:60:KickHDSK.wav
448,192,174161,1,0,0:0:0:0:
64,192,174323,128,0,174647:0:0:0:60:KickHDSK.wav
320,192,174485,1,0,0:0:0:0:
192,192,174647,128,0,174972:0:0:0:60:KickHDSK.wav
320,192,174809,1,0,0:0:0:0:
448,192,174972,128,0,175296:0:0:0:60:KickHDSK.wav
64,192,175134,1,0,0:0:0:0:
192,192,175296,128,0,175620:0:0:0:60:KickHDSK.wav
320,192,175458,1,0,0:0:0:0:
448,192,175620,128,0,175945:0:0:0:60:KickHDSK.wav
192,192,175782,1,0,0:0:0:0:
64,192,175945,128,0,176269:0:0:0:60:KickHDSK.wav
192,192,176107,1,0,0:0:0:0:
320,192,176269,128,0,176593:0:0:0:60:KickHDSK.wav
448,192,176431,1,0,0:0:0:0:
64,192,176593,128,0,177242:0:0:0:60:KickHDSK.wav
192,192,176755,1,0,0:0:0:0:
320,192,176918,128,0,177242:0:0:0:60:KickHDSK.wav
192,192,177242,1,0,0:0:0:60:KickHDSK.wav
448,192,177242,128,0,177566:0:0:0:0:
320,192,177404,1,0,0:0:0:0:
64,192,177566,128,0,177891:0:0:0:60:KickHDSK.wav
320,192,177728,1,0,0:0:0:0:
448,192,177891,128,0,178215:0:0:0:60:KickHDSK.wav
192,192,178053,1,0,0:0:0:0:
64,192,178215,128,0,178539:0:0:0:60:KickHDSK.wav
448,192,178377,1,0,0:0:0:0:
320,192,178539,128,0,178864:0:0:0:60:KickHDSK.wav
64,192,178701,1,0,0:0:0:0:
192,192,178864,128,0,179188:0:0:0:60:KickHDSK.wav
448,192,179026,1,0,0:0:0:0:
320,192,179188,128,0,179512:0:0:0:60:KickHDSK.wav
64,192,179350,1,0,0:0:0:0:
192,192,179512,128,0,179837:0:0:0:60:KickHDSK.wav
448,192,179674,1,0,0:0:0:0:
64,192,179837,128,0,180161:0:0:0:60:KickHDSK.wav
320,192,179999,1,0,0:0:0:0:
448,192,180161,128,0,180485:0:0:0:60:KickHDSK.wav
192,192,180323,1,0,0:0:0:0:
64,192,180485,128,0,180809:0:0:0:60:KickHDSK.wav
320,192,180647,1,0,0:0:0:0:
448,192,180809,128,0,181134:0:0:0:60:KickHDSK.wav
192,192,180972,1,0,0:0:0:0:
64,192,181134,1,0,0:0:0:60:KickSWHBD.wav
320,192,181134,1,0,0:0:0:0:
192,192,181458,1,0,0:0:0:60:KickSWHBD.wav
320,192,181458,1,0,0:0:0:0:
192,192,181782,1,0,0:0:0:60:KickSWHBD.wav
448,192,181782,1,0,0:0:0:0:
448,192,181945,1,0,0:0:0:60:KickSWHBD.wav
64,192,182107,1,0,0:0:0:60:KickSWHBD.wav
320,192,182107,1,0,0:0:0:0:
64,192,182269,1,0,0:0:0:60:KickSWHBD.wav
320,192,182431,1,0,0:0:0:80:BassKickRXD.wav
448,192,182431,1,0,0:0:0:0:
