osu file format v14

[General]
AudioFilename: hades.ogg
AudioLeadIn: 0
PreviewTime: 82845
Countdown: 0
SampleSet: Normal
StackLeniency: 0.7
Mode: 1
LetterboxInBreaks: 0
WidescreenStoryboard: 1

[Editor]
Bookmarks: 72200
DistanceSpacing: 0.2
BeatDivisor: 4
GridSize: 32
TimelineZoom: 3.099999

[Metadata]
Title:HADES
TitleUnicode:HADES
Artist:Massive New Krew
ArtistUnicode:Massive New Krew
Creator:Dtnt0r
Version:Oni
Source:beatmania IIDX 24 SINOBUZ
Tags:Hardstyle bms electronic 2dx 25 cannon ballers original soundtrack hardcore mnk instrumental video game crew
BeatmapID:3098064
BeatmapSetID:1511210

[Difficulty]
HPDrainRate:5.5
CircleSize:5
OverallDifficulty:5.5
ApproachRate:5
SliderMultiplier:1.4
SliderTickRate:1

[Events]
//Background and Video events
0,0,"new bg.jpg",0,0
//Break Periods
//Storyboard Layer 0 (Background)
//Storyboard Layer 1 (Fail)
//Storyboard Layer 2 (Pass)
//Storyboard Layer 3 (Foreground)
//Storyboard Layer 4 (Overlay)
//Storyboard Sound Samples

[TimingPoints]
2491,387.096774193548,4,1,0,100,1,0
2491,-83.3333333333333,4,1,0,100,0,0
5539,-83.3333333333333,4,1,0,30,0,0
8249,-83.3333333333333,4,1,0,40,0,0
8346,-83.3333333333333,4,1,0,45,0,0
8442,-83.3333333333333,4,1,0,50,0,0
8539,-83.3333333333333,4,1,0,55,0,0
8636,-83.3333333333333,4,1,0,60,0,0
8781,-83.3333333333333,4,1,0,100,0,0
21136,-83.3333333333333,4,1,0,50,0,0
24168,387.096774193548,4,1,0,100,1,0
24168,-83.3333333333333,4,1,0,100,0,0
39651,387.096774193548,4,1,0,100,1,0
39651,-83.3333333333333,4,1,0,100,0,0
52136,-83.3333333333333,4,1,0,30,0,0
53539,-83.3333333333333,4,1,0,100,0,0
55134,387.096774193548,4,1,0,100,1,0
55134,-83.3333333333333,4,1,0,100,0,0
69023,-83.3333333333333,4,1,0,75,0,0
70571,-83.3333333333333,4,1,0,100,0,0
72120,-83.3333333333333,4,1,0,75,0,0
73668,-83.3333333333333,4,1,0,100,0,0
83004,387.096774193548,4,1,0,100,1,1
83004,-76.9230769230769,4,1,0,100,0,1
107391,-83.3333333333333,4,1,0,100,0,1
107778,-83.3333333333333,4,1,0,100,0,0

[HitObjects]
256,192,942,5,4,0:0:0:0:
256,192,2491,1,8,0:0:0:0:
256,192,3071,1,0,0:0:0:0:
256,192,3168,1,0,0:0:0:0:
256,192,3265,1,8,0:0:0:0:
256,192,3845,1,0,0:0:0:0:
256,192,3942,1,8,0:0:0:0:
256,192,4039,1,8,0:0:0:0:
256,192,4620,1,0,0:0:0:0:
256,192,4716,1,0,0:0:0:0:
256,192,4813,1,8,0:0:0:0:
256,192,4910,1,8,0:0:0:0:
256,192,5103,1,8,0:0:0:0:
256,192,5200,1,0,0:0:0:0:
256,192,5394,1,8,0:0:0:0:
256,192,5587,1,8,0:0:0:0:
256,192,5684,1,8,0:0:0:0:
256,192,5781,1,0,0:0:0:0:
256,192,5878,1,0,0:0:0:0:
256,192,5974,1,8,0:0:0:0:
256,192,6168,1,8,0:0:0:0:
256,192,6265,1,8,0:0:0:0:
256,192,6361,1,0,0:0:0:0:
256,192,6555,1,8,0:0:0:0:
256,192,6749,1,8,0:0:0:0:
256,192,6942,1,0,0:0:0:0:
256,192,7136,1,8,0:0:0:0:
256,192,7232,1,8,0:0:0:0:
256,192,7329,1,0,0:0:0:0:
256,192,7426,1,0,0:0:0:0:
256,192,7523,1,8,0:0:0:0:
256,192,7716,1,8,0:0:0:0:
256,192,7813,1,8,0:0:0:0:
256,192,7910,1,0,0:0:0:0:
256,192,8103,1,8,0:0:0:0:
256,192,8297,1,0,0:0:0:0:
256,192,8394,1,0,0:0:0:0:
256,192,8490,1,0,0:0:0:0:
256,192,8587,1,0,0:0:0:0:
256,192,8684,1,8,0:0:0:0:
256,192,8974,1,0,0:0:0:0:
256,192,9265,1,8,0:0:0:0:
256,192,9458,1,8,0:0:0:0:
256,192,9749,1,0,0:0:0:0:
256,192,10039,1,0,0:0:0:0:
256,192,10232,1,8,0:0:0:0:
256,192,10523,1,8,0:0:0:0:
256,192,10813,1,8,0:0:0:0:
256,192,11200,1,8,0:0:0:0:
256,192,11394,1,0,0:0:0:0:
256,192,11587,1,0,0:0:0:0:
256,192,11781,1,8,0:0:0:0:
256,192,12071,1,0,0:0:0:0:
256,192,12361,1,0,0:0:0:0:
256,192,12555,1,8,0:0:0:0:
256,192,13329,1,8,0:0:0:0:
256,192,13523,1,8,0:0:0:0:
256,192,13620,1,0,0:0:0:0:
256,192,13813,1,0,0:0:0:0:
256,192,13910,1,8,0:0:0:0:
256,192,14103,1,8,0:0:0:0:
256,192,14394,1,0,0:0:0:0:
256,192,14490,1,8,0:0:0:0:
256,192,14587,1,0,0:0:0:0:
256,192,14684,1,0,0:0:0:0:
256,192,14878,1,12,0:0:0:0:
256,192,15168,1,0,0:0:0:0:
256,192,15265,1,8,0:0:0:0:
256,192,15458,1,0,0:0:0:0:
256,192,15652,1,8,0:0:0:0:
256,192,15942,1,0,0:0:0:0:
256,192,16039,1,8,0:0:0:0:
256,192,16232,1,8,0:0:0:0:
256,192,16426,1,0,0:0:0:0:
256,192,16620,1,8,0:0:0:0:
256,192,16716,1,8,0:0:0:0:
256,192,16813,1,0,0:0:0:0:
256,192,17007,1,8,0:0:0:0:
256,192,17200,1,0,0:0:0:0:
256,192,17394,1,8,0:0:0:0:
256,192,17490,1,0,0:0:0:0:
256,192,17587,1,0,0:0:0:0:
256,192,17781,1,8,0:0:0:0:
256,192,17974,1,8,0:0:0:0:
256,192,18071,1,0,0:0:0:0:
256,192,18168,1,0,0:0:0:0:
256,192,18361,1,8,0:0:0:0:
256,192,18555,1,8,0:0:0:0:
256,192,18652,1,0,0:0:0:0:
256,192,18749,1,8,0:0:0:0:
256,192,18942,1,0,0:0:0:0:
256,192,19039,1,0,0:0:0:0:
256,192,19136,1,8,0:0:0:0:
256,192,19329,1,8,0:0:0:0:
256,192,19523,1,8,0:0:0:0:
256,192,19652,1,0,0:0:0:0:
256,192,19781,1,0,0:0:0:0:
256,192,19910,1,8,0:0:0:0:
256,192,20168,1,0,0:0:0:0:
256,192,20297,1,8,0:0:0:0:
256,192,20426,1,8,0:0:0:0:
256,192,20555,1,8,0:0:0:0:
256,192,20684,1,0,0:0:0:0:
256,192,21071,1,0,0:0:0:0:
256,192,21265,1,8,0:0:0:0:
256,192,21458,1,8,0:0:0:0:
256,192,21555,1,0,0:0:0:0:
256,192,21652,1,8,0:0:0:0:
256,192,21845,1,0,0:0:0:0:
256,192,22039,1,8,0:0:0:0:
256,192,22232,1,0,0:0:0:0:
256,192,22426,1,8,0:0:0:0:
256,192,22620,1,0,0:0:0:0:
256,192,24168,1,4,0:0:0:0:
256,192,24458,1,8,0:0:0:0:
256,192,24555,1,0,0:0:0:0:
256,192,24748,1,8,0:0:0:0:
256,192,24942,1,0,0:0:0:0:
256,192,25038,1,0,0:0:0:0:
256,192,25135,1,8,0:0:0:0:
256,192,25329,1,0,0:0:0:0:
256,192,25426,1,0,0:0:0:0:
256,192,25522,1,8,0:0:0:0:
256,192,25716,1,4,0:0:0:0:
256,192,26006,1,8,0:0:0:0:
256,192,26103,1,0,0:0:0:0:
256,192,26297,1,8,0:0:0:0:
256,192,26490,1,8,0:0:0:0:
256,192,26587,1,0,0:0:0:0:
256,192,26684,1,8,0:0:0:0:
256,192,26877,1,8,0:0:0:0:
256,192,26974,1,0,0:0:0:0:
256,192,27071,1,8,0:0:0:0:
256,192,27264,1,4,0:0:0:0:
256,192,27555,1,8,0:0:0:0:
256,192,27651,1,0,0:0:0:0:
256,192,27845,1,8,0:0:0:0:
256,192,28038,1,0,0:0:0:0:
256,192,28135,1,0,0:0:0:0:
256,192,28232,1,8,0:0:0:0:
256,192,28426,1,0,0:0:0:0:
256,192,28522,1,0,0:0:0:0:
256,192,28619,1,8,0:0:0:0:
256,192,28813,1,4,0:0:0:0:
256,192,29103,1,8,0:0:0:0:
256,192,29393,1,8,0:0:0:0:
256,192,29587,1,0,0:0:0:0:
256,192,29684,1,0,0:0:0:0:
256,192,29780,1,8,0:0:0:0:
256,192,29974,1,8,0:0:0:0:
256,192,30071,1,8,0:0:0:0:
256,192,30167,1,0,0:0:0:0:
256,192,30361,1,8,0:0:0:0:
256,192,30458,1,0,0:0:0:0:
256,192,30651,1,8,0:0:0:0:
256,192,30748,1,0,0:0:0:0:
256,192,30942,1,8,0:0:0:0:
256,192,31135,1,0,0:0:0:0:
256,192,31232,1,0,0:0:0:0:
256,192,31329,1,8,0:0:0:0:
256,192,31522,1,0,0:0:0:0:
256,192,31619,1,0,0:0:0:0:
256,192,31716,1,8,0:0:0:0:
256,192,31909,1,4,0:0:0:0:
256,192,32200,1,8,0:0:0:0:
256,192,32297,1,0,0:0:0:0:
256,192,32490,1,8,0:0:0:0:
256,192,32684,1,8,0:0:0:0:
256,192,32877,1,8,0:0:0:0:
256,192,32974,1,0,0:0:0:0:
256,192,33071,1,0,0:0:0:0:
256,192,33264,1,8,0:0:0:0:
256,192,33361,1,8,0:0:0:0:
256,192,33458,1,0,0:0:0:0:
256,192,33651,1,0,0:0:0:0:
256,192,33748,1,0,0:0:0:0:
256,192,33845,1,8,0:0:0:0:
256,192,34038,1,0,0:0:0:0:
256,192,34426,1,8,0:0:0:0:
256,192,34619,1,0,0:0:0:0:
256,192,34813,1,8,0:0:0:0:
256,192,35006,1,12,0:0:0:0:
256,192,35297,1,4,0:0:0:0:
256,192,35587,1,12,0:0:0:0:
256,192,35974,1,0,0:0:0:0:
256,192,36071,1,8,0:0:0:0:
256,192,36167,1,8,0:0:0:0:
256,192,36361,1,8,0:0:0:0:
256,192,36555,1,8,0:0:0:0:
256,192,36942,1,0,0:0:0:0:
256,192,37038,1,0,0:0:0:0:
256,192,37135,1,8,0:0:0:0:
256,192,37329,1,8,0:0:0:0:
256,192,37426,1,0,0:0:0:0:
256,192,37522,1,8,0:0:0:0:
256,192,37909,1,8,0:0:0:0:
256,192,38103,1,0,0:0:0:0:
256,192,38200,1,0,0:0:0:0:
256,192,38297,1,8,0:0:0:0:
256,192,38490,1,8,0:0:0:0:
256,192,38587,1,0,0:0:0:0:
256,192,38684,1,8,0:0:0:0:
256,192,38877,1,8,0:0:0:0:
256,192,39071,1,0,0:0:0:0:
256,192,39264,1,8,0:0:0:0:
256,192,39458,1,0,0:0:0:0:
256,192,39651,1,4,0:0:0:0:
256,192,40038,1,0,0:0:0:0:
256,192,40134,1,0,0:0:0:0:
256,192,40231,1,0,0:0:0:0:
256,192,40425,1,12,0:0:0:0:
256,192,40618,1,0,0:0:0:0:
256,192,40812,1,8,0:0:0:0:
256,192,41005,1,0,0:0:0:0:
256,192,41392,1,0,0:0:0:0:
256,192,41586,1,0,0:0:0:0:
256,192,41780,1,0,0:0:0:0:
256,192,41973,1,12,0:0:0:0:
256,192,42167,1,0,0:0:0:0:
256,192,42360,1,8,0:0:0:0:
256,192,42747,1,4,0:0:0:0:
256,192,42941,1,4,0:0:0:0:
256,192,43134,1,4,0:0:0:0:
256,192,43328,1,4,0:0:0:0:
256,192,43521,1,12,0:0:0:0:
256,192,43909,1,8,0:0:0:0:
256,192,44102,1,0,0:0:0:0:
256,192,44199,1,0,0:0:0:0:
256,192,44296,1,0,0:0:0:0:
256,192,44489,1,8,0:0:0:0:
256,192,44683,1,8,0:0:0:0:
256,192,44876,1,8,0:0:0:0:
256,192,45070,1,0,0:0:0:0:
256,192,45263,1,0,0:0:0:0:
256,192,45457,1,0,0:0:0:0:
256,192,45844,1,4,0:0:0:0:
256,192,46231,1,0,0:0:0:0:
256,192,46328,1,0,0:0:0:0:
256,192,46425,1,0,0:0:0:0:
256,192,46618,1,12,0:0:0:0:
256,192,46812,1,0,0:0:0:0:
256,192,47005,1,8,0:0:0:0:
256,192,47102,1,8,0:0:0:0:
256,192,47199,1,0,0:0:0:0:
256,192,47586,1,0,0:0:0:0:
256,192,47780,1,0,0:0:0:0:
256,192,47876,1,0,0:0:0:0:
256,192,47973,1,0,0:0:0:0:
256,192,48167,1,8,0:0:0:0:
256,192,48941,1,8,0:0:0:0:
256,192,49231,1,8,0:0:0:0:
256,192,49328,1,0,0:0:0:0:
256,192,49425,1,0,0:0:0:0:
256,192,49521,1,8,0:0:0:0:
256,192,49812,1,8,0:0:0:0:
256,192,50102,1,8,0:0:0:0:
256,192,50489,1,8,0:0:0:0:
256,192,50683,1,8,0:0:0:0:
256,192,50780,1,0,0:0:0:0:
256,192,50973,1,0,0:0:0:0:
256,192,51070,1,8,0:0:0:0:
256,192,51263,2,0,L|160:192,3,83.9999974365235
256,192,52038,1,0,0:0:0:0:
256,192,52231,1,8,0:0:0:0:
256,192,52328,1,0,0:0:0:0:
256,192,52425,1,8,0:0:0:0:
256,192,52618,1,0,0:0:0:0:
256,192,52812,1,8,0:0:0:0:
256,192,52909,1,0,0:0:0:0:
256,192,53005,1,8,0:0:0:0:
256,192,53199,1,0,0:0:0:0:
256,192,53296,1,0,0:0:0:0:
256,192,53392,1,8,0:0:0:0:
256,192,53586,1,8,0:0:0:0:
256,192,53973,1,8,0:0:0:0:
256,192,54360,1,8,0:0:0:0:
256,192,54554,1,8,0:0:0:0:
256,192,54650,1,8,0:0:0:0:
256,192,54747,1,0,0:0:0:0:
256,192,54941,1,8,0:0:0:0:
256,192,55134,1,12,0:0:0:0:
256,192,55521,1,8,0:0:0:0:
256,192,55714,1,0,0:0:0:0:
256,192,55811,1,0,0:0:0:0:
256,192,55908,1,8,0:0:0:0:
256,192,56295,1,8,0:0:0:0:
256,192,56488,1,0,0:0:0:0:
256,192,56585,1,8,0:0:0:0:
256,192,56682,1,8,0:0:0:0:
256,192,57069,1,8,0:0:0:0:
256,192,57456,1,8,0:0:0:0:
256,192,57650,1,8,0:0:0:0:
256,192,57746,1,8,0:0:0:0:
256,192,57843,1,8,0:0:0:0:
256,192,58037,1,0,0:0:0:0:
256,192,58134,1,8,0:0:0:0:
256,192,58230,1,8,0:0:0:0:
256,192,58521,1,8,0:0:0:0:
256,192,58617,1,0,0:0:0:0:
256,192,58811,1,0,0:0:0:0:
256,192,58908,1,0,0:0:0:0:
256,192,59004,1,8,0:0:0:0:
256,192,59392,1,8,0:0:0:0:
256,192,59585,1,0,0:0:0:0:
256,192,59779,1,0,0:0:0:0:
256,192,59972,1,8,0:0:0:0:
256,192,60069,1,0,0:0:0:0:
256,192,60166,1,8,0:0:0:0:
256,192,60359,1,0,0:0:0:0:
256,192,60553,1,8,0:0:0:0:
256,192,60843,1,0,0:0:0:0:
256,192,60940,1,8,0:0:0:0:
256,192,61133,1,8,0:0:0:0:
256,192,61230,1,8,0:0:0:0:
256,192,61327,1,8,0:0:0:0:
256,192,61617,1,8,0:0:0:0:
256,192,61714,1,0,0:0:0:0:
256,192,61908,1,0,0:0:0:0:
256,192,62101,1,8,0:0:0:0:
256,192,62392,1,0,0:0:0:0:
256,192,62488,1,8,0:0:0:0:
256,192,62682,1,8,0:0:0:0:
256,192,62875,1,0,0:0:0:0:
256,192,63166,1,8,0:0:0:0:
256,192,63456,1,8,0:0:0:0:
256,192,63650,1,8,0:0:0:0:
256,192,64037,1,8,0:0:0:0:
256,192,64230,1,0,0:0:0:0:
256,192,64327,1,0,0:0:0:0:
256,192,64424,1,8,0:0:0:0:
256,192,64714,1,8,0:0:0:0:
256,192,64811,1,0,0:0:0:0:
256,192,65004,1,0,0:0:0:0:
256,192,65198,1,8,0:0:0:0:
256,192,65488,1,8,0:0:0:0:
256,192,65585,1,0,0:0:0:0:
256,192,65779,1,8,0:0:0:0:
256,192,65875,1,0,0:0:0:0:
256,192,65972,1,8,0:0:0:0:
256,192,66166,1,8,0:0:0:0:
256,192,66263,1,0,0:0:0:0:
256,192,66456,1,0,0:0:0:0:
256,192,66553,1,8,0:0:0:0:
256,192,66746,8,8,67327,0:0:0:0:
256,192,67521,5,12,0:0:0:0:
256,192,67714,1,0,0:0:0:0:
256,192,67811,1,0,0:0:0:0:
256,192,67908,1,8,0:0:0:0:
256,192,68101,1,0,0:0:0:0:
256,192,68295,1,8,0:0:0:0:
256,192,68488,1,0,0:0:0:0:
256,192,68682,1,8,0:0:0:0:
256,192,69069,1,0,0:0:0:0:
256,192,69166,1,0,0:0:0:0:
256,192,69263,1,8,0:0:0:0:
256,192,69456,1,8,0:0:0:0:
256,192,69650,1,0,0:0:0:0:
256,192,69746,1,0,0:0:0:0:
256,192,69843,1,8,0:0:0:0:
256,192,70037,1,8,0:0:0:0:
256,192,70230,1,0,0:0:0:0:
256,192,70327,1,0,0:0:0:0:
256,192,70424,1,8,0:0:0:0:
256,192,70617,1,12,0:0:0:0:
256,192,71004,1,8,0:0:0:0:
256,192,71198,1,0,0:0:0:0:
256,192,71392,1,8,0:0:0:0:
256,192,71585,1,0,0:0:0:0:
256,192,71779,1,8,0:0:0:0:
256,192,72166,1,0,0:0:0:0:
256,192,72263,1,0,0:0:0:0:
256,192,72359,1,8,0:0:0:0:
256,192,72553,1,8,0:0:0:0:
256,192,72746,1,0,0:0:0:0:
256,192,72843,1,0,0:0:0:0:
256,192,72940,1,8,0:0:0:0:
256,192,73133,1,8,0:0:0:0:
256,192,73327,1,0,0:0:0:0:
256,192,73424,1,0,0:0:0:0:
256,192,73521,1,8,0:0:0:0:
256,192,73714,1,12,0:0:0:0:
256,192,73908,1,0,0:0:0:0:
256,192,74101,1,8,0:0:0:0:
256,192,74295,1,0,0:0:0:0:
256,192,74488,1,8,0:0:0:0:
256,192,74682,1,8,0:0:0:0:
256,192,74875,1,8,0:0:0:0:
256,192,75263,1,0,0:0:0:0:
256,192,75456,1,8,0:0:0:0:
256,192,75650,1,8,0:0:0:0:
256,192,75843,1,0,0:0:0:0:
256,192,76037,1,8,0:0:0:0:
256,192,76230,1,8,0:0:0:0:
256,192,76424,1,0,0:0:0:0:
256,192,76811,1,0,0:0:0:0:
256,192,76908,1,0,0:0:0:0:
256,192,77004,1,8,0:0:0:0:
256,192,77198,1,8,0:0:0:0:
256,192,77295,1,0,0:0:0:0:
256,192,77392,1,8,0:0:0:0:
256,192,77488,1,8,0:0:0:0:
256,192,77585,1,0,0:0:0:0:
256,192,77779,1,8,0:0:0:0:
256,192,77875,1,0,0:0:0:0:
256,192,77972,1,8,0:0:0:0:
256,192,78166,1,0,0:0:0:0:
256,192,78359,1,8,0:0:0:0:
256,192,78488,1,8,0:0:0:0:
256,192,78617,1,0,0:0:0:0:
256,192,78746,1,8,0:0:0:0:
256,192,78875,1,0,0:0:0:0:
256,192,79004,1,0,0:0:0:0:
256,192,79133,1,8,0:0:0:0:
256,192,79263,8,0,79779,0:0:0:0:
256,192,79908,5,4,0:0:0:0:
256,192,80295,1,4,0:0:0:0:
256,192,80682,1,4,0:0:0:0:
256,192,81069,1,12,0:0:0:0:
256,192,81456,1,8,0:0:0:0:
256,192,82617,1,12,0:0:0:0:
256,192,83004,1,8,0:0:0:0:
256,192,83197,1,0,0:0:0:0:
256,192,83391,1,8,0:0:0:0:
256,192,83584,1,0,0:0:0:0:
256,192,83681,1,0,0:0:0:0:
256,192,83778,1,8,0:0:0:0:
256,192,84068,1,8,0:0:0:0:
256,192,84165,1,0,0:0:0:0:
256,192,84358,1,0,0:0:0:0:
256,192,84455,1,8,0:0:0:0:
256,192,84552,1,8,0:0:0:0:
256,192,84745,1,8,0:0:0:0:
256,192,84842,1,0,0:0:0:0:
256,192,85036,1,0,0:0:0:0:
256,192,85133,1,8,0:0:0:0:
256,192,85520,1,8,0:0:0:0:
256,192,85713,1,8,0:0:0:0:
256,192,85810,1,0,0:0:0:0:
256,192,85907,1,0,0:0:0:0:
256,192,86004,1,8,0:0:0:0:
256,192,86100,1,8,0:0:0:0:
256,192,86391,1,0,0:0:0:0:
256,192,86487,1,8,0:0:0:0:
256,192,86681,1,8,0:0:0:0:
256,192,86778,1,0,0:0:0:0:
256,192,86874,1,8,0:0:0:0:
256,192,87262,1,8,0:0:0:0:
256,192,87455,1,0,0:0:0:0:
256,192,87552,1,8,0:0:0:0:
256,192,87649,1,0,0:0:0:0:
256,192,87745,1,0,0:0:0:0:
256,192,87939,1,0,0:0:0:0:
256,192,88036,1,0,0:0:0:0:
256,192,88229,1,8,0:0:0:0:
256,192,88423,1,8,0:0:0:0:
256,192,88520,1,8,0:0:0:0:
256,192,88616,1,8,0:0:0:0:
256,192,88713,1,8,0:0:0:0:
256,192,88810,1,0,0:0:0:0:
256,192,89004,1,0,0:0:0:0:
256,192,89100,1,8,0:0:0:0:
256,192,89197,1,8,0:0:0:0:
256,192,89391,1,0,0:0:0:0:
256,192,89487,1,8,0:0:0:0:
256,192,89584,1,0,0:0:0:0:
256,192,89778,1,0,0:0:0:0:
256,192,89971,1,8,0:0:0:0:
256,192,90262,1,0,0:0:0:0:
256,192,90358,1,8,0:0:0:0:
256,192,90552,1,0,0:0:0:0:
256,192,90649,1,0,0:0:0:0:
256,192,90745,1,8,0:0:0:0:
256,192,90939,1,0,0:0:0:0:
256,192,91036,1,8,0:0:0:0:
256,192,91229,1,0,0:0:0:0:
256,192,91326,1,8,0:0:0:0:
256,192,91520,1,0,0:0:0:0:
256,192,91907,1,8,0:0:0:0:
256,192,92100,1,0,0:0:0:0:
256,192,92197,1,0,0:0:0:0:
256,192,92294,1,8,0:0:0:0:
256,192,92487,1,8,0:0:0:0:
256,192,92584,1,8,0:0:0:0:
256,192,92681,1,0,0:0:0:0:
256,192,92778,1,0,0:0:0:0:
256,192,92874,1,8,0:0:0:0:
256,192,93068,1,8,0:0:0:0:
256,192,93262,1,8,0:0:0:0:
256,192,93358,1,0,0:0:0:0:
256,192,93455,1,0,0:0:0:0:
256,192,93552,1,0,0:0:0:0:
256,192,93649,1,8,0:0:0:0:
256,192,93842,1,8,0:0:0:0:
256,192,94133,1,0,0:0:0:0:
256,192,94423,1,8,0:0:0:0:
256,192,95003,1,8,0:0:0:0:
256,192,95197,1,0,0:0:0:0:
256,192,95391,1,12,0:0:0:0:
256,192,95584,1,0,0:0:0:0:
256,192,95778,1,8,0:0:0:0:
256,192,95971,1,0,0:0:0:0:
256,192,96068,1,0,0:0:0:0:
256,192,96165,1,8,0:0:0:0:
256,192,96455,1,8,0:0:0:0:
256,192,96552,1,0,0:0:0:0:
256,192,96745,1,0,0:0:0:0:
256,192,96842,1,8,0:0:0:0:
256,192,96939,1,8,0:0:0:0:
256,192,97133,1,8,0:0:0:0:
256,192,97229,1,0,0:0:0:0:
256,192,97326,1,8,0:0:0:0:
256,192,97520,1,8,0:0:0:0:
256,192,97907,1,8,0:0:0:0:
256,192,98100,1,8,0:0:0:0:
256,192,98197,1,0,0:0:0:0:
256,192,98294,1,0,0:0:0:0:
256,192,98391,1,8,0:0:0:0:
256,192,98487,1,8,0:0:0:0:
256,192,98778,1,0,0:0:0:0:
256,192,98874,1,8,0:0:0:0:
256,192,99068,1,8,0:0:0:0:
256,192,99165,1,0,0:0:0:0:
256,192,99262,1,8,0:0:0:0:
256,192,99649,1,8,0:0:0:0:
256,192,99842,1,0,0:0:0:0:
256,192,99939,1,8,0:0:0:0:
256,192,100036,1,0,0:0:0:0:
256,192,100133,1,0,0:0:0:0:
256,192,100326,1,0,0:0:0:0:
256,192,100423,1,0,0:0:0:0:
256,192,100616,1,8,0:0:0:0:
256,192,100810,1,8,0:0:0:0:
256,192,100907,1,8,0:0:0:0:
256,192,101003,1,8,0:0:0:0:
256,192,101100,1,8,0:0:0:0:
256,192,101197,1,0,0:0:0:0:
256,192,101391,1,0,0:0:0:0:
256,192,101487,1,8,0:0:0:0:
256,192,101584,1,8,0:0:0:0:
256,192,101778,1,0,0:0:0:0:
256,192,101971,1,0,0:0:0:0:
256,192,102165,1,0,0:0:0:0:
256,192,102262,1,0,0:0:0:0:
256,192,102358,1,8,0:0:0:0:
256,192,102649,1,0,0:0:0:0:
256,192,102745,1,8,0:0:0:0:
256,192,102939,1,0,0:0:0:0:
256,192,103133,1,8,0:0:0:0:
256,192,103326,1,0,0:0:0:0:
256,192,103423,1,8,0:0:0:0:
256,192,103616,1,0,0:0:0:0:
256,192,103713,1,8,0:0:0:0:
256,192,103907,1,0,0:0:0:0:
256,192,104294,1,8,0:0:0:0:
256,192,104487,1,0,0:0:0:0:
256,192,104584,1,0,0:0:0:0:
256,192,104681,1,8,0:0:0:0:
256,192,104874,1,8,0:0:0:0:
256,192,104971,1,8,0:0:0:0:
256,192,105068,1,0,0:0:0:0:
256,192,105262,1,8,0:0:0:0:
256,192,105358,1,0,0:0:0:0:
256,192,105455,1,8,0:0:0:0:
256,192,105649,1,0,0:0:0:0:
256,192,105745,1,8,0:0:0:0:
256,192,105842,1,0,0:0:0:0:
256,192,105939,1,0,0:0:0:0:
256,192,106036,1,8,0:0:0:0:
256,192,106229,1,8,0:0:0:0:
256,192,106520,1,0,0:0:0:0:
256,192,106810,1,8,0:0:0:0:
256,192,107391,1,8,0:0:0:0:
256,192,107487,1,8,0:0:0:0:
256,192,107584,1,0,0:0:0:0:
256,192,107681,1,0,0:0:0:0:
256,192,107778,1,8,0:0:0:0:
256,192,107971,1,8,0:0:0:0:
256,192,108068,1,8,0:0:0:0:
256,192,108165,1,0,0:0:0:0:
256,192,108262,1,8,0:0:0:0:
256,192,108455,1,0,0:0:0:0:
256,192,108552,1,0,0:0:0:0:
256,192,108745,1,8,0:0:0:0:
256,192,108939,1,0,0:0:0:0:
256,192,109036,1,8,0:0:0:0:
256,192,109133,1,8,0:0:0:0:
256,192,109326,1,8,0:0:0:0:
256,192,109423,1,8,0:0:0:0:
256,192,109520,1,0,0:0:0:0:
256,192,109713,1,8,0:0:0:0:
256,192,109810,1,8,0:0:0:0:
256,192,109907,1,0,0:0:0:0:
256,192,110003,1,0,0:0:0:0:
256,192,110100,1,8,0:0:0:0:
256,192,110487,1,8,0:0:0:0:
256,192,110681,1,0,0:0:0:0:
256,192,110874,1,8,0:0:0:0:
256,192,110971,1,8,0:0:0:0:
256,192,111068,1,8,0:0:0:0:
256,192,111165,1,0,0:0:0:0:
256,192,111358,1,0,0:0:0:0:
256,192,111455,1,8,0:0:0:0:
256,192,111649,1,8,0:0:0:0:
256,192,111842,1,8,0:0:0:0:
256,192,111939,1,8,0:0:0:0:
256,192,112036,1,0,0:0:0:0:
256,192,112229,1,8,0:0:0:0:
256,192,112326,1,8,0:0:0:0:
256,192,112423,1,0,0:0:0:0:
256,192,112616,1,8,0:0:0:0:
256,192,112713,1,8,0:0:0:0:
256,192,112810,1,0,0:0:0:0:
256,192,112907,1,8,0:0:0:0:
256,192,113003,1,0,0:0:0:0:
256,192,113197,1,0,0:0:0:0:
256,192,113294,1,0,0:0:0:0:
256,192,113391,1,8,0:0:0:0:
256,192,113584,1,12,0:0:0:0:
256,192,113971,1,8,0:0:0:0:
256,192,114068,1,0,0:0:0:0:
256,192,114165,1,8,0:0:0:0:
256,192,114262,1,0,0:0:0:0:
256,192,114358,1,8,0:0:0:0:
256,192,114552,1,0,0:0:0:0:
256,192,114745,1,8,0:0:0:0:
256,192,114939,1,8,0:0:0:0:
256,192,115036,1,0,0:0:0:0:
256,192,115133,1,8,0:0:0:0:
256,192,115326,1,0,0:0:0:0:
256,192,115423,1,0,0:0:0:0:
256,192,115520,1,8,0:0:0:0:
256,192,115810,1,8,0:0:0:0:
256,192,116100,1,8,0:0:0:0:
256,192,116197,1,0,0:0:0:0:
256,192,116294,1,8,0:0:0:0:
256,192,116487,1,0,0:0:0:0:
256,192,116584,1,0,0:0:0:0:
256,192,116681,1,8,0:0:0:0:
256,192,116874,1,0,0:0:0:0:
256,192,116971,1,0,0:0:0:0:
256,192,117068,1,8,0:0:0:0:
256,192,117262,1,0,0:0:0:0:
256,192,117358,1,8,0:0:0:0:
256,192,117455,1,8,0:0:0:0:
256,192,117552,1,8,0:0:0:0:
256,192,117649,1,8,0:0:0:0:
256,192,117842,1,0,0:0:0:0:
256,192,117939,1,8,0:0:0:0:
256,192,118036,1,0,0:0:0:0:
256,192,118133,1,0,0:0:0:0:
256,192,118229,1,8,0:0:0:0:
256,192,118423,1,0,0:0:0:0:
256,192,118616,1,8,0:0:0:0:
256,192,118810,1,8,0:0:0:0:
256,192,118907,1,0,0:0:0:0:
256,192,119100,1,0,0:0:0:0:
256,192,119197,1,8,0:0:0:0:
256,192,119391,1,0,0:0:0:0:
256,192,119487,1,0,0:0:0:0:
256,192,119584,1,0,0:0:0:0:
256,192,119778,1,12,0:0:0:0:
256,192,120165,1,4,0:0:0:0:
