osu file format v14

[General]
AudioFilename: hades.ogg
AudioLeadIn: 0
PreviewTime: 82845
Countdown: 0
SampleSet: Normal
StackLeniency: 0.7
Mode: 1
LetterboxInBreaks: 0
WidescreenStoryboard: 1

[Editor]
Bookmarks: 72200
DistanceSpacing: 0.2
BeatDivisor: 4
GridSize: 32
TimelineZoom: 2.2

[Metadata]
Title:HADES
TitleUnicode:HADES
Artist:Massive New Krew
ArtistUnicode:Massive New Krew
Creator:Dtnt0r
Version:Kantan
Source:beatmania IIDX 24 SINOBUZ
Tags:Hardstyle bms electronic 2dx 25 cannon ballers original soundtrack hardcore mnk instrumental video game crew
BeatmapID:3098288
BeatmapSetID:1511210

[Difficulty]
HPDrainRate:8
CircleSize:5
OverallDifficulty:2.5
ApproachRate:5
SliderMultiplier:1.4
SliderTickRate:1

[Events]
//Background and Video events
0,0,"new bg.jpg",0,0
//Break Periods
//Storyboard Layer 0 (Background)
//Storyboard Layer 1 (Fail)
//Storyboard Layer 2 (Pass)
//Storyboard Layer 3 (Foreground)
//Storyboard Layer 4 (Overlay)
//Storyboard Sound Samples

[TimingPoints]
2491,387.096774193548,4,1,0,100,1,0
5587,-100,4,1,0,30,0,0
8684,-100,4,1,0,100,0,0
24168,387.096774193548,4,1,0,100,1,0
39651,387.096774193548,4,1,0,100,1,0
55134,387.096774193548,4,1,0,65,1,0
69069,-100,4,1,0,75,0,0
70617,-100,4,1,0,100,0,0
72166,-100,4,1,0,75,0,0
73714,-100,4,1,0,100,0,0
83004,387.096774193548,4,1,0,100,1,1
107778,-100,4,1,0,100,0,0

[HitObjects]
256,192,942,5,4,0:0:0:0:
256,192,2491,1,8,0:0:0:0:
256,192,3265,1,0,0:0:0:0:
256,192,4039,1,8,0:0:0:0:
256,192,4813,1,0,0:0:0:0:
256,192,5200,1,0,0:0:0:0:
256,192,5587,1,8,0:0:0:0:
256,192,6168,1,8,0:0:0:0:
256,192,6749,1,0,0:0:0:0:
256,192,7136,1,8,0:0:0:0:
256,192,7716,1,8,0:0:0:0:
256,192,8684,1,8,0:0:0:0:
256,192,9458,1,8,0:0:0:0:
256,192,9845,1,0,0:0:0:0:
256,192,10232,1,8,0:0:0:0:
256,192,10813,1,8,0:0:0:0:
256,192,11781,1,8,0:0:0:0:
256,192,12555,1,8,0:0:0:0:
256,192,13329,1,8,0:0:0:0:
256,192,13910,1,8,0:0:0:0:
256,192,14878,1,12,0:0:0:0:
256,192,15652,1,8,0:0:0:0:
256,192,16426,1,8,0:0:0:0:
256,192,16813,1,0,0:0:0:0:
256,192,17200,1,8,0:0:0:0:
256,192,17974,1,0,0:0:0:0:
256,192,18361,1,0,0:0:0:0:
256,192,18749,1,8,0:0:0:0:
256,192,19523,1,8,0:0:0:0:
256,192,19910,1,0,0:0:0:0:
256,192,20297,1,8,0:0:0:0:
256,192,20684,1,8,0:0:0:0:
256,192,21071,1,0,0:0:0:0:
256,192,21845,1,8,0:0:0:0:
256,192,22620,5,0,0:0:0:0:
256,192,24168,1,4,0:0:0:0:
256,192,24555,1,8,0:0:0:0:
256,192,25329,1,8,0:0:0:0:
256,192,25716,1,0,0:0:0:0:
256,192,26103,1,8,0:0:0:0:
256,192,26877,1,0,0:0:0:0:
256,192,27264,1,0,0:0:0:0:
256,192,27651,1,8,0:0:0:0:
256,192,28426,1,8,0:0:0:0:
256,192,28813,1,4,0:0:0:0:
256,192,29974,1,8,0:0:0:0:
256,192,30361,1,0,0:0:0:0:
256,192,30748,1,8,0:0:0:0:
256,192,31522,1,8,0:0:0:0:
256,192,31909,1,0,0:0:0:0:
256,192,32297,1,8,0:0:0:0:
256,192,33071,1,0,0:0:0:0:
256,192,33458,1,0,0:0:0:0:
256,192,33845,1,8,0:0:0:0:
256,192,34426,1,8,0:0:0:0:
256,192,35006,1,12,0:0:0:0:
256,192,36555,1,8,0:0:0:0:
256,192,36942,1,0,0:0:0:0:
256,192,37329,1,8,0:0:0:0:
256,192,38103,1,0,0:0:0:0:
256,192,38490,1,0,0:0:0:0:
256,192,38877,1,8,0:0:0:0:
256,192,39651,1,4,0:0:0:0:
256,192,40425,1,12,0:0:0:0:
256,192,40812,1,0,0:0:0:0:
256,192,41586,1,0,0:0:0:0:
256,192,41973,1,12,0:0:0:0:
256,192,42360,1,8,0:0:0:0:
256,192,42747,1,4,0:0:0:0:
256,192,43521,1,12,0:0:0:0:
256,192,43909,1,0,0:0:0:0:
256,192,44683,1,0,0:0:0:0:
256,192,45070,1,8,0:0:0:0:
256,192,45844,1,4,0:0:0:0:
256,192,46618,1,12,0:0:0:0:
256,192,47005,1,0,0:0:0:0:
256,192,47586,1,0,0:0:0:0:
256,192,48167,1,8,0:0:0:0:
256,192,48941,1,8,0:0:0:0:
256,192,49521,1,8,0:0:0:0:
256,192,50102,1,8,0:0:0:0:
256,192,50489,1,8,0:0:0:0:
256,192,51263,2,0,L|192:224,3,70
256,192,52038,1,0,0:0:0:0:
256,192,52812,1,0,0:0:0:0:
256,192,53586,1,8,0:0:0:0:
256,192,53973,1,8,0:0:0:0:
256,192,54360,1,8,0:0:0:0:
256,192,54747,1,0,0:0:0:0:
256,192,55134,1,12,0:0:0:0:
256,192,55908,1,8,0:0:0:0:
256,192,56682,1,8,0:0:0:0:
256,192,57456,1,8,0:0:0:0:
256,192,57843,1,8,0:0:0:0:
256,192,58230,1,8,0:0:0:0:
256,192,59004,1,0,0:0:0:0:
256,192,59779,1,8,0:0:0:0:
256,192,60166,1,0,0:0:0:0:
256,192,60553,1,8,0:0:0:0:
256,192,61327,1,8,0:0:0:0:
256,192,62101,1,8,0:0:0:0:
256,192,62875,1,0,0:0:0:0:
256,192,63456,1,8,0:0:0:0:
256,192,64424,1,8,0:0:0:0:
256,192,65198,1,8,0:0:0:0:
256,192,65585,1,0,0:0:0:0:
256,192,65972,1,8,0:0:0:0:
256,192,67521,5,12,0:0:0:0:
256,192,68682,1,8,0:0:0:0:
256,192,69069,1,0,0:0:0:0:
256,192,69456,1,8,0:0:0:0:
256,192,70230,1,0,0:0:0:0:
256,192,70617,1,12,0:0:0:0:
256,192,71779,1,8,0:0:0:0:
256,192,72166,1,0,0:0:0:0:
256,192,72553,1,8,0:0:0:0:
256,192,73327,1,0,0:0:0:0:
256,192,73714,1,12,0:0:0:0:
256,192,74488,1,8,0:0:0:0:
256,192,75263,1,0,0:0:0:0:
256,192,76037,1,8,0:0:0:0:
256,192,76811,1,0,0:0:0:0:
256,192,77198,1,8,0:0:0:0:
256,192,77585,1,0,0:0:0:0:
256,192,78359,1,8,0:0:0:0:
256,192,78746,1,0,0:0:0:0:
256,192,79133,1,8,0:0:0:0:
256,192,79908,1,4,0:0:0:0:
256,192,80295,1,4,0:0:0:0:
256,192,80682,1,4,0:0:0:0:
256,192,81069,1,12,0:0:0:0:
256,192,82617,1,12,0:0:0:0:
256,192,83004,1,8,0:0:0:0:
256,192,83778,1,8,0:0:0:0:
256,192,84165,1,0,0:0:0:0:
256,192,84552,1,8,0:0:0:0:
256,192,85133,1,8,0:0:0:0:
256,192,85713,1,0,0:0:0:0:
256,192,86100,1,8,0:0:0:0:
256,192,86874,1,0,0:0:0:0:
256,192,87649,1,0,0:0:0:0:
256,192,88036,1,0,0:0:0:0:
256,192,88423,1,8,0:0:0:0:
256,192,89197,1,8,0:0:0:0:
256,192,89971,1,0,0:0:0:0:
256,192,90745,1,8,0:0:0:0:
256,192,91326,1,8,0:0:0:0:
256,192,92294,1,8,0:0:0:0:
256,192,93068,1,8,0:0:0:0:
256,192,93455,1,0,0:0:0:0:
256,192,93842,1,8,0:0:0:0:
256,192,94423,1,8,0:0:0:0:
256,192,95391,1,12,0:0:0:0:
256,192,96165,1,8,0:0:0:0:
256,192,96552,1,0,0:0:0:0:
256,192,96939,1,8,0:0:0:0:
256,192,97520,1,8,0:0:0:0:
256,192,98100,1,0,0:0:0:0:
256,192,98487,1,8,0:0:0:0:
256,192,99262,1,0,0:0:0:0:
256,192,100036,1,0,0:0:0:0:
256,192,100423,1,0,0:0:0:0:
256,192,100810,1,8,0:0:0:0:
256,192,101584,1,8,0:0:0:0:
256,192,102358,1,0,0:0:0:0:
256,192,103133,1,8,0:0:0:0:
256,192,103713,1,8,0:0:0:0:
256,192,104681,1,0,0:0:0:0:
256,192,105455,1,8,0:0:0:0:
256,192,105842,1,0,0:0:0:0:
256,192,106229,1,8,0:0:0:0:
256,192,106810,1,8,0:0:0:0:
256,192,107778,1,8,0:0:0:0:
256,192,108165,1,0,0:0:0:0:
256,192,108552,1,8,0:0:0:0:
256,192,109326,1,8,0:0:0:0:
256,192,109713,1,8,0:0:0:0:
256,192,110100,1,0,0:0:0:0:
256,192,110874,1,8,0:0:0:0:
256,192,111649,1,8,0:0:0:0:
256,192,112036,1,0,0:0:0:0:
256,192,112423,1,8,0:0:0:0:
256,192,113197,1,0,0:0:0:0:
256,192,113584,1,12,0:0:0:0:
256,192,113971,1,8,0:0:0:0:
256,192,114745,1,0,0:0:0:0:
256,192,115520,1,0,0:0:0:0:
256,192,116294,1,8,0:0:0:0:
256,192,117068,1,8,0:0:0:0:
256,192,117455,1,8,0:0:0:0:
256,192,117842,1,0,0:0:0:0:
256,192,118616,1,8,0:0:0:0:
256,192,119197,1,8,0:0:0:0:
256,192,119778,1,12,0:0:0:0:
256,192,120165,1,4,0:0:0:0:
