osu file format v14

[General]
AudioFilename: audio.mp3
AudioLeadIn: 0
PreviewTime: 82054
Countdown: 0
SampleSet: Soft
StackLeniency: 0.7
Mode: 3
LetterboxInBreaks: 0
SpecialStyle: 0
WidescreenStoryboard: 1

[Editor]
DistanceSpacing: 1
BeatDivisor: 4
GridSize: 32
TimelineZoom: 2.799999

[Metadata]
Title:HADES
TitleUnicode:HADES
Artist:Massive New Krew
ArtistUnicode:Massive New Krew
Creator:BluOxy
Version:EZ
Source:beatmania IIDX 24 SINOBUZ
Tags:Ryosuke Tachibana JAVELIN Kaito HARDSTYLE
BeatmapID:1782354
BeatmapSetID:852761

[Difficulty]
HPDrainRate:7.5
CircleSize:4
OverallDifficulty:7.5
ApproachRate:5
SliderMultiplier:1.4
SliderTickRate:1

[Events]
//Background and Video events
0,0,"hades.png",0,0
Video,0,"HADES.avi"
//Break Periods
//Storyboard Layer 0 (Background)
//Storyboard Layer 1 (Fail)
//Storyboard Layer 2 (Pass)
//Storyboard Layer 3 (Foreground)
//Storyboard Sound Samples

[TimingPoints]
1538,387.096774193548,4,2,1,12,1,0
15473,-100,4,2,2,12,0,0
35602,-100,4,2,1,12,0,0
42908,-100,4,2,3,36,0,0
42957,-100,4,2,1,12,0,0
43344,-100,4,2,2,12,0,0
44118,-100,4,2,1,12,0,0
52634,-100,4,2,2,12,0,0
55828,-100,4,2,0,12,0,0
68118,-100,4,2,2,12,0,0
80505,-100,4,2,1,12,0,0
83602,-100,4,1,1,12,0,1
107989,-100,4,2,2,12,0,1
108376,-100,4,2,2,12,0,0
120763,-100,4,1,1,12,0,0

[HitObjects]
64,192,1538,128,4,2892:0:0:0:0:
192,192,1538,128,0,2892:0:0:0:0:
64,192,3086,1,2,0:0:0:0:
192,192,3086,1,6,0:0:0:0:
448,192,3667,1,2,0:0:0:0:
320,192,3763,1,2,0:0:0:0:
192,192,3860,1,2,0:0:0:0:
64,192,3860,1,2,0:0:0:0:
320,192,4441,1,2,0:0:0:0:
192,192,4537,1,2,0:0:0:0:
64,192,4634,1,2,0:0:0:0:
320,192,4634,1,2,0:0:0:0:
320,192,5215,1,8,0:0:0:0:
192,192,5312,1,8,0:0:0:0:
320,192,5408,1,8,0:0:0:0:
192,192,5505,1,8,0:0:0:0:
448,192,5699,1,8,0:0:0:0:
64,192,5796,1,0,0:0:0:0:
320,192,5989,1,8,0:0:0:0:
64,192,6183,1,2,0:0:0:0:
192,192,6279,1,0,0:0:0:0:
320,192,6376,1,0,0:0:0:0:
192,192,6473,1,0,0:0:0:0:
320,192,6570,1,0,0:0:0:0:
448,192,6667,1,0,0:0:0:0:
64,192,6763,1,2,0:0:0:0:
192,192,6860,1,0,0:0:0:0:
320,192,6957,1,0,0:0:0:0:
192,192,7054,1,0,0:0:0:0:
320,192,7150,1,0,0:0:0:0:
448,192,7247,1,0,0:0:0:0:
64,192,7344,1,2,0:0:0:0:
192,192,7441,1,0,0:0:0:0:
320,192,7537,1,0,0:0:0:0:
192,192,7634,1,0,0:0:0:0:
448,192,7731,1,2,0:0:0:0:
192,192,7828,1,0,0:0:0:0:
320,192,7925,1,0,0:0:0:0:
192,192,8021,1,0,0:0:0:0:
320,192,8118,1,0,0:0:0:0:
64,192,8215,1,0,0:0:0:0:
448,192,8312,1,2,0:0:0:0:
192,192,8408,1,0,0:0:0:0:
320,192,8505,1,0,0:0:0:0:
192,192,8602,1,0,0:0:0:0:
320,192,8699,1,0,0:0:0:0:
64,192,8796,1,0,0:0:0:0:
448,192,8892,1,2,0:0:0:0:
320,192,8957,1,0,0:0:0:0:
192,192,9021,1,0,0:0:0:0:
64,192,9086,1,0,0:0:0:0:
64,192,9279,1,2,0:0:0:0:
192,192,9279,1,6,0:0:0:0:
192,192,9570,1,2,0:0:0:0:
320,192,9570,1,2,0:0:0:0:
64,192,9860,1,2,0:0:0:0:
448,192,9860,1,2,0:0:0:0:
320,192,10054,1,2,0:0:0:0:
64,192,10054,1,2,0:0:0:0:
64,192,10344,1,2,0:0:0:0:
448,192,10344,1,2,0:0:0:0:
192,192,10634,1,2,0:0:0:0:
448,192,10634,1,2,0:0:0:0:
320,192,10828,1,2,0:0:0:0:
448,192,10828,1,2,0:0:0:0:
192,192,11118,1,2,0:0:0:0:
448,192,11118,1,2,0:0:0:0:
448,192,11408,128,2,11989:0:0:0:0:
64,192,11408,1,2,0:0:0:0:
64,192,11796,1,8,0:0:0:0:
320,192,11989,1,0,0:0:0:0:
192,192,12183,1,0,0:0:0:0:
64,192,12183,128,0,13150:0:0:0:0:
448,192,12376,1,8,0:0:0:0:
320,192,12376,1,8,0:0:0:0:
192,192,12667,1,0,0:0:0:0:
448,192,12957,1,0,0:0:0:0:
192,192,13150,128,0,13925:0:0:0:0:
320,192,13150,128,8,13925:0:0:0:0:
448,192,13925,1,2,0:0:0:0:
64,192,14118,1,2,0:0:0:0:
192,192,14215,1,2,0:0:0:0:
448,192,14408,1,2,0:0:0:0:
320,192,14505,1,2,0:0:0:0:
64,192,14699,1,8,0:0:0:0:
192,192,14699,1,8,0:0:0:0:
320,192,14989,1,8,0:0:0:0:
448,192,14989,1,8,0:0:0:0:
64,192,15183,1,8,0:0:0:0:
448,192,15183,1,8,0:0:0:0:
192,192,15279,1,8,0:0:0:0:
320,192,15279,1,8,0:0:0:0:
192,192,15473,1,8,0:0:0:0:
64,192,15473,1,14,0:0:0:0:
320,192,15763,1,10,0:0:0:0:
64,192,15860,1,10,0:0:0:0:
320,192,16054,1,2,0:0:0:0:
448,192,16054,1,0,0:0:0:0:
64,192,16247,1,8,0:0:0:0:
192,192,16247,1,10,0:0:0:0:
448,192,16344,1,0,0:0:0:0:
320,192,16441,1,0,0:0:0:0:
192,192,16537,1,2,0:0:0:0:
448,192,16634,1,8,0:0:0:0:
64,192,16634,1,10,0:0:0:0:
320,192,16828,1,2,0:0:0:0:
192,192,17021,1,8,0:0:0:0:
64,192,17021,1,10,0:0:0:0:
320,192,17215,1,8,0:0:0:0:
192,192,17408,1,8,0:0:0:0:
320,192,17602,1,8,0:0:0:0:
64,192,17796,1,8,0:0:0:0:
192,192,17796,1,8,0:0:0:0:
448,192,17989,1,8,0:0:0:0:
64,192,18183,1,8,0:0:0:0:
448,192,18376,1,8,0:0:0:0:
64,192,18570,1,8,0:0:0:0:
192,192,18570,1,8,0:0:0:0:
448,192,18667,1,8,0:0:0:0:
320,192,18763,1,8,0:0:0:0:
192,192,18860,1,8,0:0:0:0:
448,192,18957,1,8,0:0:0:0:
64,192,19054,1,8,0:0:0:0:
192,192,19150,1,8,0:0:0:0:
320,192,19247,1,8,0:0:0:0:
64,192,19344,1,8,0:0:0:0:
448,192,19441,1,8,0:0:0:0:
320,192,19537,1,8,0:0:0:0:
192,192,19634,1,8,0:0:0:0:
448,192,19731,1,8,0:0:0:0:
64,192,19828,1,8,0:0:0:0:
192,192,19925,1,8,0:0:0:0:
320,192,20021,1,8,0:0:0:0:
64,192,20118,1,8,0:0:0:0:
192,192,20247,1,8,0:0:0:0:
64,192,20376,1,8,0:0:0:0:
448,192,20505,1,8,0:0:0:0:
320,192,20634,1,8,0:0:0:0:
448,192,20763,1,8,0:0:0:0:
64,192,20892,1,8,0:0:0:0:
448,192,21021,1,0,0:0:0:0:
64,192,21150,1,8,0:0:0:0:
448,192,21279,1,8,0:0:0:0:
64,192,21408,1,8,0:0:0:0:
448,192,21537,1,8,0:0:0:0:
448,192,21860,128,2,22054:0:0:0:0:
192,192,22054,1,2,0:0:0:0:
320,192,22150,1,2,0:0:0:0:
64,192,22247,128,2,22441:0:0:0:0:
192,192,22441,128,2,22634:0:0:0:0:
64,192,22634,128,2,22828:0:0:0:0:
320,192,22828,128,2,23021:0:0:0:0:
448,192,23021,128,2,23215:0:0:0:0:
192,192,23215,1,0,0:0:0:0:
64,192,23408,1,0,0:0:0:0:
192,192,23602,128,0,23989:0:0:0:0:
448,192,23989,128,0,24376:0:0:0:0:
320,192,24376,1,0,0:0:0:0:
192,192,24763,1,12,0:0:0:0:
64,192,24763,1,10,0:0:0:0:
320,192,25054,1,2,0:0:0:0:
64,192,25150,1,8,0:0:0:0:
192,192,25150,1,8,0:0:0:0:
320,192,25247,1,0,0:0:0:0:
448,192,25344,1,2,0:0:0:0:
320,192,25537,1,10,0:0:0:0:
64,192,25537,1,8,0:0:0:0:
192,192,25731,1,2,0:0:0:0:
448,192,25731,1,0,0:0:0:0:
448,192,25925,1,8,0:0:0:0:
64,192,25925,1,10,0:0:0:0:
192,192,26118,1,2,0:0:0:0:
320,192,26118,1,0,0:0:0:0:
192,192,26312,1,10,0:0:0:0:
64,192,26312,1,8,0:0:0:0:
320,192,26602,1,2,0:0:0:0:
64,192,26699,1,8,0:0:0:0:
192,192,26699,1,10,0:0:0:0:
320,192,26796,1,2,0:0:0:0:
448,192,26892,1,2,0:0:0:0:
320,192,27086,1,10,0:0:0:0:
448,192,27086,1,8,0:0:0:0:
192,192,27279,1,2,0:0:0:0:
64,192,27279,1,0,0:0:0:0:
192,192,27473,1,10,0:0:0:0:
320,192,27473,1,8,0:0:0:0:
448,192,27667,1,8,0:0:0:0:
320,192,27667,1,10,0:0:0:0:
192,192,27860,1,8,0:0:0:0:
64,192,27860,1,10,0:0:0:0:
192,192,28150,1,2,0:0:0:0:
320,192,28247,1,8,0:0:0:0:
448,192,28247,1,8,0:0:0:0:
192,192,28344,1,2,0:0:0:0:
64,192,28441,1,2,0:0:0:0:
192,192,28634,1,10,0:0:0:0:
448,192,28634,1,8,0:0:0:0:
64,192,28828,1,0,0:0:0:0:
320,192,28828,1,2,0:0:0:0:
64,192,29021,1,8,0:0:0:0:
448,192,29021,1,10,0:0:0:0:
192,192,29215,1,0,0:0:0:0:
320,192,29215,1,2,0:0:0:0:
64,192,29408,1,2,0:0:0:0:
192,192,29699,1,2,0:0:0:0:
320,192,29796,1,0,0:0:0:0:
192,192,29892,1,2,0:0:0:0:
64,192,29989,1,2,0:0:0:0:
64,192,30279,1,2,0:0:0:0:
192,192,30376,1,2,0:0:0:0:
320,192,30473,1,2,0:0:0:0:
192,192,30570,1,10,0:0:0:0:
320,192,30667,1,10,0:0:0:0:
448,192,30763,1,10,0:0:0:0:
64,192,30957,1,8,0:0:0:0:
448,192,30957,1,10,0:0:0:0:
192,192,31054,1,8,0:0:0:0:
320,192,31054,1,8,0:0:0:0:
192,192,31247,1,10,0:0:0:0:
320,192,31247,1,8,0:0:0:0:
64,192,31344,1,10,0:0:0:0:
448,192,31344,1,8,0:0:0:0:
192,192,31537,1,0,0:0:0:0:
64,192,31537,1,2,0:0:0:0:
320,192,31731,1,10,0:0:0:0:
448,192,31731,1,8,0:0:0:0:
64,192,31925,1,0,0:0:0:0:
448,192,31925,1,2,0:0:0:0:
192,192,32118,1,8,0:0:0:0:
320,192,32118,1,10,0:0:0:0:
448,192,32312,1,0,0:0:0:0:
192,192,32312,1,2,0:0:0:0:
320,192,32505,1,10,0:0:0:0:
448,192,32505,1,8,0:0:0:0:
192,192,32796,1,2,0:0:0:0:
320,192,32892,1,8,0:0:0:0:
448,192,32892,1,8,0:0:0:0:
192,192,32989,1,2,0:0:0:0:
64,192,33086,1,2,0:0:0:0:
192,192,33279,1,8,0:0:0:0:
320,192,33279,1,10,0:0:0:0:
320,192,33473,1,8,0:0:0:0:
448,192,33473,1,10,0:0:0:0:
64,192,33570,1,8,0:0:0:0:
192,192,33570,1,8,0:0:0:0:
320,192,33667,1,8,0:0:0:0:
448,192,33667,1,10,0:0:0:0:
192,192,33860,1,10,0:0:0:0:
320,192,33957,1,8,0:0:0:0:
192,192,34054,1,8,0:0:0:0:
64,192,34054,1,10,0:0:0:0:
448,192,34247,1,8,0:0:0:0:
320,192,34247,1,10,0:0:0:0:
192,192,34344,1,8,0:0:0:0:
64,192,34344,1,8,0:0:0:0:
448,192,34441,1,8,0:0:0:0:
320,192,34441,1,10,0:0:0:0:
64,192,34634,1,8,0:0:0:0:
192,192,34634,1,10,0:0:0:0:
320,192,35021,1,10,0:0:0:0:
448,192,35021,1,8,0:0:0:0:
64,192,35408,1,10,0:0:0:0:
192,192,35408,1,8,0:0:0:0:
192,192,35602,1,10,0:0:0:0:
448,192,35602,1,12,0:0:0:0:
64,192,35892,1,8,0:0:0:0:
320,192,35892,1,10,0:0:0:0:
448,192,36183,128,10,36763:0:0:0:0:
64,192,36183,1,8,0:0:0:0:
64,192,36570,1,8,0:0:0:0:
192,192,36667,1,8,0:0:0:0:
320,192,36763,1,8,0:0:0:0:
448,192,36957,1,8,0:0:0:0:
320,192,37054,1,8,0:0:0:0:
192,192,37150,1,8,0:0:0:0:
64,192,37150,1,4,0:0:0:0:
320,192,37537,1,0,0:0:0:0:
192,192,37634,1,0,0:0:0:0:
448,192,37731,128,0,37925:0:0:0:0:
320,192,37925,1,0,0:0:0:0:
192,192,38021,1,0,0:0:0:0:
64,192,38118,128,0,38312:0:0:0:0:
64,192,38505,128,0,38699:0:0:0:0:
320,192,38699,1,8,0:0:0:0:
448,192,38796,1,8,0:0:0:0:
192,192,38892,1,8,0:0:0:0:
64,192,38989,1,8,0:0:0:0:
320,192,39086,1,8,0:0:0:0:
448,192,39183,1,8,0:0:0:0:
192,192,39279,1,8,0:0:0:0:
64,192,39376,1,8,0:0:0:0:
320,192,39473,1,2,0:0:0:0:
64,192,39667,1,2,0:0:0:0:
448,192,39860,1,2,0:0:0:0:
192,192,40054,1,2,0:0:0:0:
320,192,40247,1,6,0:0:0:0:
192,192,40441,1,2,0:0:0:0:
448,192,40634,1,2,0:0:0:0:
64,192,40828,1,2,0:0:0:0:
448,192,41021,1,8,0:0:0:0:
192,192,41021,1,2,0:0:0:0:
192,192,41215,1,2,0:0:0:0:
192,192,41408,1,2,0:0:0:0:
320,192,41602,1,0,0:0:0:0:
192,192,41699,1,0,0:0:0:0:
448,192,41989,1,2,0:0:0:0:
448,192,42183,1,2,0:0:0:0:
448,192,42376,1,2,0:0:0:0:
64,192,42570,1,8,0:0:0:0:
320,192,42570,1,2,0:0:0:0:
64,192,42763,1,2,0:0:0:0:
448,192,42933,1,2,0:0:0:0:
320,192,42957,1,2,0:0:0:0:
64,192,43150,1,2,0:0:0:0:
448,192,43344,1,8,0:0:0:0:
320,192,43344,1,8,0:0:0:0:
192,192,43537,1,8,0:0:0:0:
64,192,43537,1,8,0:0:0:0:
448,192,43731,1,8,0:0:0:0:
320,192,43731,1,8,0:0:0:0:
64,192,43828,1,8,0:0:0:0:
192,192,43828,1,8,0:0:0:0:
320,192,43925,1,8,0:0:0:0:
448,192,43925,1,8,0:0:0:0:
64,192,44118,1,8,0:0:0:0:
320,192,44118,1,2,0:0:0:0:
448,192,44312,1,2,0:0:0:0:
64,192,44505,1,2,0:0:0:0:
192,192,44699,1,2,0:0:0:0:
64,192,44892,1,8,0:0:0:0:
448,192,44989,1,0,0:0:0:0:
64,192,45086,1,8,0:0:0:0:
448,192,45183,1,0,0:0:0:0:
64,192,45279,1,2,0:0:0:0:
320,192,45473,1,2,0:0:0:0:
448,192,45667,1,0,0:0:0:0:
448,192,45860,1,0,0:0:0:0:
448,192,46054,128,0,46441:0:0:0:0:
64,192,46441,1,4,0:0:0:0:
192,192,46441,1,2,0:0:0:0:
320,192,46634,1,2,0:0:0:0:
64,192,46828,1,2,0:0:0:0:
448,192,47021,1,2,0:0:0:0:
64,192,47215,1,8,0:0:0:0:
320,192,47215,1,2,0:0:0:0:
320,192,47408,1,2,0:0:0:0:
320,192,47602,1,2,0:0:0:0:
192,192,47796,1,2,0:0:0:0:
320,192,47892,128,0,48086:0:0:0:0:
64,192,48183,1,2,0:0:0:0:
64,192,48376,1,2,0:0:0:0:
64,192,48570,1,2,0:0:0:0:
448,192,48763,128,0,48957:0:0:0:0:
320,192,48957,128,0,49150:0:0:0:0:
64,192,49150,128,0,49344:0:0:0:0:
192,192,49344,128,0,49537:0:0:0:0:
320,192,49537,1,12,0:0:0:0:
448,192,49537,1,8,0:0:0:0:
64,192,49828,1,8,0:0:0:0:
192,192,49828,1,8,0:0:0:0:
320,192,49925,1,8,0:0:0:0:
192,192,50021,1,8,0:0:0:0:
320,192,50118,1,12,0:0:0:0:
448,192,50118,1,8,0:0:0:0:
64,192,50408,1,8,0:0:0:0:
192,192,50408,1,12,0:0:0:0:
448,192,50699,128,8,51086:0:0:0:0:
320,192,50699,128,12,51086:0:0:0:0:
192,192,51086,1,2,0:0:0:0:
448,192,51279,1,2,0:0:0:0:
320,192,51376,1,2,0:0:0:0:
64,192,51570,1,2,0:0:0:0:
192,192,51667,1,2,0:0:0:0:
64,192,51860,1,2,0:0:0:0:
448,192,51925,1,0,0:0:0:0:
320,192,51989,1,0,0:0:0:0:
192,192,52054,1,0,0:0:0:0:
64,192,52118,1,0,0:0:0:0:
448,192,52183,1,0,0:0:0:0:
320,192,52247,1,0,0:0:0:0:
192,192,52312,1,0,0:0:0:0:
64,192,52376,1,0,0:0:0:0:
448,192,52441,1,0,0:0:0:0:
320,192,52505,1,0,0:0:0:0:
192,192,52570,1,0,0:0:0:0:
64,192,52634,1,14,0:0:0:0:
448,192,52731,1,0,0:0:0:0:
192,192,52828,1,0,0:0:0:0:
320,192,52925,1,0,0:0:0:0:
64,192,53021,1,0,0:0:0:0:
64,192,53215,1,2,0:0:0:0:
448,192,53312,1,0,0:0:0:0:
192,192,53408,1,0,0:0:0:0:
64,192,53505,1,0,0:0:0:0:
320,192,53602,1,0,0:0:0:0:
320,192,53796,1,2,0:0:0:0:
448,192,53892,1,0,0:0:0:0:
192,192,53989,1,0,0:0:0:0:
320,192,54086,1,0,0:0:0:0:
192,192,54183,1,10,0:0:0:0:
64,192,54183,1,8,0:0:0:0:
448,192,54376,1,0,0:0:0:0:
320,192,54473,1,0,0:0:0:0:
192,192,54570,1,10,0:0:0:0:
64,192,54570,1,8,0:0:0:0:
320,192,54763,1,0,0:0:0:0:
448,192,54860,1,0,0:0:0:0:
64,192,54957,1,10,0:0:0:0:
192,192,54957,1,8,0:0:0:0:
448,192,55150,1,0,0:0:0:0:
320,192,55247,1,0,0:0:0:0:
192,192,55344,1,10,0:0:0:0:
64,192,55344,1,8,0:0:0:0:
448,192,55408,1,0,0:0:0:0:
320,192,55473,1,0,0:0:0:0:
192,192,55537,1,0,0:0:0:0:
64,192,55602,1,0,0:0:0:0:
320,192,55731,1,14,0:0:0:0:
448,192,55731,1,10,0:0:0:0:
192,192,56118,1,8,0:0:0:0:
64,192,56118,1,8,0:0:0:0:
320,192,56312,1,2,0:0:0:0:
192,192,56408,1,2,0:0:0:0:
64,192,56505,1,10,0:0:0:0:
320,192,56505,1,2,0:0:0:0:
192,192,56892,1,8,0:0:0:0:
448,192,56892,1,8,0:0:0:0:
448,192,57086,1,2,0:0:0:0:
320,192,57183,1,2,0:0:0:0:
64,192,57279,128,10,58247:0:0:0:0:
192,192,57279,128,2,58247:0:0:0:0:
448,192,57667,1,8,0:0:0:0:
448,192,58054,1,8,0:0:0:0:
320,192,58247,1,8,0:0:0:0:
192,192,58344,1,8,0:0:0:0:
320,192,58441,1,8,0:0:0:0:
448,192,58441,1,8,0:0:0:0:
64,192,58634,1,10,0:0:0:0:
448,192,58731,1,10,0:0:0:0:
64,192,58828,1,2,0:0:0:0:
192,192,58828,1,10,0:0:0:0:
64,192,59118,1,2,0:0:0:0:
192,192,59118,1,2,0:0:0:0:
448,192,59215,1,8,0:0:0:0:
320,192,59408,1,2,0:0:0:0:
192,192,59505,1,2,0:0:0:0:
64,192,59602,128,10,59989:0:0:0:0:
320,192,59602,128,2,59989:0:0:0:0:
192,192,59989,1,8,0:0:0:0:
448,192,59989,1,8,0:0:0:0:
192,192,60183,1,2,0:0:0:0:
448,192,60183,1,2,0:0:0:0:
64,192,60376,1,2,0:0:0:0:
192,192,60376,1,10,0:0:0:0:
448,192,60570,1,8,0:0:0:0:
192,192,60667,1,2,0:0:0:0:
320,192,60667,1,2,0:0:0:0:
448,192,60763,1,8,0:0:0:0:
320,192,60957,1,2,0:0:0:0:
64,192,60957,1,2,0:0:0:0:
192,192,61150,1,8,0:0:0:0:
448,192,61150,128,2,61537:0:0:0:0:
64,192,61441,1,8,0:0:0:0:
192,192,61537,1,8,0:0:0:0:
448,192,61731,1,8,0:0:0:0:
320,192,61796,1,8,0:0:0:0:
192,192,61860,1,8,0:0:0:0:
64,192,61925,1,10,0:0:0:0:
448,192,61925,1,2,0:0:0:0:
64,192,62215,1,2,0:0:0:0:
192,192,62215,1,2,0:0:0:0:
448,192,62312,1,8,0:0:0:0:
192,192,62505,1,2,0:0:0:0:
320,192,62505,1,2,0:0:0:0:
192,192,62699,1,10,0:0:0:0:
64,192,62699,1,2,0:0:0:0:
320,192,62989,1,2,0:0:0:0:
448,192,62989,1,2,0:0:0:0:
64,192,63086,1,8,0:0:0:0:
192,192,63279,1,2,0:0:0:0:
320,192,63279,1,2,0:0:0:0:
64,192,63473,1,2,0:0:0:0:
192,192,63473,1,10,0:0:0:0:
64,192,63763,1,2,0:0:0:0:
192,192,63763,1,2,0:0:0:0:
448,192,63860,1,8,0:0:0:0:
64,192,64054,1,2,0:0:0:0:
192,192,64054,1,2,0:0:0:0:
448,192,64247,1,8,0:0:0:0:
320,192,64344,1,8,0:0:0:0:
64,192,64441,1,8,0:0:0:0:
192,192,64537,1,8,0:0:0:0:
448,192,64634,1,8,0:0:0:0:
64,192,64634,1,8,0:0:0:0:
192,192,64828,1,8,0:0:0:0:
320,192,64925,1,8,0:0:0:0:
64,192,65021,1,2,0:0:0:0:
192,192,65021,1,2,0:0:0:0:
64,192,65312,1,2,0:0:0:0:
192,192,65312,1,2,0:0:0:0:
448,192,65408,1,8,0:0:0:0:
64,192,65602,1,2,0:0:0:0:
192,192,65602,1,2,0:0:0:0:
320,192,65796,1,8,0:0:0:0:
192,192,65892,1,8,0:0:0:0:
320,192,65989,1,8,0:0:0:0:
192,192,66086,1,8,0:0:0:0:
320,192,66183,1,10,0:0:0:0:
448,192,66183,1,2,0:0:0:0:
64,192,66376,1,2,0:0:0:0:
448,192,66376,1,2,0:0:0:0:
64,192,66570,1,2,0:0:0:0:
192,192,66570,1,2,0:0:0:0:
320,192,66763,1,2,0:0:0:0:
448,192,66763,1,2,0:0:0:0:
64,192,66860,1,2,0:0:0:0:
192,192,66860,1,2,0:0:0:0:
320,192,67054,1,2,0:0:0:0:
448,192,67054,1,2,0:0:0:0:
64,192,67150,128,2,67925:0:0:0:0:
192,192,67150,128,2,67925:0:0:0:0:
320,192,68118,1,8,0:0:0:0:
448,192,68118,1,14,0:0:0:0:
64,192,68215,1,0,0:0:0:0:
192,192,68312,1,0,0:0:0:0:
320,192,68408,1,0,0:0:0:0:
64,192,68505,1,8,0:0:0:0:
192,192,68505,1,8,0:0:0:0:
192,192,68699,1,0,0:0:0:0:
64,192,68796,1,0,0:0:0:0:
320,192,68892,1,8,0:0:0:0:
64,192,68989,1,0,0:0:0:0:
448,192,69086,1,0,0:0:0:0:
320,192,69183,1,0,0:0:0:0:
192,192,69279,1,8,0:0:0:0:
64,192,69279,1,8,0:0:0:0:
320,192,69376,1,0,0:0:0:0:
192,192,69473,1,0,0:0:0:0:
64,192,69570,1,0,0:0:0:0:
448,192,69667,1,10,0:0:0:0:
64,192,69763,1,0,0:0:0:0:
192,192,69860,1,0,0:0:0:0:
320,192,69957,1,0,0:0:0:0:
192,192,70054,1,10,0:0:0:0:
64,192,70054,1,8,0:0:0:0:
192,192,70247,1,0,0:0:0:0:
64,192,70344,1,0,0:0:0:0:
320,192,70441,1,10,0:0:0:0:
64,192,70537,1,0,0:0:0:0:
448,192,70634,1,0,0:0:0:0:
320,192,70731,1,0,0:0:0:0:
192,192,70828,1,10,0:0:0:0:
64,192,70828,1,8,0:0:0:0:
320,192,70925,1,0,0:0:0:0:
64,192,71021,1,0,0:0:0:0:
448,192,71118,1,0,0:0:0:0:
192,192,71215,1,10,0:0:0:0:
64,192,71215,1,12,0:0:0:0:
448,192,71312,1,0,0:0:0:0:
320,192,71408,1,0,0:0:0:0:
192,192,71505,1,0,0:0:0:0:
320,192,71602,1,10,0:0:0:0:
448,192,71602,1,8,0:0:0:0:
320,192,71796,1,0,0:0:0:0:
448,192,71892,1,0,0:0:0:0:
192,192,71989,1,10,0:0:0:0:
448,192,72086,1,0,0:0:0:0:
64,192,72183,1,0,0:0:0:0:
192,192,72279,1,0,0:0:0:0:
320,192,72376,1,10,0:0:0:0:
448,192,72376,1,8,0:0:0:0:
192,192,72473,1,0,0:0:0:0:
320,192,72570,1,0,0:0:0:0:
448,192,72667,1,0,0:0:0:0:
64,192,72763,1,10,0:0:0:0:
448,192,72860,1,0,0:0:0:0:
320,192,72957,1,0,0:0:0:0:
192,192,73054,1,0,0:0:0:0:
320,192,73150,1,10,0:0:0:0:
448,192,73150,1,8,0:0:0:0:
320,192,73344,1,0,0:0:0:0:
448,192,73441,1,0,0:0:0:0:
192,192,73537,1,10,0:0:0:0:
448,192,73634,1,0,0:0:0:0:
64,192,73731,1,0,0:0:0:0:
192,192,73828,1,0,0:0:0:0:
320,192,73925,1,10,0:0:0:0:
448,192,73925,1,8,0:0:0:0:
192,192,74021,1,0,0:0:0:0:
448,192,74118,1,0,0:0:0:0:
64,192,74215,1,0,0:0:0:0:
320,192,74312,1,10,0:0:0:0:
448,192,74312,1,12,0:0:0:0:
192,192,74505,1,8,0:0:0:0:
320,192,74505,1,2,0:0:0:0:
64,192,74699,1,8,0:0:0:0:
192,192,74699,1,10,0:0:0:0:
192,192,74892,1,2,0:0:0:0:
320,192,74892,1,8,0:0:0:0:
320,192,75086,1,10,0:0:0:0:
448,192,75086,1,8,0:0:0:0:
320,192,75279,1,2,0:0:0:0:
192,192,75279,1,8,0:0:0:0:
64,192,75473,1,8,0:0:0:0:
192,192,75473,1,10,0:0:0:0:
320,192,75667,1,2,0:0:0:0:
192,192,75667,1,8,0:0:0:0:
64,192,75860,1,12,0:0:0:0:
448,192,75860,1,14,0:0:0:0:
448,192,76054,1,2,0:0:0:0:
192,192,76054,1,8,0:0:0:0:
448,192,76247,1,8,0:0:0:0:
64,192,76247,1,10,0:0:0:0:
320,192,76441,1,8,0:0:0:0:
64,192,76441,1,2,0:0:0:0:
448,192,76634,1,10,0:0:0:0:
64,192,76634,1,8,0:0:0:0:
192,192,76828,1,8,0:0:0:0:
448,192,76828,1,2,0:0:0:0:
448,192,77021,1,8,0:0:0:0:
64,192,77021,1,10,0:0:0:0:
320,192,77215,1,8,0:0:0:0:
64,192,77215,1,2,0:0:0:0:
448,192,77408,1,8,0:0:0:0:
64,192,77408,1,8,0:0:0:0:
192,192,77505,1,8,0:0:0:0:
320,192,77602,1,8,0:0:0:0:
192,192,77699,1,8,0:0:0:0:
448,192,77796,1,8,0:0:0:0:
64,192,77892,1,8,0:0:0:0:
192,192,77989,1,8,0:0:0:0:
320,192,78086,1,8,0:0:0:0:
192,192,78183,1,8,0:0:0:0:
64,192,78183,1,8,0:0:0:0:
448,192,78279,1,8,0:0:0:0:
320,192,78376,1,8,0:0:0:0:
192,192,78473,1,8,0:0:0:0:
448,192,78570,1,8,0:0:0:0:
64,192,78667,1,8,0:0:0:0:
192,192,78763,1,8,0:0:0:0:
320,192,78860,1,8,0:0:0:0:
192,192,78957,1,8,0:0:0:0:
64,192,78957,1,8,0:0:0:0:
448,192,79021,1,8,0:0:0:0:
320,192,79086,1,8,0:0:0:0:
192,192,79150,1,8,0:0:0:0:
64,192,79215,1,8,0:0:0:0:
448,192,79279,1,8,0:0:0:0:
320,192,79344,1,8,0:0:0:0:
192,192,79408,1,8,0:0:0:0:
64,192,79473,1,8,0:0:0:0:
448,192,79537,1,8,0:0:0:0:
320,192,79602,1,8,0:0:0:0:
192,192,79667,1,8,0:0:0:0:
64,192,79731,1,8,0:0:0:0:
320,192,79860,1,0,0:0:0:0:
192,192,79989,1,0,0:0:0:0:
448,192,80118,1,8,0:0:0:0:
192,192,80247,1,8,0:0:0:0:
320,192,80376,1,8,0:0:0:0:
64,192,80505,1,8,0:0:0:0:
192,192,80505,1,8,0:0:0:0:
448,192,80892,1,8,0:0:0:0:
320,192,80892,1,8,0:0:0:0:
192,192,81279,1,8,0:0:0:0:
64,192,81279,1,8,0:0:0:0:
448,192,81667,1,8,0:0:0:0:
320,192,81667,1,8,0:0:0:0:
192,192,82054,1,0,0:0:0:0:
64,192,82247,1,0,0:0:0:0:
192,192,82441,128,0,82828:0:0:0:0:
448,192,82828,128,0,83215:0:0:0:0:
192,192,83215,1,4,0:0:0:0:
64,192,83215,1,4,0:0:0:0:
448,192,83602,1,4,0:0:0:0:
320,192,83602,1,12,0:0:0:0:
192,192,83796,1,12,0:0:0:0:
64,192,83796,1,8,0:0:0:0:
320,192,83892,1,2,0:0:0:0:
64,192,83989,1,8,0:0:0:0:
192,192,83989,1,12,0:0:0:0:
448,192,84183,1,2,0:0:0:0:
192,192,84279,1,2,0:0:0:0:
320,192,84376,1,8,0:0:0:0:
448,192,84376,1,12,0:0:0:0:
320,192,84667,1,8,0:0:0:0:
64,192,84763,1,2,0:0:0:0:
448,192,84763,1,10,0:0:0:0:
192,192,84957,1,8,0:0:0:0:
64,192,84957,1,10,0:0:0:0:
448,192,85054,1,8,0:0:0:0:
192,192,85150,1,10,0:0:0:0:
320,192,85150,1,8,0:0:0:0:
320,192,85441,1,10,0:0:0:0:
64,192,85441,1,8,0:0:0:0:
448,192,85731,1,10,0:0:0:0:
64,192,85731,1,8,0:0:0:0:
192,192,86118,1,8,0:0:0:0:
448,192,86118,1,8,0:0:0:0:
64,192,86312,1,8,0:0:0:0:
192,192,86312,1,10,0:0:0:0:
320,192,86408,1,10,0:0:0:0:
64,192,86505,1,10,0:0:0:0:
448,192,86505,1,8,0:0:0:0:
192,192,86602,1,10,0:0:0:0:
448,192,86699,1,10,0:0:0:0:
320,192,86699,1,8,0:0:0:0:
448,192,86989,1,2,0:0:0:0:
192,192,87086,1,10,0:0:0:0:
64,192,87086,1,8,0:0:0:0:
320,192,87279,1,2,0:0:0:0:
192,192,87376,1,2,0:0:0:0:
320,192,87473,1,10,0:0:0:0:
448,192,87473,1,8,0:0:0:0:
192,192,87860,1,8,0:0:0:0:
64,192,87860,1,8,0:0:0:0:
320,192,88054,1,2,0:0:0:0:
192,192,88150,1,2,0:0:0:0:
320,192,88247,1,10,0:0:0:0:
64,192,88247,1,8,0:0:0:0:
64,192,88537,1,2,0:0:0:0:
448,192,88634,1,8,0:0:0:0:
192,192,88634,1,10,0:0:0:0:
448,192,88828,1,2,0:0:0:0:
320,192,88828,1,0,0:0:0:0:
192,192,89021,1,10,0:0:0:0:
64,192,89021,1,8,0:0:0:0:
448,192,89118,1,10,0:0:0:0:
192,192,89215,1,8,0:0:0:0:
320,192,89215,1,10,0:0:0:0:
64,192,89312,1,10,0:0:0:0:
320,192,89408,1,8,0:0:0:0:
448,192,89408,1,10,0:0:0:0:
192,192,89602,1,8,0:0:0:0:
64,192,89602,1,10,0:0:0:0:
448,192,89699,1,10,0:0:0:0:
320,192,89796,1,10,0:0:0:0:
192,192,89796,1,8,0:0:0:0:
320,192,89989,1,10,0:0:0:0:
448,192,89989,1,8,0:0:0:0:
192,192,90183,1,10,0:0:0:0:
320,192,90183,1,8,0:0:0:0:
64,192,90376,1,2,0:0:0:0:
192,192,90473,1,2,0:0:0:0:
448,192,90570,1,10,0:0:0:0:
320,192,90570,1,8,0:0:0:0:
320,192,90860,1,2,0:0:0:0:
192,192,90957,1,10,0:0:0:0:
64,192,90957,1,8,0:0:0:0:
320,192,91150,1,8,0:0:0:0:
448,192,91150,1,10,0:0:0:0:
192,192,91344,1,10,0:0:0:0:
64,192,91344,1,10,0:0:0:0:
64,192,91634,1,10,0:0:0:0:
448,192,91634,1,10,0:0:0:0:
320,192,91925,1,10,0:0:0:0:
448,192,91925,1,10,0:0:0:0:
192,192,92312,1,8,0:0:0:0:
64,192,92312,1,8,0:0:0:0:
448,192,92505,1,8,0:0:0:0:
320,192,92505,1,8,0:0:0:0:
192,192,92699,1,10,0:0:0:0:
64,192,92699,1,8,0:0:0:0:
448,192,92796,1,10,0:0:0:0:
192,192,92892,1,10,0:0:0:0:
320,192,92892,1,8,0:0:0:0:
448,192,93086,1,10,0:0:0:0:
320,192,93086,1,8,0:0:0:0:
192,192,93183,1,2,0:0:0:0:
320,192,93279,128,2,93376:0:0:0:0:
192,192,93473,128,2,93570:0:0:0:0:
320,192,93667,1,10,0:0:0:0:
448,192,93667,1,8,0:0:0:0:
64,192,93860,1,8,0:0:0:0:
448,192,93957,1,2,0:0:0:0:
192,192,94054,1,0,0:0:0:0:
320,192,94150,1,0,0:0:0:0:
64,192,94247,128,0,94441:0:0:0:0:
448,192,94441,1,8,0:0:0:0:
320,192,94441,1,10,0:0:0:0:
320,192,94731,1,10,0:0:0:0:
192,192,94731,1,8,0:0:0:0:
64,192,95021,128,8,95602:0:0:0:0:
192,192,95021,128,10,95602:0:0:0:0:
448,192,95602,1,8,0:0:0:0:
320,192,95602,1,8,0:0:0:0:
64,192,95796,1,8,0:0:0:0:
192,192,95796,1,8,0:0:0:0:
448,192,95989,1,8,0:0:0:0:
320,192,95989,1,14,0:0:0:0:
192,192,96183,1,10,0:0:0:0:
320,192,96183,1,8,0:0:0:0:
448,192,96279,1,2,0:0:0:0:
64,192,96376,1,8,0:0:0:0:
192,192,96376,1,10,0:0:0:0:
320,192,96570,1,2,0:0:0:0:
192,192,96667,1,2,0:0:0:0:
448,192,96763,1,8,0:0:0:0:
320,192,96763,1,10,0:0:0:0:
64,192,97054,1,2,0:0:0:0:
192,192,97150,1,10,0:0:0:0:
448,192,97150,1,8,0:0:0:0:
320,192,97344,1,10,0:0:0:0:
448,192,97344,1,8,0:0:0:0:
64,192,97441,1,10,0:0:0:0:
192,192,97537,1,8,0:0:0:0:
320,192,97537,1,10,0:0:0:0:
192,192,97731,1,10,0:0:0:0:
64,192,97731,1,8,0:0:0:0:
320,192,97925,1,8,0:0:0:0:
192,192,97925,1,10,0:0:0:0:
320,192,98118,1,8,0:0:0:0:
448,192,98118,1,10,0:0:0:0:
192,192,98505,1,8,0:0:0:0:
448,192,98505,1,8,0:0:0:0:
64,192,98699,1,8,0:0:0:0:
448,192,98699,1,10,0:0:0:0:
192,192,98796,1,10,0:0:0:0:
448,192,98892,1,10,0:0:0:0:
320,192,98892,1,8,0:0:0:0:
192,192,98989,1,10,0:0:0:0:
448,192,99086,1,10,0:0:0:0:
64,192,99086,1,8,0:0:0:0:
192,192,99279,1,2,0:0:0:0:
64,192,99376,1,2,0:0:0:0:
320,192,99473,1,10,0:0:0:0:
448,192,99473,1,8,0:0:0:0:
192,192,99667,1,2,0:0:0:0:
320,192,99763,1,2,0:0:0:0:
64,192,99860,1,10,0:0:0:0:
192,192,99860,1,8,0:0:0:0:
320,192,100247,1,8,0:0:0:0:
64,192,100247,1,10,0:0:0:0:
448,192,100441,1,2,0:0:0:0:
64,192,100537,1,2,0:0:0:0:
192,192,100634,1,10,0:0:0:0:
320,192,100634,1,8,0:0:0:0:
320,192,100925,1,2,0:0:0:0:
448,192,101021,1,8,0:0:0:0:
64,192,101021,1,10,0:0:0:0:
192,192,101215,1,2,0:0:0:0:
320,192,101215,1,0,0:0:0:0:
448,192,101408,1,10,0:0:0:0:
320,192,101408,1,8,0:0:0:0:
192,192,101505,1,8,0:0:0:0:
64,192,101602,1,8,0:0:0:0:
448,192,101602,1,10,0:0:0:0:
320,192,101699,1,10,0:0:0:0:
64,192,101796,1,8,0:0:0:0:
192,192,101796,1,8,0:0:0:0:
448,192,101989,1,8,0:0:0:0:
320,192,101989,1,10,0:0:0:0:
64,192,102086,1,8,0:0:0:0:
192,192,102183,1,8,0:0:0:0:
320,192,102183,1,10,0:0:0:0:
320,192,102376,1,10,0:0:0:0:
192,192,102473,1,2,0:0:0:0:
64,192,102570,1,10,0:0:0:0:
448,192,102570,1,8,0:0:0:0:
192,192,102763,1,2,0:0:0:0:
448,192,102763,1,0,0:0:0:0:
320,192,102957,1,10,0:0:0:0:
448,192,102957,1,8,0:0:0:0:
192,192,103150,1,2,0:0:0:0:
320,192,103247,1,2,0:0:0:0:
64,192,103344,1,8,0:0:0:0:
192,192,103344,1,10,0:0:0:0:
64,192,103537,1,10,0:0:0:0:
320,192,103537,1,8,0:0:0:0:
64,192,103731,1,10,0:0:0:0:
448,192,103731,1,8,0:0:0:0:
448,192,104021,1,10,0:0:0:0:
192,192,104021,1,10,0:0:0:0:
320,192,104312,1,10,0:0:0:0:
448,192,104312,1,10,0:0:0:0:
192,192,104699,1,10,0:0:0:0:
64,192,104699,1,8,0:0:0:0:
320,192,104892,1,8,0:0:0:0:
192,192,104892,1,10,0:0:0:0:
448,192,105086,1,8,0:0:0:0:
320,192,105086,1,10,0:0:0:0:
64,192,105183,1,10,0:0:0:0:
192,192,105279,1,8,0:0:0:0:
320,192,105279,1,10,0:0:0:0:
64,192,105473,1,2,0:0:0:0:
192,192,105570,1,10,0:0:0:0:
320,192,105570,1,8,0:0:0:0:
448,192,105860,128,2,106054:0:0:0:0:
192,192,106054,1,10,0:0:0:0:
64,192,106054,1,8,0:0:0:0:
320,192,106247,1,2,0:0:0:0:
64,192,106344,1,8,0:0:0:0:
448,192,106344,1,10,0:0:0:0:
320,192,106634,128,0,106828:0:0:0:0:
64,192,106828,1,8,0:0:0:0:
192,192,106828,1,10,0:0:0:0:
192,192,107118,1,10,0:0:0:0:
320,192,107118,1,8,0:0:0:0:
448,192,107408,128,8,107989:0:0:0:0:
320,192,107408,128,10,107989:0:0:0:0:
192,192,107989,1,8,0:0:0:0:
320,192,108086,1,8,0:0:0:0:
64,192,108183,1,8,0:0:0:0:
320,192,108279,1,8,0:0:0:0:
64,192,108376,1,6,0:0:0:0:
192,192,108376,1,8,0:0:0:0:
448,192,108570,1,10,0:0:0:0:
320,192,108667,1,2,0:0:0:0:
64,192,108763,1,10,0:0:0:0:
192,192,108860,1,2,0:0:0:0:
448,192,108957,1,8,0:0:0:0:
64,192,109054,1,2,0:0:0:0:
192,192,109150,1,10,0:0:0:0:
64,192,109247,1,0,0:0:0:0:
320,192,109344,1,10,0:0:0:0:
448,192,109441,1,0,0:0:0:0:
192,192,109537,1,10,0:0:0:0:
64,192,109634,1,2,0:0:0:0:
192,192,109731,1,10,0:0:0:0:
64,192,109925,1,10,0:0:0:0:
192,192,110021,1,2,0:0:0:0:
320,192,110118,1,10,0:0:0:0:
448,192,110312,1,10,0:0:0:0:
320,192,110408,1,2,0:0:0:0:
192,192,110505,1,10,0:0:0:0:
448,192,110699,1,8,0:0:0:0:
320,192,110699,1,8,0:0:0:0:
64,192,110892,1,8,0:0:0:0:
192,192,110892,1,8,0:0:0:0:
320,192,111086,1,8,0:0:0:0:
448,192,111086,1,8,0:0:0:0:
64,192,111279,1,8,0:0:0:0:
320,192,111376,1,8,0:0:0:0:
64,192,111473,1,10,0:0:0:0:
320,192,111570,1,10,0:0:0:0:
192,192,111667,1,10,0:0:0:0:
448,192,111763,1,10,0:0:0:0:
64,192,111860,1,8,0:0:0:0:
448,192,111957,1,2,0:0:0:0:
192,192,112054,1,10,0:0:0:0:
448,192,112247,1,10,0:0:0:0:
64,192,112441,1,2,0:0:0:0:
192,192,112537,1,2,0:0:0:0:
320,192,112634,1,10,0:0:0:0:
448,192,112828,1,10,0:0:0:0:
320,192,112925,1,2,0:0:0:0:
64,192,113021,1,10,0:0:0:0:
192,192,113118,1,8,0:0:0:0:
64,192,113215,1,8,0:0:0:0:
448,192,113312,1,8,0:0:0:0:
320,192,113408,1,10,0:0:0:0:
448,192,113505,1,10,0:0:0:0:
64,192,113602,1,10,0:0:0:0:
192,192,113699,1,10,0:0:0:0:
64,192,113796,1,0,0:0:0:0:
320,192,113892,1,8,0:0:0:0:
192,192,113989,1,8,0:0:0:0:
448,192,114086,1,8,0:0:0:0:
64,192,114183,1,8,0:0:0:0:
192,192,114183,1,12,0:0:0:0:
192,192,114570,1,8,0:0:0:0:
64,192,114570,1,8,0:0:0:0:
320,192,114667,1,8,0:0:0:0:
448,192,114763,1,8,0:0:0:0:
192,192,114860,1,8,0:0:0:0:
320,192,114957,1,8,0:0:0:0:
192,192,115054,1,8,0:0:0:0:
64,192,115150,1,8,0:0:0:0:
320,192,115247,1,8,0:0:0:0:
192,192,115344,1,8,0:0:0:0:
64,192,115344,1,8,0:0:0:0:
320,192,115441,1,8,0:0:0:0:
448,192,115537,1,8,0:0:0:0:
192,192,115634,1,8,0:0:0:0:
320,192,115731,1,8,0:0:0:0:
192,192,115828,1,8,0:0:0:0:
64,192,115925,1,8,0:0:0:0:
320,192,116021,1,8,0:0:0:0:
192,192,116118,1,8,0:0:0:0:
64,192,116118,1,8,0:0:0:0:
448,192,116215,1,8,0:0:0:0:
320,192,116312,1,8,0:0:0:0:
192,192,116408,1,8,0:0:0:0:
448,192,116505,1,8,0:0:0:0:
64,192,116602,1,8,0:0:0:0:
192,192,116699,1,8,0:0:0:0:
320,192,116796,1,8,0:0:0:0:
192,192,116892,1,8,0:0:0:0:
64,192,116892,1,8,0:0:0:0:
320,192,117086,1,8,0:0:0:0:
64,192,117183,1,8,0:0:0:0:
320,192,117279,1,8,0:0:0:0:
448,192,117279,1,8,0:0:0:0:
192,192,117473,1,8,0:0:0:0:
448,192,117570,1,8,0:0:0:0:
192,192,117667,1,10,0:0:0:0:
64,192,117667,1,10,0:0:0:0:
320,192,117957,1,10,0:0:0:0:
192,192,118054,1,10,0:0:0:0:
64,192,118054,1,10,0:0:0:0:
320,192,118150,1,10,0:0:0:0:
448,192,118247,1,10,0:0:0:0:
192,192,118441,1,8,0:0:0:0:
320,192,118441,1,8,0:0:0:0:
64,192,118537,1,2,0:0:0:0:
320,192,118828,1,10,0:0:0:0:
448,192,118828,1,10,0:0:0:0:
64,192,119215,128,10,119505:0:0:0:0:
192,192,119215,128,10,119505:0:0:0:0:
320,192,119505,128,10,119796:0:0:0:0:
448,192,119505,128,10,119796:0:0:0:0:
64,192,119796,128,10,119989:0:0:0:0:
192,192,119796,128,10,119989:0:0:0:0:
448,192,119989,1,8,0:0:0:0:
320,192,120054,1,8,0:0:0:0:
192,192,120118,1,8,0:0:0:0:
64,192,120183,1,8,0:0:0:0:
192,192,120247,1,8,0:0:0:0:
320,192,120312,1,8,0:0:0:0:
448,192,120376,1,12,0:0:0:0:
64,192,120376,1,12,0:0:0:0:
320,192,120763,1,8,0:0:0:0:
192,192,120763,1,8,0:0:0:0:
64,192,120763,1,12,0:0:0:0:
