osu file format v14

[General]
AudioFilename: audio.mp3
AudioLeadIn: 0
PreviewTime: 83064
Countdown: 1
SampleSet: None
StackLeniency: 0.7
Mode: 1
LetterboxInBreaks: 0
WidescreenStoryboard: 0

[Editor]
Bookmarks: 24225,35064,38161,52096,67580,70677,73774,75322,76870,77645,78419,78806,79193,79580,79967,95451,114032
DistanceSpacing: 0.6
BeatDivisor: 4
GridSize: 32
TimelineZoom: 4.699998

[Metadata]
Title:HADES
TitleUnicode:HADES
Artist:Massive New Krew
ArtistUnicode:Massive New Krew
Creator:Arnon
Version:Inner Oni
Source:Beatmania IIDX 24 SHINOBUZ
Tags:
BeatmapID:1919431
BeatmapSetID:919258

[Difficulty]
HPDrainRate:6
CircleSize:5
OverallDifficulty:6
ApproachRate:5
SliderMultiplier:1.4
SliderTickRate:1

[Events]
//Background and Video events
0,0,"hades.jpg",0,80
//Break Periods
//Storyboard Layer 0 (Background)
//Storyboard Layer 1 (Fail)
//Storyboard Layer 2 (Pass)
//Storyboard Layer 3 (Foreground)
//Storyboard Sound Samples

[TimingPoints]
1000,387.096774193548,4,1,0,60,1,0
16483,-95.2380952380952,4,1,0,60,0,0
16677,-90.9090909090909,4,1,0,60,0,0
16870,-86.9565217391304,4,1,0,60,0,0
17064,-83.3333333333333,4,1,0,60,0,0
17258,-80,4,1,0,60,0,0
17451,-76.9230769230769,4,1,0,60,0,0
17645,-74.0740740740741,4,1,0,60,0,0
17838,-71.4285714285714,4,1,0,60,0,0
18032,-68.9655172413793,4,1,0,60,0,0
21322,-100,4,1,0,60,0,0
38161,-95.2380952380952,4,1,0,60,0,0
38258,-92.5925925925926,4,1,0,60,0,0
38354,-90.9090909090909,4,1,0,60,0,0
38451,-89.2857142857143,4,1,0,60,0,0
38548,-86.9565217391304,4,1,0,60,0,0
38645,-84.7457627118644,4,1,0,60,0,0
38741,-83.3333333333333,4,1,0,60,0,0
38838,-81.9672131147541,4,1,0,60,0,0
38935,-80,4,1,0,60,0,0
51322,-68.9655172413793,4,1,0,60,0,0
53645,-100,4,1,0,60,0,0
73774,-98.0392156862745,4,1,0,60,0,0
73967,-95.2380952380952,4,1,0,60,0,0
74161,-92.5925925925926,4,1,0,60,0,0
74354,-90.9090909090909,4,1,0,60,0,0
74548,-89.2857142857143,4,1,0,60,0,0
74741,-86.9565217391304,4,1,0,60,0,0
74935,-84.7457627118644,4,1,0,60,0,0
75129,-83.3333333333333,4,1,0,60,0,0
75322,-81.9672131147541,4,1,0,60,0,0
75516,-80,4,1,0,60,0,0
75709,-78.125,4,1,0,60,0,0
75903,-76.9230769230769,4,1,0,60,0,0
76096,-75.7575757575758,4,1,0,60,0,0
76290,-74.0740740740741,4,1,0,60,0,0
76483,-72.463768115942,4,1,0,60,0,0
76677,-71.4285714285714,4,1,0,60,0,0
76870,-70.4225352112676,4,1,0,60,0,0
83064,-100,4,1,0,80,0,1
107451,-66.6666666666667,4,1,0,80,0,1
107838,-66.6666666666667,4,1,0,80,0,0

[HitObjects]
385,276,1000,5,0,0:0:0:0:
289,255,2548,5,4,0:0:0:0:
250,225,3129,1,0,0:0:0:0:
250,225,3225,1,0,0:0:0:0:
250,225,3322,1,0,0:0:0:0:
250,225,3903,1,0,0:0:0:0:
250,225,3999,1,0,0:0:0:0:
250,225,4096,1,0,0:0:0:0:
286,221,4677,5,0,0:0:0:0:
286,221,4774,1,2,0:0:0:0:
286,221,4870,1,0,0:0:0:0:
286,221,4967,1,2,0:0:0:0:
286,221,5161,1,2,0:0:0:0:
286,221,5258,1,0,0:0:0:0:
286,221,5451,1,2,0:0:0:0:
267,216,5645,5,2,0:0:0:0:
273,216,5741,1,2,0:0:0:0:
267,216,5838,1,0,0:0:0:0:
267,216,5935,1,2,0:0:0:0:
273,216,6032,1,0,0:0:0:0:
273,216,6129,1,0,0:0:0:0:
273,216,6225,1,2,0:0:0:0:
274,217,6322,1,2,0:0:0:0:
274,217,6419,1,0,0:0:0:0:
274,216,6516,1,2,0:0:0:0:
274,216,6612,1,0,0:0:0:0:
273,216,6709,1,0,0:0:0:0:
274,216,6806,1,2,0:0:0:0:
189,135,6903,1,2,0:0:0:0:
274,216,6999,1,0,0:0:0:0:
260,165,7096,1,2,0:0:0:0:
273,216,7193,5,2,0:0:0:0:
274,217,7290,1,0,0:0:0:0:
274,217,7387,1,0,0:0:0:0:
274,216,7483,1,2,0:0:0:0:
274,216,7580,1,0,0:0:0:0:
273,216,7677,1,2,0:0:0:0:
274,216,7774,1,2,0:0:0:0:
472,322,7870,1,0,0:0:0:0:
472,322,7967,1,0,0:0:0:0:
298,157,8064,1,2,0:0:0:0:
298,157,8161,1,0,0:0:0:0:
298,157,8258,1,0,0:0:0:0:
331,181,8354,1,2,0:0:0:0:
331,181,8419,1,0,0:0:0:0:
331,181,8483,1,0,0:0:0:0:
331,181,8548,1,2,0:0:0:0:
331,181,8612,1,0,0:0:0:0:
331,181,8677,1,0,0:0:0:0:
331,181,8741,5,2,0:0:0:0:
314,163,9032,1,0,0:0:0:0:
316,163,9322,1,2,0:0:0:0:
316,163,9516,1,2,0:0:0:0:
314,163,9806,1,0,0:0:0:0:
316,163,10096,1,0,0:0:0:0:
357,170,10290,1,2,0:0:0:0:
357,170,10580,1,0,0:0:0:0:
357,170,10870,1,2,0:0:0:0:
338,188,11258,5,2,0:0:0:0:
248,126,11322,1,2,0:0:0:0:
338,188,11451,1,2,0:0:0:0:
275,170,11516,1,2,0:0:0:0:
338,188,11645,1,0,0:0:0:0:
275,170,11709,1,0,0:0:0:0:
338,188,11838,1,2,0:0:0:0:
275,170,11903,1,2,0:0:0:0:
338,188,12129,1,0,0:0:0:0:
275,170,12193,1,0,0:0:0:0:
338,188,12419,1,0,0:0:0:0:
305,243,12483,1,0,0:0:0:0:
338,188,12612,1,0,0:0:0:0:
317,231,12677,1,0,0:0:0:0:
338,188,13387,5,2,0:0:0:0:
238,87,13580,1,2,0:0:0:0:
334,198,13677,1,0,0:0:0:0:
334,198,13870,1,0,0:0:0:0:
394,193,13967,1,2,0:0:0:0:
340,225,14161,5,2,0:0:0:0:
307,204,14225,1,2,0:0:0:0:
340,225,14451,1,2,0:0:0:0:
307,184,14516,1,2,0:0:0:0:
340,225,14645,1,0,0:0:0:0:
340,225,14741,1,0,0:0:0:0:
340,225,14935,5,4,0:0:0:0:
248,189,15322,1,0,0:0:0:0:
248,189,15709,5,0,0:0:0:0:
248,189,16096,1,0,0:0:0:0:
248,189,16483,5,0,0:0:0:0:
263,206,16677,1,0,0:0:0:0:
248,189,16870,1,0,0:0:0:0:
263,206,17064,1,0,0:0:0:0:
263,206,17258,5,0,0:0:0:0:
263,206,17451,1,0,0:0:0:0:
263,206,17645,1,0,0:0:0:0:
263,206,17838,1,0,0:0:0:0:
282,154,18032,5,2,0:0:0:0:
282,154,18129,1,2,0:0:0:0:
282,154,18225,1,0,0:0:0:0:
282,154,18274,1,0,0:0:0:0:
282,154,18322,1,0,0:0:0:0:
282,154,18419,1,2,0:0:0:0:
282,154,18516,1,2,0:0:0:0:
282,154,18612,1,0,0:0:0:0:
282,154,18661,1,0,0:0:0:0:
282,154,18709,1,0,0:0:0:0:
282,154,18806,5,2,0:0:0:0:
282,154,18903,1,2,0:0:0:0:
282,154,18999,1,0,0:0:0:0:
282,154,19048,1,0,0:0:0:0:
282,154,19096,1,0,0:0:0:0:
282,154,19193,1,2,0:0:0:0:
282,154,19290,1,2,0:0:0:0:
282,154,19386,1,0,0:0:0:0:
282,154,19435,1,0,0:0:0:0:
282,154,19483,1,0,0:0:0:0:
296,193,19580,5,2,0:0:0:0:
296,193,19645,1,0,0:0:0:0:
296,193,19709,1,2,0:0:0:0:
296,193,19774,1,0,0:0:0:0:
296,193,19838,1,2,0:0:0:0:
296,193,19903,1,0,0:0:0:0:
296,193,19967,5,2,0:0:0:0:
296,193,20032,1,0,0:0:0:0:
296,193,20096,1,2,0:0:0:0:
296,193,20161,1,0,0:0:0:0:
296,193,20225,1,2,0:0:0:0:
296,193,20290,1,0,0:0:0:0:
301,190,20354,5,2,0:0:0:0:
301,190,20483,1,2,0:0:0:0:
301,190,20612,1,2,0:0:0:0:
301,190,20741,5,2,0:0:0:0:
301,190,20870,1,2,0:0:0:0:
301,190,20999,1,2,0:0:0:0:
309,187,21322,5,0,0:0:0:0:
264,184,21516,1,2,0:0:0:0:
264,184,21612,1,0,0:0:0:0:
310,189,21709,1,2,0:0:0:0:
331,211,21903,1,2,0:0:0:0:
339,208,22096,1,0,0:0:0:0:
331,211,22290,1,2,0:0:0:0:
321,127,22387,1,0,0:0:0:0:
339,208,22483,1,2,0:0:0:0:
263,159,24225,5,4,0:0:0:0:
259,190,24516,1,2,0:0:0:0:
285,245,24612,1,0,0:0:0:0:
305,145,24709,1,2,0:0:0:0:
305,145,24806,1,2,0:0:0:0:
285,245,24999,1,0,0:0:0:0:
305,145,25193,1,2,0:0:0:0:
285,245,25387,1,0,0:0:0:0:
305,145,25580,1,2,0:0:0:0:
285,245,25774,5,0,0:0:0:0:
305,145,25870,1,2,0:0:0:0:
305,145,26064,1,2,0:0:0:0:
285,245,26161,1,0,0:0:0:0:
305,145,26258,1,2,0:0:0:0:
305,145,26354,1,2,0:0:0:0:
285,245,26548,1,0,0:0:0:0:
305,145,26741,1,2,0:0:0:0:
285,245,26935,1,0,0:0:0:0:
285,245,27129,1,0,0:0:0:0:
285,245,27322,5,0,0:0:0:0:
305,145,27419,1,2,0:0:0:0:
305,145,27612,1,2,0:0:0:0:
285,245,27709,1,0,0:0:0:0:
305,145,27806,1,2,0:0:0:0:
305,145,27903,1,2,0:0:0:0:
285,245,28096,1,0,0:0:0:0:
305,145,28290,1,2,0:0:0:0:
285,245,28483,1,0,0:0:0:0:
305,145,28677,1,2,0:0:0:0:
345,221,28870,5,2,0:0:0:0:
294,175,29064,1,2,0:0:0:0:
294,175,29161,1,2,0:0:0:0:
294,175,29354,1,2,0:0:0:0:
294,175,29451,1,2,0:0:0:0:
294,175,29741,1,2,0:0:0:0:
294,175,29838,1,0,0:0:0:0:
294,175,29935,1,2,0:0:0:0:
294,175,30032,1,0,0:0:0:0:
294,175,30129,1,0,0:0:0:0:
294,175,30225,1,2,0:0:0:0:
304,213,30419,5,0,0:0:0:0:
375,209,30516,1,0,0:0:0:0:
294,175,30612,1,2,0:0:0:0:
375,209,30709,1,0,0:0:0:0:
375,209,30806,1,0,0:0:0:0:
270,177,30903,1,2,0:0:0:0:
270,177,30999,1,2,0:0:0:0:
231,194,31193,1,0,0:0:0:0:
270,177,31387,1,2,0:0:0:0:
245,226,31580,1,0,0:0:0:0:
270,177,31774,1,2,0:0:0:0:
249,189,31967,5,0,0:0:0:0:
270,177,32064,1,2,0:0:0:0:
270,177,32258,1,2,0:0:0:0:
249,189,32354,1,0,0:0:0:0:
270,177,32451,1,2,0:0:0:0:
270,177,32548,1,2,0:0:0:0:
249,189,32741,1,0,0:0:0:0:
324,224,32935,1,0,0:0:0:0:
324,224,33032,1,0,0:0:0:0:
249,189,33129,1,0,0:0:0:0:
367,193,33322,1,0,0:0:0:0:
367,193,33387,1,0,0:0:0:0:
367,193,33451,1,0,0:0:0:0:
444,156,33516,5,0,0:0:0:0:
270,177,33612,1,2,0:0:0:0:
383,190,33709,1,0,0:0:0:0:
273,140,33806,1,0,0:0:0:0:
273,140,33903,1,0,0:0:0:0:
270,177,33999,1,2,0:0:0:0:
273,140,34096,1,0,0:0:0:0:
294,195,34290,1,2,0:0:0:0:
372,188,34483,1,0,0:0:0:0:
294,195,34677,1,2,0:0:0:0:
423,264,34870,1,0,0:0:0:0:
423,264,35064,5,2,0:0:0:0:
292,98,35129,1,2,0:0:0:0:
270,121,35354,1,0,0:0:0:0:
264,177,35419,1,0,0:0:0:0:
315,156,35645,1,2,0:0:0:0:
264,158,35709,1,2,0:0:0:0:
315,156,36032,1,0,0:0:0:0:
315,156,36129,1,0,0:0:0:0:
315,156,36225,1,2,0:0:0:0:
248,179,36419,1,0,0:0:0:0:
269,163,36483,1,0,0:0:0:0:
248,179,36612,5,2,0:0:0:0:
293,190,36999,1,0,0:0:0:0:
293,190,37096,1,0,0:0:0:0:
298,185,37193,1,2,0:0:0:0:
298,185,37387,1,2,0:0:0:0:
298,184,37483,1,2,0:0:0:0:
298,184,37580,1,2,0:0:0:0:
298,185,37967,1,2,0:0:0:0:
298,185,38161,5,0,0:0:0:0:
287,185,38258,1,0,0:0:0:0:
287,185,38354,1,2,0:0:0:0:
287,185,38451,1,0,0:0:0:0:
286,185,38548,1,2,0:0:0:0:
286,185,38645,1,0,0:0:0:0:
286,185,38741,1,2,0:0:0:0:
286,184,38838,1,0,0:0:0:0:
286,184,38935,5,2,0:0:0:0:
280,175,38999,1,2,0:0:0:0:
286,184,39129,1,2,0:0:0:0:
280,175,39193,1,2,0:0:0:0:
286,184,39322,1,2,0:0:0:0:
280,175,39386,1,2,0:0:0:0:
286,184,39516,1,0,0:0:0:0:
280,175,39580,1,0,0:0:0:0:
286,184,39709,5,2,0:0:0:0:
280,175,39773,1,2,0:0:0:0:
286,184,39903,1,0,0:0:0:0:
280,175,39967,1,0,0:0:0:0:
286,184,40096,1,0,0:0:0:0:
280,175,40160,1,0,0:0:0:0:
286,184,40290,1,0,0:0:0:0:
280,175,40354,1,0,0:0:0:0:
286,184,40483,1,2,0:0:0:0:
280,175,40547,1,2,0:0:0:0:
286,184,40677,1,2,0:0:0:0:
280,175,40741,1,2,0:0:0:0:
286,184,40870,1,2,0:0:0:0:
280,175,40934,1,2,0:0:0:0:
286,184,41064,1,0,0:0:0:0:
280,175,41128,1,0,0:0:0:0:
286,184,41451,5,0,0:0:0:0:
280,175,41515,1,0,0:0:0:0:
286,184,41645,1,0,0:0:0:0:
280,175,41709,1,0,0:0:0:0:
286,184,41838,1,0,0:0:0:0:
280,175,41902,1,0,0:0:0:0:
286,184,42032,1,2,0:0:0:0:
280,175,42096,1,2,0:0:0:0:
286,184,42225,1,0,0:0:0:0:
280,175,42289,1,0,0:0:0:0:
286,184,42419,1,2,0:0:0:0:
280,175,42483,1,2,0:0:0:0:
286,184,42612,1,2,0:0:0:0:
280,175,42676,1,2,0:0:0:0:
286,184,42806,5,0,0:0:0:0:
280,175,42870,1,0,0:0:0:0:
286,184,42999,1,0,0:0:0:0:
280,175,43063,1,0,0:0:0:0:
286,184,43193,1,0,0:0:0:0:
280,175,43257,1,0,0:0:0:0:
286,184,43386,1,0,0:0:0:0:
280,175,43450,1,0,0:0:0:0:
286,184,43580,1,2,0:0:0:0:
280,175,43644,1,2,0:0:0:0:
286,184,43774,1,2,0:0:0:0:
280,175,43838,1,2,0:0:0:0:
286,184,43968,1,2,0:0:0:0:
280,175,44032,1,2,0:0:0:0:
286,184,44161,1,0,0:0:0:0:
280,175,44225,1,0,0:0:0:0:
286,184,44548,5,0,0:0:0:0:
280,175,44612,1,0,0:0:0:0:
286,184,44742,1,0,0:0:0:0:
280,175,44806,1,0,0:0:0:0:
286,184,44935,1,0,0:0:0:0:
280,175,44999,1,0,0:0:0:0:
286,184,45129,1,2,0:0:0:0:
280,175,45193,1,2,0:0:0:0:
286,184,45322,1,0,0:0:0:0:
280,175,45386,1,0,0:0:0:0:
286,184,45516,1,2,0:0:0:0:
280,175,45580,1,2,0:0:0:0:
286,184,45903,5,2,0:0:0:0:
280,175,45967,1,2,0:0:0:0:
286,184,46097,1,2,0:0:0:0:
280,175,46161,1,2,0:0:0:0:
286,184,46290,1,2,0:0:0:0:
280,175,46354,1,2,0:0:0:0:
286,184,46484,1,0,0:0:0:0:
280,175,46548,1,0,0:0:0:0:
286,184,46677,1,2,0:0:0:0:
280,175,46741,1,2,0:0:0:0:
286,184,46871,1,2,0:0:0:0:
280,175,46935,1,2,0:0:0:0:
286,184,47064,1,2,0:0:0:0:
280,175,47128,1,2,0:0:0:0:
286,184,47258,1,0,0:0:0:0:
280,175,47322,1,0,0:0:0:0:
286,184,47645,5,2,0:0:0:0:
280,175,47709,1,2,0:0:0:0:
286,184,47839,1,2,0:0:0:0:
280,175,47903,1,2,0:0:0:0:
286,184,48032,1,2,0:0:0:0:
280,175,48096,1,2,0:0:0:0:
256,163,48225,5,2,0:0:0:0:
256,163,48419,1,0,0:0:0:0:
256,163,48612,1,2,0:0:0:0:
251,163,48999,5,2,0:0:0:0:
255,159,49064,1,2,0:0:0:0:
219,160,49290,5,2,0:0:0:0:
251,163,49387,5,2,0:0:0:0:
255,159,49483,5,2,0:0:0:0:
251,163,49580,5,2,0:0:0:0:
251,163,49870,5,2,0:0:0:0:
255,159,49935,1,2,0:0:0:0:
251,163,50161,1,2,0:0:0:0:
255,159,50226,1,2,0:0:0:0:
295,185,50548,5,2,0:0:0:0:
387,283,50741,1,2,0:0:0:0:
387,283,50838,1,0,0:0:0:0:
387,283,51032,1,0,0:0:0:0:
387,283,51129,1,2,0:0:0:0:
387,283,51322,5,0,0:0:0:0:
387,283,51387,1,0,0:0:0:0:
387,283,51451,1,2,0:0:0:0:
297,195,51516,1,2,0:0:0:0:
297,195,51580,1,0,0:0:0:0:
319,180,51645,1,2,0:0:0:0:
319,180,51709,1,2,0:0:0:0:
319,180,51774,1,0,0:0:0:0:
319,180,51838,1,2,0:0:0:0:
319,180,51903,1,2,0:0:0:0:
319,180,51967,1,0,0:0:0:0:
319,180,52032,1,2,0:0:0:0:
297,195,52096,1,0,0:0:0:0:
312,198,53645,5,4,0:0:0:0:
312,198,54032,5,4,0:0:0:0:
307,195,54419,5,4,0:0:0:0:
307,195,54806,5,4,0:0:0:0:
319,197,55193,5,2,0:0:0:0:
319,197,55580,1,2,0:0:0:0:
400,259,55774,1,0,0:0:0:0:
400,259,55870,1,0,0:0:0:0:
319,197,55967,1,2,0:0:0:0:
319,197,56354,1,2,0:0:0:0:
400,259,56548,1,0,0:0:0:0:
400,259,56645,1,0,0:0:0:0:
319,197,56741,5,2,0:0:0:0:
319,197,57129,1,2,0:0:0:0:
319,197,57516,1,2,0:0:0:0:
351,140,57709,5,2,0:0:0:0:
351,140,57806,1,2,0:0:0:0:
351,140,57903,1,2,0:0:0:0:
351,140,58096,5,2,0:0:0:0:
351,140,58193,1,2,0:0:0:0:
351,140,58290,1,2,0:0:0:0:
272,219,58580,1,0,0:0:0:0:
352,145,58677,5,2,0:0:0:0:
272,219,58870,1,0,0:0:0:0:
272,219,58967,1,0,0:0:0:0:
352,145,59064,1,2,0:0:0:0:
352,145,59451,1,2,0:0:0:0:
290,174,59645,1,0,0:0:0:0:
323,145,59838,5,2,0:0:0:0:
323,145,60032,1,2,0:0:0:0:
292,180,60129,1,0,0:0:0:0:
323,145,60225,1,2,0:0:0:0:
292,180,60419,1,0,0:0:0:0:
362,175,60612,1,2,0:0:0:0:
259,192,60903,1,2,0:0:0:0:
259,192,60999,1,2,0:0:0:0:
279,189,61193,1,2,0:0:0:0:
281,188,61258,1,2,0:0:0:0:
281,188,61322,1,2,0:0:0:0:
281,188,61387,1,2,0:0:0:0:
292,180,61677,1,0,0:0:0:0:
368,240,61774,5,2,0:0:0:0:
292,180,61967,1,0,0:0:0:0:
309,219,62161,1,2,0:0:0:0:
292,180,62451,1,0,0:0:0:0:
309,219,62548,1,2,0:0:0:0:
260,134,62741,1,0,0:0:0:0:
309,219,62935,5,2,0:0:0:0:
384,205,63225,1,0,0:0:0:0:
309,219,63322,1,2,0:0:0:0:
376,204,63516,1,0,0:0:0:0:
331,221,63709,1,2,0:0:0:0:
331,221,63806,1,2,0:0:0:0:
331,221,63903,1,2,0:0:0:0:
388,227,63999,1,2,0:0:0:0:
388,227,64096,1,2,0:0:0:0:
388,227,64290,1,2,0:0:0:0:
388,227,64387,1,2,0:0:0:0:
388,227,64483,1,2,0:0:0:0:
376,204,64774,1,0,0:0:0:0:
388,227,64870,5,2,0:0:0:0:
376,204,65064,1,0,0:0:0:0:
277,160,65258,1,2,0:0:0:0:
277,160,65354,1,2,0:0:0:0:
277,160,65451,1,2,0:0:0:0:
277,160,65548,1,2,0:0:0:0:
277,160,65645,1,2,0:0:0:0:
376,204,65838,1,0,0:0:0:0:
264,235,66032,5,2,0:0:0:0:
264,235,66225,1,2,0:0:0:0:
264,235,66322,1,0,0:0:0:0:
264,235,66516,1,0,0:0:0:0:
224,180,66612,1,2,0:0:0:0:
261,195,67580,5,4,0:0:0:0:
374,216,67967,1,0,0:0:0:0:
374,216,68354,1,0,0:0:0:0:
374,216,68741,1,0,0:0:0:0:
235,172,69129,1,2,0:0:0:0:
235,172,69516,1,2,0:0:0:0:
210,163,69903,1,2,0:0:0:0:
210,163,70290,1,2,0:0:0:0:
241,183,70677,5,4,0:0:0:0:
301,216,71064,1,0,0:0:0:0:
301,216,71451,1,0,0:0:0:0:
301,216,71838,1,0,0:0:0:0:
239,149,72225,1,2,0:0:0:0:
239,149,72612,1,2,0:0:0:0:
236,141,72999,1,2,0:0:0:0:
280,179,73193,1,0,0:0:0:0:
280,179,73290,1,0,0:0:0:0:
285,173,73387,1,2,0:0:0:0:
262,195,73774,5,4,0:0:0:0:
298,208,73967,1,0,0:0:0:0:
298,208,74161,1,0,0:0:0:0:
298,208,74354,1,0,0:0:0:0:
298,208,74548,1,0,0:0:0:0:
298,208,74741,1,0,0:0:0:0:
298,208,74935,1,0,0:0:0:0:
298,208,75129,1,0,0:0:0:0:
302,208,75322,5,2,0:0:0:0:
302,208,75516,1,2,0:0:0:0:
302,208,75709,1,2,0:0:0:0:
302,208,75903,1,2,0:0:0:0:
302,208,76096,1,2,0:0:0:0:
302,208,76290,1,2,0:0:0:0:
302,208,76483,1,2,0:0:0:0:
311,158,76677,1,2,0:0:0:0:
321,182,76870,5,2,0:0:0:0:
323,172,76967,1,2,0:0:0:0:
301,143,77064,1,0,0:0:0:0:
306,140,77112,1,0,0:0:0:0:
306,140,77161,1,0,0:0:0:0:
352,160,77258,1,2,0:0:0:0:
352,160,77354,1,2,0:0:0:0:
352,160,77451,1,0,0:0:0:0:
352,160,77499,1,0,0:0:0:0:
352,160,77548,1,0,0:0:0:0:
279,144,77645,5,2,0:0:0:0:
279,144,77741,1,2,0:0:0:0:
282,125,77838,1,0,0:0:0:0:
285,127,77887,1,0,0:0:0:0:
285,126,77935,1,0,0:0:0:0:
285,126,78032,1,2,0:0:0:0:
285,126,78129,1,2,0:0:0:0:
285,126,78225,1,0,0:0:0:0:
285,125,78274,1,0,0:0:0:0:
285,125,78322,1,0,0:0:0:0:
277,162,78419,5,2,0:0:0:0:
277,162,78483,1,0,0:0:0:0:
277,162,78548,1,2,0:0:0:0:
277,162,78612,1,0,0:0:0:0:
277,162,78677,1,2,0:0:0:0:
277,162,78741,1,0,0:0:0:0:
277,162,78806,5,2,0:0:0:0:
277,162,78870,1,0,0:0:0:0:
277,162,78935,1,2,0:0:0:0:
277,162,78999,1,0,0:0:0:0:
277,162,79064,1,2,0:0:0:0:
277,162,79128,1,0,0:0:0:0:
277,162,79193,5,2,0:0:0:0:
277,162,79257,1,0,0:0:0:0:
405,162,79322,1,2,0:0:0:0:
405,162,79451,1,2,0:0:0:0:
405,162,79580,5,2,0:0:0:0:
405,162,79709,1,2,0:0:0:0:
359,144,79838,1,2,0:0:0:0:
405,162,79967,5,2,0:0:0:0:
307,183,80032,1,2,0:0:0:0:
307,183,80354,5,2,0:0:0:0:
307,183,80419,1,2,0:0:0:0:
307,183,80741,5,0,0:0:0:0:
307,183,80806,1,0,0:0:0:0:
307,183,81129,5,4,0:0:0:0:
352,222,82677,5,6,0:0:0:0:
142,185,83064,1,0,0:0:0:0:
142,185,83258,1,0,0:0:0:0:
277,122,83354,1,2,0:0:0:0:
142,185,83451,1,0,0:0:0:0:
277,122,83645,1,2,0:0:0:0:
277,122,83741,1,0,0:0:0:0:
142,185,83838,1,2,0:0:0:0:
277,122,84129,1,0,0:0:0:0:
142,185,84225,1,2,0:0:0:0:
142,185,84419,1,2,0:0:0:0:
142,185,84516,1,0,0:0:0:0:
142,185,84612,1,2,0:0:0:0:
142,185,84903,1,0,0:0:0:0:
156,177,85193,1,2,0:0:0:0:
232,213,85580,1,0,0:0:0:0:
232,213,85774,5,0,0:0:0:0:
232,213,85870,1,2,0:0:0:0:
232,213,85967,1,0,0:0:0:0:
232,213,86064,1,2,0:0:0:0:
232,213,86161,1,2,0:0:0:0:
278,122,86451,1,2,0:0:0:0:
232,213,86548,1,0,0:0:0:0:
278,122,86741,1,2,0:0:0:0:
278,122,86838,1,0,0:0:0:0:
232,213,86935,1,2,0:0:0:0:
232,213,87322,1,0,0:0:0:0:
278,122,87516,1,0,0:0:0:0:
278,122,87612,1,2,0:0:0:0:
232,213,87709,1,0,0:0:0:0:
299,197,87903,1,0,0:0:0:0:
278,122,87999,1,2,0:0:0:0:
232,213,88096,1,0,0:0:0:0:
477,297,88193,1,2,0:0:0:0:
278,122,88290,1,2,0:0:0:0:
256,197,88387,1,0,0:0:0:0:
261,188,88483,1,2,0:0:0:0:
232,213,88580,1,0,0:0:0:0:
232,213,88677,1,0,0:0:0:0:
232,213,88774,1,0,0:0:0:0:
232,213,88870,1,0,0:0:0:0:
232,213,89064,5,0,0:0:0:0:
232,213,89161,1,0,0:0:0:0:
232,213,89258,1,2,0:0:0:0:
232,213,89451,1,0,0:0:0:0:
301,194,89548,1,2,0:0:0:0:
290,107,89645,1,0,0:0:0:0:
301,194,89838,1,2,0:0:0:0:
290,107,90032,1,0,0:0:0:0:
445,271,90225,1,0,0:0:0:0:
301,194,90322,1,2,0:0:0:0:
290,107,90419,1,0,0:0:0:0:
417,241,90516,1,0,0:0:0:0:
301,194,90612,1,2,0:0:0:0:
290,107,90806,1,2,0:0:0:0:
290,107,91096,1,0,0:0:0:0:
307,118,91387,1,0,0:0:0:0:
298,191,91580,1,2,0:0:0:0:
307,118,91774,1,0,0:0:0:0:
307,118,91967,1,0,0:0:0:0:
307,118,92161,5,2,0:0:0:0:
307,118,92258,1,0,0:0:0:0:
307,118,92354,1,2,0:0:0:0:
307,118,92548,1,0,0:0:0:0:
298,191,92645,1,2,0:0:0:0:
424,241,92741,1,2,0:0:0:0:
298,191,92935,1,2,0:0:0:0:
241,158,93129,1,0,0:0:0:0:
241,158,93322,1,0,0:0:0:0:
298,191,93419,1,2,0:0:0:0:
306,141,93516,1,0,0:0:0:0:
298,191,93709,1,2,0:0:0:0:
306,141,93903,1,0,0:0:0:0:
306,141,94193,1,0,0:0:0:0:
306,141,94483,1,2,0:0:0:0:
306,141,95064,1,0,0:0:0:0:
338,214,95258,1,0,0:0:0:0:
338,214,95451,5,2,0:0:0:0:
288,167,95645,1,0,0:0:0:0:
342,206,95741,1,2,0:0:0:0:
288,167,95838,1,0,0:0:0:0:
345,185,96032,1,2,0:0:0:0:
345,185,96129,1,0,0:0:0:0:
288,167,96225,1,2,0:0:0:0:
345,185,96516,1,0,0:0:0:0:
288,167,96612,1,2,0:0:0:0:
288,167,96806,1,2,0:0:0:0:
288,167,96903,1,0,0:0:0:0:
288,167,96999,1,2,0:0:0:0:
288,167,97193,1,0,0:0:0:0:
345,185,97290,1,2,0:0:0:0:
288,167,97387,1,0,0:0:0:0:
260,191,97483,1,0,0:0:0:0:
260,191,97580,1,2,0:0:0:0:
348,257,97967,1,0,0:0:0:0:
345,247,98161,5,0,0:0:0:0:
345,247,98258,1,0,0:0:0:0:
345,247,98354,1,2,0:0:0:0:
345,247,98451,1,0,0:0:0:0:
345,246,98548,1,2,0:0:0:0:
296,156,98741,1,0,0:0:0:0:
321,176,98838,1,2,0:0:0:0:
335,194,98935,1,2,0:0:0:0:
367,127,99032,1,0,0:0:0:0:
367,127,99129,1,2,0:0:0:0:
228,140,99225,1,0,0:0:0:0:
335,194,99322,1,2,0:0:0:0:
335,194,99709,5,0,0:0:0:0:
228,140,99903,1,0,0:0:0:0:
228,140,99999,1,2,0:0:0:0:
335,194,100096,1,2,0:0:0:0:
228,140,100290,1,0,0:0:0:0:
228,140,100387,1,2,0:0:0:0:
335,194,100483,1,2,0:0:0:0:
228,140,100580,1,0,0:0:0:0:
228,140,100677,1,2,0:0:0:0:
228,140,100774,1,0,0:0:0:0:
335,194,100870,1,2,0:0:0:0:
335,194,100967,1,0,0:0:0:0:
335,194,101064,1,0,0:0:0:0:
335,194,101161,1,0,0:0:0:0:
335,194,101258,1,0,0:0:0:0:
335,194,101451,5,0,0:0:0:0:
335,194,101548,1,0,0:0:0:0:
335,194,101645,1,2,0:0:0:0:
305,199,101838,1,0,0:0:0:0:
228,140,101935,1,2,0:0:0:0:
305,199,102032,1,2,0:0:0:0:
228,140,102129,1,0,0:0:0:0:
228,140,102225,1,2,0:0:0:0:
305,199,102419,1,2,0:0:0:0:
228,140,102612,1,0,0:0:0:0:
228,140,102709,1,2,0:0:0:0:
305,199,102806,1,0,0:0:0:0:
228,140,102903,1,0,0:0:0:0:
228,140,102999,1,2,0:0:0:0:
305,199,103193,1,2,0:0:0:0:
305,199,103483,1,0,0:0:0:0:
305,199,103774,1,2,0:0:0:0:
228,140,103967,1,2,0:0:0:0:
305,199,104161,1,0,0:0:0:0:
305,199,104354,1,0,0:0:0:0:
305,199,104548,5,2,0:0:0:0:
305,199,104645,1,0,0:0:0:0:
305,199,104741,1,2,0:0:0:0:
318,162,104935,1,0,0:0:0:0:
306,172,105032,1,2,0:0:0:0:
320,202,105322,1,0,0:0:0:0:
336,194,105516,1,2,0:0:0:0:
336,194,105806,1,0,0:0:0:0:
332,189,106096,1,0,0:0:0:0:
330,188,106290,1,2,0:0:0:0:
330,188,106580,1,0,0:0:0:0:
332,189,106870,1,2,0:0:0:0:
332,189,107451,5,0,0:0:0:0:
332,189,107548,1,0,0:0:0:0:
321,211,107645,1,0,0:0:0:0:
320,208,107709,1,0,0:0:0:0:
320,207,107774,1,0,0:0:0:0:
296,137,107838,1,0,0:0:0:0:
282,154,107935,5,0,0:0:0:0:
273,125,108032,1,2,0:0:0:0:
281,128,108080,1,2,0:0:0:0:
282,154,108128,1,2,0:0:0:0:
282,154,108225,1,0,0:0:0:0:
282,154,108322,1,2,0:0:0:0:
282,154,108419,1,0,0:0:0:0:
216,161,108516,1,2,0:0:0:0:
216,161,108612,1,0,0:0:0:0:
291,152,108677,1,0,0:0:0:0:
288,186,108806,1,0,0:0:0:0:
299,152,108870,1,0,0:0:0:0:
288,186,108999,1,0,0:0:0:0:
288,186,109096,1,0,0:0:0:0:
325,202,109145,1,0,0:0:0:0:
288,186,109193,1,0,0:0:0:0:
288,186,109290,1,0,0:0:0:0:
349,127,109386,1,2,0:0:0:0:
346,124,109451,1,2,0:0:0:0:
262,149,109516,1,2,0:0:0:0:
262,146,109580,1,0,0:0:0:0:
264,141,109677,1,0,0:0:0:0:
349,127,109773,1,2,0:0:0:0:
346,124,109838,1,2,0:0:0:0:
262,149,109903,1,2,0:0:0:0:
262,146,109967,1,0,0:0:0:0:
318,141,110064,1,0,0:0:0:0:
326,175,110161,1,2,0:0:0:0:
326,175,110258,1,0,0:0:0:0:
326,175,110354,1,2,0:0:0:0:
326,175,110548,1,2,0:0:0:0:
236,201,110741,1,0,0:0:0:0:
236,201,110790,1,0,0:0:0:0:
236,201,110838,1,0,0:0:0:0:
255,209,110935,1,2,0:0:0:0:
255,208,110999,1,2,0:0:0:0:
254,208,111064,1,2,0:0:0:0:
252,208,111129,1,0,0:0:0:0:
248,207,111225,1,2,0:0:0:0:
295,170,111322,1,0,0:0:0:0:
284,175,111419,1,2,0:0:0:0:
284,175,111467,1,2,0:0:0:0:
284,175,111516,1,2,0:0:0:0:
437,292,111612,1,0,0:0:0:0:
249,160,111709,1,0,0:0:0:0:
406,239,111758,1,0,0:0:0:0:
272,189,111806,1,0,0:0:0:0:
249,160,111903,1,2,0:0:0:0:
406,247,111999,1,0,0:0:0:0:
249,160,112096,1,0,0:0:0:0:
405,262,112193,1,0,0:0:0:0:
249,160,112290,1,2,0:0:0:0:
249,160,112354,1,2,0:0:0:0:
249,160,112419,1,2,0:0:0:0:
249,160,112483,1,0,0:0:0:0:
258,172,112580,1,0,0:0:0:0:
249,160,112677,1,2,0:0:0:0:
249,160,112741,1,2,0:0:0:0:
238,100,112806,1,2,0:0:0:0:
245,155,112870,1,0,0:0:0:0:
258,172,112967,1,0,0:0:0:0:
249,160,113064,1,2,0:0:0:0:
312,204,113161,1,0,0:0:0:0:
245,155,113257,1,0,0:0:0:0:
238,100,113306,1,0,0:0:0:0:
220,198,113354,1,0,0:0:0:0:
335,199,113451,1,2,0:0:0:0:
316,201,113548,1,2,0:0:0:0:
336,229,113596,1,2,0:0:0:0:
335,199,113645,1,2,0:0:0:0:
360,204,114032,1,2,0:0:0:0:
360,204,114129,1,2,0:0:0:0:
360,204,114225,1,2,0:0:0:0:
359,204,114322,1,2,0:0:0:0:
360,204,114419,1,0,0:0:0:0:
364,203,114516,1,0,0:0:0:0:
364,203,114612,1,0,0:0:0:0:
336,209,114709,1,0,0:0:0:0:
336,209,114806,1,2,0:0:0:0:
364,203,114903,1,2,0:0:0:0:
364,203,114999,1,0,0:0:0:0:
360,204,115096,1,0,0:0:0:0:
359,204,115193,1,2,0:0:0:0:
360,204,115290,1,2,0:0:0:0:
360,204,115386,1,0,0:0:0:0:
215,189,115435,1,0,0:0:0:0:
360,204,115483,1,0,0:0:0:0:
336,209,115580,1,2,0:0:0:0:
364,203,115677,1,2,0:0:0:0:
364,203,115773,1,0,0:0:0:0:
360,204,115870,1,0,0:0:0:0:
359,204,115967,1,2,0:0:0:0:
360,204,116064,1,2,0:0:0:0:
360,204,116160,1,0,0:0:0:0:
360,204,116257,1,0,0:0:0:0:
336,209,116354,1,2,0:0:0:0:
364,203,116451,1,2,0:0:0:0:
364,203,116547,1,0,0:0:0:0:
290,218,116596,1,0,0:0:0:0:
360,204,116644,1,0,0:0:0:0:
359,204,116741,1,2,0:0:0:0:
360,204,116838,1,2,0:0:0:0:
360,204,116934,1,0,0:0:0:0:
308,204,116983,1,0,0:0:0:0:
360,204,117031,1,0,0:0:0:0:
263,193,117129,1,2,0:0:0:0:
288,186,117225,1,2,0:0:0:0:
230,162,117322,1,0,0:0:0:0:
263,193,117419,1,0,0:0:0:0:
263,193,117516,1,2,0:0:0:0:
300,240,117580,1,0,0:0:0:0:
263,193,117645,1,0,0:0:0:0:
263,193,117709,1,2,0:0:0:0:
306,152,117806,1,0,0:0:0:0:
306,152,117903,1,2,0:0:0:0:
213,188,117967,1,2,0:0:0:0:
306,152,118032,1,2,0:0:0:0:
213,188,118096,1,0,0:0:0:0:
306,152,118193,1,0,0:0:0:0:
213,188,118290,1,2,0:0:0:0:
306,152,118354,1,0,0:0:0:0:
213,188,118419,1,0,0:0:0:0:
300,153,118483,1,2,0:0:0:0:
306,152,118580,1,0,0:0:0:0:
388,199,118677,1,2,0:0:0:0:
377,196,118741,1,0,0:0:0:0:
388,199,118806,1,0,0:0:0:0:
377,196,118870,1,2,0:0:0:0:
388,199,118935,1,0,0:0:0:0:
377,196,118999,1,2,0:0:0:0:
388,199,119064,1,0,0:0:0:0:
377,196,119128,1,0,0:0:0:0:
388,199,119193,1,2,0:0:0:0:
377,196,119257,1,0,0:0:0:0:
388,199,119322,1,2,0:0:0:0:
377,196,119386,1,2,0:0:0:0:
388,199,119451,1,2,0:0:0:0:
377,196,119515,1,2,0:0:0:0:
388,199,119580,1,2,0:0:0:0:
377,196,119644,1,2,0:0:0:0:
388,199,119709,1,2,0:0:0:0:
377,196,119774,1,2,0:0:0:0:
388,199,119838,1,2,0:0:0:0:
377,196,120225,1,4,0:0:0:0:
