osu file format v14

[General]
AudioFilename: audio.mp3
AudioLeadIn: 0
PreviewTime: 148903
Countdown: 0
SampleSet: Soft
StackLeniency: 0.2
Mode: 0
LetterboxInBreaks: 0
WidescreenStoryboard: 1

[Editor]
Bookmarks: 12544,24544,36544,48544,60544,72544,75544,99544,111544,135544,141544,149044,152044,176044,188044,212044
DistanceSpacing: 0.6
BeatDivisor: 8
GridSize: 32
TimelineZoom: 3.200004

[Metadata]
Title:Bullshit
TitleUnicode:Bullshit
Artist:Massive New Krew
ArtistUnicode:Massive New Krew
Creator:Icekalt
Version:Insane
Source:
Tags:circlez9 hardstyle hardcore trance electronic instrumental phynta yuuma mpg mappers' Ogura Yui guild fa featured artist
BeatmapID:3860382
BeatmapSetID:1829152

[Difficulty]
HPDrainRate:5
CircleSize:4
OverallDifficulty:8
ApproachRate:9
SliderMultiplier:1.8
SliderTickRate:1

[Events]
//Background and Video events
0,0,"bullsit.jpg",0,0
//Break Periods
2,24744,35944
2,99544,109444
2,176044,186694
//Storyboard Layer 0 (Background)
//Storyboard Layer 1 (Fail)
//Storyboard Layer 2 (Pass)
//Storyboard Layer 3 (Foreground)
//Storyboard Layer 4 (Overlay)
//Storyboard Sound Samples

[TimingPoints]
544,375,4,2,1,40,1,0
590,-100,4,2,1,5,0,0
919,-100,4,2,1,40,0,0
965,-100,4,2,1,5,0,0
1294,-100,4,2,1,40,0,0
1340,-100,4,2,1,5,0,0
1669,-100,4,2,1,40,0,0
1715,-100,4,2,1,5,0,0
2044,-100,4,2,1,40,0,0
2090,-100,4,2,1,5,0,0
2419,-100,4,2,1,40,0,0
2465,-100,4,2,1,5,0,0
2794,-100,4,2,1,40,0,0
2840,-100,4,2,1,5,0,0
3169,-100,4,2,1,40,0,0
3215,-100,4,2,1,5,0,0
3544,-100,4,2,1,40,0,0
3590,-100,4,2,1,5,0,0
3919,-100,4,2,1,40,0,0
3965,-100,4,2,1,5,0,0
4294,-100,4,2,1,40,0,0
4340,-100,4,2,1,5,0,0
4669,-100,4,2,1,40,0,0
4715,-100,4,2,1,5,0,0
5044,-100,4,2,1,40,0,0
5090,-100,4,2,1,5,0,0
5419,-100,4,2,1,40,0,0
5465,-100,4,2,1,5,0,0
5794,-100,4,2,1,40,0,0
5840,-100,4,2,1,5,0,0
6169,-100,4,2,1,40,0,0
6215,-100,4,2,1,5,0,0
6544,-100,4,2,1,40,0,0
7340,-100,4,2,1,5,0,0
7669,-100,4,2,1,40,0,0
7715,-100,4,2,1,5,0,0
8044,-100,4,2,1,40,0,0
8840,-100,4,2,1,5,0,0
9169,-100,4,2,1,40,0,0
9215,-100,4,2,1,5,0,0
9544,-100,4,2,1,40,0,0
10340,-100,4,2,1,5,0,0
10669,-100,4,2,1,40,0,0
10715,-100,4,2,1,5,0,0
11044,-100,4,2,1,40,0,0
12544,-100,4,2,1,50,0,0
12590,-100,4,2,1,5,0,0
12731,-100,4,2,1,50,0,0
12965,-100,4,2,1,5,0,0
13106,-100,4,2,1,50,0,0
13340,-100,4,2,1,5,0,0
13481,-100,4,2,1,50,0,0
13715,-100,4,2,1,5,0,0
13856,-100,4,2,1,50,0,0
14090,-100,4,2,1,5,0,0
14231,-100,4,2,1,50,0,0
14465,-100,4,2,1,5,0,0
14606,-100,4,2,1,50,0,0
15590,-100,4,2,1,5,0,0
15731,-100,4,2,1,50,0,0
15965,-100,4,2,1,5,0,0
16106,-100,4,2,1,50,0,0
16340,-100,4,2,1,5,0,0
16481,-100,4,2,1,50,0,0
16715,-100,4,2,1,5,0,0
16856,-100,4,2,1,50,0,0
18590,-100,4,2,1,5,0,0
18731,-100,4,2,1,50,0,0
18778,-100,4,2,1,5,0,0
18919,-100,4,2,1,50,0,0
18965,-100,4,2,1,5,0,0
19106,-100,4,2,1,50,0,0
19153,-100,4,2,1,5,0,0
19294,-100,4,2,1,50,0,0
19340,-100,4,2,1,5,0,0
19481,-100,4,2,1,50,0,0
19528,-100,4,2,1,5,0,0
19669,-100,4,2,1,50,0,0
19715,-100,4,2,1,5,0,0
19856,-100,4,2,1,50,0,0
19903,-100,4,2,1,5,0,0
20044,-100,4,2,1,50,0,0
20090,-100,4,2,1,5,0,0
20231,-100,4,2,1,50,0,0
20278,-100,4,2,1,5,0,0
20419,-100,4,2,1,50,0,0
20465,-100,4,2,1,5,0,0
20606,-100,4,2,1,50,0,0
20653,-100,4,2,1,5,0,0
20794,-100,4,2,1,50,0,0
20840,-100,4,2,1,5,0,0
20981,-100,4,2,1,50,0,0
21028,-100,4,2,1,5,0,0
21169,-100,4,2,1,50,0,0
21215,-100,4,2,1,5,0,0
21356,-100,4,2,1,50,0,0
21403,-100,4,2,1,5,0,0
21544,-100,4,2,1,50,0,0
36544,-76.9230769230769,4,2,1,60,0,0
37294,-133.333333333333,4,2,1,60,0,0
37575,-76.9230769230769,4,2,1,60,0,0
38794,-133.333333333333,4,2,1,60,0,0
39075,-76.9230769230769,4,2,1,60,0,0
40294,-133.333333333333,4,2,1,60,0,0
40575,-76.9230769230769,4,2,1,60,0,0
41231,-222.222222222221,4,2,1,60,0,0
41794,-133.333333333333,4,2,1,60,0,0
42075,-76.9230769230769,4,2,1,60,0,0
43200,-133.333333333333,4,2,1,60,0,0
43575,-76.9230769230769,4,2,1,60,0,0
44794,-133.333333333333,4,2,1,60,0,0
45075,-76.9230769230769,4,2,1,60,0,0
46294,-133.333333333333,4,2,1,60,0,0
46575,-76.9230769230769,4,2,1,60,0,0
47044,-111.111111111111,4,2,1,60,0,0
47278,-111.111111111111,4,2,1,5,0,0
47419,-111.111111111111,4,2,1,60,0,0
47465,-111.111111111111,4,2,1,5,0,0
47606,-111.111111111111,4,2,1,60,0,0
47653,-111.111111111111,4,2,1,5,0,0
47794,-133.333333333333,4,2,1,60,0,0
48075,-76.9230769230769,4,2,1,60,0,0
48544,-76.9230769230769,4,2,1,45,0,0
53044,-133.333333333333,4,2,1,45,0,0
60544,-222.222222222221,4,2,1,50,0,0
66544,-100,4,2,1,60,0,0
68044,-83.3333333333333,4,2,1,60,0,0
69919,-76.9230769230769,4,2,1,60,0,0
70294,-71.4285714285714,4,2,1,60,0,0
70669,-66.6666666666667,4,2,1,60,0,0
72544,-66.6666666666667,4,2,1,70,0,0
75544,-71.4285714285714,4,2,1,70,0,0
77419,-222.222222222221,4,2,1,70,0,0
78544,-71.4285714285714,4,2,1,70,0,0
79012,-62.5,4,2,1,70,0,0
79294,-71.4285714285714,4,2,1,70,0,0
79856,-62.5,4,2,1,70,0,0
80419,-71.4285714285714,4,2,1,70,0,0
87544,-62.5,4,2,1,75,0,0
111544,-76.9230769230769,4,2,1,60,0,0
112294,-133.333333333333,4,2,1,60,0,0
112575,-76.9230769230769,4,2,1,60,0,0
113794,-133.333333333333,4,2,1,60,0,0
114075,-76.9230769230769,4,2,1,60,0,0
115294,-133.333333333333,4,2,1,60,0,0
115575,-76.9230769230769,4,2,1,60,0,0
116231,-222.222222222221,4,2,1,60,0,0
116794,-133.333333333333,4,2,1,60,0,0
117075,-76.9230769230769,4,2,1,60,0,0
118294,-133.333333333333,4,2,1,60,0,0
118575,-76.9230769230769,4,2,1,60,0,0
119794,-133.333333333333,4,2,1,60,0,0
120075,-76.9230769230769,4,2,1,60,0,0
121294,-133.333333333333,4,2,1,60,0,0
121575,-76.9230769230769,4,2,1,60,0,0
122278,-76.9230769230769,4,2,1,5,0,0
122419,-76.9230769230769,4,2,1,60,0,0
122465,-76.9230769230769,4,2,1,5,0,0
122606,-76.9230769230769,4,2,1,60,0,0
122653,-76.9230769230769,4,2,1,5,0,0
122747,-133.333333333333,4,2,1,60,0,0
123075,-76.9230769230769,4,2,1,60,0,0
123544,-71.4285714285714,4,2,1,65,0,0
124575,-76.9230769230769,4,2,1,65,0,0
125044,-71.4285714285714,4,2,1,65,0,0
128278,-71.4285714285714,4,2,1,5,0,0
128419,-71.4285714285714,4,2,1,65,0,0
128465,-71.4285714285714,4,2,1,5,0,0
128606,-71.4285714285714,4,2,1,65,0,0
128653,-71.4285714285714,4,2,1,5,0,0
128794,-66.6666666666667,4,2,1,65,0,0
129544,-71.4285714285714,4,2,1,65,0,0
134278,-71.4285714285714,4,2,1,5,0,0
134419,-71.4285714285714,4,2,1,65,0,0
134465,-71.4285714285714,4,2,1,5,0,0
134606,-71.4285714285714,4,2,1,65,0,0
134653,-71.4285714285714,4,2,1,5,0,0
134794,-66.6666666666667,4,2,1,65,0,0
135544,-66.6666666666667,4,2,1,45,0,0
140044,-133.333333333333,4,2,1,45,0,0
141544,-71.4285714285714,4,2,1,60,0,0
144544,-166.666666666667,4,2,1,70,0,0
146794,-66.6666666666667,4,2,1,70,0,0
150919,-83.3333333333333,4,2,1,70,0,0
151106,-111.111111111111,4,2,1,70,0,0
152044,-62.5,4,2,1,70,0,0
164044,-58.8235294117647,4,2,1,75,0,0
164794,-100,4,2,1,60,0,0
165544,-58.8235294117647,4,2,1,60,0,0
167794,-100,4,2,1,60,0,0
168544,-58.8235294117647,4,2,1,60,0,0
170419,-100,4,2,1,60,0,0
171544,-58.8235294117647,4,2,1,60,0,0
173794,-100,4,2,1,60,0,0
188044,-71.4285714285714,4,2,1,75,0,0
192778,-71.4285714285714,4,2,1,5,0,0
192919,-71.4285714285714,4,2,1,75,0,0
192965,-71.4285714285714,4,2,1,5,0,0
193106,-71.4285714285714,4,2,1,75,0,0
193153,-71.4285714285714,4,2,1,5,0,0
193294,-71.4285714285714,4,2,1,75,0,0
198731,-71.4285714285714,4,2,1,75,0,0
198778,-71.4285714285714,4,2,1,5,0,0
198919,-71.4285714285714,4,2,1,75,0,0
198965,-71.4285714285714,4,2,1,5,0,0
199106,-71.4285714285714,4,2,1,75,0,0
199153,-71.4285714285714,4,2,1,5,0,0
199294,-71.4285714285714,4,2,1,75,0,0
204778,-71.4285714285714,4,2,1,5,0,0
204919,-71.4285714285714,4,2,1,75,0,0
204965,-71.4285714285714,4,2,1,5,0,0
205106,-71.4285714285714,4,2,1,75,0,0
205153,-71.4285714285714,4,2,1,5,0,0
205294,-71.4285714285714,4,2,1,75,0,0
209044,-58.8235294117647,4,2,1,75,0,0

[Colours]
Combo1 : 232,75,0
Combo2 : 255,152,102
Combo3 : 253,115,129

[HitObjects]
173,113,544,6,0,L|147:83,1,22.5,8|0,2:3|0:0,0:0:0:0:
158,95,919,2,0,L|172:112,1,22.5,8|0,2:3|0:0,0:0:0:0:
339,113,1294,6,0,L|365:83,1,22.5,8|0,2:3|0:0,0:0:0:0:
354,95,1669,2,0,L|339:112,1,22.5,8|0,2:3|0:0,0:0:0:0:
339,271,2044,6,0,L|365:301,1,22.5,8|0,2:3|0:0,0:0:0:0:
354,289,2419,2,0,L|339:271,1,22.5,8|0,2:3|0:0,0:0:0:0:
173,271,2794,6,0,L|147:301,1,22.5,8|0,2:3|0:0,0:0:0:0:
158,289,3169,2,0,L|172:271,1,22.5,8|0,2:3|0:0,0:0:0:0:
370,189,3544,6,0,L|410:192,1,22.5,8|0,2:3|0:0,0:0:0:0:
393,191,3919,2,0,L|371:189,1,22.5,8|0,2:3|0:0,0:0:0:0:
258,306,4294,6,0,L|256:346,1,22.5,8|0,2:3|0:0,0:0:0:0:
256,329,4669,2,0,L|258:307,1,22.5,8|0,2:3|0:0,0:0:0:0:
141,194,5044,6,0,L|101:192,1,22.5,8|0,2:3|0:0,0:0:0:0:
118,192,5419,2,0,L|140:194,1,22.5,8|0,2:3|0:0,0:0:0:0:
253,77,5794,6,0,L|256:37,1,22.5,8|0,2:3|0:0,0:0:0:0:
255,54,6169,2,0,L|253:76,1,22.5,8|0,3:3|0:0,0:0:0:0:
256,192,6544,5,8,3:3:0:0:
256,192,6919,1,8,3:3:0:0:
351,81,7294,6,0,L|379:104,1,22.5,8|0,2:3|0:0,0:0:0:0:
368,95,7669,2,0,L|351:81,1,22.5,8|0,2:3|0:0,0:0:0:0:
256,192,8044,5,8,2:3:0:0:
256,192,8419,1,8,2:3:0:0:
367,287,8794,6,0,L|344:315,1,22.5,8|0,2:3|0:0,0:0:0:0:
352,304,9169,2,0,L|367:287,1,22.5,8|0,2:3|0:0,0:0:0:0:
256,192,9544,5,8,2:3:0:0:
256,192,9919,1,8,2:3:0:0:
161,303,10294,6,0,L|133:280,1,22.5,8|0,2:3|0:0,0:0:0:0:
143,288,10669,2,0,L|161:303,1,22.5,8|0,2:3|0:0,0:0:0:0:
255,370,11044,5,0,0:0:0:0:
186,306,12544,6,0,L|179:266,1,22.5,8|0,2:3|0:0,0:0:0:0:
182,283,12731,1,2,0:0:0:0:
323,274,12919,6,0,L|330:234,1,22.5,8|0,2:3|0:0,0:0:0:0:
327,251,13106,1,2,0:0:0:0:
161,207,13294,6,0,L|154:167,1,22.5,8|0,2:3|0:0,0:0:0:0:
157,184,13481,1,2,0:0:0:0:
341,176,13669,6,0,L|348:136,1,22.5,8|0,2:3|0:0,0:0:0:0:
345,153,13856,1,2,0:0:0:0:
138,109,14044,6,0,L|131:69,1,22.5,8|0,2:3|0:0,0:0:0:0:
134,86,14231,1,2,0:0:0:0:
362,81,14419,6,0,L|369:41,1,22.5,8|0,2:3|0:0,0:0:0:0:
366,58,14606,1,2,0:0:0:0:
246,143,14794,5,8,2:3:0:0:
264,161,14981,1,2,0:0:0:0:
263,138,15169,1,8,2:3:0:0:
245,120,15356,1,2,0:0:0:0:
309,275,15544,6,0,L|344:267,1,22.5,8|0,2:3|0:0,0:0:0:0:
331,270,15731,1,2,0:0:0:0:
206,303,15919,6,0,L|184:308,1,22.5,8|0,2:3|0:0,0:0:0:0:
184,308,16106,1,2,0:0:0:0:
342,355,16294,6,0,L|377:363,1,22.5,8|0,2:3|0:0,0:0:0:0:
363,360,16481,1,2,0:0:0:0:
169,225,16669,6,0,L|134:217,1,22.5,8|0,2:3|0:0,0:0:0:0:
148,220,16856,1,2,0:0:0:0:
255,32,17044,5,8,2:3:0:0:
255,32,17419,1,8,2:3:0:0:
178,101,17794,1,8,2:3:0:0:
178,101,17981,1,2,0:0:0:0:
328,215,18169,1,8,2:3:0:0:
328,215,18356,1,2,0:0:0:0:
198,315,18544,6,0,L|170:308,1,22.5,8|0,2:3|0:0,0:0:0:0:
176,309,18731,2,0,L|198:315,1,22.5,8|0,0:0|0:0,0:0:0:0:
329,258,18919,2,0,L|357:251,1,22.5,8|0,0:0|0:0,0:0:0:0:
350,252,19106,2,0,L|328:257,1,22.5,8|0,0:0|0:0,0:0:0:0:
155,190,19294,2,0,L|127:183,1,22.5,8|0,2:3|0:0,0:0:0:0:
133,184,19481,2,0,L|154:189,1,22.5,8|0,0:0|0:0,0:0:0:0:
351,122,19669,2,0,L|379:115,1,22.5,8|0,0:0|0:0,0:0:0:0:
373,116,19856,2,0,L|351:121,1,22.5,8|0,0:0|0:0,0:0:0:0:
157,27,20044,6,0,L|162:59,1,22.5,8|0,2:3|0:0,0:0:0:0:
160,49,20231,2,0,L|157:27,1,22.5,8|0,0:0|0:0,0:0:0:0:
350,136,20419,6,0,L|345:168,1,22.5,8|0,0:0|0:0,0:0:0:0:
346,158,20606,2,0,L|349:135,1,22.5,8|0,0:0|0:0,0:0:0:0:
179,230,20794,6,0,L|184:262,1,22.5,8|0,2:3|0:0,0:0:0:0:
182,252,20981,2,0,L|178:229,1,22.5,8|0,0:0|0:0,0:0:0:0:
309,336,21169,6,0,L|304:368,1,22.5,8|0,0:0|0:0,0:0:0:0:
305,358,21356,2,0,L|308:335,1,22.5,8|0,0:0|0:0,0:0:0:0:
256,170,21544,5,8,2:3:0:0:
256,156,21637,1,8,0:0:0:0:
256,142,21731,1,8,0:0:0:0:
256,128,21825,1,8,0:0:0:0:
256,114,21919,1,8,2:3:0:0:
256,100,22012,1,8,0:0:0:0:
256,86,22106,1,8,0:0:0:0:
256,72,22200,1,8,0:0:0:0:
256,58,22294,6,0,L|256:29,5,30,8|0|8|0|8|0,2:3|0:0|0:0|0:0|0:0|0:0,0:0:0:0:
339,34,22669,2,0,L|362:0,5,30,8|0|8|0|8|0,2:3|0:0|0:0|0:0|0:0|0:0,0:0:0:0:
432,18,23044,6,0,L|452:14,28,11.25,2|0|0|0|2|0|0|0|2|0|0|0|2|0|0|0|0|0|0|0|0|0|0|0|0|0|0|0|0,2:3|0:0|0:0|0:0|2:3|0:0|0:0|0:0|2:3|0:0|0:0|0:0|2:3|0:0|0:0|0:0|0:0|0:0|0:0|0:0|0:0|0:0|0:0|0:0|0:0|0:0|0:0|0:0|0:0,0:0:0:0:
445,93,23794,5,0,0:0:0:0:
445,93,24169,1,0,0:0:0:0:
461,220,24544,5,2,3:2:0:0:
164,340,36544,6,0,B|176:290|176:290|116:235|116:235|128:188,1,175.499991966248,4|0,1:0|0:0,0:0:0:0:
137,186,36919,1,2,1:0:0:0:
72,127,37106,1,0,1:0:0:0:
212,58,37294,2,0,P|206:42|205:65,1,67.5000025749208,2|0,1:0|0:0,0:0:0:0:
231,86,37575,2,0,P|166:78|241:70,1,233.999989288331,2|0,1:0|0:0,0:0:0:0:
317,119,38044,5,8,0:0:0:0:
386,247,38231,2,0,L|403:181,1,58.4999973220826,0|0,1:0|0:0,0:0:0:0:
283,277,38419,2,0,L|266:211,1,58.4999973220826,2|0,1:0|0:0,0:0:0:0:
379,324,38606,2,0,L|396:258,1,58.4999973220826,0|0,1:0|0:0,0:0:0:0:
238,372,38794,6,0,B|206:383|206:383|178:361,1,67.5000025749208,2|0,1:0|0:0,0:0:0:0:
254,357,39075,2,0,B|273:342|298:269|242:215|166:247|163:322|177:341,1,233.999989288331,2|0,1:0|0:0,0:0:0:0:
117,244,39544,6,0,B|97:183|97:183|43:158|43:158|23:94,1,175.499991966248,4|0,1:0|0:0,0:0:0:0:
33,93,39919,1,2,1:0:0:0:
131,108,40106,1,0,1:0:0:0:
292,48,40294,2,0,P|295:31|282:50,1,67.5000025749208,2|0,1:0|0:0,0:0:0:0:
293,81,40575,2,0,P|241:40|309:72,1,233.999989288331,2|0,1:0|0:0,0:0:0:0:
279,239,41044,5,8,0:0:0:0:
174,201,41231,6,0,L|153:192,1,20.2499993820191,0|0,1:0|0:0,0:0:0:0:
378,175,41419,2,0,L|396:161,1,20.2499993820191,2|0,1:0|0:0,0:0:0:0:
297,353,41606,2,0,L|299:375,1,20.2499993820191,0|0,1:0|0:0,0:0:0:0:
279,239,41794,6,0,B|264:229|264:229|289:225|289:225|287:263,1,67.5000025749208,2|0,1:0|0:0,0:0:0:0:
219,315,42075,6,0,B|273:285|270:214|270:214|294:278|357:288,1,233.999989288331,2|0,1:0|0:0,0:0:0:0:
297,353,42544,2,0,B|233:325|233:325|190:342|190:342|120:308,1,175.499991966248,4|0,1:0|0:0,0:0:0:0:
124,322,42919,1,2,1:0:0:0:
34,355,43106,1,0,1:0:0:0:
83,209,43294,2,0,P|97:199|74:203,1,67.5000025749208,2|0,1:0|0:0,0:0:0:0:
59,233,43575,2,0,P|52:167|76:239,1,233.999989288331,2|0,1:0|0:0,0:0:0:0:
0,95,44044,5,8,0:0:0:0:
145,33,44231,2,0,P|118:44|91:78,1,58.4999973220826,0|0,1:0|0:0,0:0:0:0:
219,162,44419,2,0,P|199:137|209:114,1,58.4999973220826,2|0,1:0|0:0,0:0:0:0:
336,80,44606,2,0,P|309:81|320:95,1,58.4999973220826,0|0,1:0|0:0,0:0:0:0:
411,164,44794,6,0,B|475:144,1,67.5000025749208,2|0,1:0|0:0,0:0:0:0:
484,161,45075,2,0,B|453:206|456:218|548:255|486:325|395:287|464:217|462:204|412:181,1,233.999989288331,2|0,1:0|0:0,0:0:0:0:
279,269,45544,6,0,B|217:287|217:287|191:341|191:341|127:360,1,175.499991966248,4|0,1:0|0:0,0:0:0:0:
126,350,45919,1,2,1:0:0:0:
143,252,46106,1,0,1:0:0:0:
69,111,46294,2,0,P|72:94|59:113,1,67.5000025749208,2|0,1:0|0:0,0:0:0:0:
70,144,46575,2,0,P|18:103|86:135,1,233.999989288331,2|0,1:0|0:0,0:0:0:0:
193,153,47044,5,8,0:0:0:0:
263,285,47231,6,0,L|244:277,1,20.2499993820191,0|0,1:0|0:0,0:0:0:0:
348,199,47419,6,0,L|329:205,1,20.2499993820191,0|0,1:0|0:0,0:0:0:0:
358,78,47606,6,0,L|347:95,1,20.2499993820191,0|0,1:0|0:0,0:0:0:0:
465,190,47794,6,0,B|450:180|450:180|475:176|475:176|473:214,1,67.5000025749208,2|0,1:0|0:0,0:0:0:0:
469,76,48075,6,0,B|463:123|443:152|443:152|485:212|485:212|446:244|448:295,1,233.999989288331,2|0,1:0|0:0,0:0:0:0:
297,353,48544,5,4,1:0:0:0:
307,361,48731,1,2,0:0:0:0:
320,358,48919,1,2,0:0:0:0:
310,350,49106,1,2,0:0:0:0:
297,353,49294,1,2,0:0:0:0:
297,353,49669,1,2,2:3:0:0:
178,276,50044,5,4,1:0:0:0:
168,284,50231,1,2,0:0:0:0:
155,281,50419,1,2,0:0:0:0:
165,273,50606,1,2,0:0:0:0:
178,276,50794,1,2,0:0:0:0:
178,276,51356,1,0,0:0:0:0:
297,202,51544,5,4,1:0:0:0:
307,210,51731,1,2,0:0:0:0:
320,207,51919,1,2,0:0:0:0:
310,199,52106,1,2,0:0:0:0:
297,202,52294,1,2,0:0:0:0:
307,210,52481,1,2,0:0:0:0:
15,78,53044,6,0,L|85:53,1,67.5000025749208,4|0,1:0|0:0,0:0:0:0:
37,35,53325,2,0,L|62:105,1,67.5000025749208,2|0,0:0|0:0,0:0:0:0:
48,66,53606,1,2,0:0:0:0:
207,140,53794,6,0,L|137:115,1,67.5000025749208,2|0,0:0|0:0,0:0:0:0:
185,97,54075,2,0,L|160:167,1,67.5000025749208,2|0,0:0|0:0,0:0:0:0:
174,128,54356,1,2,0:0:0:0:
84,283,54544,6,0,L|179:303,1,67.5000025749208,4|0,1:0|0:0,0:0:0:0:
89,311,54825,2,0,L|157:261,1,67.5000025749208,2|0,0:0|0:0,0:0:0:0:
161,283,55106,1,2,0:0:0:0:
258,333,55294,6,0,L|394:358,1,135.000005149842,2|2,0:0|2:3,0:0:0:0:
325,345,55856,1,2,0:0:0:0:
455,249,56044,6,0,L|360:269,1,67.5000025749208,4|0,1:0|0:0,0:0:0:0:
450,277,56325,2,0,L|382:227,1,67.5000025749208,2|0,0:0|0:0,0:0:0:0:
378,249,56606,1,2,0:0:0:0:
447,135,56794,1,2,0:0:0:0:
447,135,57169,1,2,2:3:0:0:
447,135,57356,1,2,0:0:0:0:
244,36,57544,6,0,L|279:96,1,67.5000025749208,14|0,2:0|0:0,0:0:0:0:
268,36,57825,2,0,L|233:96,1,67.5000025749208,2|0,0:0|0:0,0:0:0:0:
256,59,58106,1,2,0:0:0:0:
255,237,58294,1,2,0:0:0:0:
255,237,58669,1,2,2:3:0:0:
86,74,59044,5,2,0:0:0:0:
426,74,59325,1,2,0:0:0:0:
256,158,59606,1,2,0:0:0:0:
255,18,59794,1,2,2:3:0:0:
255,18,60169,1,2,0:0:0:0:
290,369,60544,6,0,B|267:353|267:353|262:307|262:307|236:286,1,101.249996910095,10|0,2:3|0:0,0:0:0:0:
268,373,61106,1,2,2:3:0:0:
268,373,61669,1,2,2:3:0:0:
219,286,62044,6,0,B|242:270|242:270|247:224|247:224|273:203,1,101.249996910095,10|0,2:0|0:0,0:0:0:0:
241,290,62606,1,2,2:3:0:0:
241,290,63169,1,2,2:3:0:0:
289,203,63544,6,0,B|266:187|266:187|261:141|261:141|235:120,1,101.249996910095,10|0,2:0|0:0,0:0:0:0:
267,207,64106,1,2,2:3:0:0:
267,207,64669,1,2,2:3:0:0:
218,120,65044,6,0,B|241:104|241:104|246:58|246:58|272:37,1,101.249996910095,10|0,2:0|0:0,0:0:0:0:
240,124,65606,1,2,2:3:0:0:
240,124,66169,1,2,2:3:0:0:
456,308,66544,6,0,B|440:275|440:275|368:257|368:257|342:217,1,135,10|0,2:0|1:0,0:0:0:0:
318,345,66919,2,0,L|346:401,1,45,8|0,0:0|3:0,3:0:0:0:
338,384,67106,2,0,L|317:344,1,45,2|0,2:3|3:0,3:0:0:0:
58,253,67294,6,0,B|74:220|74:220|146:202|146:202|172:162,1,135,10|0,2:0|1:0,0:0:0:0:
196,290,67669,2,0,L|167:346,1,45,8|0,0:0|3:0,3:0:0:0:
176,329,67856,2,0,L|196:289,1,45,2|0,2:3|3:0,3:0:0:0:
467,188,68044,6,0,B|448:146|448:146|376:128|376:128|354:84,1,161.999995056153,10|0,2:0|1:0,0:0:0:0:
300,214,68419,2,0,L|334:277,1,53.9999983520508,8|0,0:0|0:0,0:0:0:0:
325,261,68606,2,0,L|299:213,1,53.9999983520508,2|0,2:3|0:0,0:0:0:0:
40,107,68794,6,0,B|59:65|59:65|131:47|131:47|153:3,1,161.999995056153,10|0,2:0|1:0,0:0:0:0:
207,133,69169,2,0,L|173:196,1,53.9999983520508,8|0,0:0|0:0,0:0:0:0:
182,180,69356,2,0,L|207:132,1,53.9999983520508,2|0,2:3|0:0,0:0:0:0:
318,335,69544,6,0,L|388:350,1,53.9999983520508,10|0,2:0|0:0,0:0:0:0:
407,342,69731,2,0,L|354:330,1,53.9999983520508,8|0,2:0|0:0,0:0:0:0:
188,287,69919,6,0,L|106:305,1,58.4999973220826,10|0,2:0|0:0,0:0:0:0:
90,289,70106,2,0,L|150:276,1,58.4999973220826,8|0,2:0|0:0,0:0:0:0:
309,185,70294,6,0,L|396:203,1,62.9999980773926,10|0,2:0|0:0,0:0:0:0:
412,185,70481,2,0,L|349:170,1,62.9999980773926,8|0,2:0|0:0,0:0:0:0:
198,108,70669,6,0,L|107:127,1,67.5000025749208,10|0,2:0|0:0,0:0:0:0:
91,107,70856,2,0,L|160:91,1,67.5000025749208,8|0,2:0|0:0,0:0:0:0:
348,16,71044,5,10,2:0:0:0:
350,22,71137,1,8,2:0:0:0:
352,28,71231,1,8,2:0:0:0:
354,34,71325,1,8,2:0:0:0:
357,40,71419,1,10,2:0:0:0:
359,45,71512,1,8,2:0:0:0:
363,52,71606,1,8,2:0:0:0:
366,58,71700,1,8,2:0:0:0:
368,64,71794,6,0,L|417:117,1,67.5000025749208,10|10,2:0|2:0,0:0:0:0:
309,150,71981,2,0,L|325:215,1,67.5000025749208,10|10,2:0|2:0,0:0:0:0:
456,198,72169,2,0,L|526:245,1,67.5000025749208,10|10,2:0|2:0,0:0:0:0:
391,300,72356,2,0,L|397:376,1,67.5000025749208,10|10,2:0|2:0,0:0:0:0:
163,254,72544,5,2,0:0:0:0:
63,236,72919,5,2,0:0:0:0:
163,254,73106,1,2,0:0:0:0:
262,267,73294,1,2,0:0:0:0:
163,254,73575,5,2,2:1:0:0:
36,98,74794,5,8,0:0:0:0:
161,59,74981,1,8,0:0:0:0:
286,20,75169,1,8,0:0:0:0:
231,307,75544,6,0,B|161:283|161:283|194:166,1,188.999994232178,8|0,2:3|0:0,0:0:0:0:
281,125,75919,2,0,B|351:149|351:149|318:266,1,188.999994232178,8|0,2:3|0:0,0:0:0:0:
208,297,76294,6,0,B|146:256|146:256|209:151,1,188.999994232178,8|0,2:3|0:0,0:0:0:0:
303,134,76669,2,0,B|365:175|365:175|302:280,1,188.999994232178,8|0,2:3|0:0,0:0:0:0:
182,281,77044,6,0,B|134:225|134:225|221:140,1,188.999994232178,8|0,2:3|0:0,0:0:0:0:
327,140,77419,6,0,B|339:127|339:127|372:127|372:127|395:112,1,60.7499981460572,8|0,2:3|0:0,0:0:0:0:
475,181,77794,5,8,2:3:0:0:
494,202,77887,1,2,2:3:0:0:
480,220,77981,1,2,2:3:0:0:
495,235,78075,1,2,2:3:0:0:
490,249,78169,1,8,2:3:0:0:
495,259,78262,1,2,2:3:0:0:
491,269,78356,1,2,2:3:0:0:
495,275,78450,1,2,2:3:0:0:
495,282,78544,6,0,B|430:349|430:349|336:308,1,188.999994232178,8|0,2:3|0:0,0:0:0:0:
356,294,78919,1,8,2:3:0:0:
249,363,79106,6,0,B|244:342|244:342|264:307|264:307|262:285,1,72,2|0,2:3|0:0,0:0:0:0:
17,282,79294,6,0,B|82:349|82:349|176:308,1,188.999994232178,8|0,2:3|0:0,0:0:0:0:
156,294,79669,1,8,2:3:0:0:
263,363,79856,6,0,B|268:342|268:342|248:307|248:307|250:285,1,72,2|0,2:3|0:0,0:0:0:0:
261,285,80044,5,8,2:3:0:0:
249,363,80231,2,0,B|244:342|244:342|264:307|264:307|262:285,1,72,2|0,2:3|0:0,0:0:0:0:
495,282,80419,6,0,B|430:349|430:349|336:308,1,188.999994232178,8|0,2:3|0:0,0:0:0:0:
256,192,80794,5,8,2:3:0:0:
256,192,80981,1,2,0:0:0:0:
256,192,81169,1,8,2:3:0:0:
256,106,81356,1,2,0:0:0:0:
280,285,81544,6,0,B|350:261|350:261|317:144,1,188.999994232178,8|0,2:3|0:0,0:0:0:0:
230,103,81919,2,0,B|160:127|160:127|193:244,1,188.999994232178,8|0,2:3|0:0,0:0:0:0:
303,275,82294,6,0,B|365:234|365:234|302:129,1,188.999994232178,8|0,2:3|0:0,0:0:0:0:
208,112,82669,2,0,B|146:153|146:153|209:258,1,188.999994232178,8|0,2:3|0:0,0:0:0:0:
280,284,83044,6,0,B|350:260|350:260|317:143,1,188.999994232178,8|0,2:3|0:0,0:0:0:0:
230,102,83419,2,0,B|160:126|160:126|193:243,1,188.999994232178,8|0,2:3|0:0,0:0:0:0:
255,287,83794,6,0,B|330:283|330:283|328:160,1,188.999994232178,8|0,2:3|0:0,0:0:0:0:
255,99,84169,2,0,B|180:103|180:103|182:226,1,188.999994232178,8|0,2:3|0:0,0:0:0:0:
191,226,84544,1,8,2:3:0:0:
57,362,84731,6,0,B|62:327|62:327|247:305,1,188.999994232178,2|0,2:1|0:0,0:0:0:0:
125,288,85106,1,0,0:0:0:0:
125,288,85294,1,8,2:3:0:0:
15,183,85481,2,0,B|20:148|20:148|205:126,1,188.999994232178,2|0,2:1|0:0,0:0:0:0:
83,109,85856,1,0,0:0:0:0:
256,12,86044,5,8,2:3:0:0:
256,12,86419,1,8,2:3:0:0:
349,140,86794,6,0,L|367:72,1,62.9999980773926,8|0,0:0|0:0,0:0:0:0:
365,79,86981,2,0,L|348:139,1,62.9999980773926,8|0,0:0|0:0,0:0:0:0:
404,214,87169,6,0,L|442:154,1,62.9999980773926,8|0,0:0|0:0,0:0:0:0:
438,161,87356,2,0,L|403:213,1,62.9999980773926,8|0,0:0|0:0,0:0:0:0:
293,275,87544,6,0,B|280:284|280:284|272:283|272:283|274:289|274:289|248:311|248:311|202:265|202:265|189:264|189:264|190:251|190:251|142:197,1,216,8|0,2:3|0:0,0:0:0:0:
211,107,87919,2,0,B|224:98|224:98|232:99|232:99|230:92|230:92|256:71|256:71|302:117|302:117|315:118|315:118|314:131|314:131|362:185,1,216,8|0,2:3|0:0,0:0:0:0:
270,282,88294,6,0,B|255:288|255:288|247:285|247:285|248:292|248:292|217:306|217:306|185:249|185:249|172:245|172:245|177:233|177:233|144:168,1,216,8|0,2:3|0:0,0:0:0:0:
234,99,88669,2,0,B|249:93|249:93|257:97|257:97|256:90|256:90|287:76|287:76|319:132|319:132|332:136|332:136|327:149|327:149|360:213,1,216,8|0,2:3|0:0,0:0:0:0:
245,284,89044,6,0,B|230:286|230:286|223:280|223:280|222:287|222:287|188:293|188:293|172:230|172:230|161:223|161:223|169:212|169:212|154:141,1,216,8|0,2:3|0:0,0:0:0:0:
166,144,89419,1,8,2:3:0:0:
129,34,89606,6,0,L|35:16,1,72,2|0,2:3|0:0,0:0:0:0:
68,41,89794,2,0,L|138:54,1,72,8|0,2:3|0:0,0:0:0:0:
256,4,89981,1,8,2:3:0:0:
256,4,90169,1,8,2:3:0:0:
256,104,90356,1,2,2:3:0:0:
241,282,90544,6,0,B|256:288|256:288|264:285|264:285|263:292|263:292|294:306|294:306|326:249|326:249|339:245|339:245|334:233|334:233|367:168,1,216,8|0,2:3|0:0,0:0:0:0:
277,99,90919,2,0,B|262:93|262:93|254:97|254:97|255:90|255:90|224:76|224:76|192:132|192:132|179:136|179:136|184:149|184:149|151:213,1,216,8|0,2:3|0:0,0:0:0:0:
96,354,91294,6,0,B|132:352|132:352|131:301,1,72,8|0,2:3|0:0,0:0:0:0:
60,254,91481,2,0,B|24:256|24:256|25:307,1,72,2|0,2:3|0:0,0:0:0:0:
112,344,91669,6,0,B|145:329|145:329|126:282,1,72,8|0,2:3|0:0,0:0:0:0:
43,263,91856,2,0,B|10:278|10:278|29:325,1,72,2|0,2:3|0:0,0:0:0:0:
157,202,92044,6,0,L|473:153,1,288,8|8,2:3|0:0,0:0:0:0:
280,38,92606,6,0,L|329:354,1,288,8|8,2:3|0:0,0:0:0:0:
256,381,93169,1,8,2:3:0:0:
256,381,93356,1,8,0:0:0:0:
44,276,93544,6,0,L|71:133,1,144,8|8,2:3|0:0,0:0:0:0:
82,125,93825,1,8,0:0:0:0:
93,116,93919,1,8,2:3:0:0:
203,71,94106,6,0,L|195:-9,1,72,2|8,2:3|0:0,0:0:0:0:
185,16,94294,2,0,L|192:87,1,72,8|0,2:3|0:0,0:0:0:0:
314,13,94481,1,2,2:3:0:0:
314,13,94669,1,8,2:3:0:0:
349,99,94856,1,8,0:0:0:0:
325,248,95044,6,0,B|318:262|318:262|310:265|310:265|315:270|315:270|301:301|301:301|240:279|240:279|227:285|227:285|223:272|223:272|156:245,1,216,8|0,2:3|0:0,0:0:0:0:
179,133,95419,2,0,B|186:119|186:119|194:117|194:117|189:112|189:112|203:81|203:81|264:103|264:103|277:97|277:97|281:110|281:110|348:137,1,216,8|0,2:3|0:0,0:0:0:0:
308,264,95794,6,0,B|298:276|298:276|289:276|289:276|293:283|293:283|271:309|271:309|217:272|217:272|204:274|204:274|203:261|203:261|146:217,1,216,8|0,2:3|0:0,0:0:0:0:
196,116,96169,2,0,B|207:104|207:104|215:104|215:104|212:97|212:97|233:71|233:71|287:108|287:108|300:106|300:106|301:119|301:119|359:163,1,216,8|0,2:3|0:0,0:0:0:0:
402,334,96544,6,0,L|479:317,1,72,8|0,2:3|0:0,0:0:0:0:
472,318,96731,2,0,L|402:334,1,72,8|0,0:0|0:0,0:0:0:0:
291,363,96919,1,8,2:3:0:0:
204,148,97294,6,0,L|127:131,1,72,8|0,2:3|0:0,0:0:0:0:
133,132,97481,2,0,L|203:147,1,72,8|0,0:0|0:0,0:0:0:0:
310,234,97669,6,0,L|387:217,1,72,8|0,2:3|0:0,0:0:0:0:
381,218,97856,2,0,L|310:233,1,72,8|0,0:0|0:0,0:0:0:0:
256,192,110044,12,0,111450,0:0:0:0:
459,320,111544,6,0,B|417:289|417:289|343:323|343:323|305:293,1,175.499991966248,4|0,1:0|0:0,0:0:0:0:
310,282,111919,1,2,1:0:0:0:
228,353,112106,1,0,1:0:0:0:
177,214,112294,2,0,P|156:200|169:221,1,67.5000025749208,2|0,1:0|0:0,0:0:0:0:
195,241,112575,2,0,P|128:193|207:218,1,233.999989288331,2|0,1:0|0:0,0:0:0:0:
355,175,113044,5,8,0:0:0:0:
403,57,113231,2,0,L|420:-9,1,58.4999973220826,0|0,1:0|0:0,0:0:0:0:
305,81,113419,2,0,L|286:15,1,58.4999973220826,2|0,1:0|0:0,0:0:0:0:
232,150,113606,2,0,L|183:102,1,58.4999973220826,0|0,1:0|0:0,0:0:0:0:
187,297,113794,6,0,P|176:274|180:296,1,67.5000025749208,2|0,1:0|0:0,0:0:0:0:
132,354,114075,2,0,B|119:217|290:270|195:383,1,233.999989288331,2|0,1:0|0:0,2:0:0:0:
352,309,114544,6,0,B|357:254|357:254|295:211|295:211|300:164,1,175.499991966248,4|0,1:0|0:0,0:0:0:0:
312,157,114919,1,2,1:0:0:0:
212,173,115106,1,0,1:0:0:0:
75,64,115294,2,0,P|76:38|90:61,1,67.5000025749208,2|0,1:0|0:0,0:0:0:0:
88,93,115575,2,0,P|39:53|107:85,1,233.999989288331,2|0,1:0|0:0,0:0:0:0:
30,238,116044,5,8,0:0:0:0:
139,349,116231,6,0,L|118:358,1,20.2499993820191,0|0,1:0|0:0,0:0:0:0:
275,280,116419,2,0,L|254:271,1,20.2499993820191,2|0,1:0|0:0,0:0:0:0:
382,325,116606,2,0,L|361:334,1,20.2499993820191,0|0,1:0|0:0,0:0:0:0:
495,302,116794,6,0,B|510:292|510:292|485:288|485:288|487:323,1,67.5000025749208,2|0,1:0|0:0,0:0:0:0:
426,209,117075,2,0,B|467:231|494:302|494:302|484:230|509:187,1,233.999989288331,2|0,1:0|0:0,0:0:0:0:
441,98,117544,6,0,B|402:50|402:50|359:67|359:67|290:28,1,175.499991966248,4|0,1:0|0:0,0:0:0:0:
295,21,117919,1,2,1:0:0:0:
262,116,118106,1,0,1:0:0:0:
111,48,118294,2,0,P|100:34|105:57,1,67.5000025749208,2|0,1:0|0:0,0:0:0:0:
135,71,118575,2,0,P|69:80|140:53,1,233.999989288331,2|0,1:0|0:0,0:0:0:0:
34,159,119044,5,8,0:0:0:0:
109,312,119231,2,0,P|82:301|55:267,1,58.4999973220826,0|0,1:0|0:0,0:0:0:0:
183,183,119419,2,0,P|163:208|173:231,1,58.4999973220826,2|0,1:0|0:0,0:0:0:0:
300,265,119606,2,0,P|273:264|284:250,1,58.4999973220826,0|0,1:0|0:0,0:0:0:0:
412,108,119794,6,0,P|415:135|401:110,1,67.5000025749208,2|0,1:0|0:0,0:0:0:0:
487,227,120075,2,0,B|497:146|399:92|362:201|420:251,1,233.999989288331,2|0,1:0|0:0,0:0:0:0:
337,353,120544,6,0,B|275:335|275:335|249:281|249:281|185:262,1,175.499991966248,4|0,1:0|0:0,0:0:0:0:
190,278,120919,1,2,1:0:0:0:
197,370,121106,1,0,1:0:0:0:
53,278,121294,2,0,P|57:259|43:280,1,67.5000025749208,2|0,1:0|0:0,0:0:0:0:
54,311,121575,2,0,P|2:270|70:302,1,233.999989288331,2|0,1:0|0:0,0:0:0:0:
171,196,122044,5,8,0:0:0:0:
36,104,122231,6,0,L|44:137,1,29.2499986610413,0|0,1:0|0:0,0:0:0:0:
143,80,122419,2,0,L|151:113,1,29.2499986610413,0|0,1:0|0:0,0:0:0:0:
250,56,122606,2,0,L|258:89,1,29.2499986610413,0|0,1:0|0:0,0:0:0:0:
318,197,122794,6,0,B|303:187|303:187|328:183|328:183|324:220,1,67.5000025749208,2|0,1:0|0:0,0:0:0:0:
421,143,123075,6,0,B|370:141|367:188|330:226|292:204|261:152|207:169,1,233.999989288331,2|0,1:0|0:0,0:0:0:0:
49,197,123544,6,0,B|91:234|91:234|75:314|75:314|125:357,1,188.999994232178,4|0,1:0|0:0,0:0:0:0:
127,343,123919,2,0,L|203:327,1,62.9999980773926,2|0,1:0|0:0,0:0:0:0:
265,383,124106,1,0,1:0:0:0:
363,255,124294,2,0,P|352:241|357:264,1,62.9999980773926,2|0,1:0|0:0,0:0:0:0:
392,269,124481,1,0,0:0:0:0:
386,282,124575,2,0,P|320:291|391:264,1,233.999989288331,2|0,1:0|0:0,0:0:0:0:
460,180,125044,5,8,0:0:0:0:
376,41,125231,2,0,P|358:74|346:116,1,62.9999980773926,0|0,1:0|0:0,0:0:0:0:
228,152,125419,2,0,P|207:115|215:92,1,62.9999980773926,2|0,1:0|0:0,0:0:0:0:
71,52,125606,2,0,P|58:74|96:84,1,62.9999980773926,0|0,1:0|0:0,0:0:0:0:
24,187,125794,5,2,1:0:0:0:
35,183,125887,1,0,0:0:0:0:
110,280,126075,1,2,1:0:0:0:
121,276,126169,2,0,B|227:279|199:317|175:357|306:359,1,188.999994232178,8|0,0:0|0:0,0:0:0:0:
353,307,126544,6,0,B|368:249|368:249|434:230|434:230|458:147,1,188.999994232178,4|0,1:0|0:0,0:0:0:0:
437,156,126919,2,0,L|416:81,1,62.9999980773926,2|0,1:0|0:0,0:0:0:0:
488,24,127106,1,0,1:0:0:0:
307,102,127294,2,0,B|278:95|297:6,1,62.9999980773926,2|0,1:0|0:0,0:0:0:0:
315,21,127481,1,0,0:0:0:0:
315,21,127575,2,0,P|229:29|312:121,1,251.999992309571,2|0,1:0|0:0,0:0:0:0:
256,210,128044,1,8,0:0:0:0:
124,205,128231,6,0,L|90:196,1,31.4999990386963,0|0,1:0|0:0,0:0:0:0:
235,321,128418,2,0,L|191:329,1,31.4999990386963,2|0,1:0|0:0,0:0:0:0:
387,272,128606,2,0,L|353:263,1,31.4999990386963,0|0,1:0|0:0,0:0:0:0:
511,284,128794,6,0,B|526:274|526:274|501:270|501:270|503:305,1,67.5000025749208,2|0,1:0|0:0,0:0:0:0:
457,185,128981,1,0,0:0:0:0:
457,185,129075,2,0,B|458:264|497:320|497:320|422:332|375:384,1,270.000010299683,2|0,1:0|0:0,0:0:0:0:
287,317,129544,6,0,B|233:333|233:333|174:277|174:277|111:296,1,188.999994232178,4|0,1:0|0:0,0:0:0:0:
111,281,129919,2,0,L|102:212,1,62.9999980773926,2|0,1:0|0:0,0:0:0:0:
46,145,130106,1,0,1:0:0:0:
190,62,130294,2,0,P|204:51|181:55,1,62.9999980773926,2|0,1:0|0:0,0:0:0:0:
174,90,130481,1,0,0:0:0:0:
162,84,130575,2,0,P|155:13|179:89,1,251.999992309571,2|0,1:0|0:0,0:0:0:0:
261,176,131044,5,8,0:0:0:0:
365,62,131231,2,0,P|395:83|436:99,1,62.9999980773926,0|0,1:0|0:0,0:0:0:0:
459,220,131419,2,0,P|420:237|397:226,1,62.9999980773926,2|0,1:0|0:0,0:0:0:0:
344,366,131606,2,0,P|364:381|378:344,1,62.9999980773926,0|0,1:0|0:0,0:0:0:0:
254,289,131794,5,2,1:0:0:0:
243,293,131887,1,0,0:0:0:0:
91,243,132075,1,2,1:0:0:0:
102,247,132169,2,0,B|165:263|180:219|163:168|245:157|288:188,1,188.999994232178,8|0,0:0|0:0,0:0:0:0:
413,189,132544,6,0,B|398:131|398:131|332:112|332:112|308:29,1,188.999994232178,4|0,1:0|0:0,0:0:0:0:
323,35,132919,2,0,L|385:19,1,62.9999980773926,2|0,1:0|0:0,0:0:0:0:
484,82,133106,1,0,1:0:0:0:
418,214,133294,2,0,P|424:189|403:205,1,62.9999980773926,2|0,1:0|0:0,0:0:0:0:
395,228,133481,1,0,0:0:0:0:
395,228,133575,2,0,P|309:236|392:328,1,251.999992309571,2|0,1:0|0:0,0:0:0:0:
263,384,134044,1,8,0:0:0:0:
222,157,134231,6,0,L|252:165,1,31.4999990386963,0|0,1:0|0:0,0:0:0:0:
89,265,134419,2,0,L|67:286,1,31.4999990386963,0|0,1:0|0:0,0:0:0:0:
44,96,134606,2,0,L|35:66,1,31.4999990386963,0|0,1:0|0:0,0:0:0:0:
118,170,134794,6,0,B|133:160|133:160|108:156|108:156|111:192,1,67.5000025749208,2|0,1:0|0:0,0:0:0:0:
153,47,134981,5,0,0:0:0:0:
153,47,135075,2,0,B|116:98|113:171|113:171|170:122|160:47,1,270.000010299683,2|0,1:0|0:0,0:0:0:0:
309,47,135544,5,4,1:0:0:0:
319,39,135731,1,2,0:0:0:0:
332,42,135919,1,2,0:0:0:0:
322,50,136106,1,2,0:0:0:0:
309,47,136294,1,2,0:0:0:0:
309,47,136669,1,2,2:3:0:0:
200,123,137044,5,4,1:0:0:0:
190,115,137231,1,2,0:0:0:0:
177,118,137419,1,2,0:0:0:0:
187,126,137606,1,2,0:0:0:0:
200,123,137794,1,2,0:0:0:0:
200,123,138169,1,2,2:3:0:0:
310,200,138544,5,4,1:0:0:0:
320,192,138731,1,2,0:0:0:0:
333,195,138919,1,2,0:0:0:0:
323,203,139106,1,2,0:0:0:0:
310,200,139294,1,2,0:0:0:0:
320,192,139481,1,2,0:0:0:0:
128,298,140044,6,0,L|198:273,1,67.5000025749208,4|0,1:0|0:0,0:0:0:0:
150,255,140325,2,0,L|175:325,1,67.5000025749208,2|0,0:0|0:0,0:0:0:0:
161,286,140606,1,2,0:0:0:0:
333,348,140794,6,0,L|263:323,1,67.5000025749208,2|0,0:0|0:0,0:0:0:0:
311,305,141075,2,0,L|286:375,1,67.5000025749208,2|0,0:0|0:0,0:0:0:0:
300,336,141356,1,2,0:0:0:0:
107,137,141544,6,0,L|313:90,1,188.999994232178,4|0,1:0|1:0,0:0:0:0:
371,189,141919,2,0,L|401:125,1,62.9999980773926,8|0,0:0|0:0,0:0:0:0:
397,131,142106,2,0,L|370:188,1,62.9999980773926,2|0,3:2|0:0,0:0:0:0:
447,292,142294,6,0,B|366:282|366:282|331:259|331:259|241:245,1,188.999994232178,4|0,1:0|1:0,0:0:0:0:
183,344,142669,2,0,L|153:280,1,62.9999980773926,8|0,0:0|0:0,0:0:0:0:
134,277,142856,2,0,L|160:334,1,62.9999980773926,2|0,3:2|0:0,0:0:0:0:
107,137,143044,6,0,B|177:143|177:143|216:90|216:90|295:93,1,188.999994232178,4|0,1:0|1:0,0:0:0:0:
366,195,143419,2,0,L|396:131,1,62.9999980773926,8|0,0:0|0:0,0:0:0:0:
432,102,143606,2,0,L|405:159,1,62.9999980773926,2|0,3:2|0:0,0:0:0:0:
436,315,143794,6,0,B|392:329|392:329|304:264|304:264|253:279,1,188.999994232178,4|0,1:0|1:0,0:0:0:0:
179,368,144169,2,0,L|149:304,1,62.9999980773926,8|0,0:0|0:0,0:0:0:0:
95,252,144356,2,0,L|121:309,1,62.9999980773926,2|0,3:2|0:0,0:0:0:0:
238,95,144544,6,0,L|233:72,1,13.4999995880127,10|0,0:0|0:0,0:0:0:0:
151,119,144731,2,0,L|146:96,1,13.4999995880127,8|0,0:0|0:0,0:0:0:0:
272,196,144919,6,0,L|277:173,1,13.4999995880127,10|0,0:0|0:0,0:0:0:0:
359,220,145106,2,0,L|364:197,1,13.4999995880127,8|0,0:0|0:0,0:0:0:0:
238,297,145294,6,0,L|233:274,1,13.4999995880127,10|0,0:0|0:0,0:0:0:0:
151,321,145481,2,0,L|146:298,1,13.4999995880127,8|0,0:0|0:0,0:0:0:0:
89,246,145669,6,0,L|84:223,1,13.4999995880127,10|0,0:0|0:0,0:0:0:0:
2,270,145856,2,0,L|-3:247,1,13.4999995880127,8|0,0:0|0:0,0:0:0:0:
93,124,146044,5,10,0:0:0:0:
100,122,146137,1,8,0:0:0:0:
107,120,146231,1,8,0:0:0:0:
114,118,146325,1,8,0:0:0:0:
121,116,146419,1,10,0:0:0:0:
128,114,146512,1,8,0:0:0:0:
136,112,146606,1,8,0:0:0:0:
144,110,146700,1,8,0:0:0:0:
151,108,146794,6,0,L|222:77,1,67.5000025749208,10|10,0:0|0:0,0:0:0:0:
209,196,146981,2,0,L|295:204,1,67.5000025749208,10|10,0:0|0:0,0:0:0:0:
335,99,147169,2,0,L|401:58,1,67.5000025749208,10|10,0:0|0:0,0:0:0:0:
364,251,147356,2,0,L|453:238,1,67.5000025749208,10|10,0:0|0:0,0:0:0:0:
203,214,147544,5,2,0:0:0:0:
256,192,149044,12,0,150450,3:2:0:0:
304,294,150731,6,0,P|321:269|355:237,1,67.5000025749208
251,186,150919,2,0,P|229:158|194:148,1,53.9999983520508
305,55,151106,2,0,P|323:42|336:54,1,40.4999987640381
330,128,151294,5,0,0:0:0:0:
217,91,152044,6,0,L|297:304,1,216,8|0,2:3|0:0,0:0:0:0:
357,153,152419,6,0,L|144:233,1,216,8|0,2:3|0:0,0:0:0:0:
15,153,152794,6,0,B|3:120|3:120|40:94,1,72,8|0,2:3|0:0,0:0:0:0:
128,102,152981,2,0,B|140:135|140:135|103:161,1,72,2|0,3:2|0:0,0:0:0:0:
27,170,153169,6,0,B|4:143|4:143|30:106,1,72,8|0,2:3|0:0,0:0:0:0:
115,84,153356,2,0,B|138:111|138:111|112:148,1,72,2|0,3:2|0:0,0:0:0:0:
154,228,153544,6,0,L|357:153,1,216,8|0,2:3|0:0,0:0:0:0:
292,293,153919,6,0,L|217:91,1,216,8|0,2:3|0:0,0:0:0:0:
327,50,154294,5,8,2:3:0:0:
334,25,154387,1,8,0:0:0:0:
343,1,154481,2,0,P|353:34|380:63,1,72,8|0,0:0|0:0,0:0:0:0:
506,123,154669,2,0,P|480:152|441:156,1,72,8|0,2:3|0:0,0:0:0:0:
400,273,154856,2,0,P|444:296|465:272,1,72,8|0,0:0|0:0,0:0:0:0:
357,153,155044,6,0,L|154:228,1,216,8|0,2:3|0:0,0:0:0:0:
217,91,155419,6,0,L|292:293,1,216,8|0,2:3|0:0,0:0:0:0:
108,364,155794,6,0,B|78:343|78:343|90:310,1,72,8|0,2:3|0:0,0:0:0:0:
184,306,155981,2,0,B|215:328|215:328|203:361,1,72,2|0,3:2|0:0,0:0:0:0:
100,350,156169,6,0,B|79:319|79:319|102:293,1,72,8|0,2:3|0:0,0:0:0:0:
191,321,156356,2,0,B|212:352|212:352|190:379,1,72,2|0,3:2|0:0,0:0:0:0:
154,228,156544,6,0,L|357:153,1,216,8|0,2:3|0:0,0:0:0:0:
292,293,156919,6,0,L|217:91,1,216,8|0,2:3|0:0,0:0:0:0:
113,125,157294,5,8,2:3:0:0:
92,129,157387,1,0,0:0:0:0:
70,133,157481,1,8,0:0:0:0:
48,137,157575,1,8,2:3:0:0:
27,142,157669,2,0,P|52:105|76:87,1,72,8|0,2:3|0:0,0:0:0:0:
232,59,157856,2,0,P|236:96|199:101,1,72
357,153,158044,6,0,L|154:228,1,216,8|0,2:3|0:0,0:0:0:0:
217,91,158419,6,0,L|292:293,1,216,8|0,2:3|0:0,0:0:0:0:
430,270,158794,6,0,B|403:243|403:243|373:261,1,72,8|0,2:3|0:0,0:0:0:0:
384,354,158981,2,0,B|410:380|410:380|440:362,1,72,2|0,3:2|0:0,0:0:0:0:
441,280,159169,6,0,B|425:246|425:246|390:252,1,72,8|0,2:3|0:0,0:0:0:0:
372,344,159356,2,0,B|387:377|387:377|422:371,1,72,2|0,3:2|0:0,0:0:0:0:
292,293,159544,6,0,L|217:91,1,216,8|0,2:3|0:0,0:0:0:0:
154,228,159919,6,0,L|357:153,1,216,8|0,2:3|0:0,0:0:0:0:
327,50,160294,5,8,2:3:0:0:
334,25,160387,1,8,0:0:0:0:
343,1,160481,2,0,P|353:34|380:63,1,72,8|0,0:0|0:0,0:0:0:0:
371,163,160669,2,0,P|414:177|444:159,1,72,8|0,2:3|0:0,0:0:0:0:
431,277,160856,2,0,P|478:275|477:236,1,72,8|0,0:0|0:0,0:0:0:0:
357,153,161044,6,0,L|154:228,1,216,8|0,2:3|0:0,0:0:0:0:
217,91,161419,6,0,L|292:293,1,216,8|0,2:3|0:0,0:0:0:0:
140,368,161794,6,0,B|103:367|103:367|94:334,1,72,8|0,2:3|0:0,0:0:0:0:
167,276,161981,2,0,B|203:276|203:276|212:309,1,72,2|0,3:2|0:0,0:0:0:0:
155,368,162169,6,0,B|120:380|120:380|100:351,1,72,8|0,2:3|0:0,0:0:0:0:
152,274,162356,2,0,B|186:261|186:261|206:290,1,72,2|0,3:2|0:0,0:0:0:0:
59,241,162544,5,10,1:1:0:0:
93,149,162919,1,2,2:1:0:0:
93,149,163106,1,2,2:1:0:0:
287,95,164044,6,0,B|279:135|279:135|290:154|290:154|220:230|220:230|231:246|231:246|223:289,1,229.500004377365,8|0,2:3|0:0,0:0:0:0:
353,224,164419,6,0,B|310:216|310:216|294:227|294:227|218:157|218:157|199:168|199:168|159:160,1,229.500004377365,8|0,2:3|0:0,0:0:0:0:
32,235,164794,2,0,L|23:207,1,22.5,8|0,2:3|0:0,0:0:0:0:
29,338,164981,2,0,L|20:310,1,22.5,2|0,3:2|0:0,0:0:0:0:
140,277,165169,2,0,L|135:247,1,22.5,8|0,2:3|0:0,0:0:0:0:
134,380,165356,2,0,L|129:350,1,22.5,2|0,3:2|0:0,0:0:0:0:
223,289,165544,6,0,B|231:246|231:246|220:230|220:230|290:154|290:154|279:135|279:135|287:95,1,229.500004377365,8|0,2:3|0:0,0:0:0:0:
159,160,165919,6,0,B|199:168|199:168|218:157|218:157|294:227|294:227|310:216|310:216|353:224,1,229.500004377365,8|0,2:3|0:0,0:0:0:0:
388,119,166294,5,8,2:3:0:0:
459,343,166481,1,8,0:0:0:0:
388,119,166669,1,8,2:3:0:0:
388,119,166856,1,2,3:2:0:0:
353,224,167044,6,0,B|310:216|310:216|294:227|294:227|218:157|218:157|199:168|199:168|159:160,1,229.500004377365,8|0,2:3|0:0,0:0:0:0:
287,95,167419,6,0,B|279:135|279:135|290:154|290:154|220:230|220:230|231:246|231:246|223:289,1,229.500004377365,8|0,2:3|0:0,0:0:0:0:
106,229,167794,2,0,L|126:260,1,22.5,8|0,2:3|0:0,0:0:0:0:
127,326,167981,2,0,L|147:357,1,22.5,2|0,3:2|0:0,0:0:0:0:
1,269,168169,2,0,L|21:300,1,22.5,8|0,2:3|0:0,0:0:0:0:
22,366,168356,2,0,L|42:397,1,22.5,2|0,3:2|0:0,0:0:0:0:
223,289,168544,6,0,B|231:246|231:246|220:230|220:230|290:154|290:154|279:135|279:135|287:95,1,229.500004377365,8|0,2:3|0:0,0:0:0:0:
256,192,168919,1,8,2:3:0:0:
256,192,169106,1,8,2:0:0:0:
75,67,169482,5,2,3:2:0:0:
75,67,169575,1,2,3:2:0:0:
75,67,169669,1,8,2:3:0:0:
25,144,169856,1,2,3:2:0:0:
415,168,170231,5,2,3:2:0:0:
415,168,170325,1,2,3:2:0:0:
415,168,170419,2,0,L|442:200,1,22.5,8|0,2:3|0:0,0:0:0:0:
353,224,170606,2,0,L|380:256,1,22.5,2|0,3:2|0:0,0:0:0:0:
306,333,170794,6,0,L|333:365,1,22.5,8|0,2:3|0:0,0:0:0:0:
368,277,170981,2,0,L|395:309,1,22.5,2|0,3:2|0:0,0:0:0:0:
485,246,171169,2,0,L|512:278,1,22.5,8|0,2:3|0:0,0:0:0:0:
423,302,171356,2,0,L|450:334,1,22.5,2|0,3:2|0:0,0:0:0:0:
353,224,171544,6,0,B|310:216|310:216|294:227|294:227|218:157|218:157|199:168|199:168|159:160,1,229.500004377365,8|0,2:3|0:0,0:0:0:0:
223,289,171919,6,0,B|231:246|231:246|220:230|220:230|290:154|290:154|279:135|279:135|287:95,1,229.500004377365,8|0,2:3|0:0,0:0:0:0:
181,38,172294,5,8,2:3:0:0:
20,214,172481,1,8,0:0:0:0:
181,38,172669,1,8,2:3:0:0:
181,38,172856,1,8,0:0:0:0:
287,95,173044,6,0,B|279:135|279:135|290:154|290:154|220:230|220:230|231:246|231:246|223:289,1,229.500004377365,8|0,2:3|0:0,0:0:0:0:
159,160,173419,6,0,B|199:168|199:168|218:157|218:157|294:227|294:227|310:216|310:216|353:224,1,229.500004377365,8|0,2:3|0:0,0:0:0:0:
474,191,173794,2,0,L|467:226,1,22.5,8|0,2:3|0:0,0:0:0:0:
449,292,173981,2,0,L|442:327,1,22.5,2|0,3:2|0:0,0:0:0:0:
364,119,174169,6,0,L|365:154,1,22.5,8|0,2:3|0:0,0:0:0:0:
362,223,174356,2,0,L|363:258,1,22.5,2|0,3:2|0:0,0:0:0:0:
372,384,174544,5,14,2:3:0:0:
36,98,187294,5,8,0:0:0:0:
161,59,187481,1,8,0:0:0:0:
286,20,187669,1,8,0:0:0:0:
271,115,188044,6,0,B|313:152|313:152|297:232|297:232|233:250,1,188.999994232178,8|0,2:3|0:0,0:0:0:0:
144,340,188419,2,0,L|220:324,1,62.9999980773926,10|0,1:1|0:0,0:0:0:0:
281,377,188606,1,0,1:0:0:0:
415,296,188794,2,0,P|427:283|405:290,1,62.9999980773926,10|0,2:1|0:0,0:0:0:0:
390,321,188981,1,0,0:0:0:0:
390,321,189075,2,0,P|376:250|408:324,1,251.999992309571,2|0,1:0|0:0,0:0:0:0:
271,290,189544,5,8,2:3:0:0:
166,364,189731,2,0,P|148:331|136:289,1,62.9999980773926,2|0,1:0|0:0,0:0:0:0:
37,281,189919,2,0,P|50:248|75:233,1,62.9999980773926,8|0,2:3|0:0,0:0:0:0:
44,138,190106,2,0,P|66:119|86:140,1,62.9999980773926,2|0,1:0|0:0,0:0:0:0:
215,202,190294,5,8,2:2:0:0:
257,192,190387,1,8,2:2:0:0:
299,182,190481,1,8,2:2:0:0:
245,142,190669,5,8,2:2:0:0:
255,184,190762,1,8,2:2:0:0:
265,226,190856,1,8,2:2:0:0:
483,353,191044,6,0,B|468:295|468:295|402:276|402:276|378:193,1,188.999994232178,8|0,2:3|0:0,0:0:0:0:
396,206,191419,2,0,L|375:131,1,62.9999980773926,10|0,1:1|0:0,0:0:0:0:
435,62,191606,1,0,1:0:0:0:
281,30,191794,2,0,P|241:50|205:44,1,62.9999980773926,10|0,2:1|0:0,0:0:0:0:
126,7,191981,1,0,0:0:0:0:
126,7,192075,2,0,B|188:-8|244:37|209:139|169:151|109:148|89:96,1,251.999992309571,2|0,1:0|0:0,0:0:0:0:
23,190,192544,1,8,2:3:0:0:
148,301,192731,6,0,L|137:263,1,31.4999990386963,2|0,1:0|0:0,0:0:0:0:
256,268,192918,2,0,L|256:214,1,31.4999990386963,8|0,2:3|0:0,0:0:0:0:
364,301,193106,2,0,L|375:263,1,31.4999990386963,2|0,1:0|0:0,0:0:0:0:
256,356,193294,5,8,2:0:0:0:
256,126,193481,1,8,2:0:0:0:
256,356,193669,1,8,2:0:0:0:
256,126,193856,1,8,2:0:0:0:
54,277,194044,6,0,B|108:293|108:293|167:237|167:237|230:256,1,188.999994232178,8|0,2:3|0:0,0:0:0:0:
236,262,194419,2,0,L|203:200,1,62.9999980773926,10|0,1:1|0:0,0:0:0:0:
77,163,194606,1,0,1:0:0:0:
190,62,194794,2,0,P|204:51|181:55,1,62.9999980773926,10|0,2:1|0:0,0:0:0:0:
184,89,194981,1,0,0:0:0:0:
184,89,195075,2,0,P|191:4|167:86,1,251.999992309571,2|0,1:0|0:0,0:0:0:0:
268,155,195544,5,8,2:3:0:0:
443,75,195731,2,0,P|413:96|372:112,1,62.9999980773926,2|0,1:0|0:0,0:0:0:0:
475,210,195919,2,0,P|436:227|413:216,1,62.9999980773926,8|0,2:3|0:0,0:0:0:0:
464,341,196106,2,0,P|447:364|423:350,1,62.9999980773926,2|0,1:0|0:0,0:0:0:0:
297,312,196294,5,8,2:2:0:0:
255,322,196388,1,8,2:2:0:0:
213,332,196481,1,8,2:2:0:0:
243,272,196669,5,8,2:2:0:0:
253,314,196762,1,8,2:2:0:0:
263,356,196856,1,8,2:2:0:0:
413,189,197044,6,0,B|398:131|398:131|332:112|332:112|308:29,1,188.999994232178,8|0,2:3|0:0,0:0:0:0:
323,35,197419,2,0,L|385:19,1,62.9999980773926,10|0,1:1|0:0,0:0:0:0:
488,74,197606,1,0,1:0:0:0:
384,201,197794,2,0,P|378:226|399:210,1,62.9999980773926,10|0,2:1|0:0,0:0:0:0:
413,189,197981,1,0,0:0:0:0:
413,189,198075,2,0,P|327:197|410:289,1,251.999992309571,2|0,1:0|0:0,0:0:0:0:
297,372,198544,1,8,2:3:0:0:
32,234,198731,6,0,L|31:269,1,31.4999990386963,2|0,1:0|0:0,0:0:0:0:
119,159,198919,2,0,L|145:210,1,31.4999990386963,8|0,2:3|0:0,0:0:0:0:
233,131,199106,2,0,L|261:150,1,31.4999990386963,2|0,1:0|0:0,0:0:0:0:
256,282,199294,5,8,2:3:0:0:
256,48,199481,1,8,2:3:0:0:
256,282,199669,1,8,2:3:0:0:
256,48,199856,1,8,2:3:0:0:
430,172,200044,6,0,B|474:194|474:194|455:290|455:290|505:314,1,188.999994232178,8|0,2:3|0:0,0:0:0:0:
512,317,200419,2,0,L|450:329,1,62.9999980773926,10|0,1:1|0:0,0:0:0:0:
329,384,200606,1,0,1:0:0:0:
167,316,200794,2,0,P|161:293|175:311,1,62.9999980773926,10|0,2:1|0:0,0:0:0:0:
180,346,200981,1,0,0:0:0:0:
179,346,201075,2,0,P|166:260|157:348,1,251.999992309571,2|0,1:0|0:0,0:0:0:0:
288,307,201544,5,8,2:3:0:0:
405,206,201731,2,0,P|435:197|462:181,1,62.9999980773926,2|0,1:0|0:0,0:0:0:0:
374,84,201919,2,0,P|387:51|376:22,1,62.9999980773926,8|0,2:3|0:0,0:0:0:0:
233,47,202106,2,0,P|226:19|197:24,1,62.9999980773926,2|0,1:0|0:0,0:0:0:0:
215,202,202294,5,8,2:2:0:0:
257,192,202387,1,8,2:2:0:0:
299,182,202481,1,8,2:2:0:0:
245,142,202669,5,8,2:2:0:0:
255,184,202762,1,8,2:2:0:0:
265,226,202856,1,8,2:2:0:0:
48,329,203044,6,0,B|103:307|103:307|157:349|157:349|239:319,1,188.999994232178,8|0,2:3|0:0,0:0:0:0:
227,313,203419,2,0,L|298:339,1,62.9999980773926,10|0,1:1|0:0,0:0:0:0:
396,383,203606,1,0,1:0:0:0:
473,227,203794,2,0,P|433:247|397:241,1,62.9999980773926,10|0,2:1|0:0,0:0:0:0:
424,164,203981,1,0,0:0:0:0:
424,164,204075,2,0,B|486:149|542:194|507:296|467:308|407:305|387:253,1,251.999992309571,2|0,1:0|0:0,0:0:0:0:
292,328,204544,1,8,2:3:0:0:
118,221,204731,6,0,L|96:187,1,31.4999990386963,2|0,1:0|3:0,3:0:0:0:
212,159,204918,2,0,L|197:107,1,31.4999990386963,8|0,2:3|3:0,3:0:0:0:
325,161,205106,2,0,L|325:121,1,31.4999990386963,2|0,1:0|3:0,3:0:0:0:
256,18,205294,5,8,2:0:0:0:
256,248,205481,1,8,2:0:0:0:
256,18,205669,1,8,2:0:0:0:
256,248,205856,1,8,2:0:0:0:
471,328,206044,6,0,B|417:312|417:312|358:368|358:368|295:349,1,188.999994232178,8|0,2:3|0:0,0:0:0:0:
297,366,206419,2,0,L|223:380,1,62.9999980773926,10|0,1:1|0:0,0:0:0:0:
127,329,206606,1,0,1:0:0:0:
173,185,206794,2,0,P|187:174|164:178,1,62.9999980773926,10|0,2:1|0:0,0:0:0:0:
167,212,206981,1,0,0:0:0:0:
167,212,207075,2,0,P|173:131|146:213,1,251.999992309571,2|0,1:0|0:0,0:0:0:0:
259,261,207544,5,8,2:3:0:0:
399,372,207731,2,0,P|369:351|328:335,1,62.9999980773926,2|0,1:0|0:0,0:0:0:0:
474,247,207919,2,0,P|435:230|412:241,1,62.9999980773926,8|0,2:3|0:0,0:0:0:0:
482,104,208106,2,0,P|456:91|441:115,1,62.9999980773926,2|0,1:0|3:0,0:0:0:0:
298,64,208294,5,8,2:2:0:0:
256,74,208388,1,8,2:2:0:0:
214,84,208481,1,8,2:2:0:0:
244,24,208669,5,8,2:2:0:0:
254,66,208762,1,8,2:2:0:0:
264,108,208856,1,8,2:2:0:0:
310,341,209044,6,0,B|295:270|295:270|217:249|217:249|199:167,1,229.500004377365,8|0,2:3|0:0,0:0:0:0:
325,172,209419,2,0,L|340:97,1,76.5000014591217,10|0,1:1|0:0,0:0:0:0:
187,169,209606,1,0,1:0:0:0:
202,341,209794,6,0,B|217:270|217:270|295:249|295:249|313:167,1,229.500004377365,10|2,2:1|1:0,0:0:0:0:
310,341,210169,2,0,B|295:270|295:270|217:249|217:249|199:167,1,229.500004377365,8|0,2:3|0:0,0:0:0:0:
256,57,210544,5,8,2:3:0:0:
142,26,210731,6,0,L|113:50,1,38.2500007295609,2|0,1:0|0:0,0:0:0:0:
256,57,210919,2,0,L|256:117,1,38.2500007295609,8|0,2:3|0:0,0:0:0:0:
370,26,211106,2,0,L|399:50,1,38.2500007295609,2|0,1:0|0:0,0:0:0:0:
256,183,211294,5,8,2:0:0:0:
256,384,211481,1,8,2:0:0:0:
256,183,211669,1,8,2:0:0:0:
256,384,211856,1,8,2:0:0:0:
256,283,212044,5,2,0:3:0:0:
