osu file format v14

[General]
AudioFilename: audio.mp3
AudioLeadIn: 0
PreviewTime: 148903
Countdown: 0
SampleSet: Soft
StackLeniency: 0.1
Mode: 0
LetterboxInBreaks: 0
WidescreenStoryboard: 1

[Editor]
Bookmarks: 12544,24544,36544,48544,60544,72544,75544,99544,111544,135544,141544,149044,152044,176044,188044,212044
DistanceSpacing: 1
BeatDivisor: 4
GridSize: 16
TimelineZoom: 4.599998

[Metadata]
Title:Bullshit
TitleUnicode:Bullshit
Artist:Massive New Krew
ArtistUnicode:Massive New Krew
Creator:Icekalt
Version:Easy
Source:
Tags:circlez9 hardstyle hardcore trance electronic instrumental phynta yuuma mpg mappers' Ogura Yui guild fa featured artist
BeatmapID:3780393
BeatmapSetID:1829152

[Difficulty]
HPDrainRate:1
CircleSize:2.5
OverallDifficulty:2
ApproachRate:5
SliderMultiplier:0.900000005960464
SliderTickRate:1

[Events]
//Background and Video events
0,0,"bullsit.jpg",0,0
//Break Periods
2,24744,35344
2,99744,110344
2,176044,186094
//Storyboard Layer 0 (Background)
//Storyboard Layer 1 (Fail)
//Storyboard Layer 2 (Pass)
//Storyboard Layer 3 (Foreground)
//Storyboard Layer 4 (Overlay)
//Storyboard Sound Samples

[TimingPoints]
544,375,4,2,1,40,1,0
12544,-100,4,2,1,50,0,0
36544,-100,4,2,1,60,0,0
48544,-100,4,2,1,45,0,0
60544,-100,4,2,1,50,0,0
66544,-100,4,2,1,60,0,0
69544,-100,4,2,1,70,0,0
74794,-100,4,2,1,70,0,0
111544,-100,4,2,1,60,0,0
123544,-100,4,2,1,65,0,0
135544,-100,4,2,1,45,0,0
141544,-100,4,2,1,60,0,0
144544,-100,4,2,1,70,0,0
149044,-100,4,2,1,60,0,0
152044,-100,4,2,1,70,0,0
164419,-100,4,2,1,75,0,0
187294,-100,4,2,1,75,0,0

[Colours]
Combo1 : 232,75,0
Combo2 : 255,152,102
Combo3 : 253,115,129

[HitObjects]
82,47,544,6,0,B|129:122|129:122|210:82|210:82|262:155|262:155|325:90|325:90|361:175|361:175|417:105|417:105|429:193|429:193,2,630.000004172325,8|8|8,2:3|2:3|2:3,0:0:0:0:
21,216,6544,6,0,B|33:304|33:304|89:234|89:234|125:319|125:319|188:254|188:254|240:327|240:327|321:287|321:287,2,540.000003576279,8|8|0,3:3|2:3|0:0,0:0:0:0:
328,27,12544,6,0,B|401:80|401:80|361:181,1,180.000001192093,8|8,2:3|2:3,0:0:0:0:
282,191,13669,1,8,2:3:0:0:
195,215,14044,2,0,B|122:268|122:268|162:369,1,180.000001192093,8|8,2:3|2:3,0:0:0:0:
241,377,15169,1,8,2:3:0:0:
328,355,15544,6,0,B|360:272|360:272|288:218|288:218|324:134|324:134,1,270.000001788139,8|8,2:3|2:3,0:0:0:0:
406,98,17044,1,8,2:3:0:0:
375,13,17419,1,8,2:3:0:0:
285,2,17794,1,8,2:3:0:0:
128,90,18544,6,0,B|97:123|97:123|123:156|123:156|89:190|89:190|116:222|116:222|79:246|79:246|106:287,1,270.000001788139,8|8,2:3|0:0,0:0:0:0:
181,336,20044,2,0,B|214:305|214:305|247:331|247:331|281:297|281:297|313:324|313:324|337:287|337:287|378:314,1,270.000001788139,8|8,2:3|0:0,0:0:0:0:
442,250,21544,1,8,2:3:0:0:
256,192,21637,12,0,24544,0:0:0:0:
103,137,36544,5,4,1:0:0:0:
126,49,36919,2,0,B|169:39|169:39|177:84|177:84|232:122|232:122|296:108|343:161,1,270.000001788139,2|8,1:0|0:0,0:0:0:0:
423,134,38419,1,2,1:0:0:0:
507,165,38794,1,2,1:0:0:0:
372,284,39544,5,4,1:0:0:0:
288,250,39919,2,0,B|250:225|250:225|227:265|227:265|162:282|162:282|107:246|45:280,1,270.000001788139,2|8,1:0|0:0,0:0:0:0:
22,191,41419,1,2,1:0:0:0:
70,115,41794,1,2,1:0:0:0:
243,57,42544,5,4,1:0:0:0:
332,64,42919,2,0,B|348:104|348:104|305:119|305:119|276:180|276:180|300:241|255:295,1,270.000001788139,2|8,1:0|0:0,0:0:0:0:
316,359,44419,1,2,1:0:0:0:
404,341,44794,1,2,1:0:0:0:
310,187,45544,5,4,1:0:0:0:
299,97,45919,2,0,B|256:81|256:81|243:125|243:125|184:156|184:156|122:134|69:181,1,270.000001788139,2|8,1:0|0:0,0:0:0:0:
16,108,47419,1,0,1:0:0:0:
62,30,47794,1,2,1:0:0:0:
151,21,48169,1,0,0:0:0:0:
227,68,48544,6,0,B|302:49|352:99|353:175|282:262,1,270.000001788139,4|2,1:0|2:3,0:0:0:0:
226,314,50044,2,0,B|152:259|152:259|53:282,1,180.000001192093,4|2,1:0|0:0,0:0:0:0:
221,186,51544,6,0,B|296:205|346:155|347:79|276:-8,1,270.000001788139,4|2,1:0|2:3,0:0:0:0:
194,9,53044,2,0,B|107:40|107:40|127:133,1,180.000001192093,4|2,1:0|0:0,0:0:0:0:
199,286,54544,6,0,B|333:311|301:227|388:203|450:269,1,270.000001788139,4|2,1:0|2:3,0:0:0:0:
508,200,56044,2,0,L|478:111,2,90.0000005960464,4|2|2,1:0|0:0|0:0,0:0:0:0:
386,67,57544,6,0,B|252:42|284:126|197:150|135:84,1,270.000001788139,14|2,2:0|2:3,0:0:0:0:
77,153,59044,2,0,L|107:242,2,90.0000005960464,2|0|2,0:0|0:0|2:3,0:0:0:0:
254,198,60544,5,10,2:3:0:0:
254,198,62044,5,10,2:0:0:0:
254,198,63544,5,10,2:0:0:0:
254,198,65044,5,10,2:0:0:0:
107,256,66544,6,0,L|78:157,1,90.0000005960464,10|8,2:0|0:0,0:0:0:0:
169,147,67294,2,0,L|217:53,1,90.0000005960464,10|8,2:0|0:0,0:0:0:0:
302,67,68044,2,0,L|342:147,1,90.0000005960464,10|8,2:0|0:0,0:0:0:0:
429,170,68793,2,0,L|403:256,1,90.0000005960464,10|8,2:0|0:0,0:0:0:0:
329,308,69544,6,0,P|217:344|268:252,1,270.000001788139,10|10,2:0|2:0,0:0:0:0:
256,165,71044,2,0,P|287:54|169:141,1,360.000002384186,10|2,2:0|0:0,0:0:0:0:
12,347,74794,6,0,B|54:363|54:363|101:333,1,90.0000005960464,8|8,0:0|0:0,0:0:0:0:
125,254,75544,6,0,B|171:256|205:290|205:290|217:246|250:216|250:216|286:240|307:288|307:288|334:240|374:221,1,360.000002384186,8|8,2:3|2:3,0:0:0:0:
445,179,77419,6,0,B|464:146|461:113|434:88|351:158|311:127|369:32|333:12|287:31|268:65|251:24,1,270.000001788139,8|8,2:3|2:3,0:0:0:0:
180,78,78919,2,0,L|205:174,1,90.0000005960464,8|8,2:3|2:3,0:0:0:0:
271,223,79669,2,0,L|296:319,1,90.0000005960464,8|8,2:3|2:3,0:0:0:0:
349,380,80419,1,8,2:3:0:0:
109,246,81544,6,0,B|84:204|91:159|91:159|137:158|174:132|174:132|158:92|116:61|116:61|169:45|197:10,2,360.000002384186,8|8|8,2:3|2:3|2:3,0:0:0:0:
64,324,84919,1,8,2:3:0:0:
140,371,85294,1,8,2:3:0:0:
223,338,85669,1,8,2:3:0:0:
299,290,86044,2,0,L|396:322,1,90.0000005960464,8|8,2:3|2:3,0:0:0:0:
174,166,87544,6,0,B|166:123|190:113|190:112|184:93|183:80|183:80|208:93|228:109|251:109|258:106|267:115|267:115|271:96|273:79|312:63|307:33|307:33|326:70|316:86|353:105|353:105|365:73|370:70|384:68|393:48|421:42,2,450.000002980232,8|8|8,2:3|2:3|2:3,0:0:0:0:
112,231,91669,1,8,2:3:0:0:
166,302,92044,2,0,B|265:323|265:323|282:292|282:292|365:327|365:327|391:294|391:294|431:320|431:320|462:273,1,360.000002384186,8|8,2:3|2:3,0:0:0:0:
483,198,93919,1,8,2:3:0:0:
420,133,94294,6,0,B|399:94|374:101|374:100|367:81|359:70|359:70|348:96|342:121|324:135|316:137|315:150|315:150|300:137|288:125|247:136|233:110|233:110|241:151|258:157|241:195|241:195|212:177|206:178|193:185|174:174|154:159,1,450.000002980232,8|8,2:3|2:3,0:0:0:0:
91,221,96544,2,0,B|70:262|70:262|124:286,1,90.0000005960464,8|8,2:3|2:3,0:0:0:0:
177,339,97294,2,0,B|202:300|202:300|239:328|239:328|266:291|266:291|305:321,1,180.000001192093,8|0,2:3|0:0,0:0:0:0:
255,16,99544,5,4,1:0:0:0:
118,54,111544,5,4,1:0:0:0:
54,118,111919,2,0,B|75:157|75:157|120:149|120:149|144:214|144:214|199:189|263:218,1,270.000001788139,2|8,1:0|0:0,0:0:0:0:
315,278,113419,1,2,1:0:0:0:
404,265,113794,1,2,1:0:0:0:
448,90,114544,5,4,1:0:0:0:
459,0,114919,2,0,B|416:-12|416:-12|390:24|390:24|327:-4|327:-4|306:52|240:77,1,270.000001788139,2|8,1:0|0:0,0:0:0:0:
166,39,116419,1,2,1:0:0:0:
97,97,116794,1,2,1:0:0:0:
111,276,117544,5,4,1:0:0:0:
104,365,117919,2,0,B|147:377|147:377|173:341|173:341|236:369|236:369|257:313|323:288,1,270.000001788139,2|8,1:0|0:0,0:0:0:0:
388,341,119419,1,2,1:0:0:0:
475,319,119794,1,2,1:0:0:0:
398,156,120544,5,4,1:0:0:0:
343,84,120919,2,0,B|303:104|303:104|308:148|308:148|243:171|243:171|266:226|235:289,1,270.000001788139,2|8,1:0|0:0,0:0:0:0:
171,339,122419,1,0,1:0:0:0:
96,288,122794,2,0,L|9:263,1,90.0000005960464,2|0,1:0|0:0,0:0:0:0:
17,173,123544,5,4,1:0:0:0:
2,84,123919,1,2,1:0:0:0:
62,17,124294,2,0,B|132:76|132:76|231:53,1,180.000001192093,2|8,1:0|0:0,0:0:0:0:
298,95,125419,2,0,B|383:74|383:74|453:134,1,180.000001192093,2|8,1:0|0:0,0:0:0:0:
511,203,126544,5,4,1:0:0:0:
450,269,126919,1,2,1:0:0:0:
477,354,127294,2,0,B|406:294|406:294|308:318,1,180.000001192093,2|8,1:0|0:0,0:0:0:0:
233,336,128419,2,0,B|147:356|147:356|77:296,1,180.000001192093,2|8,1:0|0:0,0:0:0:0:
17,229,129544,5,4,1:0:0:0:
78,163,129919,1,2,1:0:0:0:
157,205,130294,2,0,B|216:134|216:134|196:49,1,180.000001192093,2|8,1:0|0:0,0:0:0:0:
282,23,131419,2,0,B|323:105|323:105|409:119,1,180.000001192093,2|8,1:0|0:0,0:0:0:0:
474,183,132544,5,4,1:0:0:0:
413,249,132919,1,2,1:0:0:0:
348,312,133294,2,0,B|286:287|286:287|145:356|145:356|120:316|120:316|79:336|79:336|51:293,1,360.000002384186,2|2,1:0|1:0,0:0:0:0:
107,225,135169,1,8,0:0:0:0:
60,148,135544,6,0,P|57:85|229:31,1,270.000001788139,4|2,1:0|2:3,0:0:0:0:
261,106,137044,2,0,B|301:84|301:84|383:112|383:112|431:87,1,180.000001192093,4|2,1:0|0:0,0:0:0:0:
505,251,138544,6,0,P|470:340|320:300,1,270.000001788139,4|2,1:0|2:3,0:0:0:0:
251,255,140044,2,0,B|211:277|211:277|129:249|129:249|81:274,1,180.000001192093,4|2,1:0|0:0,0:0:0:0:
87,91,141544,5,4,1:0:0:0:
162,42,141919,1,8,0:0:0:0:
243,79,142294,1,4,1:0:0:0:
324,41,142669,1,8,0:0:0:0:
398,91,143044,2,0,L|422:180,1,90.0000005960464,4|8,1:0|0:0,0:0:0:0:
390,262,143794,2,0,L|292:285,1,90.0000005960464,4|8,1:0|0:0,0:0:0:0:
215,260,144544,6,0,P|144:300|171:180,1,270.000001788139,10|10,0:0|0:0,0:0:0:0:
230,127,146044,2,0,P|329:168|257:40,1,360.000002384186,10|0,0:0|0:0,0:0:0:0:
63,204,149044,5,4,1:0:0:0:
136,256,149419,2,0,B|177:235|177:235|191:279|191:279|251:309|251:309|289:288|331:292,1,225.000001490116,2|0,1:0|0:0,0:0:0:0:
373,224,150731,2,0,B|390:181|390:181|350:165|350:165|373:103,1,135.00000089407,2|0,1:0|3:2,0:0:0:0:
184,153,152044,6,0,B|141:157|94:139|94:139|100:161|107:181|107:181|85:168|62:172|62:172|76:193|78:212|78:212|59:199|36:200|36:200|54:219|57:236|57:236|39:231|27:235|11:253,1,360.000002384186,8|8,2:3|2:3,0:0:0:0:
48,333,153919,2,0,B|61:342|64:356|71:370|71:370|79:348|85:327|85:327|95:350|116:361|116:361|117:335|126:319|126:319|134:340|153:352|153:352|154:332|162:318|184:317,1,270.000001788139,8|8,2:3|2:3,0:0:0:0:
251,266,155419,2,0,B|264:256|267:242|274:228|274:228|282:250|288:271|288:271|298:248|319:237|319:237|320:263|329:279|329:279|337:258|356:246|356:246|357:267|365:281|387:282,1,270.000001788139,8|8,2:3|2:3,0:0:0:0:
469,274,156919,2,0,B|479:261|493:258|507:251|507:251|485:243|464:237|464:237|487:227|498:206|498:206|471:205|456:196|456:196|477:188|489:169|489:169|468:168|454:160|453:138,1,270.000001788139,8|8,2:3|2:3,0:0:0:0:
385,86,158419,2,0,B|372:76|369:62|362:48|362:48|354:70|348:91|348:91|338:68|317:57|317:57|316:83|307:99|307:99|299:78|280:66|280:66|279:87|271:101|249:102,1,270.000001788139,8|8,2:3|2:3,0:0:0:0:
236,188,159919,2,0,B|226:201|226:215|223:230|223:230|210:211|198:192|198:192|195:217|177:233|177:233|170:208|157:195|157:195|155:217|139:234|139:234|133:214|122:203|100:207,1,270.000001788139,8|8,2:3|2:3,0:0:0:0:
29,162,161419,2,0,B|19:149|5:146|-9:139|-9:139|13:131|34:125|34:125|11:115|0:94|0:94|26:93|42:84|42:84|21:76|9:57|9:57|30:56|44:48|45:26,1,270.000001788139,8|10,2:3|1:1,0:0:0:0:
131,12,162919,6,0,B|155:52|155:52|166:38|166:38|230:79|230:79|315:68|315:68|370:94,1,270.000001788139,2|8,2:1|2:3,0:0:0:0:
419,149,164419,6,0,B|411:166|416:185|425:192|425:192|403:200|398:215|386:215|386:215|394:230|406:241|407:252|407:252|380:261|375:252|362:259|362:259|359:277|371:300|371:300|346:312|340:318|344:336,1,270.000001788139,8|8,2:3|2:3,0:0:0:0:
253,322,165919,1,8,2:3:0:0:
166,298,166294,1,8,2:3:0:0:
78,275,166669,1,8,2:3:0:0:
34,196,167044,1,8,2:3:0:0:
77,117,167419,6,0,B|95:112|113:121|118:130|118:130|130:110|145:108|147:96|147:96|161:107|170:120|181:123|181:123|194:98|186:92|195:80|195:80|214:80|234:96|234:96|250:74|257:69|275:76,1,270.000001788139,8|8,2:3|2:3,0:0:0:0:
356,45,168919,2,0,B|413:61|413:61|427:138|427:138|411:157|393:164|393:164|421:175|432:189|432:189,1,225.000001490116,8|2,2:3|3:2,0:0:0:0:
404,273,170231,6,0,B|390:291|391:319|391:319|366:305|361:296|361:296|349:316|334:318|332:330|332:330|318:319|309:306|298:303|298:303|285:328|293:334|284:346|284:346|265:346|241:330|241:330|229:352|222:357|204:350,1,315.000002086162,2|8,3:2|2:3,0:0:0:0:
118,325,171919,2,0,B|100:311|72:312|72:312|86:287|95:282|95:282|75:270|73:255|61:253|61:253|72:239|85:230|88:219|88:219|63:206|57:214|45:205|45:205|45:186|61:161|61:161|68:152,1,270.000001788139,8|8,2:3|2:3,0:0:0:0:
121,93,173419,2,0,B|135:75|134:47|134:47|159:61|164:70|164:70|176:50|191:48|193:36|193:36|207:46|216:60|227:63|227:63|240:38|232:32|241:20|241:20|260:20|284:36|284:36|294:43,1,270.000001788139,8|14,2:3|2:3,0:0:0:0:
233,187,187294,6,0,L|181:177,2,45.0000002980232,8|8|8,0:0|0:0|0:0,0:0:0:0:
285,259,188044,6,0,B|250:175|250:175|272:135|272:135|248:98|282:31|282:31|208:55|171:92,1,360.000002384186,8|8,2:3|2:3,0:0:0:0:
99,120,189919,1,8,2:3:0:0:
120,207,190294,2,0,B|128:213|142:211|142:211|142:222|139:235|139:235|154:254|166:268|166:268|163:278|156:289|156:289|174:290|177:293,1,135.00000089407,8|8,2:2|2:2,0:0:0:0:
174,338,191044,6,0,B|246:282|246:282|290:293|290:293|342:261|395:282|395:282|366:225|384:173,1,360.000002384186,8|8,2:3|2:3,0:0:0:0:
431,95,192919,1,8,2:3:0:0:
387,15,193294,2,0,B|358:17|346:35|346:35|339:15|317:4|317:4|296:30|263:29,1,135.00000089407,8|8,2:0|2:0,0:0:0:0:
250,9,194044,6,0,B|215:93|215:93|237:133|237:133|217:170|217:170|277:202|277:202|248:258|294:314,1,360.000002384186,8|8,2:3|2:3,0:0:0:0:
375,334,195919,1,8,2:3:0:0:
449,283,196294,2,0,B|450:272|464:269|464:269|461:259|453:248|453:248|461:225|466:208|466:208|460:199|450:191|450:191|467:184|469:180,1,135.00000089407,8|8,2:2|2:2,0:0:0:0:
451,137,197044,6,0,B|370:93|370:93|328:110|328:110|314:68|314:68|288:110|244:120,1,270.000001788139,8|8,2:3|2:3,0:0:0:0:
185,186,198544,2,0,B|146:201|104:193|104:193|143:225|137:278|137:278|164:291|186:289|186:289|180:309|187:331|187:331|219:322|244:334,1,315.000002086162,8|8,2:3|2:3,0:0:0:0:
265,359,200044,6,0,B|298:325|313:282|313:282|359:277|359:277|363:230|363:230|428:233|428:233|394:192|403:128,1,360.000002384186,8|8,2:3|2:3,0:0:0:0:
361,50,201919,1,8,2:3:0:0:
282,94,202294,2,0,B|272:93|261:102|261:102|255:93|250:81|250:81|227:74|209:69|209:69|206:59|206:46|206:46|190:55|186:54,1,135.00000089407,8|8,2:2|2:2,0:0:0:0:
152,84,203044,6,0,B|158:174|158:174|196:200|196:200|201:244|201:244|258:285|258:285|286:231|361:219,1,360.000002384186,8|8,2:3|2:3,0:0:0:0:
414,168,204919,1,8,2:3:0:0:
468,239,205294,2,0,B|478:265|499:271|499:271|482:284|479:308|479:308|510:320|512:336,1,135.00000089407,8|8,2:0|2:0,0:0:0:0:
485,371,206044,6,0,B|396:349|396:349|377:308|377:308|335:303|335:303|344:235|344:235|282:226|264:156,1,360.000002384186,8|8,2:3|2:3,0:0:0:0:
193,110,207919,1,8,2:3:0:0:
120,162,208294,2,0,B|119:173|105:176|105:176|108:186|116:197|116:197|108:220|103:237|103:237|109:246|119:254|119:254|102:261|100:265,1,135.00000089407,8|8,2:2|2:2,0:0:0:0:
139,286,209044,5,8,2:3:0:0:
226,308,209419,1,10,1:1:0:0:
298,254,209794,1,10,2:1:0:0:
385,276,210169,1,8,2:3:0:0:
448,212,210544,6,0,B|469:176|507:157|507:157|456:155|428:110|428:110|399:116|383:131|383:131|376:112|356:99|356:99|342:119|324:131|324:131|271:120,1,360.000002384186,8|2,2:3|0:3,0:0:0:0:
