osu file format v14

[General]
AudioFilename: audio.mp3
AudioLeadIn: 0
PreviewTime: 163703
Countdown: 0
SampleSet: Soft
StackLeniency: 0.7
Mode: 3
LetterboxInBreaks: 0
SpecialStyle: 0
WidescreenStoryboard: 0

[Editor]
DistanceSpacing: 0.8
BeatDivisor: 4
GridSize: 4
TimelineZoom: 1.999999

[Metadata]
Title:Extreme Ongaku School feat. Nanahira
TitleUnicode:えくすとりーむ↑↑おんがくスクール feat​. ​ななひら
Artist:Massive New Krew & RoughSketch
ArtistUnicode:Massive New Krew & RoughSketch
Creator:Rhezie
Version:Maxime Musica
Source:
Tags:japanese electronic speedcore splash!! confetti-box dubstek angki confetto doujin c93 comiket93 comicmarket93 コミックマーケット93 コミケ93 compilation album denpa 電波 cfcd-0014 Massive CircleZ MNFK-014 c88 comiket88 comicmarket88 コミックマーケット88 コミケ88 Shohei Uno 宇野将平 ラフ助 CANVAS Ryosuke Tachibana Ayato Homma 橘亮祐 本間絢人 JAVELIN 篠崎あやと extreme music school ekusutoriimu ongaku sukuuru HARDCORE TANO*C C.H.S
BeatmapID:2848497
BeatmapSetID:1378488

[Difficulty]
HPDrainRate:8.8
CircleSize:4
OverallDifficulty:8.5
ApproachRate:5
SliderMultiplier:1.4
SliderTickRate:1

[Events]
//Background and Video events
0,0,"bg.jpg",0,0
//Break Periods
//Storyboard Layer 0 (Background)
//Storyboard Layer 1 (Fail)
//Storyboard Layer 2 (Pass)
//Storyboard Layer 3 (Foreground)
//Storyboard Layer 4 (Overlay)
//Storyboard Sound Samples

[TimingPoints]
275,285.714285714286,4,2,1,50,1,0
8560,-32.258064516129,4,2,1,50,0,0
8608,-333.333333333333,4,2,1,50,0,0
8751,-125,4,2,1,50,0,0
8798,-83.3333333333333,4,2,1,50,0,0
8846,-100,4,2,1,50,0,0
9132,-32.258064516129,4,2,1,50,0,0
9180,-333.333333333333,4,2,1,50,0,0
9323,-125,4,2,1,50,0,0
9370,-83.3333333333333,4,2,1,50,0,0
9418,-29.4117647058824,4,2,1,50,0,0
9441,-500,4,2,1,50,0,0
9513,-125,4,2,1,50,0,0
9536,-83.3333333333333,4,2,1,50,0,0
9560,-100,4,2,1,50,0,0
9703,-35.7142857142857,4,2,1,50,0,0
9726,-250,4,2,1,50,0,0
9798,-125,4,2,1,50,0,0
9821,-83.3333333333333,4,2,1,50,0,0
9845,-100,4,2,1,50,0,0
9989,-35.7142857142857,4,2,1,50,0,0
10012,-250,4,2,1,50,0,0
10084,-125,4,2,1,50,0,0
10107,-83.3333333333333,4,2,1,50,0,0
10131,-100,4,2,1,50,0,0
10272,-10.6382978723404,4,2,1,50,0,0
10283,-500,4,2,1,50,0,0
10417,-142.857142857143,4,2,1,50,0,0
10453,-111.111111111111,4,2,1,50,0,0
10489,-90.9090909090909,4,2,1,50,0,0
10525,-76.9230769230769,4,2,1,50,0,0
10560,-100,4,2,1,50,0,0
10846,-45.4545454545455,4,2,1,50,0,0
10882,-166.666666666667,4,2,1,50,0,0
10989,-100,4,2,1,50,0,0
11417,-45.4545454545455,4,2,1,50,0,0
11453,-166.666666666667,4,2,1,50,0,0
11560,-100,4,2,1,50,0,0
11989,-45.4545454545455,4,2,1,50,0,0
12025,-166.666666666667,4,2,1,50,0,0
12132,-100,4,2,1,50,0,0
12560,-45.4545454545455,4,2,1,50,0,0
12596,-166.666666666667,4,2,1,50,0,0
12703,-100,4,2,1,50,0,0
13132,-45.4545454545455,4,2,1,50,0,0
13168,-166.666666666667,4,2,1,50,0,0
13275,-100,4,2,1,50,0,0
13703,-45.4545454545455,4,2,1,50,0,0
13739,-166.666666666667,4,2,1,50,0,0
13846,-100,4,2,1,50,0,0
14275,-45.4545454545455,4,2,1,50,0,0
14311,-166.666666666667,4,2,1,50,0,0
14418,-100,4,2,1,50,0,0
14560,-45.4545454545455,4,2,1,50,0,0
14596,-166.666666666667,4,2,1,50,0,0
14703,-100,4,2,1,50,0,0
14846,-45.4545454545455,4,2,1,50,0,0
14882,-166.666666666667,4,2,1,50,0,0
14989,-100,4,2,1,50,0,0
15417,-45.4545454545455,4,2,1,50,0,0
15453,-166.666666666667,4,2,1,50,0,0
15560,-100,4,2,1,50,0,0
15989,-45.4545454545455,4,2,1,50,0,0
16025,-166.666666666667,4,2,1,50,0,0
16132,-100,4,2,1,50,0,0
16560,-45.4545454545455,4,2,1,50,0,0
16596,-166.666666666667,4,2,1,50,0,0
16703,-100,4,2,1,50,0,0
17132,-45.4545454545455,4,2,1,50,0,0
17168,-166.666666666667,4,2,1,50,0,0
17275,-100,4,2,1,50,0,0
17703,-45.4545454545455,4,2,1,50,0,0
17739,-166.666666666667,4,2,1,50,0,0
17846,-100,4,2,1,50,0,0
18275,-45.4545454545455,4,2,1,50,0,0
18311,-166.666666666667,4,2,1,50,0,0
18418,-100,4,2,1,50,0,0
18560,-45.4545454545455,4,2,1,50,0,0
18596,-166.666666666667,4,2,1,50,0,0
18703,-100,4,2,1,50,0,0
18846,-45.4545454545455,4,2,1,50,0,0
18882,-166.666666666667,4,2,1,50,0,0
18989,-100,4,2,1,50,0,0
19132,-45.4545454545455,4,2,1,50,0,0
19168,-166.666666666667,4,2,1,50,0,0
19275,-100,4,2,1,50,0,0
19417,-45.4545454545455,4,2,1,50,0,0
19453,-166.666666666667,4,2,1,50,0,0
19560,-100,4,2,1,50,0,0
19703,-45.4545454545455,4,2,1,50,0,0
19739,-166.666666666667,4,2,1,50,0,0
19846,-100,4,2,1,50,0,0
20132,-45.4545454545455,4,2,1,50,0,0
20168,-166.666666666667,4,2,1,50,0,0
20275,-100,4,2,1,50,0,0
20560,-45.4545454545455,4,2,1,50,0,0
20596,-166.666666666667,4,2,1,50,0,0
20703,-100,4,2,1,50,0,0
20989,-45.4545454545455,4,2,1,50,0,0
21025,-166.666666666667,4,2,1,50,0,0
21132,-100,4,2,1,50,0,0
21417,-45.4545454545455,4,2,1,50,0,0
21453,-166.666666666667,4,2,1,50,0,0
21560,-100,4,2,1,50,0,0
21846,-19.2307692307692,4,2,1,50,0,0
21917,-500.000000000003,4,2,1,50,0,0
22275,-250.000000000001,4,2,1,50,0,0
22417,-166.666666666667,4,2,1,50,0,0
22560,-125,4,2,1,50,0,0
26560,-25,4,2,1,50,0,0
26584,-250,4,2,1,50,0,0
26703,-25,4,2,1,50,0,0
26739,-500,4,2,1,50,0,0
26882,-250,4,2,1,50,0,0
26917,-71.4285714285714,4,2,1,50,0,0
26989,-25,4,2,1,50,0,0
27025,-500,4,2,1,50,0,0
27168,-250,4,2,1,50,0,0
27203,-71.4285714285714,4,2,1,50,0,0
27275,-25,4,2,1,50,0,0
27311,-500,4,2,1,50,0,0
27454,-250,4,2,1,50,0,0
27489,-71.4285714285714,4,2,1,50,0,0
27560,-25,4,2,1,50,0,0
27596,-500,4,2,1,50,0,0
27703,-250,4,2,1,50,0,0
27774,-166.666666666667,4,2,1,50,0,0
27846,-125,4,2,1,50,0,0
27917,-100,4,2,1,50,0,0
31132,-45.4545454545455,4,2,1,50,0,0
31167,-166.666666666667,4,2,1,50,0,0
31203,-100,4,2,1,50,0,0
31275,-45.4545454545455,4,2,1,50,0,0
31310,-166.666666666667,4,2,1,50,0,0
31346,-100,4,2,1,50,0,0
31560,-45.4545454545455,4,2,1,50,0,0
31596,-166.666666666667,4,2,1,50,0,0
31632,-100,4,2,1,50,0,0
31846,-45.4545454545455,4,2,1,50,0,0
31882,-166.666666666667,4,2,1,50,0,0
31917,-100,4,2,1,50,0,0
32132,-25,4,2,1,50,0,0
32167,-500,4,2,1,50,0,0
32275,-250.000000000001,4,2,1,50,0,0
32346,-166.666666666667,4,2,1,50,0,0
32417,-125,4,2,1,50,0,0
32489,-100,4,2,1,50,0,0
45989,-33.3333333333333,4,2,1,50,0,0
46025,-250,4,2,1,50,0,0
46168,-166.666666666667,4,2,1,50,0,0
46203,-71.4285714285714,4,2,1,50,0,0
46275,-33.3333333333333,4,2,1,50,0,0
46311,-250,4,2,1,50,0,0
46454,-166.666666666667,4,2,1,50,0,0
46489,-71.4285714285714,4,2,1,50,0,0
46560,-33.3333333333333,4,2,1,50,0,0
46596,-250,4,2,1,50,0,0
46739,-166.666666666667,4,2,1,50,0,0
46774,-71.4285714285714,4,2,1,50,0,0
46846,-33.3333333333333,4,2,1,50,0,0
46864,-250,4,2,1,50,0,0
46935,-166.666666666667,4,2,1,50,0,0
46953,-71.4285714285714,4,2,1,50,0,0
46989,-100,4,2,1,50,0,0
47132,-33.3333333333333,4,2,1,50,0,0
47168,-250,4,2,1,50,0,0
47311,-166.666666666667,4,2,1,50,0,0
47346,-71.4285714285714,4,2,1,50,0,0
47417,-33.3333333333333,4,2,1,50,0,0
47435,-250,4,2,1,50,0,0
47507,-166.666666666667,4,2,1,50,0,0
47525,-71.4285714285714,4,2,1,50,0,0
47560,-100,4,2,1,50,0,0
48132,-33.3333333333333,4,2,1,50,0,0
48168,-250,4,2,1,50,0,0
48311,-166.666666666667,4,2,1,50,0,0
48346,-71.4285714285714,4,2,1,50,0,0
48417,-100,4,2,1,50,0,0
52703,-33.3333333333333,4,2,1,50,0,0
52739,-250,4,2,1,50,0,0
52882,-166.666666666667,4,2,1,50,0,0
52917,-71.4285714285714,4,2,1,50,0,0
52989,-100,4,2,1,50,0,0
57275,-33.3333333333333,4,2,1,50,0,0
57310,-250,4,2,1,50,0,0
57453,-166.666666666667,4,2,1,50,0,0
57489,-71.4285714285714,4,2,1,50,0,0
57560,-100,4,2,1,50,0,0
64275,-52.6315789473684,4,2,1,50,0,0
64311,-142.857142857143,4,2,1,50,0,0
64418,-100,4,2,1,50,0,0
64703,-52.6315789473684,4,2,1,50,0,0
64739,-142.857142857143,4,2,1,50,0,0
64846,-100,4,2,1,50,0,0
65132,-52.6315789473684,4,2,1,50,0,0
65168,-142.857142857143,4,2,1,50,0,0
65275,-100,4,2,1,50,0,0
65560,-52.6315789473684,4,2,1,50,0,0
65596,-142.857142857143,4,2,1,50,0,0
65703,-100,4,2,1,50,0,0
65989,-52.6315789473684,4,2,1,50,0,0
66025,-142.857142857143,4,2,1,50,0,0
66132,-100,4,2,1,50,0,0
66417,-27.027027027027,4,2,1,50,0,0
66453,-500.000000000003,4,2,1,50,0,0
67132,-166.666666666667,4,2,1,50,0,0
67275,-125,4,2,1,50,0,0
67417,-100,4,2,1,50,0,0
67703,-40,4,2,1,50,0,0
67739,-200,4,2,1,50,0,0
67846,-40,4,2,1,50,0,0
67882,-200,4,2,1,50,0,0
67989,-40,4,2,1,50,0,0
68025,-200,4,2,1,50,0,0
68132,-100,4,2,1,50,0,0
68846,-40,4,2,1,50,0,1
68917,-200,4,2,1,50,0,1
69132,-100,4,2,1,50,0,1
69275,-40,4,2,1,50,0,1
69310,-200,4,2,1,50,0,1
69417,-100,4,2,1,50,0,1
69560,-40,4,2,1,50,0,1
69595,-200,4,2,1,50,0,1
69702,-100,4,2,1,50,0,1
69846,-40,4,2,1,50,0,1
69917,-200,4,2,1,50,0,1
70132,-100,4,2,1,50,0,1
70275,-40,4,2,1,50,0,1
70310,-200,4,2,1,50,0,1
70417,-100,4,2,1,50,0,1
70560,-40,4,2,1,50,0,1
70595,-200,4,2,1,50,0,1
70702,-100,4,2,1,50,0,1
70846,-45.4545454545455,4,2,1,50,0,1
70881,-166.666666666667,4,2,1,50,0,1
70988,-100,4,2,1,50,0,1
71132,-45.4545454545455,4,2,1,50,0,1
71167,-166.666666666667,4,2,1,50,0,1
71274,-100,4,2,1,50,0,1
77275,-40,4,2,1,50,0,1
77310,-200,4,2,1,50,0,1
77417,-100,4,2,1,50,0,1
77560,-40,4,2,1,50,0,1
77595,-200,4,2,1,50,0,1
77703,-40,4,2,1,50,0,1
77738,-200,4,2,1,50,0,1
77846,-40,4,2,1,50,0,1
77881,-200,4,2,1,50,0,1
77989,-40,4,2,1,50,0,1
78060,-200,4,2,1,50,0,1
78275,-100,4,2,1,50,0,1
78418,-40,4,2,1,50,0,1
78453,-200,4,2,1,50,0,1
78560,-100,4,2,1,50,0,1
78703,-40,4,2,1,50,0,1
78738,-200,4,2,1,50,0,1
78845,-100,4,2,1,50,0,1
78989,-40,4,2,1,50,0,1
79060,-200,4,2,1,50,0,1
79275,-100,4,2,1,50,0,1
79418,-40,4,2,1,50,0,1
79453,-200,4,2,1,50,0,1
79560,-100,4,2,1,50,0,1
79703,-40,4,2,1,50,0,1
79738,-200,4,2,1,50,0,1
79845,-100,4,2,1,50,0,1
79989,-45.4545454545455,4,2,1,50,0,1
80024,-166.666666666667,4,2,1,50,0,1
80131,-100,4,2,1,50,0,1
80275,-45.4545454545455,4,2,1,50,0,1
80310,-166.666666666667,4,2,1,50,0,1
80417,-100,4,2,1,50,0,1
87132,-100,4,2,1,50,0,0
107989,-45.4545454545455,4,2,1,50,0,0
108025,-166.666666666667,4,2,1,50,0,0
108132,-100,4,2,1,50,0,0
108560,-45.4545454545455,4,2,1,50,0,0
108596,-166.666666666667,4,2,1,50,0,0
108703,-100,4,2,1,50,0,0
109132,-45.4545454545455,4,2,1,50,0,0
109168,-166.666666666667,4,2,1,50,0,0
109275,-100,4,2,1,50,0,0
109703,-45.4545454545455,4,2,1,50,0,0
109739,-166.666666666667,4,2,1,50,0,0
109846,-100,4,2,1,50,0,0
110275,-45.4545454545455,4,2,1,50,0,0
110311,-166.666666666667,4,2,1,50,0,0
110418,-100,4,2,1,50,0,0
110846,-45.4545454545455,4,2,1,50,0,0
110882,-166.666666666667,4,2,1,50,0,0
110989,-100,4,2,1,50,0,0
111418,-45.4545454545455,4,2,1,50,0,0
111454,-166.666666666667,4,2,1,50,0,0
111561,-100,4,2,1,50,0,0
111703,-45.4545454545455,4,2,1,50,0,0
111739,-166.666666666667,4,2,1,50,0,0
111846,-100,4,2,1,50,0,0
111989,-45.4545454545455,4,2,1,50,0,0
112025,-166.666666666667,4,2,1,50,0,0
112132,-100,4,2,1,50,0,0
112560,-45.4545454545455,4,2,1,50,0,0
112596,-166.666666666667,4,2,1,50,0,0
112703,-100,4,2,1,50,0,0
113132,-45.4545454545455,4,2,1,50,0,0
113168,-166.666666666667,4,2,1,50,0,0
113275,-100,4,2,1,50,0,0
113703,-45.4545454545455,4,2,1,50,0,0
113739,-166.666666666667,4,2,1,50,0,0
113846,-100,4,2,1,50,0,0
114275,-45.4545454545455,4,2,1,50,0,0
114311,-166.666666666667,4,2,1,50,0,0
114418,-100,4,2,1,50,0,0
114846,-45.4545454545455,4,2,1,50,0,0
114882,-166.666666666667,4,2,1,50,0,0
114989,-100,4,2,1,50,0,0
115418,-45.4545454545455,4,2,1,50,0,0
115454,-166.666666666667,4,2,1,50,0,0
115561,-100,4,2,1,50,0,0
115703,-45.4545454545455,4,2,1,50,0,0
115739,-166.666666666667,4,2,1,50,0,0
115846,-100,4,2,1,50,0,0
115989,-45.4545454545455,4,2,1,50,0,0
116025,-166.666666666667,4,2,1,50,0,0
116132,-100,4,2,1,50,0,0
116275,-45.4545454545455,4,2,1,50,0,0
116311,-166.666666666667,4,2,1,50,0,0
116418,-100,4,2,1,50,0,0
116560,-45.4545454545455,4,2,1,50,0,0
116596,-166.666666666667,4,2,1,50,0,0
116703,-100,4,2,1,50,0,0
116846,-45.4545454545455,4,2,1,50,0,0
116882,-166.666666666667,4,2,1,50,0,0
116989,-100,4,2,1,50,0,0
117275,-45.4545454545455,4,2,1,50,0,0
117311,-166.666666666667,4,2,1,50,0,0
117418,-100,4,2,1,50,0,0
117703,-45.4545454545455,4,2,1,50,0,0
117739,-166.666666666667,4,2,1,50,0,0
117846,-100,4,2,1,50,0,0
118132,-45.4545454545455,4,2,1,50,0,0
118168,-166.666666666667,4,2,1,50,0,0
118275,-100,4,2,1,50,0,0
118560,-45.4545454545455,4,2,1,50,0,0
118596,-166.666666666667,4,2,1,50,0,0
118703,-100,4,2,1,50,0,0
118989,-19.2307692307692,4,2,1,50,0,0
119060,-500.000000000003,4,2,1,50,0,0
119418,-250.000000000001,4,2,1,50,0,0
119560,-166.666666666667,4,2,1,50,0,0
119703,-125,4,2,1,50,0,0
122560,-35.7142857142857,4,2,1,50,0,0
122578,-250,4,2,1,50,0,0
122632,-35.7142857142857,4,2,1,50,0,0
122650,-250,4,2,1,50,0,0
122703,-35.7142857142857,4,2,1,50,0,0
122721,-250,4,2,1,50,0,0
122775,-35.7142857142857,4,2,1,50,0,0
122793,-250,4,2,1,50,0,0
122846,-125,4,2,1,50,0,0
123417,-45.4545454545455,4,2,1,50,0,0
123489,-166.666666666667,4,2,1,50,0,0
123703,-25,4,2,1,50,0,0
123735,-250,4,2,1,50,0,0
123894,-27.7777777777778,4,2,1,50,0,0
123925,-250,4,2,1,50,0,0
124052,-166.666666666667,4,2,1,50,0,0
124116,-76.9230769230769,4,2,1,50,0,0
124179,-27.7777777777778,4,2,1,50,0,0
124210,-250,4,2,1,50,0,0
124337,-166.666666666667,4,2,1,50,0,0
124401,-76.9230769230769,4,2,1,50,0,0
124465,-27.7777777777778,4,2,1,50,0,0
124496,-250,4,2,1,50,0,0
124623,-166.666666666667,4,2,1,50,0,0
124687,-76.9230769230769,4,2,1,50,0,0
124751,-27.7777777777778,4,2,1,50,0,0
124798,-250,4,2,1,50,0,0
124941,-166.666666666667,4,2,1,50,0,0
124989,-125,4,2,1,50,0,0
125036,-100,4,2,1,50,0,0
140275,-45.4545454545455,4,2,1,50,0,0
140322,-166.666666666667,4,2,1,50,0,0
140465,-40,4,2,1,50,0,0
140513,-200,4,2,1,50,0,0
140655,-35.7142857142857,4,2,1,50,0,0
140703,-250,4,2,1,50,0,0
140846,-45.4545454545455,4,2,1,50,0,0
140882,-166.666666666667,4,2,1,50,0,0
140989,-100,4,2,1,50,0,0
141703,-33.3333333333333,4,2,1,50,0,0
141739,-250,4,2,1,50,0,0
141882,-166.666666666667,4,2,1,50,0,0
141917,-71.4285714285714,4,2,1,50,0,0
141989,-100,4,2,1,50,0,0
143132,-33.3333333333333,4,2,1,50,0,0
143168,-250,4,2,1,50,0,0
143311,-166.666666666667,4,2,1,50,0,0
143346,-71.4285714285714,4,2,1,50,0,0
143417,-33.3333333333333,4,2,1,50,0,0
143453,-250,4,2,1,50,0,0
143596,-166.666666666667,4,2,1,50,0,0
143631,-71.4285714285714,4,2,1,50,0,0
143703,-33.3333333333333,4,2,1,50,0,0
143721,-250,4,2,1,50,0,0
143792,-166.666666666667,4,2,1,50,0,0
143810,-71.4285714285714,4,2,1,50,0,0
143846,-100,4,2,1,50,0,0
143989,-33.3333333333333,4,2,1,50,0,0
144007,-250,4,2,1,50,0,0
144078,-166.666666666667,4,2,1,50,0,0
144096,-71.4285714285714,4,2,1,50,0,0
144132,-100,4,2,1,50,0,0
144275,-33.3333333333333,4,2,1,50,0,0
144311,-250,4,2,1,50,0,0
144454,-166.666666666667,4,2,1,50,0,0
144489,-71.4285714285714,4,2,1,50,0,0
144560,-33.3333333333333,4,2,1,50,0,0
144578,-250,4,2,1,50,0,0
144649,-166.666666666667,4,2,1,50,0,0
144667,-71.4285714285714,4,2,1,50,0,0
144703,-100,4,2,1,50,0,0
144846,-33.3333333333333,4,2,1,50,0,0
144882,-250,4,2,1,50,0,0
145025,-166.666666666667,4,2,1,50,0,0
145060,-71.4285714285714,4,2,1,50,0,0
145132,-33.3333333333333,4,2,1,50,0,0
145150,-250,4,2,1,50,0,0
145221,-166.666666666667,4,2,1,50,0,0
145239,-71.4285714285714,4,2,1,50,0,0
145275,-100,4,2,1,50,0,0
145417,-33.3333333333333,4,2,1,50,0,0
145453,-250,4,2,1,50,0,0
145596,-166.666666666667,4,2,1,50,0,0
145631,-71.4285714285714,4,2,1,50,0,0
145703,-33.3333333333333,4,2,1,50,0,0
145721,-250,4,2,1,50,0,0
145792,-166.666666666667,4,2,1,50,0,0
145810,-71.4285714285714,4,2,1,50,0,0
145846,-100,4,2,1,50,0,0
145989,-33.3333333333333,4,2,1,50,0,0
146007,-250,4,2,1,50,0,0
146078,-166.666666666667,4,2,1,50,0,0
146096,-71.4285714285714,4,2,1,50,0,0
146132,-100,4,2,1,50,0,0
146275,-33.3333333333333,4,2,1,50,0,0
146293,-250,4,2,1,50,0,0
146364,-166.666666666667,4,2,1,50,0,0
146382,-71.4285714285714,4,2,1,50,0,0
146418,-100,4,2,1,50,0,0
146560,-62.5,4,2,1,50,0,0
146596,-125,4,2,1,50,0,0
146703,-100,4,2,1,50,0,0
146846,-62.5,4,2,1,50,0,0
146882,-125,4,2,1,50,0,0
146989,-100,4,2,1,50,0,0
147560,-33.3333333333333,4,2,1,50,0,0
147596,-250,4,2,1,50,0,0
147739,-166.666666666667,4,2,1,50,0,0
147774,-71.4285714285714,4,2,1,50,0,0
147845,-100,4,2,1,50,0,0
152132,-33.3333333333333,4,2,1,50,0,0
152167,-250,4,2,1,50,0,0
152310,-166.666666666667,4,2,1,50,0,0
152346,-71.4285714285714,4,2,1,50,0,0
152417,-100,4,2,1,50,0,0
156703,-33.3333333333333,4,2,1,50,0,0
156739,-250,4,2,1,50,0,0
156882,-166.666666666667,4,2,1,50,0,0
156917,-71.4285714285714,4,2,1,50,0,0
156989,-100,4,2,1,50,0,0
163703,555.555555555556,4,2,1,50,1,0
163703,-96.1538461538461,4,2,1,50,0,0
166848,480.961923847695,4,2,1,50,1,0
166848,-67.5675675675676,4,2,1,50,0,0
169733,-11.5207373271889,4,2,1,50,0,0
169763,-10000,4,2,1,50,0,0
170395,-92.5925925925926,4,2,1,50,0,0
170455,-84.7457627118644,4,2,1,50,0,0
170515,-78.125,4,2,1,50,0,0
170575,-72.463768115942,4,2,1,50,0,0
170635,-67.5675675675676,4,2,1,50,0,0
170694,240,4,2,1,50,1,0
170694,-69.4444444444444,4,2,1,50,0,0
170754,-156.25,4,2,1,50,0,0
170934,-69.4444444444444,4,2,1,50,0,0
170994,-156.25,4,2,1,50,0,0
171174,-19.8412698412698,4,2,1,50,0,0
171204,-2500,4,2,1,50,0,0
171294,-416.666666666667,4,2,1,50,0,0
171414,-227.272727272727,4,2,1,50,0,0
171474,-185.185185185185,4,2,1,50,0,0
171534,-156.25,4,2,1,50,0,0
171594,-135.135135135135,4,2,1,50,0,0
171654,-37.8787878787879,4,2,1,50,0,1
171684,-416.666666666665,4,2,1,50,0,1
171774,-119.047619047619,4,2,1,50,0,1
194700,285.714285714286,4,2,1,50,1,0
196842,285.714285714286,4,2,1,50,1,0
196842,-52.6315789473684,4,2,1,50,0,0
196878,-142.857142857143,4,2,1,50,0,0
196985,-100,4,2,1,50,0,0
197270,-52.6315789473684,4,2,1,50,0,0
197306,-142.857142857143,4,2,1,50,0,0
197413,-100,4,2,1,50,0,0
197699,-52.6315789473684,4,2,1,50,0,0
197735,-142.857142857143,4,2,1,50,0,0
197842,-100,4,2,1,50,0,0
198127,-52.6315789473684,4,2,1,50,0,0
198163,-142.857142857143,4,2,1,50,0,0
198270,-100,4,2,1,50,0,0
198556,-52.6315789473684,4,2,1,50,0,0
198592,-142.857142857143,4,2,1,50,0,0
198699,-100,4,2,1,50,0,0
198984,-52.6315789473684,4,2,1,50,0,0
199020,-142.857142857143,4,2,1,50,0,0
199127,-100,4,2,1,50,0,0
199413,-52.6315789473684,4,2,1,50,0,0
199449,-142.857142857143,4,2,1,50,0,0
199556,-100,4,2,1,50,0,0
199842,-52.6315789473684,4,2,1,50,0,0
199878,-142.857142857143,4,2,1,50,0,0
199985,-100,4,2,1,50,0,0
200270,-45.4545454545455,4,2,1,50,0,0
200306,-166.666666666667,4,2,1,50,0,0
200413,-100,4,2,1,50,0,0
200556,-45.4545454545455,4,2,1,50,0,0
200592,-166.666666666667,4,2,1,50,0,0
200699,-100,4,2,1,50,0,0
200842,-45.4545454545455,4,2,1,50,0,0
200878,-166.666666666667,4,2,1,50,0,0
200985,-100,4,2,1,50,0,0
201127,-45.4545454545455,4,2,1,50,0,0
201163,-166.666666666667,4,2,1,50,0,0
201270,-100,4,2,1,50,0,0
201413,-45.4545454545455,4,2,1,50,0,0
201449,-166.666666666667,4,2,1,50,0,0
201556,-45.4545454545455,4,2,1,50,0,0
201592,-166.666666666667,4,2,1,50,0,0
201699,-45.4545454545455,4,2,1,50,0,0
201735,-166.666666666667,4,2,1,50,0,0
201842,-45.4545454545455,4,2,1,50,0,0
201878,-166.666666666667,4,2,1,50,0,0
201984,-45.4545454545455,4,2,1,50,0,0
202020,-166.666666666667,4,2,1,50,0,0
202127,-45.4545454545455,4,2,1,50,0,0
202163,-166.666666666667,4,2,1,50,0,0
202270,-45.4545454545455,4,2,1,50,0,0
202306,-166.666666666667,4,2,1,50,0,0
202413,-27.027027027027,4,2,1,50,0,0
202449,-500.000000000003,4,2,1,50,0,0
203128,-166.666666666667,4,2,1,50,0,0
203271,-125,4,2,1,50,0,0
203413,-100,4,2,1,50,0,0
203699,-40,4,2,1,50,0,0
203735,-200,4,2,1,50,0,0
203842,-40,4,2,1,50,0,0
203878,-200,4,2,1,50,0,0
203985,-40,4,2,1,50,0,0
204021,-200,4,2,1,50,0,0
204128,-100,4,2,1,50,0,0
204270,-35.7142857142857,4,2,1,50,0,0
204288,-250,4,2,1,50,0,0
204342,-35.7142857142857,4,2,1,50,0,0
204360,-250,4,2,1,50,0,0
204413,-35.7142857142857,4,2,1,50,0,0
204431,-250,4,2,1,50,0,0
204485,-35.7142857142857,4,2,1,50,0,0
204503,-250,4,2,1,50,0,0
204556,-35.7142857142857,4,2,1,50,0,0
204574,-250,4,2,1,50,0,0
204628,-35.7142857142857,4,2,1,50,0,0
204646,-250,4,2,1,50,0,0
204699,-35.7142857142857,4,2,1,50,0,0
204717,-250,4,2,1,50,0,0
204771,-35.7142857142857,4,2,1,50,0,0
204789,-250,4,2,1,50,0,0
204842,-40,4,2,1,50,0,0
204878,-200,4,2,1,50,0,0
204985,-40,4,2,1,50,0,0
205021,-200,4,2,1,50,0,0
205128,-40,4,2,1,50,0,0
205164,-200,4,2,1,50,0,0
205271,-100,4,2,1,50,0,0
205984,-40,4,2,1,50,0,0
206055,-200,4,2,1,50,0,0
206270,-100,4,2,1,50,0,0
206413,-40,4,2,1,50,0,0
206448,-200,4,2,1,50,0,0
206555,-100,4,2,1,50,0,0
206698,-40,4,2,1,50,0,0
206733,-200,4,2,1,50,0,0
206840,-100,4,2,1,50,0,0
206984,-40,4,2,1,50,0,0
207055,-200,4,2,1,50,0,0
207270,-100,4,2,1,50,0,0
207413,-40,4,2,1,50,0,0
207448,-200,4,2,1,50,0,0
207555,-100,4,2,1,50,0,0
207698,-40,4,2,1,50,0,0
207733,-200,4,2,1,50,0,0
207840,-100,4,2,1,50,0,0
207984,-45.4545454545455,4,2,1,50,0,0
208019,-166.666666666667,4,2,1,50,0,0
208126,-100,4,2,1,50,0,0
208270,-45.4545454545455,4,2,1,50,0,0
208305,-166.666666666667,4,2,1,50,0,0
208412,-100,4,2,1,50,0,0
214413,-40,4,2,1,50,0,0
214448,-200,4,2,1,50,0,0
214555,-100,4,2,1,50,0,0
214698,-40,4,2,1,50,0,0
214733,-200,4,2,1,50,0,0
214841,-40,4,2,1,50,0,0
214876,-200,4,2,1,50,0,0
214984,-40,4,2,1,50,0,0
215019,-200,4,2,1,50,0,0
215127,-40,4,2,1,50,0,0
215198,-200,4,2,1,50,0,0
215413,-100,4,2,1,50,0,0
215556,-40,4,2,1,50,0,0
215591,-200,4,2,1,50,0,0
215698,-100,4,2,1,50,0,0
215841,-40,4,2,1,50,0,0
215876,-200,4,2,1,50,0,0
215983,-100,4,2,1,50,0,0
216127,-40,4,2,1,50,0,0
216198,-200,4,2,1,50,0,0
216413,-100,4,2,1,50,0,0
216556,-40,4,2,1,50,0,0
216591,-200,4,2,1,50,0,0
216698,-100,4,2,1,50,0,0
216841,-40,4,2,1,50,0,0
216876,-200,4,2,1,50,0,0
216983,-100,4,2,1,50,0,0
217127,-45.4545454545455,4,2,1,50,0,0
217162,-166.666666666667,4,2,1,50,0,0
217269,-100,4,2,1,50,0,0
217413,-45.4545454545455,4,2,1,50,0,0
217448,-166.666666666667,4,2,1,50,0,0
217555,-100,4,2,1,50,0,0
224270,-40,4,2,1,50,0,0
224341,-200,4,2,1,50,0,0
224556,-100,4,2,1,50,0,0
224699,-40,4,2,1,50,0,0
224734,-200,4,2,1,50,0,0
224841,-100,4,2,1,50,0,0
224984,-40,4,2,1,50,0,0
225019,-200,4,2,1,50,0,0
225126,-100,4,2,1,50,0,0
225270,-40,4,2,1,50,0,0
225341,-200,4,2,1,50,0,0
225556,-100,4,2,1,50,0,0
225699,-40,4,2,1,50,0,0
225734,-200,4,2,1,50,0,0
225841,-100,4,2,1,50,0,0
225984,-40,4,2,1,50,0,0
226019,-200,4,2,1,50,0,0
226126,-100,4,2,1,50,0,0
226270,-45.4545454545455,4,2,1,50,0,0
226305,-166.666666666667,4,2,1,50,0,0
226412,-100,4,2,1,50,0,0
226556,-45.4545454545455,4,2,1,50,0,0
226591,-166.666666666667,4,2,1,50,0,0
226698,-100,4,2,1,50,0,0
232699,-40,4,2,1,50,0,0
232734,-200,4,2,1,50,0,0
232841,-100,4,2,1,50,0,0
232984,-40,4,2,1,50,0,0
233019,-200,4,2,1,50,0,0
233127,-40,4,2,1,50,0,0
233162,-200,4,2,1,50,0,0
233270,-40,4,2,1,50,0,0
233305,-200,4,2,1,50,0,0
233413,-40,4,2,1,50,0,0
233484,-200,4,2,1,50,0,0
233699,-100,4,2,1,50,0,0
233842,-40,4,2,1,50,0,0
233877,-200,4,2,1,50,0,0
233984,-100,4,2,1,50,0,0
234127,-40,4,2,1,50,0,0
234162,-200,4,2,1,50,0,0
234269,-100,4,2,1,50,0,0
234413,-40,4,2,1,50,0,0
234484,-200,4,2,1,50,0,0
234699,-100,4,2,1,50,0,0
234842,-40,4,2,1,50,0,0
234877,-200,4,2,1,50,0,0
234984,-100,4,2,1,50,0,0
235127,-40,4,2,1,50,0,0
235162,-200,4,2,1,50,0,0
235269,-100,4,2,1,50,0,0
235413,-45.4545454545455,4,2,1,50,0,0
235448,-166.666666666667,4,2,1,50,0,0
235555,-100,4,2,1,50,0,0
235699,-45.4545454545455,4,2,1,50,0,0
235734,-166.666666666667,4,2,1,50,0,0
235841,-100,4,2,1,50,0,0
263413,-45.4545454545455,4,2,1,50,0,0
263449,-166.666666666667,4,2,1,50,0,0
263556,-100,4,2,1,50,0,0
263984,-45.4545454545455,4,2,1,50,0,0
264020,-166.666666666667,4,2,1,50,0,0
264127,-100,4,2,1,50,0,0
264556,-45.4545454545455,4,2,1,50,0,0
264592,-166.666666666667,4,2,1,50,0,0
264699,-100,4,2,1,50,0,0
265127,-45.4545454545455,4,2,1,50,0,0
265163,-166.666666666667,4,2,1,50,0,0
265270,-100,4,2,1,50,0,0
265699,-45.4545454545455,4,2,1,50,0,0
265735,-166.666666666667,4,2,1,50,0,0
265842,-100,4,2,1,50,0,0
266270,-45.4545454545455,4,2,1,50,0,0
266306,-166.666666666667,4,2,1,50,0,0
266413,-100,4,2,1,50,0,0
266842,-45.4545454545455,4,2,1,50,0,0
266878,-166.666666666667,4,2,1,50,0,0
266985,-100,4,2,1,50,0,0
267127,-45.4545454545455,4,2,1,50,0,0
267163,-166.666666666667,4,2,1,50,0,0
267270,-100,4,2,1,50,0,0
267413,-45.4545454545455,4,2,1,50,0,0
267449,-166.666666666667,4,2,1,50,0,0
267556,-100,4,2,1,50,0,0
267984,-45.4545454545455,4,2,1,50,0,0
268020,-166.666666666667,4,2,1,50,0,0
268127,-100,4,2,1,50,0,0
268556,-45.4545454545455,4,2,1,50,0,0
268592,-166.666666666667,4,2,1,50,0,0
268699,-100,4,2,1,50,0,0
269127,-45.4545454545455,4,2,1,50,0,0
269163,-166.666666666667,4,2,1,50,0,0
269270,-100,4,2,1,50,0,0
269699,-45.4545454545455,4,2,1,50,0,0
269735,-166.666666666667,4,2,1,50,0,0
269842,-100,4,2,1,50,0,0
270270,-45.4545454545455,4,2,1,50,0,0
270306,-166.666666666667,4,2,1,50,0,0
270413,-100,4,2,1,50,0,0
270842,-45.4545454545455,4,2,1,50,0,0
270878,-166.666666666667,4,2,1,50,0,0
270985,-100,4,2,1,50,0,0
271127,-45.4545454545455,4,2,1,50,0,0
271163,-166.666666666667,4,2,1,50,0,0
271270,-100,4,2,1,50,0,0
271413,-45.4545454545455,4,2,1,50,0,0
271449,-166.666666666667,4,2,1,50,0,0
271556,-100,4,2,1,50,0,0
271699,-45.4545454545455,4,2,1,50,0,0
271735,-166.666666666667,4,2,1,50,0,0
271842,-100,4,2,1,50,0,0
271984,-45.4545454545455,4,2,1,50,0,0
272020,-166.666666666667,4,2,1,50,0,0
272127,-100,4,2,1,50,0,0
272270,-45.4545454545455,4,2,1,50,0,0
272306,-166.666666666667,4,2,1,50,0,0
272413,-100,4,2,1,50,0,0
272699,-45.4545454545455,4,2,1,50,0,0
272735,-166.666666666667,4,2,1,50,0,0
272842,-100,4,2,1,50,0,0
273127,-45.4545454545455,4,2,1,50,0,0
273163,-166.666666666667,4,2,1,50,0,0
273270,-100,4,2,1,50,0,0
273556,-45.4545454545455,4,2,1,50,0,0
273592,-166.666666666667,4,2,1,50,0,0
273699,-100,4,2,1,50,0,0
273984,-45.4545454545455,4,2,1,50,0,0
274020,-166.666666666667,4,2,1,50,0,0
274127,-100,4,2,1,50,0,0
274413,-19.2307692307692,4,2,1,50,0,0
274484,-500.000000000003,4,2,1,50,0,0
274842,-250.000000000001,4,2,1,50,0,0
274984,-166.666666666667,4,2,1,50,0,0
275127,-125,4,2,1,50,0,0
275699,-35.7142857142857,4,2,1,50,0,0
275717,-250,4,2,1,50,0,0
275771,-35.7142857142857,4,2,1,50,0,0
275789,-250,4,2,1,50,0,0
275842,-125,4,2,1,50,0,0
276556,-35.7142857142857,4,2,1,50,0,0
276574,-250,4,2,1,50,0,0
276628,-35.7142857142857,4,2,1,50,0,0
276646,-250,4,2,1,50,0,0
276699,-125,4,2,1,50,0,0
277984,-25,4,2,1,50,0,0
278008,-250,4,2,1,50,0,0
278127,-25,4,2,1,50,0,0
278163,-500,4,2,1,50,0,0
278306,-250,4,2,1,50,0,0
278341,-71.4285714285714,4,2,1,50,0,0
278413,-25,4,2,1,50,0,0
278449,-500,4,2,1,50,0,0
278592,-250,4,2,1,50,0,0
278627,-71.4285714285714,4,2,1,50,0,0
278699,-25,4,2,1,50,0,0
278735,-500,4,2,1,50,0,0
278878,-250,4,2,1,50,0,0
278913,-71.4285714285714,4,2,1,50,0,0
278984,-25,4,2,1,50,0,0
279020,-500,4,2,1,50,0,0
279127,-250,4,2,1,50,0,0
279198,-166.666666666667,4,2,1,50,0,0
279270,-125,4,2,1,50,0,0
279341,-100,4,2,1,50,0,0

[HitObjects]
320,192,275,128,0,560:0:0:0:0:
64,192,703,1,0,0:0:0:0:
320,192,751,1,0,0:0:0:0:
192,192,798,1,0,0:0:0:0:
448,192,846,128,0,1417:0:0:0:0:
64,192,1417,1,2,0:0:0:0:
192,192,1417,1,4,0:0:0:0:
320,192,1417,1,0,0:0:0:0:
448,192,1489,1,0,0:0:0:0:
64,192,1560,1,0,0:0:0:0:
192,192,1632,1,0,0:0:0:0:
448,192,1703,1,0,0:0:0:0:
320,192,1775,1,0,0:0:0:0:
64,192,1846,128,0,1989:0:0:0:0:
192,192,1989,128,0,2132:0:0:0:0:
320,192,2132,128,0,2275:0:0:0:0:
448,192,2417,128,0,2703:0:0:0:0:
192,192,2703,1,0,0:0:0:0:
64,192,2846,1,0,0:0:0:0:
192,192,2989,1,0,0:0:0:0:
320,192,3132,1,0,0:0:0:0:
320,192,3275,1,0,0:0:0:0:
64,192,3417,1,2,0:0:0:0:
448,192,3417,1,0,0:0:0:0:
192,192,3560,1,0,0:0:0:0:
64,192,3703,1,2,0:0:0:0:
448,192,3703,1,4,0:0:0:0:
320,192,3775,1,0,0:0:0:0:
192,192,3846,1,0,0:0:0:0:
64,192,3917,1,0,0:0:0:0:
320,192,3989,1,0,0:0:0:0:
448,192,4060,1,0,0:0:0:0:
64,192,4132,128,0,4275:0:0:0:0:
192,192,4275,128,0,4417:0:0:0:0:
320,192,4417,128,0,4560:0:0:0:0:
448,192,4703,128,0,4989:0:0:0:0:
192,192,4989,1,0,0:0:0:0:
64,192,5132,1,0,0:0:0:0:
192,192,5275,1,0,0:0:0:0:
320,192,5417,1,0,0:0:0:0:
320,192,5560,1,0,0:0:0:0:
64,192,5703,1,2,0:0:0:0:
448,192,5703,1,0,0:0:0:0:
192,192,5846,1,0,0:0:0:0:
64,192,5989,1,2,0:0:0:0:
320,192,5989,1,4,0:0:0:0:
448,192,6060,1,0,0:0:0:0:
192,192,6132,1,0,0:0:0:0:
64,192,6203,1,0,0:0:0:0:
320,192,6275,1,2,0:0:0:0:
448,192,6275,1,0,0:0:0:0:
192,192,6346,1,0,0:0:0:0:
64,192,6417,128,0,6560:0:0:0:0:
192,192,6560,128,0,6703:0:0:0:0:
320,192,6703,128,0,6846:0:0:0:0:
448,192,6989,128,0,7275:0:0:0:0:
192,192,7275,1,0,0:0:0:0:
64,192,7417,1,0,0:0:0:0:
192,192,7560,1,0,0:0:0:0:
320,192,7703,1,0,0:0:0:0:
320,192,7846,1,0,0:0:0:0:
64,192,7989,1,0,0:0:0:0:
448,192,8132,1,0,0:0:0:0:
64,192,8275,1,2,0:0:0:0:
192,192,8275,1,0,0:0:0:0:
320,192,8346,1,0,0:0:0:0:
448,192,8417,1,0,0:0:0:0:
192,192,8489,1,0,0:0:0:0:
64,192,8560,1,8,0:0:0:0:
320,192,8560,1,0,0:0:0:0:
448,192,8560,1,0,0:0:0:0:
320,192,8846,1,2,0:0:0:0:
448,192,8846,1,0,0:0:0:0:
192,192,8917,1,0,0:0:0:0:
64,192,8989,1,0,0:0:0:0:
320,192,9060,1,0,0:0:0:0:
64,192,9132,1,8,0:0:0:0:
192,192,9132,1,0,0:0:0:0:
448,192,9132,1,0,0:0:0:0:
64,192,9417,1,2,0:0:0:0:
192,192,9417,1,0,0:0:0:0:
320,192,9417,1,0,0:0:0:0:
64,192,9560,1,0,0:0:0:0:
192,192,9703,1,2,0:0:0:0:
320,192,9703,1,0,0:0:0:0:
448,192,9703,1,0,0:0:0:0:
448,192,9846,1,0,0:0:0:0:
64,192,9989,1,2,0:0:0:0:
320,192,9989,1,0,0:0:0:0:
192,192,10132,1,0,0:0:0:0:
448,192,10132,1,0,0:0:0:0:
64,192,10275,1,0,0:0:0:80:ClapSlash.wav
192,192,10275,1,0,0:0:0:0:
320,192,10275,1,0,0:0:0:0:
448,192,10275,1,0,0:0:0:0:
64,192,10560,1,2,0:0:0:0:
192,192,10560,1,0,0:0:0:100:push_scratch.wav
448,192,10560,1,0,0:0:0:0:
320,192,10632,1,0,0:0:0:0:
64,192,10703,1,0,0:0:0:0:
192,192,10775,1,0,0:0:0:0:
64,192,10846,1,2,0:0:0:0:
320,192,10846,1,0,0:0:0:0:
448,192,10846,1,0,0:0:0:0:
320,192,10989,128,0,11132:0:0:0:0:
192,192,11132,1,2,0:0:0:0:
448,192,11132,1,0,0:0:0:0:
192,192,11275,1,0,0:0:0:0:
64,192,11417,1,2,0:0:0:0:
320,192,11417,1,0,0:0:0:0:
448,192,11417,1,0,0:0:0:0:
320,192,11560,128,0,11703:0:0:0:0:
64,192,11703,1,2,0:0:0:0:
192,192,11703,1,0,0:0:0:0:
64,192,11846,1,0,0:0:0:0:
192,192,11989,1,2,0:0:0:0:
320,192,11989,1,0,0:0:0:0:
448,192,11989,1,0,0:0:0:0:
320,192,12132,128,0,12275:0:0:0:0:
192,192,12275,1,2,0:0:0:0:
448,192,12275,1,0,0:0:0:0:
192,192,12417,1,0,0:0:0:0:
64,192,12560,1,2,0:0:0:0:
320,192,12560,1,0,0:0:0:0:
448,192,12560,1,0,0:0:0:0:
320,192,12703,128,0,12846:0:0:0:0:
64,192,12846,1,2,0:0:0:0:
448,192,12846,1,0,0:0:0:0:
320,192,12917,1,0,0:0:0:0:
192,192,12989,1,0,0:0:0:0:
448,192,13060,1,0,0:0:0:0:
64,192,13132,1,2,0:0:0:0:
192,192,13132,1,0,0:0:0:0:
320,192,13132,1,0,0:0:0:0:
320,192,13275,128,0,13417:0:0:0:0:
192,192,13417,1,2,0:0:0:0:
448,192,13417,1,0,0:0:0:0:
192,192,13560,1,0,0:0:0:0:
64,192,13703,1,2,0:0:0:0:
320,192,13703,1,0,0:0:0:0:
448,192,13703,1,0,0:0:0:0:
320,192,13846,128,0,13989:0:0:0:0:
64,192,13989,1,2,0:0:0:0:
192,192,13989,1,0,0:0:0:0:
448,192,14132,1,0,0:0:0:0:
64,192,14275,1,2,0:0:0:0:
192,192,14275,1,0,0:0:0:0:
320,192,14275,128,0,14417:0:0:0:0:
192,192,14417,128,0,14560:0:0:0:0:
320,192,14560,1,2,0:0:0:0:
448,192,14560,128,0,14846:0:0:0:0:
64,192,14703,1,0,0:0:0:0:
64,192,14846,128,2,14989:0:0:0:0:
192,192,14846,1,0,0:0:0:0:
320,192,14846,1,0,0:0:0:0:
320,192,14989,128,0,15132:0:0:0:0:
64,192,15132,1,2,0:0:0:0:
448,192,15132,1,0,0:0:0:0:
192,192,15203,1,0,0:0:0:0:
320,192,15275,1,0,0:0:0:0:
448,192,15346,1,0,0:0:0:0:
64,192,15417,1,2,0:0:0:0:
192,192,15417,1,0,0:0:0:0:
320,192,15417,1,0,0:0:0:0:
64,192,15560,128,0,15703:0:0:0:0:
192,192,15703,1,2,0:0:0:0:
320,192,15703,1,0,0:0:0:0:
320,192,15846,1,0,0:0:0:0:
64,192,15989,1,2,0:0:0:0:
192,192,15989,1,0,0:0:0:0:
448,192,15989,1,0,0:0:0:0:
64,192,16132,128,0,16275:0:0:0:0:
320,192,16275,1,2,0:0:0:0:
448,192,16275,1,0,0:0:0:0:
448,192,16417,1,0,0:0:0:0:
64,192,16560,1,2,0:0:0:0:
192,192,16560,1,0,0:0:0:0:
320,192,16560,1,0,0:0:0:0:
64,192,16703,128,0,16846:0:0:0:0:
192,192,16846,1,2,0:0:0:0:
320,192,16846,1,0,0:0:0:0:
320,192,16989,1,0,0:0:0:0:
64,192,17132,1,2,0:0:0:0:
192,192,17132,1,0,0:0:0:0:
448,192,17132,1,0,0:0:0:0:
64,192,17275,128,0,17417:0:0:0:0:
192,192,17417,1,2,0:0:0:0:
448,192,17417,1,0,0:0:0:0:
64,192,17489,1,0,0:0:0:0:
320,192,17560,1,0,0:0:0:0:
192,192,17632,1,0,0:0:0:0:
64,192,17703,1,2,0:0:0:0:
320,192,17703,1,0,0:0:0:0:
448,192,17703,1,0,0:0:0:0:
64,192,17846,128,0,17989:0:0:0:0:
192,192,17989,1,2,0:0:0:0:
320,192,17989,1,0,0:0:0:0:
320,192,18132,1,0,0:0:0:0:
64,192,18275,1,2,0:0:0:0:
192,192,18275,1,0,0:0:0:0:
448,192,18275,1,0,0:0:0:0:
64,192,18417,128,0,18560:0:0:0:0:
192,192,18560,128,2,18703:0:0:0:0:
448,192,18560,1,0,0:0:0:0:
320,192,18703,1,0,0:0:0:0:
192,192,18846,1,2,0:0:0:0:
320,192,18846,128,0,18989:0:0:0:0:
448,192,18846,1,0,0:0:0:0:
64,192,18989,1,0,0:0:0:0:
64,192,19132,1,2,0:0:0:0:
448,192,19132,128,0,19417:0:0:0:0:
320,192,19275,1,0,0:0:0:0:
64,192,19417,1,0,0:0:0:80:ClapSlash.wav
192,192,19417,1,0,0:0:0:0:
320,192,19417,1,0,0:0:0:0:
192,192,19560,1,0,0:0:0:0:
64,192,19703,1,2,0:0:0:0:
448,192,19703,1,4,0:0:0:0:
320,192,19846,1,0,0:0:0:0:
320,192,19989,128,0,20132:0:0:0:0:
64,192,20132,1,2,0:0:0:0:
448,192,20132,1,4,0:0:0:0:
192,192,20275,1,0,0:0:0:0:
192,192,20417,128,0,20560:0:0:0:0:
320,192,20560,1,2,0:0:0:0:
448,192,20560,1,4,0:0:0:0:
64,192,20703,1,0,0:0:0:0:
64,192,20846,128,0,20989:0:0:0:0:
320,192,20989,1,2,0:0:0:0:
448,192,20989,1,4,0:0:0:0:
192,192,21132,1,0,0:0:0:0:
192,192,21275,128,0,21417:0:0:0:0:
64,192,21417,1,2,0:0:0:0:
448,192,21417,1,4,0:0:0:0:
320,192,21560,1,0,0:0:0:0:
320,192,21703,128,0,21846:0:0:0:0:
64,192,21846,128,2,22560:0:0:0:0:
448,192,21846,128,4,22846:0:0:0:0:
448,192,24275,128,0,24560:0:0:0:0:
192,192,24560,128,0,24846:0:0:0:0:
320,192,24846,128,0,25132:0:0:0:0:
64,192,25132,128,0,26417:0:0:0:0:
192,192,25417,128,0,25560:0:0:0:0:
320,192,25417,128,0,25560:0:0:0:0:
320,192,26275,128,0,26417:0:0:0:0:
448,192,26275,128,0,26417:0:0:0:0:
192,192,26560,1,8,0:0:0:0:
320,192,26560,1,2,0:1:0:0:
448,192,26560,1,0,0:0:0:0:
64,192,26703,1,8,0:0:0:0:
320,192,26703,1,2,0:1:0:0:
448,192,26703,1,0,0:0:0:0:
64,192,26989,1,8,0:0:0:0:
192,192,26989,1,2,0:1:0:0:
448,192,26989,1,0,0:0:0:0:
64,192,27275,1,8,0:0:0:0:
192,192,27275,1,2,0:1:0:0:
320,192,27275,1,0,0:0:0:0:
320,192,27560,1,8,0:0:0:0:
192,192,27560,1,2,0:1:0:0:
64,192,27560,128,0,27989:0:0:0:0:
448,192,27560,128,0,27989:0:0:0:0:
320,192,27989,1,2,0:0:0:0:
192,192,27989,1,0,0:0:0:0:
192,192,28132,1,0,0:0:0:0:
64,192,28275,1,2,0:0:0:0:
320,192,28275,1,0,0:0:0:0:
320,192,28417,1,0,0:0:0:0:
448,192,28560,1,2,0:0:0:0:
64,192,28560,1,0,0:0:0:0:
64,192,28703,1,0,0:0:0:0:
448,192,28846,1,2,0:0:0:0:
192,192,28846,1,0,0:0:0:0:
448,192,28989,1,0,0:0:0:0:
320,192,29132,1,2,0:0:0:0:
64,192,29132,1,0,0:0:0:0:
64,192,29275,1,0,0:0:0:0:
320,192,29417,1,2,0:0:0:0:
192,192,29417,1,0,0:0:0:0:
320,192,29560,1,0,0:0:0:0:
448,192,29703,1,2,0:0:0:0:
192,192,29703,1,0,0:0:0:0:
192,192,29846,1,0,0:0:0:0:
64,192,29989,1,2,0:0:0:0:
448,192,29989,1,0,0:0:0:0:
448,192,30132,1,0,0:0:0:0:
192,192,30275,1,2,0:0:0:0:
320,192,30275,1,0,0:0:0:0:
192,192,30417,1,0,0:0:0:0:
320,192,30560,1,2,0:0:0:0:
64,192,30560,1,0,0:0:0:0:
320,192,30703,1,0,0:0:0:0:
64,192,30846,1,2,0:0:0:0:
448,192,30846,1,0,0:0:0:0:
64,192,30989,1,0,0:0:0:0:
192,192,31132,1,2,0:0:0:0:
320,192,31132,1,4,0:0:0:0:
448,192,31132,1,0,0:0:0:0:
64,192,31275,1,2,0:0:0:0:
192,192,31275,128,4,31417:0:0:0:0:
448,192,31275,1,0,0:0:0:0:
320,192,31417,128,0,31560:0:0:0:0:
64,192,31560,128,2,31703:0:0:0:0:
192,192,31560,1,4,0:0:0:0:
448,192,31560,1,0,0:0:0:0:
448,192,31703,128,0,31846:0:0:0:0:
64,192,31846,1,2,0:0:0:0:
192,192,31846,1,4,0:0:0:0:
320,192,31846,128,0,31989:0:0:0:0:
64,192,32132,1,2,0:0:0:0:
448,192,32132,128,0,32560:0:0:0:0:
192,192,32132,128,4,32560:0:0:0:0:
64,192,32560,1,2,0:0:0:0:
320,192,32560,1,0,0:0:0:0:
320,192,32703,1,0,0:0:0:0:
448,192,32846,1,2,0:0:0:0:
64,192,32846,1,0,0:0:0:0:
64,192,32989,1,0,0:0:0:0:
192,192,33132,1,2,0:0:0:0:
448,192,33132,1,0,0:0:0:0:
448,192,33275,1,0,0:0:0:0:
192,192,33417,1,2,0:0:0:0:
320,192,33417,1,0,0:0:0:0:
192,192,33560,1,0,0:0:0:0:
64,192,33703,1,2,0:0:0:0:
448,192,33703,1,0,0:0:0:0:
448,192,33846,1,0,0:0:0:0:
64,192,33989,1,2,0:0:0:0:
320,192,33989,1,0,0:0:0:0:
64,192,34132,1,0,0:0:0:0:
192,192,34275,1,2,0:0:0:0:
320,192,34275,1,0,0:0:0:0:
320,192,34417,1,0,0:0:0:0:
448,192,34560,1,2,0:0:0:0:
192,192,34560,1,0,0:0:0:0:
192,192,34703,1,0,0:0:0:0:
320,192,34846,1,2,0:0:0:0:
64,192,34846,1,0,0:0:0:0:
320,192,34989,1,0,0:0:0:0:
64,192,35132,1,2,0:0:0:0:
448,192,35132,1,0,0:0:0:0:
64,192,35275,1,0,0:0:0:0:
448,192,35417,1,2,0:0:0:0:
192,192,35417,1,0,0:0:0:0:
448,192,35560,1,0,0:0:0:0:
64,192,35703,1,2,0:0:0:0:
192,192,35703,1,0,0:0:0:0:
64,192,35846,1,2,0:1:0:0:
448,192,35846,1,0,0:0:0:0:
192,192,35917,1,2,0:1:0:0:
320,192,35917,1,0,0:0:0:0:
64,192,35989,1,2,0:1:0:0:
448,192,35989,1,0,0:0:0:0:
320,192,36132,1,2,0:1:0:0:
448,192,36132,1,0,0:0:0:0:
64,192,36275,1,2,0:1:0:0:
192,192,36275,1,0,0:0:0:0:
192,192,36417,1,2,0:1:0:0:
448,192,36417,1,0,0:0:0:0:
192,192,36560,1,2,0:1:0:0:
320,192,36560,1,0,0:0:0:0:
64,192,36703,1,2,0:0:0:0:
320,192,36703,128,4,36846:0:0:0:0:
448,192,36703,1,0,0:0:0:0:
192,192,36989,1,0,0:0:0:0:
64,192,37132,1,8,0:0:0:0:
320,192,37132,1,0,0:0:0:0:
448,192,37132,1,0,0:0:0:0:
64,192,37275,1,0,0:0:0:0:
192,192,37417,128,2,37703:0:0:0:0:
448,192,37417,1,0,0:0:0:0:
320,192,37560,1,0,0:0:0:0:
64,192,37703,1,8,0:0:0:0:
320,192,37703,1,0,0:0:0:0:
448,192,37703,1,0,0:0:0:0:
64,192,37846,128,0,37989:0:0:0:0:
192,192,37989,1,2,0:0:0:0:
320,192,37989,1,0,0:0:0:0:
448,192,38132,1,0,0:0:0:0:
64,192,38275,1,8,0:0:0:0:
192,192,38275,1,0,0:0:0:0:
320,192,38275,1,0,0:0:0:0:
320,192,38417,1,0,0:0:0:0:
192,192,38560,1,2,0:0:0:0:
448,192,38560,128,0,38846:0:0:0:0:
64,192,38703,1,0,0:0:0:0:
64,192,38846,1,8,0:0:0:0:
192,192,38846,1,0,0:0:0:0:
320,192,38846,1,0,0:0:0:0:
320,192,38989,128,0,39132:0:0:0:0:
64,192,39132,1,2,0:0:0:0:
448,192,39132,1,0,0:0:0:0:
192,192,39275,128,0,39417:0:0:0:0:
64,192,39417,128,8,39703:0:0:0:0:
320,192,39417,1,0,0:0:0:0:
448,192,39417,1,0,0:0:0:0:
192,192,39560,1,0,0:0:0:0:
320,192,39703,1,2,0:0:0:0:
448,192,39703,1,0,0:0:0:0:
192,192,39846,1,0,0:0:0:0:
64,192,39989,1,8,0:0:0:0:
192,192,39989,1,0,0:0:0:0:
320,192,39989,1,0,0:0:0:0:
320,192,40132,128,0,40417:0:0:0:0:
64,192,40275,1,2,0:0:0:0:
448,192,40275,1,0,0:0:0:0:
64,192,40417,1,2,0:0:0:0:
192,192,40417,1,0,0:0:0:0:
192,192,40560,1,8,0:0:0:0:
320,192,40560,1,0,0:0:0:0:
448,192,40560,1,0,0:0:0:0:
64,192,40703,1,2,0:0:0:0:
448,192,40703,1,0,0:0:0:0:
192,192,40846,128,0,40989:0:0:0:0:
64,192,40989,1,2,0:0:0:0:
448,192,40989,1,0,0:0:0:0:
192,192,41132,1,8,0:0:0:0:
320,192,41132,1,0,0:0:0:0:
448,192,41132,1,0,0:0:0:0:
64,192,41275,128,2,41560:0:0:0:0:
192,192,41275,1,0,0:0:0:0:
320,192,41560,1,0,0:0:0:0:
64,192,41703,1,8,0:0:0:0:
192,192,41703,1,0,0:0:0:0:
448,192,41703,1,0,0:0:0:0:
448,192,41846,1,0,0:0:0:0:
64,192,41989,1,2,0:0:0:0:
320,192,41989,1,0,0:0:0:0:
192,192,42132,1,0,0:0:0:0:
64,192,42275,1,8,0:0:0:0:
192,192,42275,1,0,0:0:0:0:
448,192,42275,1,0,0:0:0:0:
448,192,42417,128,0,42703:0:0:0:0:
64,192,42560,1,2,0:0:0:0:
320,192,42560,1,0,0:0:0:0:
192,192,42703,1,0,0:0:0:0:
64,192,42846,1,8,0:0:0:0:
320,192,42846,1,0,0:0:0:0:
448,192,42846,1,0,0:0:0:0:
64,192,42989,1,0,0:0:0:0:
192,192,43132,128,2,43417:0:0:0:0:
320,192,43132,1,0,0:0:0:0:
448,192,43275,1,0,0:0:0:0:
64,192,43417,1,8,0:0:0:0:
320,192,43417,1,0,0:0:0:0:
448,192,43417,1,0,0:0:0:0:
192,192,43560,1,0,0:0:0:0:
64,192,43703,1,2,0:0:0:0:
448,192,43703,1,0,0:0:0:0:
320,192,43846,1,0,0:0:0:0:
64,192,43989,1,8,0:0:0:0:
192,192,43989,1,0,0:0:0:0:
320,192,43989,1,0,0:0:0:0:
192,192,44132,1,0,0:0:0:0:
64,192,44275,1,2,0:0:0:0:
448,192,44275,1,0,0:0:0:0:
448,192,44417,1,0,0:0:0:0:
64,192,44560,1,8,0:0:0:0:
192,192,44560,1,0,0:0:0:0:
320,192,44560,1,0,0:0:0:0:
448,192,44703,128,0,44989:0:0:0:0:
64,192,44989,128,0,45132:0:0:0:0:
192,192,45132,128,0,45275:0:0:0:0:
64,192,45275,128,0,45417:0:0:0:0:
320,192,45417,128,0,45703:0:0:0:0:
448,192,45703,128,0,45989:0:0:0:0:
64,192,45989,1,8,0:0:0:0:
192,192,45989,128,4,46275:0:0:0:0:
320,192,45989,1,0,0:0:0:0:
64,192,46275,1,8,0:0:0:0:
320,192,46275,128,4,46560:0:0:0:0:
448,192,46275,1,0,0:0:0:0:
64,192,46560,1,8,0:0:0:0:
192,192,46560,1,4,0:0:0:0:
448,192,46560,128,0,46846:0:0:0:0:
64,192,46846,1,8,0:0:0:0:
192,192,46846,1,4,0:0:0:0:
320,192,46846,1,0,0:0:0:0:
64,192,46989,1,0,0:0:0:0:
192,192,47132,1,8,0:0:0:0:
320,192,47132,128,4,47417:0:0:0:0:
448,192,47132,1,0,0:0:0:0:
64,192,47417,128,8,47560:0:0:0:0:
192,192,47417,1,4,0:0:0:0:
448,192,47417,1,0,0:0:0:0:
320,192,47703,128,0,47846:0:0:0:0:
192,192,47846,128,0,47989:0:0:0:0:
64,192,48132,1,2,0:0:0:0:
320,192,48132,1,0,0:0:0:100:push_scratch.wav
448,192,48132,128,0,48417:0:0:0:0:
192,192,48417,1,0,0:0:0:0:
64,192,48560,1,8,0:0:0:0:
320,192,48560,1,0,0:0:0:0:
448,192,48560,1,0,0:0:0:0:
64,192,48703,1,0,0:0:0:0:
192,192,48846,1,2,0:0:0:0:
448,192,48846,1,0,0:0:0:0:
448,192,48989,1,0,0:0:0:0:
64,192,49132,1,8,0:0:0:0:
192,192,49132,1,0,0:0:0:0:
320,192,49132,1,0,0:0:0:0:
192,192,49275,128,0,49560:0:0:0:0:
64,192,49417,1,2,0:0:0:0:
448,192,49417,1,0,0:0:0:0:
320,192,49560,1,0,0:0:0:0:
64,192,49703,1,8,0:0:0:0:
192,192,49703,1,0,0:0:0:0:
448,192,49703,1,0,0:0:0:0:
448,192,49846,1,0,0:0:0:0:
192,192,49989,1,2,0:0:0:0:
320,192,49989,1,0,0:0:0:0:
192,192,50132,1,0,0:0:0:0:
64,192,50275,1,8,0:0:0:0:
320,192,50275,1,0,0:0:0:0:
448,192,50275,1,0,0:0:0:0:
448,192,50417,128,0,50703:0:0:0:0:
192,192,50560,1,2,0:0:0:0:
320,192,50560,1,0,0:0:0:0:
64,192,50703,128,0,50846:0:0:0:0:
192,192,50846,1,8,0:0:0:0:
320,192,50846,1,0,0:0:0:0:
448,192,50846,1,0,0:0:0:0:
320,192,50989,128,0,51132:0:0:0:0:
192,192,51132,128,2,51417:0:0:0:0:
448,192,51132,1,0,0:0:0:0:
64,192,51275,1,0,0:0:0:0:
64,192,51417,1,8,0:0:0:0:
320,192,51417,1,0,0:0:0:0:
448,192,51417,1,0,0:0:0:0:
448,192,51560,128,0,51989:0:0:0:0:
64,192,51703,1,2,0:0:0:0:
320,192,51703,1,0,0:0:0:0:
192,192,51846,1,0,0:0:0:0:
64,192,51989,1,8,0:0:0:0:
192,192,51989,1,0,0:0:0:0:
320,192,51989,1,0,0:0:0:0:
320,192,52132,1,0,0:0:0:0:
64,192,52275,1,2,0:0:0:0:
448,192,52275,1,0,0:0:0:0:
64,192,52417,1,2,0:0:0:0:
320,192,52417,1,0,0:0:0:0:
192,192,52560,1,8,0:0:0:0:
320,192,52560,1,0,0:0:0:0:
448,192,52560,1,0,0:0:0:0:
64,192,52703,128,2,52989:0:0:0:0:
192,192,52703,1,4,0:0:0:0:
448,192,52703,1,0,0:0:0:0:
320,192,52989,1,0,0:0:0:0:
64,192,53132,1,8,0:0:0:0:
192,192,53132,1,0,0:0:0:0:
448,192,53132,1,0,0:0:0:0:
64,192,53275,1,0,0:0:0:0:
320,192,53417,1,2,0:0:0:0:
448,192,53417,128,0,53560:0:0:0:0:
192,192,53560,1,0,0:0:0:0:
64,192,53703,1,8,0:0:0:0:
320,192,53703,1,0,0:0:0:0:
448,192,53703,1,0,0:0:0:0:
320,192,53846,128,0,53989:0:0:0:0:
192,192,53989,1,2,0:0:0:0:
448,192,53989,1,0,0:0:0:0:
64,192,54132,128,0,54275:0:0:0:0:
192,192,54275,1,8,0:0:0:0:
320,192,54275,1,0,0:0:0:0:
448,192,54275,128,0,54417:0:0:0:0:
192,192,54417,128,0,54703:0:0:0:0:
64,192,54560,1,2,0:0:0:0:
448,192,54560,1,0,0:0:0:0:
320,192,54703,1,0,0:0:0:0:
64,192,54846,1,8,0:0:0:0:
192,192,54846,1,0,0:0:0:0:
320,192,54846,1,0,0:0:0:0:
64,192,54989,128,0,55275:0:0:0:0:
192,192,55132,1,2,0:0:0:0:
448,192,55132,1,0,0:0:0:0:
320,192,55275,128,0,55417:0:0:0:0:
64,192,55417,1,8,0:0:0:0:
192,192,55417,128,0,55560:0:0:0:0:
448,192,55417,1,0,0:0:0:0:
448,192,55560,128,0,55703:0:0:0:0:
192,192,55703,1,2,0:0:0:0:
320,192,55703,128,0,55846:0:0:0:0:
64,192,55846,128,0,55989:0:0:0:0:
192,192,55989,128,8,56132:0:0:0:0:
320,192,55989,1,0,0:0:0:0:
448,192,55989,1,0,0:0:0:0:
448,192,56132,128,0,56560:0:0:0:0:
64,192,56275,1,8,0:0:0:0:
320,192,56275,1,0,0:0:0:0:
64,192,56417,1,2,0:0:0:0:
192,192,56417,1,0,0:0:0:0:
192,192,56560,1,8,0:0:0:0:
320,192,56560,1,0,0:0:0:0:
320,192,56703,1,2,0:0:0:0:
448,192,56703,1,0,0:0:0:0:
64,192,56846,1,8,0:1:0:0:
192,192,56846,1,0,0:0:0:0:
320,192,56917,1,8,0:1:0:0:
448,192,56917,1,0,0:0:0:0:
64,192,56989,1,8,0:1:0:0:
192,192,56989,1,0,0:0:0:0:
320,192,57060,1,8,0:1:0:0:
448,192,57060,1,0,0:0:0:0:
64,192,57132,1,8,0:0:0:0:
192,192,57132,1,0,0:0:0:0:
448,192,57203,1,8,0:0:0:0:
64,192,57275,1,2,0:0:0:0:
192,192,57275,1,4,0:0:0:0:
320,192,57275,128,0,57560:0:0:0:0:
64,192,57560,1,0,0:0:0:0:
192,192,57703,1,8,0:0:0:0:
320,192,57703,1,0,0:0:0:0:
448,192,57703,1,0,0:0:0:0:
192,192,57846,1,0,0:0:0:0:
64,192,57989,1,2,0:0:0:0:
320,192,57989,1,0,0:0:0:0:
320,192,58132,1,0,0:0:0:0:
64,192,58275,1,8,0:0:0:0:
192,192,58275,1,0,0:0:0:0:
448,192,58275,1,0,0:0:0:0:
64,192,58417,128,0,58703:0:0:0:0:
192,192,58560,1,2,0:0:0:0:
320,192,58560,1,0,0:0:0:0:
448,192,58703,1,0,0:0:0:0:
64,192,58846,1,8,0:0:0:0:
192,192,58846,1,0,0:0:0:0:
320,192,58846,1,0,0:0:0:0:
320,192,58989,1,0,0:0:0:0:
64,192,59132,1,2,0:0:0:0:
448,192,59132,1,0,0:0:0:0:
64,192,59275,1,0,0:0:0:0:
192,192,59417,1,8,0:0:0:0:
320,192,59417,1,0,0:0:0:0:
448,192,59417,1,0,0:0:0:0:
320,192,59560,128,0,59846:0:0:0:0:
64,192,59703,1,2,0:0:0:0:
448,192,59703,1,0,0:0:0:0:
192,192,59846,1,0,0:0:0:0:
64,192,59989,1,8,0:0:0:0:
320,192,59989,1,0,0:0:0:0:
448,192,59989,1,0,0:0:0:0:
448,192,60132,1,0,0:0:0:0:
64,192,60275,128,2,60560:0:0:0:0:
320,192,60275,1,0,0:0:0:0:
192,192,60417,1,0,0:0:0:0:
192,192,60560,1,8,0:0:0:0:
320,192,60560,1,0,0:0:0:0:
448,192,60560,1,0,0:0:0:0:
448,192,60703,128,0,61132:0:0:0:0:
192,192,60846,1,2,0:0:0:0:
320,192,60846,1,0,0:0:0:0:
64,192,60989,1,0,0:0:0:0:
64,192,61132,1,8,0:0:0:0:
192,192,61132,1,0,0:0:0:0:
320,192,61132,1,0,0:0:0:0:
320,192,61275,1,0,0:0:0:0:
192,192,61417,1,2,0:0:0:0:
448,192,61417,1,0,0:0:0:0:
192,192,61560,128,0,61703:0:0:0:0:
64,192,61703,1,8,0:0:0:0:
320,192,61703,1,0,0:0:0:0:
448,192,61703,1,0,0:0:0:0:
448,192,61846,128,0,62275:0:0:0:0:
64,192,61989,1,2,0:0:0:0:
192,192,61989,1,0,0:0:0:0:
320,192,62132,1,0,0:0:0:0:
64,192,62275,1,8,0:0:0:0:
192,192,62275,1,0,0:0:0:0:
320,192,62275,1,0,0:0:0:0:
64,192,62417,1,0,0:0:0:0:
192,192,62560,1,2,0:0:0:0:
320,192,62560,1,0,0:0:0:0:
320,192,62703,128,0,62846:0:0:0:0:
64,192,62846,1,8,0:0:0:0:
192,192,62846,1,0,0:0:0:0:
448,192,62846,1,0,0:0:0:0:
192,192,62989,128,0,63989:0:0:0:0:
64,192,63132,1,2,0:0:0:0:
448,192,63132,1,0,0:0:0:0:
320,192,63275,1,0,0:0:0:0:
64,192,63417,1,8,0:0:0:0:
320,192,63417,1,0,0:0:0:0:
448,192,63417,1,0,0:0:0:0:
64,192,63560,1,0,0:0:0:0:
320,192,63703,1,2,0:0:0:0:
448,192,63703,1,0,0:0:0:0:
64,192,63846,1,0,0:0:0:0:
64,192,63989,1,8,0:0:0:0:
320,192,63989,1,0,0:0:0:0:
448,192,63989,1,0,0:0:0:0:
448,192,64132,1,0,0:0:0:0:
64,192,64275,128,8,64417:0:0:0:0:
192,192,64275,1,0,0:0:0:0:
320,192,64417,1,2,0:0:0:0:
448,192,64417,1,0,0:0:0:0:
192,192,64560,1,2,0:0:0:0:
448,192,64560,1,0,0:0:0:0:
64,192,64703,128,8,64846:0:0:0:0:
192,192,64703,1,0,0:0:0:0:
320,192,64846,1,2,0:0:0:0:
448,192,64846,1,0,0:0:0:0:
192,192,64989,1,2,0:0:0:0:
448,192,64989,1,0,0:0:0:0:
192,192,65132,128,8,65275:0:0:0:0:
320,192,65132,1,0,0:0:0:0:
64,192,65275,1,2,0:0:0:0:
448,192,65275,1,0,0:0:0:0:
64,192,65417,1,2,0:0:0:0:
320,192,65417,1,0,0:0:0:0:
192,192,65560,128,8,65703:0:0:0:0:
320,192,65560,1,0,0:0:0:0:
64,192,65703,1,2,0:0:0:0:
448,192,65703,1,0,0:0:0:0:
64,192,65846,1,2,0:0:0:0:
320,192,65846,1,0,0:0:0:0:
320,192,65989,128,8,66132:0:0:0:0:
448,192,65989,1,0,0:0:0:0:
64,192,66132,1,2,0:0:0:0:
192,192,66132,1,0,0:0:0:0:
64,192,66275,1,2,0:0:0:0:
448,192,66275,1,0,0:0:0:0:
192,192,66417,128,2,67703:0:0:0:0:
320,192,66417,128,0,67417:0:0:0:0:
64,192,67703,1,2,0:0:0:0:
320,192,67703,1,0,0:0:0:0:
448,192,67703,1,0,0:0:0:0:
64,192,67846,1,2,0:0:0:0:
320,192,67846,1,0,0:0:0:0:
448,192,67846,1,0,0:0:0:0:
64,192,67989,1,2,0:0:0:0:
192,192,67989,1,0,0:0:0:0:
448,192,67989,1,0,0:0:0:0:
192,192,68275,128,0,68560:0:0:0:0:
64,192,68560,128,0,68846:0:0:0:0:
192,192,68846,1,2,0:0:0:0:
320,192,68846,128,0,69132:0:0:0:100:push_scratch.wav
448,192,68846,1,0,0:0:0:0:
64,192,69275,128,2,69417:0:0:0:0:
192,192,69275,1,0,0:0:0:0:
320,192,69275,1,0,0:0:0:0:
64,192,69560,1,2,0:0:0:0:
320,192,69560,1,0,0:0:0:0:
448,192,69560,128,0,69703:0:0:0:0:
192,192,69846,128,2,70132:0:0:0:0:
320,192,69846,1,0,0:0:0:0:
448,192,69846,1,0,0:0:0:0:
64,192,70275,1,8,0:0:0:0:
192,192,70275,1,0,0:0:0:0:
448,192,70275,128,0,70417:0:0:0:0:
64,192,70560,128,2,70703:0:0:0:0:
320,192,70560,1,0,0:0:0:0:
448,192,70560,1,0,0:0:0:0:
64,192,70846,1,8,0:0:0:0:
192,192,70846,1,0,0:0:0:0:
320,192,70846,128,0,70989:0:0:0:0:
64,192,71132,1,2,0:0:0:0:
192,192,71132,128,4,71275:0:0:0:0:
448,192,71132,1,0,0:0:0:0:
448,192,71275,128,0,71417:0:0:0:0:
64,192,71417,128,8,71560:0:0:0:0:
192,192,71417,1,0,0:0:0:0:
320,192,71417,1,0,0:0:0:0:
320,192,71560,128,0,71703:0:0:0:0:
192,192,71703,1,2,0:0:0:0:
448,192,71703,128,0,71846:0:0:0:0:
192,192,71846,128,0,71989:0:0:0:0:
64,192,71989,1,8,0:0:0:0:
320,192,71989,128,0,72132:0:0:0:0:
448,192,71989,1,0,0:0:0:0:
64,192,72132,128,0,72275:0:0:0:0:
192,192,72275,1,2,0:0:0:0:
448,192,72275,1,0,0:0:0:0:
192,192,72417,1,0,0:0:0:0:
64,192,72560,1,8,0:0:0:0:
320,192,72560,1,0,0:0:0:0:
448,192,72560,1,0,0:0:0:0:
448,192,72703,1,0,0:0:0:0:
64,192,72846,1,2,0:0:0:0:
320,192,72846,1,0,0:0:0:0:
64,192,72989,1,0,0:0:0:0:
192,192,73132,1,8,0:0:0:0:
320,192,73132,1,0,0:0:0:0:
448,192,73132,1,0,0:0:0:0:
320,192,73275,1,0,0:0:0:0:
64,192,73417,1,2,0:0:0:0:
448,192,73417,1,0,0:0:0:0:
192,192,73560,1,0,0:0:0:0:
64,192,73703,1,8,0:0:0:0:
448,192,73703,1,0,0:0:0:0:
320,192,73775,1,0,0:0:0:0:
192,192,73846,1,0,0:0:0:0:
64,192,73917,1,0,0:0:0:0:
320,192,73989,1,2,0:0:0:0:
448,192,73989,1,0,0:0:0:0:
192,192,74060,1,0,0:0:0:0:
64,192,74132,1,0,0:0:0:0:
192,192,74203,1,0,0:0:0:0:
320,192,74275,1,8,0:0:0:0:
448,192,74275,1,0,0:0:0:0:
64,192,74346,1,0,0:0:0:0:
192,192,74417,1,0,0:0:0:0:
320,192,74489,1,0,0:0:0:0:
64,192,74560,1,2,0:0:0:0:
448,192,74560,1,0,0:0:0:0:
192,192,74632,1,0,0:0:0:0:
320,192,74703,1,0,0:0:0:0:
448,192,74775,1,0,0:0:0:0:
64,192,74846,1,8,0:0:0:0:
192,192,74846,1,0,0:0:0:0:
320,192,74917,1,0,0:0:0:0:
448,192,74989,1,0,0:0:0:0:
320,192,75060,1,0,0:0:0:0:
64,192,75132,1,2,0:0:0:0:
192,192,75132,1,0,0:0:0:0:
448,192,75203,1,0,0:0:0:0:
320,192,75275,1,0,0:0:0:0:
192,192,75346,1,0,0:0:0:0:
64,192,75417,1,8,0:0:0:0:
448,192,75417,1,0,0:0:0:0:
320,192,75489,1,0,0:0:0:0:
192,192,75560,1,0,0:0:0:0:
64,192,75632,1,0,0:0:0:0:
320,192,75703,1,2,0:0:0:0:
448,192,75703,1,0,0:0:0:0:
320,192,75846,1,0,0:0:0:0:
64,192,75989,1,8,0:0:0:0:
192,192,75989,1,0,0:0:0:0:
448,192,75989,1,0,0:0:0:0:
192,192,76132,1,0,0:0:0:0:
64,192,76275,1,2,0:0:0:0:
320,192,76275,1,0,0:0:0:0:
192,192,76417,1,0,0:0:0:0:
320,192,76417,1,0,0:0:0:0:
64,192,76560,1,2,0:0:0:0:
192,192,76560,1,0,0:0:0:0:
448,192,76560,1,0,0:0:0:0:
64,192,76703,1,2,0:0:0:0:
320,192,76703,128,0,76989:0:0:0:0:
448,192,76703,1,0,0:0:0:0:
64,192,76989,128,2,77132:0:0:0:0:
192,192,76989,1,0,0:0:0:0:
320,192,77132,1,2,0:0:0:0:
448,192,77132,1,0,0:0:0:0:
64,192,77275,1,8,0:0:0:0:
192,192,77275,1,0,0:0:0:0:
448,192,77275,128,0,77417:0:0:0:0:
192,192,77560,128,8,77703:0:0:0:0:
448,192,77560,1,0,0:0:0:0:
64,192,77703,1,8,0:0:0:0:
320,192,77703,128,0,77846:0:0:0:0:
192,192,77846,1,8,0:0:0:0:
448,192,77846,128,0,77989:0:0:0:0:
64,192,77989,128,2,78275:0:0:0:0:
192,192,77989,1,0,0:0:0:100:push_scratch.wav
320,192,77989,1,0,0:0:0:0:
64,192,78417,1,2,0:0:0:0:
320,192,78417,128,0,78560:0:0:0:0:
448,192,78417,1,0,0:0:0:0:
64,192,78703,1,2,0:0:0:0:
192,192,78703,128,0,78846:0:0:0:0:
320,192,78703,1,0,0:0:0:0:
64,192,78989,1,2,0:0:0:0:
192,192,78989,1,0,0:0:0:0:
448,192,78989,128,0,79275:0:0:0:0:
192,192,79417,128,8,79560:0:0:0:0:
320,192,79417,1,0,0:0:0:0:
448,192,79417,1,0,0:0:0:0:
64,192,79703,1,2,0:0:0:0:
192,192,79703,1,0,0:0:0:0:
320,192,79703,128,0,79846:0:0:0:0:
64,192,79989,128,8,80132:0:0:0:0:
320,192,79989,1,0,0:0:0:0:
448,192,79989,1,0,0:0:0:0:
192,192,80275,1,2,0:0:0:0:
320,192,80275,1,4,0:0:0:0:
448,192,80275,128,0,80417:0:0:0:0:
192,192,80417,128,0,80560:0:0:0:0:
64,192,80560,1,8,0:0:0:0:
320,192,80560,128,0,80703:0:0:0:0:
448,192,80560,1,0,0:0:0:0:
64,192,80703,128,0,80846:0:0:0:0:
192,192,80846,128,2,80989:0:0:0:0:
448,192,80846,1,0,0:0:0:0:
448,192,80989,128,0,81132:0:0:0:0:
64,192,81132,128,8,81275:0:0:0:0:
192,192,81132,1,0,0:0:0:0:
320,192,81132,1,0,0:0:0:0:
320,192,81275,128,0,81417:0:0:0:0:
192,192,81417,1,2,0:0:0:0:
448,192,81417,1,0,0:0:0:0:
448,192,81560,1,0,0:0:0:0:
64,192,81703,1,8,0:0:0:0:
192,192,81703,1,0,0:0:0:0:
320,192,81703,1,0,0:0:0:0:
192,192,81846,1,0,0:0:0:0:
64,192,81989,1,2,0:0:0:0:
320,192,81989,1,0,0:0:0:0:
320,192,82132,1,0,0:0:0:0:
64,192,82275,1,8,0:0:0:0:
192,192,82275,1,0,0:0:0:0:
448,192,82275,1,0,0:0:0:0:
64,192,82417,1,0,0:0:0:0:
192,192,82560,1,2,0:0:0:0:
320,192,82560,1,4,0:0:0:0:
448,192,82703,1,0,0:0:0:0:
192,192,82846,1,8,0:0:0:0:
320,192,82846,1,0,0:0:0:0:
64,192,82917,1,0,0:0:0:0:
448,192,82989,1,0,0:0:0:0:
320,192,83060,1,0,0:0:0:0:
64,192,83132,1,2,0:0:0:0:
192,192,83132,1,0,0:0:0:0:
448,192,83203,1,0,0:0:0:0:
320,192,83275,1,0,0:0:0:0:
448,192,83346,1,0,0:0:0:0:
64,192,83417,1,8,0:0:0:0:
192,192,83417,1,0,0:0:0:0:
320,192,83489,1,0,0:0:0:0:
448,192,83560,1,0,0:0:0:0:
64,192,83632,1,0,0:0:0:0:
192,192,83703,1,2,0:0:0:0:
320,192,83703,1,0,0:0:0:0:
448,192,83775,1,0,0:0:0:0:
64,192,83846,1,0,0:0:0:0:
192,192,83917,1,0,0:0:0:0:
320,192,83989,1,8,0:0:0:0:
448,192,83989,1,0,0:0:0:0:
64,192,84060,1,0,0:0:0:0:
192,192,84132,1,0,0:0:0:0:
64,192,84203,1,0,0:0:0:0:
320,192,84275,1,2,0:0:0:0:
448,192,84275,1,0,0:0:0:0:
192,192,84346,1,0,0:0:0:0:
64,192,84417,1,0,0:0:0:0:
448,192,84489,1,0,0:0:0:0:
192,192,84560,1,8,0:0:0:0:
320,192,84560,1,0,0:0:0:0:
64,192,84632,1,0,0:0:0:0:
448,192,84703,1,0,0:0:0:0:
320,192,84775,1,0,0:0:0:0:
64,192,84846,1,2,0:0:0:0:
192,192,84846,128,0,84989:0:0:0:0:
448,192,84989,1,0,0:0:0:0:
192,192,85132,1,8,0:0:0:0:
320,192,85132,1,0,0:0:0:0:
448,192,85132,128,0,85275:0:0:0:0:
64,192,85275,1,0,0:0:0:0:
64,192,85417,128,2,85560:0:0:0:0:
192,192,85417,1,0,0:0:0:0:
320,192,85560,1,0,0:0:0:0:
64,192,85703,1,2,0:0:0:0:
192,192,85703,1,0,0:0:0:0:
448,192,85703,1,0,0:0:0:0:
192,192,85846,1,2,0:0:0:0:
320,192,85846,128,0,86132:0:0:0:0:
448,192,85846,1,0,0:0:0:0:
64,192,86132,1,2,0:0:0:0:
448,192,86132,1,0,0:0:0:0:
64,192,86275,1,2,0:0:0:0:
448,192,86275,1,0,0:0:0:0:
192,192,86417,128,8,86703:0:0:0:0:
320,192,86417,1,0,0:0:0:0:
64,192,86703,1,8,0:0:0:0:
448,192,86703,128,0,86846:0:0:0:0:
192,192,86846,1,8,0:0:0:0:
320,192,86846,128,0,86989:0:0:0:0:
64,192,86989,128,0,87132:0:0:0:0:
192,192,87132,1,2,0:0:0:0:
320,192,87132,1,0,0:0:0:0:
448,192,87132,1,0,0:0:0:0:
64,192,87560,1,2,0:0:0:0:
320,192,87560,1,0,0:0:0:0:
192,192,87703,1,2,0:0:0:0:
448,192,87703,1,0,0:0:0:0:
64,192,87989,1,8,0:0:0:0:
192,192,87989,1,0,0:0:0:0:
448,192,87989,1,0,0:0:0:0:
64,192,88275,1,2,0:0:0:0:
320,192,88275,1,0,0:0:0:0:
64,192,88703,1,2,0:0:0:0:
448,192,88703,1,0,0:0:0:0:
192,192,88846,1,2,0:0:0:0:
320,192,88846,1,0,0:0:0:0:
192,192,89132,1,8,0:0:0:0:
320,192,89132,1,0,0:0:0:0:
448,192,89132,1,0,0:0:0:0:
64,192,89417,1,2,0:0:0:0:
448,192,89417,1,0,0:0:0:0:
64,192,89846,1,2,0:0:0:0:
192,192,89846,1,0,0:0:0:0:
320,192,89989,1,2,0:0:0:0:
448,192,89989,1,0,0:0:0:0:
64,192,90275,1,8,0:0:0:0:
192,192,90275,1,0,0:0:0:0:
448,192,90275,1,0,0:0:0:0:
64,192,90417,1,2,0:0:0:0:
320,192,90417,1,0,0:0:0:0:
192,192,90560,1,2,0:0:0:0:
448,192,90560,1,0,0:0:0:0:
64,192,90703,1,2,0:0:0:0:
192,192,90703,1,0,0:0:0:0:
320,192,90846,1,0,0:0:0:0:
192,192,90989,1,2,0:0:0:0:
448,192,90989,1,0,0:0:0:0:
64,192,91132,1,8,0:0:0:0:
192,192,91132,1,0,0:0:0:0:
320,192,91132,1,0,0:0:0:0:
448,192,91275,1,0,0:0:0:0:
64,192,91417,1,2,0:0:0:0:
448,192,91417,1,0,0:0:0:0:
192,192,91560,1,0,0:0:0:0:
192,192,91703,1,2,0:0:0:0:
320,192,91703,1,0,0:0:0:0:
64,192,91989,1,8,0:0:0:0:
320,192,91989,1,0,0:0:0:0:
448,192,91989,1,0,0:0:0:0:
64,192,92417,1,2,0:0:0:0:
320,192,92417,1,0,0:0:0:0:
64,192,92560,1,8,0:0:0:0:
192,192,92560,1,0,0:0:0:0:
448,192,92560,1,0,0:0:0:0:
192,192,92846,1,2,0:0:0:0:
320,192,92846,1,0,0:0:0:0:
64,192,93132,1,8,0:0:0:0:
320,192,93132,1,0,0:0:0:0:
448,192,93132,1,0,0:0:0:0:
64,192,93560,1,2,0:0:0:0:
320,192,93560,1,0,0:0:0:0:
64,192,93703,1,8,0:0:0:0:
192,192,93703,1,0,0:0:0:0:
448,192,93703,1,0,0:0:0:0:
320,192,93989,1,2,0:0:0:0:
448,192,93989,1,0,0:0:0:0:
192,192,94132,1,2,0:0:0:0:
448,192,94132,1,0,0:0:0:0:
64,192,94275,1,8,0:0:0:0:
192,192,94275,1,0,0:0:0:0:
320,192,94275,1,0,0:0:0:0:
64,192,94417,1,0,0:0:0:0:
320,192,94560,1,2,0:0:0:0:
448,192,94560,1,0,0:0:0:0:
192,192,94703,1,2,0:0:0:0:
448,192,94703,1,0,0:0:0:0:
64,192,94846,1,8,0:0:0:0:
192,192,94846,1,0,0:0:0:0:
320,192,94846,1,0,0:0:0:0:
64,192,94989,1,2,0:0:0:0:
448,192,94989,1,0,0:0:0:0:
192,192,95132,1,8,0:0:0:0:
320,192,95132,1,0,0:0:0:0:
448,192,95132,1,0,0:0:0:0:
64,192,95275,1,2,0:0:0:0:
320,192,95275,1,0,0:0:0:0:
64,192,95417,1,8,0:0:0:0:
192,192,95417,1,0,0:0:0:0:
448,192,95417,1,0,0:0:0:0:
192,192,95560,1,2,0:0:0:0:
320,192,95560,1,0,0:0:0:0:
64,192,95703,1,8,0:0:0:0:
320,192,95703,1,0,0:0:0:0:
448,192,95703,1,0,0:0:0:0:
192,192,95846,1,2,0:0:0:0:
448,192,95846,1,0,0:0:0:0:
64,192,95989,1,8,0:0:0:0:
192,192,95989,1,0,0:0:0:0:
320,192,95989,1,0,0:0:0:0:
64,192,96132,1,2,0:0:0:0:
448,192,96132,1,0,0:0:0:0:
192,192,96275,1,4,0:0:0:0:
320,192,96275,1,2,0:0:0:0:
448,192,96275,1,0,0:0:0:0:
192,192,96703,1,2,0:0:0:0:
320,192,96703,1,0,0:0:0:0:
64,192,96846,1,2,0:0:0:0:
448,192,96846,1,0,0:0:0:0:
64,192,97132,1,2,0:0:0:0:
320,192,97132,1,0,0:0:0:0:
64,192,97417,1,2,0:0:0:0:
320,192,97417,1,0,0:0:0:0:
64,192,97846,1,2,0:0:0:0:
448,192,97846,1,0,0:0:0:0:
192,192,97989,1,2,0:0:0:0:
320,192,97989,1,0,0:0:0:0:
64,192,98560,1,2,0:0:0:0:
320,192,98560,1,0,0:0:0:0:
64,192,98989,1,2,0:0:0:0:
448,192,98989,1,0,0:0:0:0:
192,192,99132,1,2,0:0:0:0:
320,192,99132,1,0,0:0:0:0:
192,192,99417,1,0,0:0:0:0:
64,192,99560,1,2,0:0:0:0:
448,192,99560,1,0,0:0:0:0:
64,192,99703,1,2,0:0:0:0:
320,192,99703,1,0,0:0:0:0:
192,192,99846,1,2,0:0:0:0:
320,192,99846,1,0,0:0:0:0:
448,192,99989,1,0,0:0:0:0:
64,192,100132,1,2,0:0:0:0:
192,192,100132,1,0,0:0:0:0:
320,192,100275,1,0,0:0:0:0:
64,192,100560,1,2,0:0:0:0:
448,192,100560,1,0,0:0:0:0:
64,192,100846,1,2,0:0:0:0:
192,192,100846,1,4,0:0:0:0:
448,192,100846,1,0,0:0:0:0:
192,192,100989,1,2,0:0:0:0:
320,192,100989,1,0,0:0:0:0:
64,192,101132,1,2,0:0:0:0:
448,192,101132,1,0,0:0:0:0:
64,192,101275,1,2,0:0:0:0:
192,192,101275,1,0,0:0:0:0:
320,192,101417,1,2,0:0:0:0:
448,192,101417,1,0,0:0:0:0:
64,192,101560,1,2,0:0:0:0:
320,192,101560,1,0,0:0:0:0:
192,192,101703,1,2,0:0:0:0:
448,192,101703,1,0,0:0:0:0:
320,192,101846,1,2,0:0:0:0:
448,192,101846,1,0,0:0:0:0:
64,192,101989,1,2,0:0:0:0:
192,192,101989,1,4,0:0:0:0:
320,192,102060,1,2,0:0:0:0:
448,192,102060,1,0,0:0:0:0:
64,192,102132,1,2,0:0:0:0:
192,192,102132,1,0,0:0:0:0:
320,192,102203,1,2,0:0:0:0:
448,192,102203,1,0,0:0:0:0:
64,192,102275,1,2,0:0:0:0:
192,192,102275,1,0,0:0:0:0:
320,192,102346,1,2,0:0:0:0:
448,192,102346,1,0,0:0:0:0:
64,192,102417,1,2,0:0:0:0:
192,192,102417,1,0,0:0:0:0:
320,192,102489,1,2,0:0:0:0:
448,192,102489,1,0,0:0:0:0:
64,192,102560,1,2,0:0:0:0:
192,192,102596,1,2,0:0:0:0:
320,192,102632,1,2,0:0:0:0:
448,192,102667,1,2,0:0:0:0:
64,192,102703,1,2,0:0:0:0:
192,192,102739,1,2,0:0:0:0:
320,192,102775,1,2,0:0:0:0:
448,192,102810,1,2,0:0:0:0:
64,192,102846,1,2,0:0:0:0:
192,192,102882,1,2,0:0:0:0:
320,192,102917,1,2,0:0:0:0:
448,192,102953,1,2,0:0:0:0:
64,192,102989,1,2,0:0:0:0:
192,192,103025,1,2,0:0:0:0:
320,192,103060,1,2,0:0:0:0:
448,192,103096,1,2,0:0:0:0:
64,192,103132,1,2,0:0:0:0:
192,192,103132,1,0,0:0:0:0:
64,192,103275,1,2,0:0:0:0:
320,192,103275,1,0,0:0:0:0:
320,192,103417,1,2,0:0:0:0:
448,192,103417,1,0,0:0:0:0:
64,192,103560,1,2,0:0:0:0:
192,192,103560,1,0,0:0:0:0:
64,192,103703,128,2,103989:0:0:0:0:
320,192,103703,1,0,0:0:0:0:
320,192,103989,1,2,0:0:0:0:
448,192,103989,1,0,0:0:0:0:
192,192,104132,1,2,0:0:0:0:
448,192,104132,128,0,104417:0:0:0:0:
64,192,104417,1,2,0:0:0:0:
192,192,104417,1,0,0:0:0:0:
64,192,104560,1,2,0:0:0:0:
448,192,104560,1,0,0:0:0:0:
192,192,104703,1,2,0:0:0:0:
320,192,104703,1,0,0:0:0:0:
64,192,104846,1,2,0:0:0:0:
192,192,104846,1,0,0:0:0:0:
320,192,104989,1,2,0:0:0:0:
448,192,104989,1,0,0:0:0:0:
192,192,105132,1,2,0:0:0:0:
320,192,105132,1,0,0:0:0:0:
192,192,105275,1,2,0:0:0:0:
64,192,105275,128,0,105560:0:0:0:0:
64,192,105703,1,2,0:0:0:0:
448,192,105703,128,0,106560:0:0:0:0:
320,192,105703,1,0,0:0:0:0:
64,192,106560,1,8,0:1:0:0:
192,192,106560,1,0,0:0:0:0:
320,192,106632,1,8,0:1:0:0:
448,192,106632,1,0,0:0:0:0:
64,192,106703,1,8,0:1:0:0:
192,192,106703,1,0,0:0:0:0:
320,192,106775,1,8,0:1:0:0:
448,192,106775,1,0,0:0:0:0:
64,192,106846,1,8,0:1:0:0:
192,192,106846,1,0,0:0:0:0:
320,192,106917,1,8,0:1:0:0:
448,192,106917,1,0,0:0:0:0:
64,192,106989,1,8,0:1:0:0:
192,192,106989,1,0,0:0:0:0:
320,192,107060,1,8,0:1:0:0:
448,192,107060,1,0,0:0:0:0:
64,192,107132,1,8,0:1:0:0:
192,192,107132,1,0,0:0:0:0:
320,192,107203,1,8,0:1:0:0:
448,192,107203,1,0,0:0:0:0:
64,192,107275,1,8,0:1:0:0:
192,192,107275,1,0,0:0:0:0:
320,192,107346,1,8,0:1:0:0:
64,192,107417,1,0,0:0:0:80:ClapSlash.wav
192,192,107417,1,0,0:0:0:0:
448,192,107417,1,0,0:0:0:0:
64,192,107703,1,2,0:0:0:0:
192,192,107703,1,0,0:0:0:100:push_scratch.wav
320,192,107703,1,0,0:0:0:0:
448,192,107775,1,0,0:0:0:0:
64,192,107846,1,0,0:0:0:0:
192,192,107917,1,0,0:0:0:0:
64,192,107989,1,2,0:0:0:0:
320,192,107989,1,0,0:0:0:0:
448,192,107989,1,0,0:0:0:0:
448,192,108132,128,0,108275:0:0:0:0:
192,192,108275,1,2,0:0:0:0:
320,192,108275,1,0,0:0:0:0:
192,192,108417,1,0,0:0:0:0:
64,192,108560,1,2,0:0:0:0:
320,192,108560,1,0,0:0:0:0:
448,192,108560,1,0,0:0:0:0:
448,192,108703,128,0,108846:0:0:0:0:
64,192,108846,1,2,0:0:0:0:
192,192,108846,1,0,0:0:0:0:
64,192,108989,1,0,0:0:0:0:
192,192,109132,1,2,0:0:0:0:
320,192,109132,1,0,0:0:0:0:
448,192,109132,1,0,0:0:0:0:
448,192,109275,128,0,109417:0:0:0:0:
192,192,109417,1,2,0:0:0:0:
320,192,109417,1,0,0:0:0:0:
192,192,109560,1,0,0:0:0:0:
64,192,109703,1,2,0:0:0:0:
320,192,109703,1,0,0:0:0:0:
448,192,109703,1,0,0:0:0:0:
448,192,109846,128,0,109989:0:0:0:0:
64,192,109989,1,2,0:0:0:0:
320,192,109989,1,0,0:0:0:0:
448,192,110060,1,0,0:0:0:0:
192,192,110132,1,0,0:0:0:0:
320,192,110203,1,0,0:0:0:0:
64,192,110275,1,2,0:0:0:0:
192,192,110275,1,0,0:0:0:0:
448,192,110275,1,0,0:0:0:0:
448,192,110417,128,0,110560:0:0:0:0:
192,192,110560,1,2,0:0:0:0:
320,192,110560,1,0,0:0:0:0:
192,192,110703,1,0,0:0:0:0:
64,192,110846,1,2,0:0:0:0:
320,192,110846,1,0,0:0:0:0:
448,192,110846,1,0,0:0:0:0:
448,192,110989,128,0,111132:0:0:0:0:
64,192,111132,1,2,0:0:0:0:
192,192,111132,1,0,0:0:0:0:
320,192,111275,1,0,0:0:0:0:
64,192,111417,1,2,0:0:0:0:
192,192,111417,1,0,0:0:0:0:
448,192,111417,128,0,111560:0:0:0:0:
64,192,111560,128,0,111703:0:0:0:0:
320,192,111703,128,2,111989:0:0:0:0:
448,192,111703,1,0,0:0:0:0:
192,192,111846,1,0,0:0:0:0:
64,192,111989,1,2,0:0:0:0:
192,192,111989,128,0,112132:0:0:0:0:
448,192,111989,1,0,0:0:0:0:
448,192,112132,128,0,112275:0:0:0:0:
192,192,112275,1,2,0:0:0:0:
320,192,112275,1,0,0:0:0:0:
64,192,112346,1,0,0:0:0:0:
448,192,112417,1,0,0:0:0:0:
320,192,112489,1,0,0:0:0:0:
64,192,112560,1,2,0:0:0:0:
192,192,112560,1,0,0:0:0:0:
448,192,112560,1,0,0:0:0:0:
192,192,112703,128,0,112846:0:0:0:0:
64,192,112846,1,2,0:0:0:0:
448,192,112846,1,0,0:0:0:0:
448,192,112989,1,0,0:0:0:0:
64,192,113132,1,2,0:0:0:0:
192,192,113132,1,0,0:0:0:0:
320,192,113132,1,0,0:0:0:0:
192,192,113275,128,0,113417:0:0:0:0:
320,192,113417,1,2,0:0:0:0:
448,192,113417,1,0,0:0:0:0:
320,192,113560,1,0,0:0:0:0:
64,192,113703,1,2,0:0:0:0:
192,192,113703,1,0,0:0:0:0:
448,192,113703,1,0,0:0:0:0:
192,192,113846,128,0,113989:0:0:0:0:
64,192,113989,1,2,0:0:0:0:
448,192,113989,1,0,0:0:0:0:
448,192,114132,1,0,0:0:0:0:
64,192,114275,1,2,0:0:0:0:
192,192,114275,1,0,0:0:0:0:
320,192,114275,1,0,0:0:0:0:
192,192,114417,128,0,114560:0:0:0:0:
64,192,114560,1,2,0:0:0:0:
320,192,114560,1,0,0:0:0:0:
192,192,114632,1,0,0:0:0:0:
448,192,114703,1,0,0:0:0:0:
64,192,114775,1,0,0:0:0:0:
192,192,114846,1,2,0:0:0:0:
320,192,114846,1,0,0:0:0:0:
448,192,114846,1,0,0:0:0:0:
192,192,114989,128,0,115132:0:0:0:0:
64,192,115132,1,2,0:0:0:0:
448,192,115132,1,0,0:0:0:0:
448,192,115275,1,0,0:0:0:0:
64,192,115417,1,2,0:0:0:0:
192,192,115417,1,0,0:0:0:0:
320,192,115417,1,0,0:0:0:0:
192,192,115560,128,0,115703:0:0:0:0:
64,192,115703,128,2,115846:0:0:0:0:
320,192,115703,1,0,0:0:0:0:
448,192,115846,1,0,0:0:0:0:
64,192,115989,1,2,0:0:0:0:
320,192,115989,1,0,0:0:0:0:
448,192,115989,128,0,116132:0:0:0:0:
192,192,116132,1,0,0:0:0:0:
192,192,116275,1,2,0:0:0:0:
320,192,116275,128,0,116560:0:0:0:0:
448,192,116417,1,0,0:0:0:0:
64,192,116560,1,0,0:0:0:80:ClapSlash.wav
192,192,116560,1,0,0:0:0:0:
448,192,116560,1,0,0:0:0:0:
64,192,116703,1,0,0:0:0:0:
192,192,116846,1,2,0:0:0:0:
448,192,116846,1,4,0:0:0:0:
320,192,116989,1,0,0:0:0:0:
320,192,117132,128,0,117275:0:0:0:0:
64,192,117275,1,2,0:0:0:0:
448,192,117275,1,4,0:0:0:0:
192,192,117417,1,0,0:0:0:0:
192,192,117560,128,0,117703:0:0:0:0:
320,192,117703,1,2,0:0:0:0:
448,192,117703,1,4,0:0:0:0:
64,192,117846,1,0,0:0:0:0:
64,192,117989,128,0,118132:0:0:0:0:
320,192,118132,1,2,0:0:0:0:
448,192,118132,1,4,0:0:0:0:
192,192,118275,1,0,0:0:0:0:
192,192,118417,128,0,118560:0:0:0:0:
64,192,118560,1,2,0:0:0:0:
448,192,118560,1,4,0:0:0:0:
320,192,118703,1,0,0:0:0:0:
320,192,118846,128,0,118989:0:0:0:0:
64,192,118989,128,2,119703:0:0:0:0:
448,192,118989,128,4,119989:0:0:0:0:
64,192,122560,128,0,122846:0:0:0:0:
320,192,123417,128,0,123703:0:0:0:0:
448,192,123417,128,0,123703:0:0:0:0:
64,192,123703,1,2,0:0:0:0:
192,192,123703,1,0,0:0:0:0:
64,192,123894,1,2,0:0:0:0:
320,192,123894,1,0,0:0:0:0:
448,192,123894,1,0,0:0:0:0:
448,192,124179,1,0,0:0:0:0:
64,192,124179,1,0,0:0:0:0:
192,192,124179,1,2,0:0:0:0:
64,192,124465,1,2,0:0:0:0:
192,192,124465,1,0,0:0:0:0:
320,192,124465,1,0,0:0:0:0:
64,192,124751,128,2,125036:0:0:0:0:
192,192,124751,1,4,0:0:0:0:
320,192,124751,1,0,0:0:0:0:
448,192,124751,1,0,0:0:0:0:
192,192,125036,128,2,125132:0:0:0:0:
448,192,125036,1,0,0:0:0:0:
64,192,125132,1,2,0:0:0:0:
320,192,125132,128,0,125227:0:0:0:0:
448,192,125132,1,0,0:0:0:0:
192,192,125417,1,2,0:0:0:0:
320,192,125417,1,0,0:0:0:0:
448,192,125417,128,0,125703:0:0:0:0:
64,192,125703,1,2,0:0:0:0:
192,192,125703,1,0,0:0:0:0:
320,192,125703,1,0,0:0:0:0:
320,192,125894,128,0,125989:0:0:0:0:
64,192,125989,1,2,0:0:0:0:
192,192,125989,1,0,0:0:0:0:
448,192,125989,1,0,0:0:0:0:
320,192,126179,128,0,126275:0:0:0:0:
64,192,126275,1,2,0:0:0:0:
192,192,126275,128,0,126370:0:0:0:0:
448,192,126275,1,0,0:0:0:0:
192,192,126560,1,2,0:0:0:0:
320,192,126560,1,0,0:0:0:0:
448,192,126560,128,0,126846:0:0:0:0:
64,192,126751,128,0,126846:0:0:0:0:
192,192,126846,1,2,0:0:0:0:
320,192,126846,128,0,127036:0:0:0:0:
64,192,127036,1,2,0:0:0:0:
192,192,127036,1,0,0:0:0:0:
64,192,127132,1,2,0:0:0:0:
320,192,127132,1,0,0:0:0:0:
448,192,127132,1,0,0:0:0:0:
320,192,127322,128,0,127417:0:0:0:0:
64,192,127417,1,2,0:0:0:0:
192,192,127417,128,0,127513:0:0:0:0:
448,192,127417,1,0,0:0:0:0:
192,192,127703,1,2,0:0:0:0:
320,192,127703,1,0,0:0:0:0:
448,192,127703,128,0,127989:0:0:0:0:
64,192,127989,1,2,0:0:0:0:
192,192,127989,1,0,0:0:0:0:
320,192,127989,1,0,0:0:0:0:
320,192,128179,128,0,128275:0:0:0:0:
64,192,128275,1,2,0:0:0:0:
192,192,128275,1,0,0:0:0:0:
448,192,128275,1,0,0:0:0:0:
192,192,128465,128,0,128560:0:0:0:0:
64,192,128560,1,2,0:0:0:0:
320,192,128560,1,0,0:0:0:0:
448,192,128560,128,0,128751:0:0:0:0:
64,192,128751,128,0,128846:0:0:0:0:
320,192,128846,1,2,0:0:0:0:
448,192,128846,1,0,0:0:0:0:
64,192,128941,1,2,0:0:0:0:
192,192,128941,1,0,0:0:0:0:
320,192,129036,1,2,0:0:0:0:
448,192,129036,1,0,0:0:0:0:
192,192,129132,128,0,129322:0:0:0:0:
64,192,129322,1,2,0:0:0:0:
320,192,129322,128,4,129608:0:0:0:0:
448,192,129322,1,0,0:0:0:0:
192,192,129608,1,4,0:0:0:0:
448,192,129608,128,2,129703:0:0:0:0:
64,192,129703,128,2,129798:0:0:0:0:
192,192,129703,1,4,0:0:0:0:
320,192,129703,1,0,0:0:0:0:
64,192,129989,1,2,0:0:0:0:
192,192,129989,128,0,130275:0:0:0:0:
448,192,129989,1,0,0:0:0:0:
64,192,130275,1,2,0:0:0:0:
320,192,130275,1,0,0:0:0:0:
448,192,130275,1,0,0:0:0:0:
64,192,130465,128,0,130560:0:0:0:0:
192,192,130560,1,2,0:0:0:0:
320,192,130560,1,0,0:0:0:0:
448,192,130560,1,0,0:0:0:0:
64,192,130751,128,0,130846:0:0:0:0:
192,192,130846,1,2,0:0:0:0:
320,192,130846,1,0,0:0:0:0:
448,192,130846,128,0,130941:0:0:0:0:
64,192,131132,1,2,0:0:0:0:
192,192,131132,128,0,131417:0:0:0:0:
448,192,131132,1,0,0:0:0:0:
320,192,131322,128,0,131417:0:0:0:0:
64,192,131417,128,2,131608:0:0:0:0:
448,192,131417,1,0,0:0:0:0:
320,192,131608,1,2,0:0:0:0:
448,192,131608,1,0,0:0:0:0:
64,192,131703,1,2,0:0:0:0:
192,192,131703,1,0,0:0:0:0:
320,192,131703,1,0,0:0:0:0:
64,192,131894,128,0,131989:0:0:0:0:
192,192,131989,1,2,0:0:0:0:
320,192,131989,1,0,0:0:0:0:
448,192,131989,128,0,132084:0:0:0:0:
64,192,132275,1,2,0:0:0:0:
192,192,132275,128,0,132560:0:0:0:0:
448,192,132275,1,0,0:0:0:0:
64,192,132560,1,2,0:0:0:0:
320,192,132560,1,0,0:0:0:0:
448,192,132560,1,0,0:0:0:0:
64,192,132751,128,0,132846:0:0:0:0:
320,192,132846,1,2,0:0:0:0:
448,192,132846,1,0,0:0:0:0:
64,192,132941,1,2,0:0:0:0:
192,192,132941,1,0,0:0:0:0:
320,192,133036,1,2,0:0:0:0:
448,192,133036,1,0,0:0:0:0:
64,192,133132,1,2,0:0:0:0:
192,192,133132,128,0,133275:0:0:0:0:
448,192,133275,128,0,133417:0:0:0:0:
64,192,133417,1,2,0:0:0:0:
192,192,133417,1,0,0:0:0:0:
320,192,133417,1,0,0:0:0:0:
320,192,133608,128,0,133894:0:0:0:0:
64,192,133894,1,4,0:0:0:0:
192,192,133894,1,2,0:0:0:0:
448,192,133894,1,0,0:0:0:0:
64,192,134179,1,2,0:0:0:0:
448,192,134179,1,0,0:0:0:0:
192,192,134275,1,2,0:0:0:0:
320,192,134275,1,0,0:0:0:0:
448,192,134275,1,0,0:0:0:0:
64,192,134465,1,0,0:0:0:0:
192,192,134560,1,2,0:0:0:0:
320,192,134560,1,0,0:0:0:0:
448,192,134560,128,0,134751:0:0:0:0:
64,192,134846,1,2,0:0:0:0:
192,192,134846,1,0,0:0:0:0:
448,192,134846,1,0,0:0:0:0:
64,192,135132,1,2,0:0:0:0:
320,192,135132,1,0,0:0:0:0:
448,192,135132,1,0,0:0:0:0:
448,192,135322,1,0,0:0:0:0:
64,192,135417,1,2,0:0:0:0:
192,192,135417,1,0,0:0:0:0:
320,192,135417,1,0,0:0:0:0:
448,192,135608,1,0,0:0:0:0:
64,192,135703,128,2,135894:0:0:0:0:
192,192,135703,1,0,0:0:0:0:
320,192,135703,1,0,0:0:0:0:
320,192,135894,1,2,0:0:0:0:
448,192,135894,1,0,0:0:0:0:
192,192,135989,128,0,136179:0:0:0:0:
64,192,136179,1,2,0:0:0:0:
320,192,136179,1,0,0:0:0:0:
448,192,136179,1,0,0:0:0:0:
192,192,136465,1,2,0:0:0:0:
448,192,136465,1,0,0:0:0:0:
64,192,136560,1,2,0:0:0:0:
192,192,136560,1,0,0:0:0:0:
320,192,136560,1,0,0:0:0:0:
448,192,136751,1,0,0:0:0:0:
64,192,136846,1,2,0:0:0:0:
192,192,136846,128,0,137036:0:0:0:0:
320,192,136846,1,0,0:0:0:0:
192,192,137132,1,2,0:0:0:0:
320,192,137132,1,0,0:0:0:0:
448,192,137132,1,0,0:0:0:0:
64,192,137417,1,2,0:0:0:0:
192,192,137417,1,0,0:0:0:0:
320,192,137417,1,0,0:0:0:0:
192,192,137608,1,0,0:0:0:0:
64,192,137703,1,2,0:0:0:0:
320,192,137703,1,0,0:0:0:0:
448,192,137703,1,0,0:0:0:0:
192,192,137894,1,2,0:0:0:0:
320,192,137894,1,0,0:0:0:0:
64,192,137989,1,2,0:0:0:0:
320,192,137989,128,0,138179:0:0:0:0:
448,192,137989,1,0,0:0:0:0:
192,192,138179,128,0,138465:0:0:0:0:
64,192,138465,1,2,0:0:0:0:
320,192,138465,1,4,0:0:0:0:
448,192,138465,1,0,0:0:0:0:
64,192,138751,1,2,0:0:0:0:
448,192,138751,1,0,0:0:0:0:
192,192,138846,1,2,0:0:0:0:
320,192,138846,1,0,0:0:0:0:
448,192,138846,1,0,0:0:0:0:
64,192,139036,1,0,0:0:0:0:
192,192,139132,1,2,0:0:0:0:
320,192,139132,1,0,0:0:0:0:
448,192,139132,128,0,139322:0:0:0:0:
64,192,139417,1,2,0:0:0:0:
192,192,139417,1,0,0:0:0:0:
448,192,139417,1,0,0:0:0:0:
64,192,139703,1,2,0:0:0:0:
320,192,139703,1,0,0:0:0:0:
448,192,139703,1,0,0:0:0:0:
448,192,139894,1,0,0:0:0:0:
64,192,139989,1,2,0:0:0:0:
192,192,139989,1,0,0:0:0:0:
320,192,139989,1,0,0:0:0:0:
448,192,140179,1,0,0:0:0:0:
64,192,140275,128,2,140465:0:0:0:0:
192,192,140275,1,4,0:0:0:0:
320,192,140275,1,0,0:0:0:0:
192,192,140465,1,2,0:0:0:0:
320,192,140465,1,4,0:0:0:0:
448,192,140465,1,0,0:0:0:0:
64,192,140655,1,2,0:0:0:0:
192,192,140655,1,4,0:0:0:0:
448,192,140655,1,0,0:0:0:0:
64,192,140846,1,2,0:0:0:0:
320,192,140846,1,4,0:0:0:0:
448,192,140846,1,0,0:0:0:0:
192,192,141132,1,2,0:0:0:0:
320,192,141132,1,0,0:0:0:0:
448,192,141132,1,0,0:0:0:0:
64,192,141417,1,2,0:0:0:0:
192,192,141417,1,0,0:0:0:0:
320,192,141417,1,0,0:0:0:0:
64,192,141703,1,0,0:0:0:0:
448,192,141703,128,0,141989:0:0:0:0:
64,192,141989,1,2,0:0:0:0:
192,192,141989,1,4,0:0:0:0:
320,192,141989,1,0,0:0:0:0:
448,192,142084,1,0,0:0:0:0:
64,192,142179,1,2,0:0:0:0:
192,192,142179,1,4,0:0:0:0:
192,192,142275,1,2,0:0:0:0:
320,192,142275,1,4,0:0:0:0:
448,192,142275,1,0,0:0:0:0:
64,192,142370,1,0,0:0:0:0:
320,192,142465,1,2,0:0:0:0:
448,192,142465,1,4,0:0:0:0:
64,192,142560,1,2,0:0:0:0:
192,192,142560,1,4,0:0:0:0:
320,192,142560,1,0,0:0:0:0:
448,192,142655,1,0,0:0:0:0:
192,192,142751,1,0,0:0:0:0:
320,192,142846,1,2,0:0:0:0:
448,192,142846,1,0,0:0:0:0:
64,192,142917,1,2,0:0:0:0:
192,192,142917,1,0,0:0:0:0:
320,192,142989,1,2,0:0:0:0:
448,192,142989,1,0,0:0:0:0:
192,192,143060,1,2,0:0:0:0:
64,192,143132,1,2,0:0:0:0:
320,192,143132,128,4,143417:0:0:0:0:
448,192,143132,1,0,0:0:0:0:
64,192,143417,1,2,0:0:0:0:
192,192,143417,128,4,143703:0:0:0:0:
448,192,143417,1,0,0:0:0:0:
64,192,143703,1,4,0:0:0:0:
320,192,143703,128,2,143846:0:0:0:0:
448,192,143703,1,0,0:0:0:0:
64,192,143989,128,4,144132:0:0:0:0:
192,192,143989,1,2,0:0:0:0:
448,192,143989,1,0,0:0:0:0:
448,192,144132,128,0,144275:0:0:0:0:
64,192,144275,1,2,0:0:0:0:
192,192,144275,128,4,144560:0:0:0:0:
320,192,144275,1,0,0:0:0:0:
64,192,144560,1,2,0:0:0:0:
320,192,144560,1,4,0:0:0:0:
448,192,144560,1,0,0:0:0:0:
64,192,144703,1,0,0:0:0:0:
192,192,144846,1,4,0:0:0:0:
320,192,144846,1,2,0:0:0:0:
448,192,144846,128,0,145132:0:0:0:0:
64,192,145132,1,4,0:0:0:0:
192,192,145132,1,2,0:0:0:0:
320,192,145132,1,0,0:0:0:0:
320,192,145275,1,0,0:0:0:0:
64,192,145417,1,4,0:0:0:0:
192,192,145417,128,2,145703:0:0:0:0:
448,192,145417,1,0,0:0:0:0:
64,192,145703,1,4,0:0:0:0:
320,192,145703,1,2,0:0:0:0:
448,192,145703,1,0,0:0:0:0:
64,192,145846,1,0,0:0:0:0:
448,192,145989,128,2,146132:0:0:0:0:
320,192,145989,1,4,0:0:0:0:
192,192,145989,1,0,0:0:0:0:
192,192,146132,128,0,146275:0:0:0:0:
448,192,146275,1,2,0:0:0:0:
320,192,146275,1,4,0:0:0:0:
64,192,146275,1,0,0:0:0:0:
448,192,146417,1,0,0:0:0:0:
192,192,146560,1,4,0:0:0:0:
192,192,146703,1,0,0:0:0:0:
64,192,146846,128,4,146989:0:0:0:0:
448,192,147132,128,0,147275:0:0:0:0:
192,192,147275,128,0,147417:0:0:0:0:
64,192,147560,1,2,0:0:0:0:
320,192,147560,128,0,147846:0:0:0:100:push_scratch.wav
448,192,147560,1,0,0:0:0:0:
192,192,147846,1,0,0:0:0:0:
64,192,147989,1,8,0:0:0:0:
320,192,147989,1,0,0:0:0:0:
448,192,147989,1,0,0:0:0:0:
64,192,148132,1,0,0:0:0:0:
320,192,148275,1,2,0:0:0:0:
192,192,148275,1,0,0:0:0:0:
320,192,148417,1,0,0:0:0:0:
64,192,148560,1,8,0:0:0:0:
192,192,148560,1,0,0:0:0:0:
448,192,148560,1,0,0:0:0:0:
192,192,148703,128,0,148989:0:0:0:0:
64,192,148846,1,2,0:0:0:0:
320,192,148846,1,0,0:0:0:0:
448,192,148989,1,0,0:0:0:0:
64,192,149132,1,8,0:0:0:0:
192,192,149132,1,0,0:0:0:0:
320,192,149132,1,0,0:0:0:0:
320,192,149275,1,0,0:0:0:0:
192,192,149417,1,2,0:0:0:0:
448,192,149417,1,0,0:0:0:0:
192,192,149560,1,0,0:0:0:0:
64,192,149703,1,8,0:0:0:0:
320,192,149703,1,0,0:0:0:0:
448,192,149703,1,0,0:0:0:0:
320,192,149846,128,0,150132:0:0:0:0:
192,192,149989,1,2,0:0:0:0:
448,192,149989,1,0,0:0:0:0:
64,192,150132,128,0,150275:0:0:0:0:
192,192,150275,1,8,0:0:0:0:
320,192,150275,1,0,0:0:0:0:
448,192,150275,128,0,150417:0:0:0:0:
192,192,150417,128,0,150560:0:0:0:0:
320,192,150560,128,2,150846:0:0:0:0:
64,192,150560,1,0,0:0:0:0:
448,192,150703,1,0,0:0:0:0:
64,192,150846,1,8,0:0:0:0:
192,192,150846,1,0,0:0:0:0:
448,192,150846,1,0,0:0:0:0:
64,192,150989,128,0,151417:0:0:0:0:
192,192,151132,1,2,0:0:0:0:
448,192,151132,1,0,0:0:0:0:
320,192,151275,1,0,0:0:0:0:
192,192,151417,1,8,0:0:0:0:
320,192,151417,1,0,0:0:0:0:
448,192,151417,1,0,0:0:0:0:
448,192,151560,1,0,0:0:0:0:
192,192,151703,1,2,0:0:0:0:
320,192,151703,1,0,0:0:0:0:
192,192,151846,1,2,0:0:0:0:
448,192,151846,1,0,0:0:0:0:
64,192,151989,1,8,0:0:0:0:
320,192,151989,1,0,0:0:0:0:
448,192,151989,1,0,0:0:0:0:
64,192,152132,1,4,0:0:0:0:
192,192,152132,128,2,152417:0:0:0:0:
320,192,152132,1,0,0:0:0:0:
448,192,152417,1,0,0:0:0:0:
64,192,152560,1,8,0:0:0:0:
192,192,152560,1,0,0:0:0:0:
320,192,152560,1,0,0:0:0:0:
192,192,152703,1,0,0:0:0:0:
320,192,152846,128,2,152989:0:0:0:0:
448,192,152846,1,0,0:0:0:0:
64,192,152989,128,0,153132:0:0:0:0:
192,192,153132,1,8,0:0:0:0:
320,192,153132,1,0,0:0:0:0:
448,192,153132,1,0,0:0:0:0:
448,192,153275,128,0,153417:0:0:0:0:
64,192,153417,1,2,0:0:0:0:
320,192,153417,1,0,0:0:0:0:
192,192,153560,128,0,153703:0:0:0:0:
64,192,153703,1,8,0:0:0:0:
320,192,153703,128,0,153989:0:0:0:0:
448,192,153703,1,0,0:0:0:0:
192,192,153846,1,0,0:0:0:0:
64,192,153989,1,2,0:0:0:0:
448,192,153989,1,0,0:0:0:0:
320,192,154132,1,0,0:0:0:0:
64,192,154275,1,8,0:0:0:0:
192,192,154275,1,0,0:0:0:0:
448,192,154275,1,0,0:0:0:0:
64,192,154417,128,0,154560:0:0:0:0:
192,192,154560,1,2,0:0:0:0:
320,192,154560,1,0,0:0:0:0:
448,192,154703,128,0,154846:0:0:0:0:
64,192,154846,1,8,0:0:0:0:
192,192,154846,128,0,154989:0:0:0:0:
320,192,154846,1,0,0:0:0:0:
320,192,154989,128,0,155132:0:0:0:0:
192,192,155132,1,2,0:0:0:0:
448,192,155132,128,0,155275:0:0:0:0:
64,192,155275,128,0,155417:0:0:0:0:
192,192,155417,128,8,155560:0:0:0:0:
320,192,155417,1,0,0:0:0:0:
448,192,155417,1,0,0:0:0:0:
320,192,155560,128,0,155989:0:0:0:0:
192,192,155703,1,8,0:0:0:0:
448,192,155703,1,0,0:0:0:0:
64,192,155846,1,2,0:0:0:0:
192,192,155846,1,0,0:0:0:0:
64,192,155989,1,8,0:0:0:0:
448,192,155989,1,0,0:0:0:0:
320,192,156132,1,2,0:0:0:0:
448,192,156132,1,0,0:0:0:0:
64,192,156275,1,8,0:1:0:0:
192,192,156275,1,0,0:0:0:0:
320,192,156346,1,8,0:1:0:0:
448,192,156346,1,0,0:0:0:0:
64,192,156417,1,8,0:1:0:0:
192,192,156417,1,0,0:0:0:0:
320,192,156489,1,8,0:1:0:0:
448,192,156489,1,0,0:0:0:0:
64,192,156560,1,8,0:0:0:0:
192,192,156560,1,0,0:0:0:0:
320,192,156632,1,8,0:0:0:0:
64,192,156703,1,4,0:0:0:0:
192,192,156703,1,2,0:0:0:0:
448,192,156703,128,0,156989:0:0:0:0:
64,192,156989,1,0,0:0:0:0:
192,192,157132,1,8,0:0:0:0:
320,192,157132,1,0,0:0:0:0:
448,192,157132,1,0,0:0:0:0:
192,192,157275,1,0,0:0:0:0:
64,192,157417,1,2,0:0:0:0:
448,192,157417,1,0,0:0:0:0:
448,192,157560,1,0,0:0:0:0:
64,192,157703,1,8,0:0:0:0:
192,192,157703,1,0,0:0:0:0:
320,192,157703,1,0,0:0:0:0:
64,192,157846,128,0,157989:0:0:0:0:
192,192,157989,1,2,0:0:0:0:
448,192,157989,1,0,0:0:0:0:
320,192,158132,128,0,158275:0:0:0:0:
64,192,158275,1,8,0:0:0:0:
192,192,158275,128,0,158417:0:0:0:0:
448,192,158275,1,0,0:0:0:0:
448,192,158417,1,0,0:0:0:0:
64,192,158560,1,2,0:0:0:0:
320,192,158560,128,0,158703:0:0:0:0:
64,192,158703,128,0,158846:0:0:0:0:
192,192,158846,128,8,158989:0:0:0:0:
320,192,158846,1,0,0:0:0:0:
448,192,158846,1,0,0:0:0:0:
320,192,158989,128,0,159132:0:0:0:0:
64,192,159132,128,2,159275:0:0:0:0:
448,192,159132,1,0,0:0:0:0:
192,192,159275,128,0,159417:0:0:0:0:
64,192,159417,1,8,0:0:0:0:
320,192,159417,1,0,0:0:0:0:
448,192,159417,128,0,159560:0:0:0:0:
192,192,159560,128,0,159703:0:0:0:0:
64,192,159703,128,2,159846:0:0:0:0:
448,192,159703,1,0,0:0:0:0:
320,192,159846,128,0,159989:0:0:0:0:
64,192,159989,1,8,0:0:0:0:
192,192,159989,1,0,0:0:0:0:
448,192,159989,128,0,160132:0:0:0:0:
192,192,160132,128,0,160560:0:0:0:0:
64,192,160275,1,2,0:0:0:0:
448,192,160275,1,0,0:0:0:0:
320,192,160417,1,0,0:0:0:0:
64,192,160560,1,8,0:0:0:0:
320,192,160560,1,0,0:0:0:0:
448,192,160560,1,0,0:0:0:0:
64,192,160703,1,0,0:0:0:0:
192,192,160846,1,2,0:0:0:0:
448,192,160846,1,0,0:0:0:0:
448,192,160989,128,0,161132:0:0:0:0:
64,192,161132,1,8,0:0:0:0:
192,192,161132,1,0,0:0:0:0:
320,192,161132,1,0,0:0:0:0:
192,192,161275,128,0,161703:0:0:0:0:
320,192,161417,1,2,0:0:0:0:
448,192,161417,1,0,0:0:0:0:
64,192,161560,1,0,0:0:0:0:
64,192,161703,1,8,0:0:0:0:
320,192,161703,1,0,0:0:0:0:
448,192,161703,1,0,0:0:0:0:
320,192,161846,1,0,0:0:0:0:
64,192,161989,1,2,0:0:0:0:
448,192,161989,1,0,0:0:0:0:
64,192,162132,128,0,162275:0:0:0:0:
192,192,162275,1,8,0:0:0:0:
320,192,162275,1,0,0:0:0:0:
448,192,162275,1,0,0:0:0:0:
320,192,162417,128,0,163417:0:0:0:0:
192,192,162560,1,2,0:0:0:0:
448,192,162560,1,0,0:0:0:0:
64,192,162703,1,0,0:0:0:0:
64,192,162846,1,8,0:0:0:0:
192,192,162846,1,0,0:0:0:0:
448,192,162846,1,0,0:0:0:0:
448,192,162989,1,0,0:0:0:0:
64,192,163132,1,2,0:0:0:0:
192,192,163132,1,0,0:0:0:0:
448,192,163275,1,0,0:0:0:0:
64,192,163417,1,8,0:0:0:0:
192,192,163417,1,0,0:0:0:0:
448,192,163417,1,0,0:0:0:0:
192,192,163560,1,0,0:0:0:0:
64,192,163703,128,4,164258:0:0:0:0:
448,192,163703,128,0,164814:0:0:0:0:
192,192,164258,128,4,164814:0:0:0:0:
64,192,164814,128,4,166848:0:0:0:0:
320,192,164814,128,0,165369:0:0:0:0:
448,192,165369,128,4,166203:0:0:0:0:
192,192,166848,128,4,167328:0:0:0:0:
320,192,166848,128,0,167809:0:0:0:0:
64,192,167328,128,4,167809:0:0:0:0:
192,192,167809,128,4,169733:0:0:0:0:
448,192,167809,128,0,168290:0:0:0:0:
320,192,168290,128,4,169733:0:0:0:0:
64,192,170694,128,4,171174:0:0:0:0:
448,192,170934,128,4,171174:0:0:0:0:
192,192,171174,128,4,171654:0:0:0:0:
64,192,171654,1,2,0:0:0:0:
320,192,171654,1,4,0:0:0:0:
448,192,171654,1,0,0:0:0:0:
192,192,171774,1,2,0:0:0:0:
320,192,171774,1,0,0:0:0:0:
64,192,171894,1,2,0:0:0:0:
448,192,171894,1,0,0:0:0:0:
64,192,172014,1,2,0:0:0:0:
320,192,172014,1,0,0:0:0:0:
192,192,172134,1,2,0:0:0:0:
448,192,172134,1,0,0:0:0:0:
320,192,172254,1,2,0:0:0:0:
448,192,172254,1,0,0:0:0:0:
64,192,172374,1,2,0:0:0:0:
192,192,172374,1,0,0:0:0:0:
64,192,172494,1,2,0:0:0:0:
448,192,172494,1,0,0:0:0:0:
192,192,172614,1,2,0:0:0:0:
320,192,172614,1,0,0:0:0:0:
64,192,172734,1,2,0:0:0:0:
320,192,172734,1,0,0:0:0:0:
192,192,172854,1,2,0:0:0:0:
448,192,172854,1,0,0:0:0:0:
64,192,172974,1,2,0:0:0:0:
448,192,172974,1,0,0:0:0:0:
192,192,173094,1,2,0:0:0:0:
320,192,173094,1,0,0:0:0:0:
64,192,173214,1,2,0:0:0:0:
192,192,173214,1,0,0:0:0:0:
320,192,173334,1,2,0:0:0:0:
448,192,173334,1,0,0:0:0:0:
64,192,173454,1,2,0:0:0:0:
320,192,173454,1,0,0:0:0:0:
192,192,173574,1,2,0:0:0:0:
448,192,173574,1,0,0:0:0:0:
320,192,173694,1,2,0:0:0:0:
448,192,173694,1,0,0:0:0:0:
64,192,173814,1,2,0:0:0:0:
192,192,173814,1,0,0:0:0:0:
64,192,173934,1,2,0:0:0:0:
448,192,173934,1,0,0:0:0:0:
192,192,174054,1,2,0:0:0:0:
320,192,174054,1,0,0:0:0:0:
320,192,174174,1,2,0:0:0:0:
448,192,174174,1,0,0:0:0:0:
64,192,174294,1,2,0:0:0:0:
192,192,174294,1,0,0:0:0:0:
64,192,174414,1,2,0:0:0:0:
320,192,174414,1,0,0:0:0:0:
192,192,174534,1,2,0:0:0:0:
448,192,174534,1,0,0:0:0:0:
64,192,174654,1,2,0:0:0:0:
448,192,174654,1,0,0:0:0:0:
192,192,174774,1,2,0:0:0:0:
320,192,174774,1,0,0:0:0:0:
64,192,174894,1,2,0:0:0:0:
192,192,174894,1,0,0:0:0:0:
320,192,175014,1,2,0:0:0:0:
448,192,175014,1,0,0:0:0:0:
192,192,175134,1,2,0:0:0:0:
448,192,175134,1,0,0:0:0:0:
64,192,175254,1,2,0:0:0:0:
320,192,175254,1,0,0:0:0:0:
64,192,175374,1,2,0:0:0:0:
448,192,175374,1,0,0:0:0:0:
192,192,175494,1,2,0:0:0:0:
320,192,175494,1,4,0:0:0:0:
448,192,175494,1,0,0:0:0:0:
64,192,175614,1,2,0:0:0:0:
192,192,175614,1,0,0:0:0:0:
320,192,175734,1,2,0:0:0:0:
448,192,175734,1,0,0:0:0:0:
64,192,175854,1,2,0:0:0:0:
448,192,175854,1,0,0:0:0:0:
192,192,175974,1,2,0:0:0:0:
320,192,175974,1,0,0:0:0:0:
192,192,176094,1,2,0:0:0:0:
448,192,176094,1,0,0:0:0:0:
64,192,176214,1,2,0:0:0:0:
320,192,176214,1,0,0:0:0:0:
64,192,176334,1,2,0:0:0:0:
192,192,176334,1,0,0:0:0:0:
320,192,176454,1,2,0:0:0:0:
448,192,176454,1,0,0:0:0:0:
192,192,176574,1,2,0:0:0:0:
448,192,176574,1,0,0:0:0:0:
64,192,176694,1,2,0:0:0:0:
320,192,176694,1,0,0:0:0:0:
64,192,176814,1,2,0:0:0:0:
448,192,176814,1,0,0:0:0:0:
192,192,176934,1,2,0:0:0:0:
320,192,176934,1,0,0:0:0:0:
192,192,177054,1,2,0:0:0:0:
448,192,177054,1,0,0:0:0:0:
64,192,177174,1,2,0:0:0:0:
320,192,177174,1,0,0:0:0:0:
64,192,177294,1,2,0:0:0:0:
448,192,177294,1,0,0:0:0:0:
320,192,177414,1,2,0:0:0:0:
448,192,177414,1,0,0:0:0:0:
64,192,177474,1,0,0:0:0:0:
192,192,177534,1,2,0:0:0:0:
320,192,177594,1,0,0:0:0:0:
64,192,177654,1,2,0:0:0:0:
448,192,177654,1,0,0:0:0:0:
192,192,177714,1,0,0:0:0:0:
320,192,177774,1,2,0:0:0:0:
192,192,177834,1,0,0:0:0:0:
64,192,177894,1,2,0:0:0:0:
448,192,177894,1,0,0:0:0:0:
320,192,177954,1,0,0:0:0:0:
192,192,178014,1,2,0:0:0:0:
64,192,178074,1,0,0:0:0:0:
320,192,178134,1,2,0:0:0:0:
448,192,178134,1,0,0:0:0:0:
192,192,178194,1,0,0:0:0:0:
64,192,178254,1,2,0:0:0:0:
448,192,178314,1,0,0:0:0:0:
64,192,178374,1,2,0:0:0:0:
192,192,178374,1,4,0:0:0:0:
320,192,178374,1,0,0:0:0:0:
192,192,178494,1,2,0:0:0:0:
448,192,178494,1,0,0:0:0:0:
64,192,178614,1,2,0:0:0:0:
320,192,178614,1,4,0:0:0:0:
448,192,178614,1,0,0:0:0:0:
192,192,178734,1,2,0:0:0:0:
320,192,178734,1,0,0:0:0:0:
64,192,178854,1,2,0:0:0:0:
192,192,178854,1,4,0:0:0:0:
448,192,178854,1,0,0:0:0:0:
320,192,179094,128,0,179214:0:0:0:0:
64,192,179334,1,2,0:0:0:0:
192,192,179334,1,4,0:0:0:0:
320,192,179334,1,0,0:0:0:0:
192,192,179454,1,2,0:0:0:0:
448,192,179454,1,0,0:0:0:0:
64,192,179574,1,2,0:0:0:0:
320,192,179574,1,0,0:0:0:0:
64,192,179694,1,2,0:0:0:0:
448,192,179694,1,0,0:0:0:0:
192,192,179814,1,2,0:0:0:0:
320,192,179814,1,0,0:0:0:0:
320,192,179934,1,2,0:0:0:0:
448,192,179934,1,0,0:0:0:0:
64,192,180054,1,2,0:0:0:0:
192,192,180054,1,0,0:0:0:0:
64,192,180174,1,2,0:0:0:0:
320,192,180174,1,0,0:0:0:0:
192,192,180294,1,2,0:0:0:0:
448,192,180294,1,0,0:0:0:0:
64,192,180414,1,2,0:0:0:0:
448,192,180414,1,0,0:0:0:0:
192,192,180534,1,2,0:0:0:0:
320,192,180534,1,0,0:0:0:0:
64,192,180654,1,2,0:0:0:0:
320,192,180654,1,0,0:0:0:0:
192,192,180774,1,2,0:0:0:0:
448,192,180774,1,0,0:0:0:0:
64,192,180894,1,2,0:0:0:0:
192,192,180894,1,0,0:0:0:0:
320,192,181014,1,2,0:0:0:0:
448,192,181014,1,0,0:0:0:0:
64,192,181134,1,2,0:0:0:0:
448,192,181134,1,0,0:0:0:0:
192,192,181254,1,2,0:0:0:0:
320,192,181254,1,0,0:0:0:0:
320,192,181374,1,2,0:0:0:0:
448,192,181374,1,0,0:0:0:0:
64,192,181494,1,2,0:0:0:0:
192,192,181494,1,0,0:0:0:0:
64,192,181614,1,2,0:0:0:0:
320,192,181614,1,0,0:0:0:0:
192,192,181734,1,2,0:0:0:0:
448,192,181734,1,0,0:0:0:0:
320,192,181854,1,2,0:0:0:0:
448,192,181854,1,0,0:0:0:0:
64,192,181974,1,2,0:0:0:0:
192,192,181974,1,0,0:0:0:0:
64,192,182094,1,2,0:0:0:0:
448,192,182094,1,0,0:0:0:0:
192,192,182214,1,2,0:0:0:0:
320,192,182214,1,0,0:0:0:0:
64,192,182334,1,2,0:0:0:0:
320,192,182334,1,0,0:0:0:0:
192,192,182454,1,2,0:0:0:0:
448,192,182454,1,0,0:0:0:0:
64,192,182574,1,2,0:0:0:0:
192,192,182574,1,0,0:0:0:0:
320,192,182694,1,2,0:0:0:0:
448,192,182694,1,0,0:0:0:0:
192,192,182814,1,2,0:0:0:0:
320,192,182814,1,0,0:0:0:0:
64,192,182934,1,2,0:0:0:0:
448,192,182934,1,0,0:0:0:0:
64,192,183054,1,2,0:0:0:0:
320,192,183054,1,0,0:0:0:0:
192,192,183174,1,2,0:0:0:0:
320,192,183174,1,4,0:0:0:0:
448,192,183174,1,0,0:0:0:0:
64,192,183294,1,2,0:0:0:0:
192,192,183294,1,0,0:0:0:0:
320,192,183414,1,2,0:0:0:0:
448,192,183414,1,0,0:0:0:0:
64,192,183534,1,2,0:0:0:0:
320,192,183534,1,0,0:0:0:0:
192,192,183654,1,2,0:0:0:0:
448,192,183654,1,0,0:0:0:0:
192,192,183774,1,2,0:0:0:0:
320,192,183774,1,0,0:0:0:0:
64,192,183894,1,2,0:0:0:0:
448,192,183894,1,0,0:0:0:0:
64,192,184014,1,2,0:0:0:0:
192,192,184014,1,0,0:0:0:0:
320,192,184134,1,2,0:0:0:0:
448,192,184134,1,0,0:0:0:0:
192,192,184254,1,2,0:0:0:0:
320,192,184254,1,0,0:0:0:0:
64,192,184374,1,2,0:0:0:0:
448,192,184374,1,0,0:0:0:0:
64,192,184494,1,2,0:0:0:0:
320,192,184494,1,0,0:0:0:0:
192,192,184614,1,2,0:0:0:0:
448,192,184614,1,0,0:0:0:0:
192,192,184734,1,2,0:0:0:0:
320,192,184734,1,0,0:0:0:0:
64,192,184854,1,2,0:0:0:0:
448,192,184854,1,0,0:0:0:0:
192,192,184974,1,2,0:0:0:0:
320,192,184974,1,0,0:0:0:0:
320,192,185094,1,2,0:0:0:0:
448,192,185094,1,0,0:0:0:0:
64,192,185214,1,2,0:0:0:0:
192,192,185214,1,0,0:0:0:0:
64,192,185334,1,2,0:0:0:0:
320,192,185334,1,0,0:0:0:0:
192,192,185454,1,2,0:0:0:0:
448,192,185454,1,0,0:0:0:0:
64,192,185574,1,2,0:0:0:0:
448,192,185574,1,0,0:0:0:0:
192,192,185694,1,2,0:0:0:0:
320,192,185694,1,0,0:0:0:0:
64,192,185814,1,2,0:0:0:0:
192,192,185814,1,0,0:0:0:0:
320,192,185934,1,2,0:0:0:0:
448,192,185934,1,0,0:0:0:0:
64,192,186054,1,2,0:0:0:0:
192,192,186054,1,4,0:0:0:0:
448,192,186054,1,0,0:0:0:0:
64,192,186174,1,2,0:0:0:0:
320,192,186174,1,0,0:0:0:0:
192,192,186294,1,2,0:0:0:0:
320,192,186294,1,4,0:0:0:0:
448,192,186294,1,0,0:0:0:0:
64,192,186414,1,2,0:0:0:0:
448,192,186414,1,0,0:0:0:0:
64,192,186534,1,2,0:0:0:0:
192,192,186534,1,4,0:0:0:0:
320,192,186534,1,0,0:0:0:0:
448,192,186774,128,0,186894:0:0:0:0:
64,192,187014,1,2,0:0:0:0:
320,192,187014,1,4,0:0:0:0:
448,192,187014,1,0,0:0:0:0:
192,192,187134,1,2,0:0:0:0:
320,192,187134,1,0,0:0:0:0:
64,192,187254,1,2,0:0:0:0:
448,192,187254,1,0,0:0:0:0:
192,192,187374,1,2,0:0:0:0:
448,192,187374,1,0,0:0:0:0:
64,192,187494,1,2,0:0:0:0:
320,192,187494,1,0,0:0:0:0:
64,192,187614,1,2,0:0:0:0:
192,192,187614,1,0,0:0:0:0:
320,192,187734,1,2,0:0:0:0:
448,192,187734,1,0,0:0:0:0:
64,192,187854,1,2,0:0:0:0:
448,192,187854,1,0,0:0:0:0:
64,192,187974,1,2,0:0:0:0:
192,192,187974,1,0,0:0:0:0:
320,192,187974,1,0,0:0:0:0:
320,192,188094,1,2,0:0:0:0:
448,192,188094,1,0,0:0:0:0:
64,192,188214,1,2,0:0:0:0:
192,192,188214,1,0,0:0:0:0:
64,192,188334,1,2,0:0:0:0:
320,192,188334,1,0,0:0:0:0:
192,192,188454,1,2,0:0:0:0:
448,192,188454,1,0,0:0:0:0:
320,192,188574,1,2,0:0:0:0:
448,192,188574,1,0,0:0:0:0:
64,192,188694,1,2,0:0:0:0:
192,192,188694,1,0,0:0:0:0:
64,192,188814,1,2,0:0:0:0:
320,192,188814,1,0,0:0:0:0:
192,192,188934,1,2,0:0:0:0:
320,192,188934,1,0,0:0:0:0:
448,192,188934,1,0,0:0:0:0:
64,192,189054,1,2,0:0:0:0:
192,192,189054,1,0,0:0:0:0:
320,192,189174,1,2,0:0:0:0:
448,192,189174,1,0,0:0:0:0:
64,192,189294,1,2,0:0:0:0:
448,192,189294,1,0,0:0:0:0:
192,192,189414,1,2,0:0:0:0:
320,192,189414,1,0,0:0:0:0:
64,192,189534,1,2,0:0:0:0:
192,192,189534,1,0,0:0:0:0:
320,192,189654,1,2,0:0:0:0:
448,192,189654,1,0,0:0:0:0:
64,192,189774,1,2,0:0:0:0:
448,192,189774,1,0,0:0:0:0:
64,192,189894,1,2,0:0:0:0:
192,192,189894,1,0,0:0:0:0:
320,192,189894,1,0,0:0:0:0:
320,192,190014,1,2,0:0:0:0:
448,192,190014,1,0,0:0:0:0:
64,192,190134,1,2,0:0:0:0:
192,192,190134,1,0,0:0:0:0:
64,192,190254,1,2,0:0:0:0:
320,192,190254,1,0,0:0:0:0:
192,192,190374,1,2,0:0:0:0:
448,192,190374,1,0,0:0:0:0:
192,192,190494,1,2,0:0:0:0:
320,192,190494,1,0,0:0:0:0:
64,192,190614,1,2,0:0:0:0:
448,192,190614,1,0,0:0:0:0:
64,192,190734,1,2,0:0:0:0:
320,192,190734,1,0,0:0:0:0:
192,192,190854,1,2,0:0:0:0:
320,192,190854,1,4,0:0:0:0:
448,192,190854,1,0,0:0:0:0:
64,192,190974,1,2,0:0:0:0:
192,192,190974,1,0,0:0:0:0:
320,192,191094,1,2,0:0:0:0:
448,192,191094,1,0,0:0:0:0:
192,192,191214,1,2,0:0:0:0:
448,192,191214,1,0,0:0:0:0:
64,192,191334,1,2,0:0:0:0:
320,192,191334,1,0,0:0:0:0:
64,192,191454,1,2,0:0:0:0:
192,192,191454,1,0,0:0:0:0:
320,192,191574,1,2,0:0:0:0:
448,192,191574,1,0,0:0:0:0:
192,192,191694,1,2,0:0:0:0:
448,192,191694,1,0,0:0:0:0:
64,192,191814,1,2,0:0:0:0:
192,192,191814,1,4,0:0:0:0:
320,192,191814,1,0,0:0:0:0:
320,192,191934,1,2,0:0:0:0:
448,192,191934,1,0,0:0:0:0:
64,192,192054,1,2,0:0:0:0:
192,192,192054,1,0,0:0:0:0:
64,192,192174,1,2,0:0:0:0:
448,192,192174,1,0,0:0:0:0:
192,192,192294,1,2,0:0:0:0:
320,192,192294,1,0,0:0:0:0:
320,192,192414,1,2,0:0:0:0:
448,192,192414,1,0,0:0:0:0:
64,192,192534,1,2,0:0:0:0:
192,192,192534,1,0,0:0:0:0:
64,192,192654,1,2,0:0:0:0:
448,192,192654,1,0,0:0:0:0:
192,192,192774,1,2,0:0:0:0:
320,192,192774,1,4,0:0:0:0:
448,192,192774,1,0,0:0:0:0:
64,192,192894,1,2,0:0:0:0:
192,192,192894,1,0,0:0:0:0:
320,192,193014,1,2,0:0:0:0:
448,192,193014,1,0,0:0:0:0:
192,192,193134,1,2,0:0:0:0:
448,192,193134,1,0,0:0:0:0:
64,192,193254,1,2,0:0:0:0:
320,192,193254,1,0,0:0:0:0:
192,192,193374,1,2,0:0:0:0:
320,192,193374,1,0,0:0:0:0:
64,192,193494,1,2,0:0:0:0:
448,192,193494,1,0,0:0:0:0:
64,192,193614,1,2,0:0:0:0:
192,192,193614,1,0,0:0:0:0:
320,192,193734,1,2,0:0:0:0:
448,192,193734,1,4,0:0:0:0:
64,192,193794,1,2,0:0:0:0:
192,192,193794,1,0,0:0:0:0:
320,192,193854,1,2,0:0:0:0:
448,192,193854,1,0,0:0:0:0:
64,192,193914,1,2,0:0:0:0:
192,192,193914,1,0,0:0:0:0:
320,192,193974,1,2,0:0:0:0:
448,192,193974,1,0,0:0:0:0:
64,192,194034,1,2,0:0:0:0:
192,192,194034,1,0,0:0:0:0:
320,192,194094,1,2,0:0:0:0:
448,192,194094,1,0,0:0:0:0:
64,192,194154,1,2,0:0:0:0:
192,192,194154,1,0,0:0:0:0:
448,192,194214,1,2,0:0:0:0:
320,192,194244,1,2,0:0:0:0:
192,192,194274,1,2,0:0:0:0:
64,192,194304,1,2,0:0:0:0:
448,192,194334,1,2,0:0:0:0:
320,192,194364,1,2,0:0:0:0:
192,192,194394,1,2,0:0:0:0:
64,192,194424,1,2,0:0:0:0:
448,192,194454,1,2,0:0:0:0:
320,192,194484,1,2,0:0:0:0:
192,192,194514,1,2,0:0:0:0:
64,192,194544,1,2,0:0:0:0:
448,192,194574,1,2,0:0:0:0:
320,192,194604,1,2,0:0:0:0:
192,192,194634,1,2,0:0:0:0:
64,192,194664,1,2,0:0:0:0:
320,192,194700,128,2,194985:0:0:0:0:
448,192,194700,1,0,0:0:0:0:
64,192,195128,1,0,0:0:0:0:
320,192,195176,1,0,0:0:0:0:
192,192,195223,1,0,0:0:0:0:
448,192,195271,128,0,196700:0:0:0:0:
64,192,196842,128,8,196984:0:0:0:0:
192,192,196842,1,0,0:0:0:0:
320,192,196984,1,2,0:0:0:0:
448,192,196984,1,0,0:0:0:0:
192,192,197127,1,2,0:0:0:0:
448,192,197127,1,0,0:0:0:0:
64,192,197270,128,8,197413:0:0:0:0:
192,192,197270,1,0,0:0:0:0:
320,192,197413,1,2,0:0:0:0:
448,192,197413,1,0,0:0:0:0:
192,192,197556,1,2,0:0:0:0:
448,192,197556,1,0,0:0:0:0:
192,192,197699,128,8,197842:0:0:0:0:
320,192,197699,1,0,0:0:0:0:
64,192,197842,1,2,0:0:0:0:
448,192,197842,1,0,0:0:0:0:
64,192,197984,1,2,0:0:0:0:
320,192,197984,1,0,0:0:0:0:
192,192,198127,128,8,198270:0:0:0:0:
320,192,198127,1,0,0:0:0:0:
64,192,198270,1,2,0:0:0:0:
448,192,198270,1,0,0:0:0:0:
64,192,198413,1,2,0:0:0:0:
320,192,198413,1,0,0:0:0:0:
320,192,198556,128,8,198699:0:0:0:0:
448,192,198556,1,0,0:0:0:0:
64,192,198699,1,2,0:0:0:0:
192,192,198699,1,0,0:0:0:0:
192,192,198842,1,2,0:0:0:0:
448,192,198842,1,0,0:0:0:0:
320,192,198984,128,8,199127:0:0:0:0:
448,192,198984,1,0,0:0:0:0:
64,192,199127,1,2,0:0:0:0:
192,192,199127,1,0,0:0:0:0:
192,192,199270,1,2,0:0:0:0:
448,192,199270,1,0,0:0:0:0:
64,192,199413,1,8,0:0:0:0:
448,192,199413,128,0,199556:0:0:0:0:
192,192,199556,1,2,0:0:0:0:
320,192,199556,1,0,0:0:0:0:
64,192,199699,1,2,0:0:0:0:
320,192,199699,1,0,0:0:0:0:
64,192,199842,1,8,0:0:0:0:
448,192,199842,128,0,199984:0:0:0:0:
192,192,199984,1,2,0:0:0:0:
320,192,199984,1,0,0:0:0:0:
64,192,200127,1,2,0:0:0:0:
320,192,200127,1,0,0:0:0:0:
64,192,200270,128,8,200413:0:0:0:0:
192,192,200270,1,0,0:0:0:0:
448,192,200270,1,0,0:0:0:0:
192,192,200413,1,2,0:0:0:0:
320,192,200413,1,0,0:0:0:0:
64,192,200556,1,8,0:0:0:0:
320,192,200556,128,0,200699:0:0:0:0:
448,192,200556,1,0,0:0:0:0:
192,192,200699,1,2,0:0:0:0:
448,192,200699,1,0,0:0:0:0:
64,192,200842,1,8,0:0:0:0:
192,192,200842,128,0,200984:0:0:0:0:
320,192,200842,1,0,0:0:0:0:
64,192,200984,1,2,0:0:0:0:
448,192,200984,1,0,0:0:0:0:
192,192,201127,1,8,0:0:0:0:
320,192,201127,1,0,0:0:0:0:
448,192,201127,128,0,201270:0:0:0:0:
64,192,201270,1,2,0:0:0:0:
320,192,201270,1,0,0:0:0:0:
64,192,201413,1,2,0:0:0:0:
192,192,201413,1,0,0:0:0:0:
192,192,201556,1,2,0:0:0:0:
448,192,201556,1,0,0:0:0:0:
64,192,201699,1,2,0:0:0:0:
448,192,201699,1,0,0:0:0:0:
192,192,201842,1,2,0:0:0:0:
320,192,201842,1,0,0:0:0:0:
64,192,201984,1,2,0:0:0:0:
320,192,201984,1,0,0:0:0:0:
64,192,202127,1,2,0:0:0:0:
192,192,202127,1,0,0:0:0:0:
192,192,202270,1,2,0:0:0:0:
320,192,202270,1,0,0:0:0:0:
320,192,202413,1,2,0:0:0:0:
448,192,202413,128,0,203413:0:0:0:0:
192,192,203699,1,8,0:0:0:0:
320,192,203699,1,2,0:1:0:0:
448,192,203699,1,0,0:0:0:0:
192,192,203842,1,8,0:0:0:0:
320,192,203842,1,2,0:1:0:0:
448,192,203842,1,0,0:0:0:0:
64,192,203984,1,8,0:0:0:0:
192,192,203984,1,2,0:1:0:0:
320,192,203984,1,0,0:0:0:0:
448,192,204270,128,0,204556:0:0:0:0:
192,192,204556,128,0,204842:0:0:0:0:
64,192,204842,1,8,0:0:0:0:
320,192,204842,1,2,0:1:0:0:
448,192,204842,1,0,0:0:0:0:
64,192,204984,1,8,0:0:0:0:
320,192,204984,1,2,0:1:0:0:
448,192,204984,1,0,0:0:0:0:
64,192,205127,1,8,0:0:0:0:
192,192,205127,1,2,0:1:0:0:
448,192,205127,1,0,0:0:0:0:
320,192,205413,128,0,205699:0:0:0:0:
448,192,205699,128,0,205984:0:0:0:0:
64,192,205984,1,2,0:0:0:0:
192,192,205984,128,0,206270:0:0:0:100:push_scratch.wav
320,192,205984,1,0,0:0:0:0:
192,192,206413,1,2,0:0:0:0:
320,192,206413,1,0,0:0:0:0:
448,192,206413,128,0,206556:0:0:0:0:
64,192,206699,128,2,206842:0:0:0:0:
192,192,206699,1,0,0:0:0:0:
448,192,206699,1,0,0:0:0:0:
64,192,206984,1,2,0:0:0:0:
192,192,206984,1,0,0:0:0:0:
320,192,206984,128,0,207270:0:0:0:0:
64,192,207413,128,8,207556:0:0:0:0:
320,192,207413,1,0,0:0:0:0:
448,192,207413,1,0,0:0:0:0:
64,192,207699,1,2,0:0:0:0:
192,192,207699,1,0,0:0:0:0:
448,192,207699,128,0,207842:0:0:0:0:
192,192,207984,128,8,208127:0:0:0:0:
320,192,207984,1,0,0:0:0:0:
448,192,207984,1,0,0:0:0:0:
64,192,208270,1,4,0:0:0:0:
320,192,208270,128,2,208413:0:0:0:0:
448,192,208270,1,0,0:0:0:0:
64,192,208413,128,0,208556:0:0:0:0:
192,192,208556,1,8,0:0:0:0:
320,192,208556,1,0,0:0:0:0:
448,192,208556,128,0,208699:0:0:0:0:
192,192,208699,128,0,208842:0:0:0:0:
64,192,208842,128,2,208984:0:0:0:0:
320,192,208842,1,0,0:0:0:0:
320,192,208984,128,0,209127:0:0:0:0:
64,192,209127,1,8,0:0:0:0:
192,192,209127,128,0,209270:0:0:0:0:
448,192,209127,1,0,0:0:0:0:
448,192,209270,128,0,209413:0:0:0:0:
64,192,209413,1,2,0:0:0:0:
320,192,209413,1,0,0:0:0:0:
320,192,209556,1,0,0:0:0:0:
64,192,209699,1,8,0:0:0:0:
192,192,209699,1,0,0:0:0:0:
448,192,209699,1,0,0:0:0:0:
64,192,209842,1,0,0:0:0:0:
192,192,209984,1,2,0:0:0:0:
448,192,209984,1,0,0:0:0:0:
448,192,210127,1,0,0:0:0:0:
64,192,210270,1,8,0:0:0:0:
192,192,210270,1,0,0:0:0:0:
320,192,210270,1,0,0:0:0:0:
192,192,210413,1,0,0:0:0:0:
64,192,210556,1,2,0:0:0:0:
448,192,210556,1,0,0:0:0:0:
320,192,210699,1,0,0:0:0:0:
64,192,210842,1,8,0:0:0:0:
448,192,210842,1,0,0:0:0:0:
192,192,210913,1,0,0:0:0:0:
320,192,210984,1,0,0:0:0:0:
192,192,211056,1,0,0:0:0:0:
64,192,211127,1,2,0:0:0:0:
448,192,211127,1,0,0:0:0:0:
320,192,211199,1,0,0:0:0:0:
192,192,211270,1,0,0:0:0:0:
64,192,211342,1,0,0:0:0:0:
320,192,211413,1,8,0:0:0:0:
448,192,211413,1,0,0:0:0:0:
192,192,211484,1,0,0:0:0:0:
320,192,211556,1,0,0:0:0:0:
192,192,211627,1,0,0:0:0:0:
64,192,211699,1,2,0:0:0:0:
448,192,211699,1,0,0:0:0:0:
320,192,211770,1,0,0:0:0:0:
192,192,211842,1,0,0:0:0:0:
320,192,211913,1,0,0:0:0:0:
64,192,211984,1,8,0:0:0:0:
448,192,211984,1,0,0:0:0:0:
192,192,212056,1,0,0:0:0:0:
320,192,212127,1,0,0:0:0:0:
448,192,212199,1,0,0:0:0:0:
64,192,212270,1,2,0:0:0:0:
192,192,212270,1,0,0:0:0:0:
320,192,212342,1,0,0:0:0:0:
192,192,212413,1,0,0:0:0:0:
320,192,212484,1,0,0:0:0:0:
64,192,212556,1,8,0:0:0:0:
448,192,212556,1,0,0:0:0:0:
192,192,212627,1,0,0:0:0:0:
320,192,212699,1,0,0:0:0:0:
448,192,212770,1,0,0:0:0:0:
64,192,212842,1,2,0:0:0:0:
192,192,212842,1,0,0:0:0:0:
64,192,212984,1,0,0:0:0:0:
192,192,213127,1,8,0:0:0:0:
320,192,213127,1,0,0:0:0:0:
448,192,213127,1,0,0:0:0:0:
320,192,213270,1,0,0:0:0:0:
64,192,213413,1,2,0:0:0:0:
448,192,213413,1,0,0:0:0:0:
64,192,213556,1,0,0:0:0:0:
320,192,213556,1,0,0:0:0:0:
192,192,213699,1,2,0:0:0:0:
320,192,213699,1,0,0:0:0:0:
448,192,213699,1,0,0:0:0:0:
64,192,213842,128,2,214127:0:0:0:0:
192,192,213842,1,0,0:0:0:0:
448,192,213842,1,0,0:0:0:0:
320,192,214127,1,2,0:0:0:0:
448,192,214127,128,0,214270:0:0:0:0:
64,192,214270,1,2,0:0:0:0:
192,192,214270,1,0,0:0:0:0:
192,192,214413,128,8,214556:0:0:0:0:
320,192,214413,1,0,0:0:0:0:
448,192,214413,1,0,0:0:0:0:
64,192,214699,1,8,0:0:0:0:
320,192,214699,128,0,214842:0:0:0:0:
192,192,214842,128,8,214984:0:0:0:0:
448,192,214842,1,0,0:0:0:0:
64,192,214984,128,8,215127:0:0:0:0:
320,192,214984,1,0,0:0:0:0:
192,192,215127,1,2,0:0:0:0:
320,192,215127,1,0,0:0:0:100:push_scratch.wav
448,192,215127,128,0,215413:0:0:0:0:
64,192,215556,128,2,215699:0:0:0:0:
192,192,215556,1,0,0:0:0:0:
448,192,215556,1,0,0:0:0:0:
64,192,215842,1,2,0:0:0:0:
320,192,215842,128,0,215984:0:0:0:0:
448,192,215842,1,0,0:0:0:0:
192,192,216127,128,2,216413:0:0:0:0:
320,192,216127,1,0,0:0:0:0:
448,192,216127,1,0,0:0:0:0:
64,192,216556,1,8,0:0:0:0:
192,192,216556,1,0,0:0:0:0:
320,192,216556,128,0,216699:0:0:0:0:
64,192,216842,128,2,216984:0:0:0:0:
320,192,216842,1,0,0:0:0:0:
448,192,216842,1,0,0:0:0:0:
64,192,217127,1,8,0:0:0:0:
192,192,217127,1,0,0:0:0:0:
448,192,217127,128,0,217270:0:0:0:0:
64,192,217413,1,2,0:0:0:0:
192,192,217413,128,4,217556:0:0:0:0:
320,192,217413,1,0,0:0:0:0:
320,192,217556,128,0,217699:0:0:0:0:
64,192,217699,128,8,217842:0:0:0:0:
192,192,217699,1,0,0:0:0:0:
448,192,217699,1,0,0:0:0:0:
448,192,217842,128,0,217984:0:0:0:0:
192,192,217984,1,2,0:0:0:0:
320,192,217984,128,0,218127:0:0:0:0:
192,192,218127,128,0,218270:0:0:0:0:
64,192,218270,1,8,0:0:0:0:
320,192,218270,1,0,0:0:0:0:
448,192,218270,128,0,218413:0:0:0:0:
64,192,218413,128,0,218556:0:0:0:0:
192,192,218556,1,2,0:0:0:0:
448,192,218556,1,0,0:0:0:0:
192,192,218699,1,0,0:0:0:0:
64,192,218842,1,8,0:0:0:0:
320,192,218842,1,0,0:0:0:0:
448,192,218842,1,0,0:0:0:0:
448,192,218984,1,0,0:0:0:0:
64,192,219127,1,2,0:0:0:0:
320,192,219127,1,0,0:0:0:0:
64,192,219270,1,0,0:0:0:0:
192,192,219413,1,8,0:0:0:0:
320,192,219413,1,0,0:0:0:0:
448,192,219413,1,0,0:0:0:0:
320,192,219556,1,0,0:0:0:0:
64,192,219699,1,2,0:0:0:0:
448,192,219699,1,4,0:0:0:0:
192,192,219842,1,0,0:0:0:0:
64,192,219984,128,8,220056:0:0:0:0:
448,192,219984,1,0,0:0:0:0:
192,192,220056,128,0,220127:0:0:0:0:
320,192,220127,128,0,220199:0:0:0:0:
192,192,220199,128,0,220270:0:0:0:0:
64,192,220270,1,2,0:0:0:0:
448,192,220270,128,0,220342:0:0:0:0:
320,192,220342,128,0,220413:0:0:0:0:
192,192,220413,128,0,220484:0:0:0:0:
64,192,220484,128,0,220556:0:0:0:0:
320,192,220556,1,8,0:0:0:0:
448,192,220556,128,0,220627:0:0:0:0:
192,192,220627,128,0,220699:0:0:0:0:
320,192,220699,128,0,220770:0:0:0:0:
64,192,220770,128,0,220842:0:0:0:0:
192,192,220842,1,2,0:0:0:0:
448,192,220842,128,0,220913:0:0:0:0:
320,192,220913,128,0,220984:0:0:0:0:
192,192,220984,128,0,221056:0:0:0:0:
320,192,221056,128,0,221127:0:0:0:0:
64,192,221127,128,8,221199:0:0:0:0:
448,192,221127,1,0,0:0:0:0:
192,192,221199,128,0,221270:0:0:0:0:
320,192,221270,128,0,221342:0:0:0:0:
448,192,221342,128,0,221413:0:0:0:0:
64,192,221413,128,2,221484:0:0:0:0:
192,192,221413,1,0,0:0:0:0:
320,192,221484,128,0,221556:0:0:0:0:
192,192,221556,128,0,221627:0:0:0:0:
448,192,221627,128,0,221699:0:0:0:0:
64,192,221699,128,8,221770:0:0:0:0:
320,192,221699,1,0,0:0:0:0:
192,192,221770,128,0,221842:0:0:0:0:
320,192,221842,128,0,221913:0:0:0:0:
192,192,221913,128,0,221984:0:0:0:0:
64,192,221984,128,2,222127:0:0:0:0:
448,192,221984,1,0,0:0:0:0:
320,192,222127,1,0,0:0:0:0:
64,192,222270,1,8,0:0:0:0:
320,192,222270,128,0,222413:0:0:0:0:
448,192,222270,1,0,0:0:0:0:
192,192,222413,1,0,0:0:0:0:
64,192,222556,1,2,0:0:0:0:
192,192,222556,128,0,222699:0:0:0:0:
448,192,222699,1,0,0:0:0:0:
64,192,222842,1,2,0:0:0:0:
192,192,222842,1,0,0:0:0:0:
320,192,222842,1,0,0:0:0:0:
64,192,222984,1,2,0:0:0:0:
320,192,222984,1,0,0:0:0:0:
448,192,222984,128,0,223127:0:0:0:0:
192,192,223270,1,2,0:0:0:0:
320,192,223270,1,0,0:0:0:0:
192,192,223413,1,2,0:0:0:0:
320,192,223413,1,0,0:0:0:0:
64,192,223556,128,8,223842:0:0:0:0:
448,192,223556,1,0,0:0:0:0:
192,192,223842,128,8,223984:0:0:0:0:
320,192,223842,1,0,0:0:0:0:
64,192,223984,1,8,0:0:0:0:
448,192,223984,128,0,224127:0:0:0:0:
320,192,224127,128,0,224270:0:0:0:0:
64,192,224270,1,2,0:0:0:0:
192,192,224270,128,0,224556:0:0:0:100:push_scratch.wav
448,192,224270,1,0,0:0:0:0:
192,192,224699,1,2,0:0:0:0:
320,192,224699,128,0,224842:0:0:0:0:
448,192,224699,1,0,0:0:0:0:
64,192,224984,128,2,225127:0:0:0:0:
192,192,224984,1,0,0:0:0:0:
320,192,224984,1,0,0:0:0:0:
64,192,225270,1,2,0:0:0:0:
192,192,225270,1,0,0:0:0:0:
448,192,225270,128,0,225556:0:0:0:0:
64,192,225699,128,8,225842:0:0:0:0:
320,192,225699,1,0,0:0:0:0:
448,192,225699,1,0,0:0:0:0:
64,192,225984,1,2,0:0:0:0:
192,192,225984,1,0,0:0:0:0:
320,192,225984,128,0,226127:0:0:0:0:
192,192,226270,128,8,226413:0:0:0:0:
320,192,226270,1,0,0:0:0:0:
448,192,226270,1,0,0:0:0:0:
64,192,226556,1,4,0:0:0:0:
320,192,226556,1,2,0:0:0:0:
448,192,226556,128,0,226699:0:0:0:0:
64,192,226699,128,0,226842:0:0:0:0:
192,192,226842,1,8,0:0:0:0:
320,192,226842,128,0,226984:0:0:0:0:
448,192,226842,1,0,0:0:0:0:
192,192,226984,128,0,227127:0:0:0:0:
64,192,227127,128,2,227270:0:0:0:0:
448,192,227127,1,0,0:0:0:0:
448,192,227270,128,0,227413:0:0:0:0:
64,192,227413,1,8,0:0:0:0:
192,192,227413,128,0,227556:0:0:0:0:
320,192,227413,1,0,0:0:0:0:
320,192,227556,128,0,227699:0:0:0:0:
64,192,227699,1,2,0:0:0:0:
448,192,227699,1,0,0:0:0:0:
448,192,227842,1,0,0:0:0:0:
64,192,227984,1,8,0:0:0:0:
192,192,227984,1,0,0:0:0:0:
320,192,227984,1,0,0:0:0:0:
64,192,228127,1,0,0:0:0:0:
192,192,228270,1,2,0:0:0:0:
320,192,228270,1,0,0:0:0:0:
320,192,228413,1,0,0:0:0:0:
64,192,228556,1,8,0:0:0:0:
192,192,228556,1,0,0:0:0:0:
448,192,228556,1,0,0:0:0:0:
192,192,228699,1,0,0:0:0:0:
320,192,228842,1,2,0:0:0:0:
448,192,228842,1,0,0:0:0:0:
64,192,228984,1,0,0:0:0:0:
320,192,229127,128,8,229199:0:0:0:0:
448,192,229127,128,0,229199:0:0:0:0:
64,192,229199,128,0,229270:0:0:0:0:
192,192,229270,128,0,229342:0:0:0:0:
320,192,229342,128,0,229413:0:0:0:0:
64,192,229413,128,2,229484:0:0:0:0:
448,192,229413,128,0,229484:0:0:0:0:
192,192,229484,128,0,229556:0:0:0:0:
320,192,229556,128,0,229627:0:0:0:0:
448,192,229627,128,0,229699:0:0:0:0:
64,192,229699,128,8,229770:0:0:0:0:
192,192,229699,128,0,229770:0:0:0:0:
320,192,229770,128,0,229842:0:0:0:0:
192,192,229842,128,0,229913:0:0:0:0:
64,192,229913,128,0,229984:0:0:0:0:
320,192,229984,128,2,230056:0:0:0:0:
448,192,229984,128,0,230056:0:0:0:0:
192,192,230056,128,0,230127:0:0:0:0:
64,192,230127,128,0,230199:0:0:0:0:
448,192,230199,128,0,230270:0:0:0:0:
192,192,230270,128,8,230342:0:0:0:0:
320,192,230270,128,0,230342:0:0:0:0:
64,192,230342,128,0,230413:0:0:0:0:
448,192,230413,128,0,230484:0:0:0:0:
320,192,230484,128,0,230556:0:0:0:0:
64,192,230556,128,2,230627:0:0:0:0:
192,192,230556,128,0,230627:0:0:0:0:
448,192,230627,128,0,230699:0:0:0:0:
64,192,230699,128,0,230770:0:0:0:0:
192,192,230770,128,0,230842:0:0:0:0:
320,192,230842,128,8,230913:0:0:0:0:
448,192,230842,128,0,230913:0:0:0:0:
64,192,230913,128,0,230984:0:0:0:0:
192,192,230984,128,0,231056:0:0:0:0:
320,192,231056,128,0,231127:0:0:0:0:
64,192,231127,1,2,0:0:0:0:
448,192,231127,1,0,0:0:0:0:
448,192,231270,1,0,0:0:0:0:
64,192,231413,1,8,0:0:0:0:
192,192,231413,1,0,0:0:0:0:
320,192,231413,1,0,0:0:0:0:
64,192,231556,1,0,0:0:0:0:
192,192,231699,1,2,0:0:0:0:
448,192,231699,1,0,0:0:0:0:
64,192,231842,1,0,0:0:0:0:
448,192,231842,1,0,0:0:0:0:
64,192,231984,1,2,0:0:0:0:
192,192,231984,1,0,0:0:0:0:
320,192,231984,1,0,0:0:0:0:
192,192,232127,1,2,0:0:0:0:
320,192,232127,1,0,0:0:0:0:
448,192,232127,128,0,232270:0:0:0:0:
64,192,232413,128,2,232556:0:0:0:0:
320,192,232413,1,0,0:0:0:0:
192,192,232556,128,2,232699:0:0:0:0:
448,192,232556,1,0,0:0:0:0:
64,192,232699,1,8,0:0:0:0:
320,192,232699,128,0,232842:0:0:0:0:
448,192,232699,1,0,0:0:0:0:
192,192,232984,1,8,0:0:0:0:
448,192,232984,128,0,233127:0:0:0:0:
64,192,233127,128,8,233270:0:0:0:0:
320,192,233127,1,0,0:0:0:0:
192,192,233270,128,8,233413:0:0:0:0:
448,192,233270,1,0,0:0:0:0:
64,192,233413,1,2,0:0:0:0:
320,192,233413,128,0,233699:0:0:0:100:push_scratch.wav
448,192,233413,1,0,0:0:0:0:
64,192,233842,1,2,0:0:0:0:
192,192,233842,128,0,233984:0:0:0:0:
320,192,233842,1,0,0:0:0:0:
192,192,234127,1,2,0:0:0:0:
320,192,234127,1,0,0:0:0:0:
448,192,234127,128,0,234270:0:0:0:0:
64,192,234413,128,2,234699:0:0:0:0:
320,192,234413,1,0,0:0:0:0:
448,192,234413,1,0,0:0:0:0:
64,192,234842,1,8,0:0:0:0:
192,192,234842,1,0,0:0:0:0:
448,192,234842,128,0,234984:0:0:0:0:
192,192,235127,128,2,235270:0:0:0:0:
320,192,235127,1,0,0:0:0:0:
448,192,235127,1,0,0:0:0:0:
64,192,235413,1,8,0:0:0:0:
192,192,235413,1,0,0:0:0:0:
320,192,235413,128,0,235556:0:0:0:0:
64,192,235699,128,2,235842:0:0:0:0:
192,192,235699,1,4,0:0:0:0:
448,192,235699,1,0,0:0:0:0:
448,192,235842,128,0,235984:0:0:0:0:
64,192,235984,1,8,0:0:0:0:
192,192,235984,128,0,236127:0:0:0:0:
320,192,235984,1,0,0:0:0:0:
320,192,236127,128,0,236270:0:0:0:0:
64,192,236270,1,2,0:0:0:0:
448,192,236270,128,0,236413:0:0:0:0:
64,192,236413,128,0,236556:0:0:0:0:
192,192,236556,1,8,0:0:0:0:
320,192,236556,128,0,236699:0:0:0:0:
448,192,236556,1,0,0:0:0:0:
192,192,236699,128,0,236842:0:0:0:0:
64,192,236842,1,2,0:0:0:0:
448,192,236842,1,0,0:0:0:0:
64,192,236984,1,0,0:0:0:0:
192,192,237127,1,8,0:0:0:0:
320,192,237127,1,0,0:0:0:0:
448,192,237127,1,0,0:0:0:0:
448,192,237270,1,0,0:0:0:0:
192,192,237413,1,2,0:0:0:0:
320,192,237413,1,0,0:0:0:0:
192,192,237556,1,0,0:0:0:0:
64,192,237699,1,8,0:0:0:0:
320,192,237699,1,0,0:0:0:0:
448,192,237699,1,0,0:0:0:0:
320,192,237842,1,0,0:0:0:0:
192,192,237984,1,2,0:0:0:0:
448,192,237984,1,4,0:0:0:0:
64,192,238127,1,0,0:0:0:0:
192,192,238270,128,8,238342:0:0:0:0:
448,192,238270,128,0,238413:0:0:0:0:
64,192,238342,128,0,238413:0:0:0:0:
320,192,238413,128,0,238484:0:0:0:0:
192,192,238484,128,0,238556:0:0:0:0:
64,192,238556,128,2,238699:0:0:0:0:
320,192,238556,128,0,238627:0:0:0:0:
448,192,238627,128,0,238699:0:0:0:0:
192,192,238699,128,0,238770:0:0:0:0:
320,192,238770,128,0,238842:0:0:0:0:
64,192,238842,128,8,238913:0:0:0:0:
448,192,238842,128,0,238984:0:0:0:0:
192,192,238913,128,0,238984:0:0:0:0:
320,192,238984,128,0,239056:0:0:0:0:
192,192,239056,128,0,239127:0:0:0:0:
64,192,239127,128,2,239270:0:0:0:0:
320,192,239127,128,0,239199:0:0:0:0:
448,192,239199,128,0,239270:0:0:0:0:
192,192,239270,128,0,239342:0:0:0:0:
320,192,239342,128,0,239413:0:0:0:0:
64,192,239413,128,8,239484:0:0:0:0:
448,192,239413,128,0,239556:0:0:0:0:
192,192,239484,128,0,239556:0:0:0:0:
320,192,239556,128,0,239627:0:0:0:0:
192,192,239627,128,0,239699:0:0:0:0:
64,192,239699,128,2,239842:0:0:0:0:
448,192,239699,128,0,239770:0:0:0:0:
320,192,239770,128,0,239842:0:0:0:0:
192,192,239842,128,0,239913:0:0:0:0:
320,192,239913,128,0,239984:0:0:0:0:
192,192,239984,128,8,240056:0:0:0:0:
448,192,239984,128,0,240127:0:0:0:0:
64,192,240056,128,0,240127:0:0:0:0:
320,192,240127,128,0,240199:0:0:0:0:
192,192,240199,128,0,240270:0:0:0:0:
448,192,240270,1,0,0:0:0:0:
64,192,240270,128,2,240413:0:0:0:0:
320,192,240413,1,0,0:0:0:0:
64,192,240556,1,8,0:0:0:0:
320,192,240556,128,0,240699:0:0:0:0:
448,192,240556,1,0,0:0:0:0:
192,192,240699,1,0,0:0:0:0:
192,192,240842,128,2,240984:0:0:0:0:
64,192,240842,1,0,0:0:0:0:
448,192,240984,1,0,0:0:0:0:
64,192,241127,1,2,0:0:0:0:
192,192,241127,1,0,0:0:0:0:
320,192,241127,1,0,0:0:0:0:
64,192,241270,1,2,0:0:0:0:
320,192,241270,1,0,0:0:0:0:
448,192,241270,128,0,241413:0:0:0:0:
192,192,241556,1,2,0:0:0:0:
320,192,241556,1,0,0:0:0:0:
192,192,241699,1,2,0:0:0:0:
320,192,241699,1,0,0:0:0:0:
64,192,241842,128,8,242127:0:0:0:0:
448,192,241842,1,0,0:0:0:0:
192,192,242127,1,8,0:0:0:0:
320,192,242127,128,0,242270:0:0:0:0:
64,192,242270,1,8,0:0:0:0:
448,192,242270,128,0,242413:0:0:0:0:
192,192,242413,128,0,242556:0:0:0:0:
64,192,242556,1,2,0:0:0:0:
320,192,242556,1,0,0:0:0:0:
448,192,242556,1,0,0:0:0:0:
64,192,242984,1,2,0:0:0:0:
448,192,242984,1,0,0:0:0:0:
192,192,243127,1,2,0:0:0:0:
320,192,243127,1,0,0:0:0:0:
64,192,243413,1,8,0:0:0:0:
192,192,243413,1,0,0:0:0:0:
320,192,243413,1,0,0:0:0:0:
64,192,243699,1,2,0:0:0:0:
448,192,243699,1,0,0:0:0:0:
64,192,244127,1,2,0:0:0:0:
320,192,244127,1,0,0:0:0:0:
192,192,244270,1,2,0:0:0:0:
448,192,244270,1,0,0:0:0:0:
192,192,244556,1,8,0:0:0:0:
320,192,244556,1,0,0:0:0:0:
448,192,244556,1,0,0:0:0:0:
64,192,244842,1,2,0:0:0:0:
320,192,244842,1,0,0:0:0:0:
64,192,245270,1,2,0:0:0:0:
192,192,245270,1,0,0:0:0:0:
320,192,245413,1,2,0:0:0:0:
448,192,245413,1,0,0:0:0:0:
64,192,245699,1,8,0:0:0:0:
192,192,245699,1,0,0:0:0:0:
320,192,245699,1,0,0:0:0:0:
64,192,245842,1,2,0:0:0:0:
448,192,245842,1,0,0:0:0:0:
192,192,245984,1,2,0:0:0:0:
320,192,245984,1,0,0:0:0:0:
64,192,246127,1,2,0:0:0:0:
192,192,246127,1,0,0:0:0:0:
448,192,246270,1,0,0:0:0:0:
192,192,246413,1,2,0:0:0:0:
320,192,246413,1,0,0:0:0:0:
64,192,246556,1,8,0:0:0:0:
192,192,246556,1,0,0:0:0:0:
448,192,246556,1,0,0:0:0:0:
320,192,246699,1,0,0:0:0:0:
64,192,246842,1,2,0:0:0:0:
320,192,246842,1,0,0:0:0:0:
192,192,246984,1,0,0:0:0:0:
192,192,247127,1,2,0:0:0:0:
448,192,247127,1,0,0:0:0:0:
64,192,247413,1,8,0:0:0:0:
320,192,247413,1,0,0:0:0:0:
448,192,247413,1,0,0:0:0:0:
64,192,247842,1,2,0:0:0:0:
448,192,247842,1,0,0:0:0:0:
64,192,247984,1,8,0:0:0:0:
192,192,247984,1,0,0:0:0:0:
320,192,247984,1,0,0:0:0:0:
192,192,248270,1,2,0:0:0:0:
448,192,248270,1,0,0:0:0:0:
64,192,248556,1,8,0:0:0:0:
320,192,248556,1,0,0:0:0:0:
448,192,248556,1,0,0:0:0:0:
64,192,248984,1,2,0:0:0:0:
448,192,248984,1,0,0:0:0:0:
64,192,249127,1,8,0:0:0:0:
192,192,249127,1,0,0:0:0:0:
320,192,249127,1,0,0:0:0:0:
320,192,249413,1,2,0:0:0:0:
448,192,249413,1,0,0:0:0:0:
192,192,249556,1,2,0:0:0:0:
320,192,249556,1,0,0:0:0:0:
64,192,249699,1,8,0:0:0:0:
192,192,249699,1,0,0:0:0:0:
448,192,249699,1,0,0:0:0:0:
64,192,249842,1,0,0:0:0:0:
320,192,249984,1,2,0:0:0:0:
448,192,249984,1,0,0:0:0:0:
192,192,250127,1,2,0:0:0:0:
320,192,250127,1,0,0:0:0:0:
64,192,250270,1,8,0:0:0:0:
192,192,250270,1,0,0:0:0:0:
448,192,250270,1,0,0:0:0:0:
64,192,250413,1,2,0:0:0:0:
320,192,250413,1,0,0:0:0:0:
192,192,250556,1,8,0:0:0:0:
320,192,250556,1,0,0:0:0:0:
448,192,250556,1,0,0:0:0:0:
64,192,250699,1,2,0:0:0:0:
448,192,250699,1,0,0:0:0:0:
64,192,250842,1,8,0:0:0:0:
192,192,250842,1,0,0:0:0:0:
320,192,250842,1,0,0:0:0:0:
192,192,250984,1,2,0:0:0:0:
448,192,250984,1,0,0:0:0:0:
64,192,251127,1,8,0:0:0:0:
320,192,251127,1,0,0:0:0:0:
448,192,251127,1,0,0:0:0:0:
192,192,251270,1,2,0:0:0:0:
320,192,251270,1,0,0:0:0:0:
64,192,251413,1,8,0:0:0:0:
192,192,251413,1,0,0:0:0:0:
448,192,251413,1,0,0:0:0:0:
64,192,251556,1,2,0:0:0:0:
320,192,251556,1,0,0:0:0:0:
192,192,251699,1,4,0:0:0:0:
320,192,251699,1,2,0:0:0:0:
448,192,251699,1,0,0:0:0:0:
192,192,252127,1,2,0:0:0:0:
448,192,252127,1,0,0:0:0:0:
64,192,252270,1,2,0:0:0:0:
320,192,252270,1,0,0:0:0:0:
64,192,252556,1,2,0:0:0:0:
448,192,252556,1,0,0:0:0:0:
64,192,252842,1,2,0:0:0:0:
448,192,252842,1,0,0:0:0:0:
64,192,253270,1,2,0:0:0:0:
320,192,253270,1,0,0:0:0:0:
192,192,253413,1,2,0:0:0:0:
448,192,253413,1,0,0:0:0:0:
64,192,253984,1,2,0:0:0:0:
448,192,253984,1,0,0:0:0:0:
64,192,254413,1,2,0:0:0:0:
320,192,254413,1,0,0:0:0:0:
192,192,254556,1,2,0:0:0:0:
448,192,254556,1,0,0:0:0:0:
192,192,254842,1,0,0:0:0:0:
64,192,254984,1,2,0:0:0:0:
320,192,254984,1,0,0:0:0:0:
64,192,255127,1,2,0:0:0:0:
448,192,255127,1,0,0:0:0:0:
192,192,255270,1,2,0:0:0:0:
448,192,255270,1,0,0:0:0:0:
320,192,255413,1,0,0:0:0:0:
64,192,255556,1,2,0:0:0:0:
192,192,255556,1,0,0:0:0:0:
448,192,255699,1,0,0:0:0:0:
64,192,255984,1,2,0:0:0:0:
320,192,255984,1,0,0:0:0:0:
64,192,256270,1,2,0:0:0:0:
192,192,256270,1,4,0:0:0:0:
320,192,256270,1,0,0:0:0:0:
192,192,256413,1,2,0:0:0:0:
448,192,256413,1,0,0:0:0:0:
64,192,256556,1,2,0:0:0:0:
320,192,256556,1,0,0:0:0:0:
64,192,256699,1,2,0:0:0:0:
192,192,256699,1,0,0:0:0:0:
320,192,256842,1,2,0:0:0:0:
448,192,256842,1,0,0:0:0:0:
64,192,256984,1,2,0:0:0:0:
448,192,256984,1,0,0:0:0:0:
192,192,257127,1,2,0:0:0:0:
320,192,257127,1,0,0:0:0:0:
320,192,257270,1,2,0:0:0:0:
448,192,257270,1,0,0:0:0:0:
64,192,257413,1,2,0:0:0:0:
192,192,257413,1,4,0:0:0:0:
320,192,257484,1,2,0:0:0:0:
448,192,257484,1,0,0:0:0:0:
64,192,257556,1,2,0:0:0:0:
192,192,257556,1,0,0:0:0:0:
320,192,257627,1,2,0:0:0:0:
448,192,257627,1,0,0:0:0:0:
64,192,257699,1,2,0:0:0:0:
192,192,257699,1,0,0:0:0:0:
320,192,257770,1,2,0:0:0:0:
448,192,257770,1,0,0:0:0:0:
64,192,257842,1,2,0:0:0:0:
192,192,257842,1,0,0:0:0:0:
320,192,257913,1,2,0:0:0:0:
448,192,257913,1,0,0:0:0:0:
64,192,257984,1,2,0:0:0:0:
192,192,258020,1,2,0:0:0:0:
448,192,258056,1,2,0:0:0:0:
320,192,258092,1,2,0:0:0:0:
64,192,258127,1,2,0:0:0:0:
192,192,258163,1,2,0:0:0:0:
448,192,258199,1,2,0:0:0:0:
320,192,258234,1,2,0:0:0:0:
64,192,258270,1,2,0:0:0:0:
192,192,258306,1,2,0:0:0:0:
448,192,258342,1,2,0:0:0:0:
320,192,258377,1,2,0:0:0:0:
64,192,258413,1,2,0:0:0:0:
192,192,258449,1,2,0:0:0:0:
448,192,258484,1,2,0:0:0:0:
320,192,258520,1,2,0:0:0:0:
64,192,258556,1,2,0:0:0:0:
192,192,258556,1,0,0:0:0:0:
64,192,258699,1,2,0:0:0:0:
448,192,258699,1,0,0:0:0:0:
320,192,258842,1,2,0:0:0:0:
448,192,258842,1,0,0:0:0:0:
64,192,258984,1,2,0:0:0:0:
192,192,258984,1,0,0:0:0:0:
64,192,259127,128,2,259413:0:0:0:0:
448,192,259127,1,0,0:0:0:0:
320,192,259413,1,2,0:0:0:0:
448,192,259413,1,0,0:0:0:0:
192,192,259556,1,2,0:0:0:0:
320,192,259556,128,0,259842:0:0:0:0:
64,192,259842,1,2,0:0:0:0:
192,192,259842,1,0,0:0:0:0:
64,192,259984,1,2,0:0:0:0:
320,192,259984,1,0,0:0:0:0:
192,192,260127,1,2,0:0:0:0:
448,192,260127,1,0,0:0:0:0:
64,192,260270,1,2,0:0:0:0:
192,192,260270,1,0,0:0:0:0:
320,192,260413,1,2,0:0:0:0:
448,192,260413,1,0,0:0:0:0:
192,192,260556,1,2,0:0:0:0:
320,192,260556,1,0,0:0:0:0:
192,192,260699,1,2,0:0:0:0:
64,192,260699,128,0,260984:0:0:0:0:
64,192,261127,1,2,0:0:0:0:
448,192,261127,128,0,261984:0:0:0:0:
320,192,261127,1,0,0:0:0:0:
64,192,261984,1,8,0:1:0:0:
192,192,261984,1,0,0:0:0:0:
320,192,262056,1,8,0:1:0:0:
448,192,262056,1,0,0:0:0:0:
64,192,262127,1,8,0:1:0:0:
192,192,262127,1,0,0:0:0:0:
320,192,262199,1,8,0:1:0:0:
448,192,262199,1,0,0:0:0:0:
64,192,262270,1,8,0:1:0:0:
192,192,262270,1,0,0:0:0:0:
320,192,262342,1,8,0:1:0:0:
448,192,262342,1,0,0:0:0:0:
64,192,262413,1,8,0:1:0:0:
192,192,262413,1,0,0:0:0:0:
320,192,262484,1,8,0:1:0:0:
448,192,262484,1,0,0:0:0:0:
64,192,262556,1,8,0:1:0:0:
192,192,262556,1,0,0:0:0:0:
320,192,262627,1,8,0:1:0:0:
448,192,262627,1,0,0:0:0:0:
64,192,262699,1,8,0:1:0:0:
192,192,262699,1,0,0:0:0:0:
320,192,262770,1,8,0:1:0:0:
64,192,262842,1,0,0:0:0:80:ClapSlash.wav
192,192,262842,1,0,0:0:0:0:
448,192,262842,1,0,0:0:0:0:
64,192,263127,1,2,0:0:0:0:
320,192,263127,1,0,0:0:0:100:push_scratch.wav
448,192,263127,1,0,0:0:0:0:
192,192,263199,1,0,0:0:0:0:
448,192,263270,1,0,0:0:0:0:
320,192,263342,1,0,0:0:0:0:
64,192,263413,1,2,0:0:0:0:
192,192,263413,1,0,0:0:0:0:
448,192,263413,1,0,0:0:0:0:
64,192,263556,128,0,263699:0:0:0:0:
192,192,263699,1,2,0:0:0:0:
320,192,263699,1,0,0:0:0:0:
320,192,263842,1,0,0:0:0:0:
64,192,263984,1,2,0:0:0:0:
192,192,263984,1,0,0:0:0:0:
448,192,263984,1,0,0:0:0:0:
64,192,264127,128,0,264270:0:0:0:0:
320,192,264270,1,2,0:0:0:0:
448,192,264270,1,0,0:0:0:0:
448,192,264413,1,0,0:0:0:0:
64,192,264556,1,2,0:0:0:0:
192,192,264556,1,0,0:0:0:0:
320,192,264556,1,0,0:0:0:0:
64,192,264699,128,0,264842:0:0:0:0:
192,192,264842,1,2,0:0:0:0:
320,192,264842,1,0,0:0:0:0:
320,192,264984,1,0,0:0:0:0:
64,192,265127,1,2,0:0:0:0:
192,192,265127,1,0,0:0:0:0:
448,192,265127,1,0,0:0:0:0:
64,192,265270,128,0,265413:0:0:0:0:
192,192,265413,1,2,0:0:0:0:
448,192,265413,1,0,0:0:0:0:
64,192,265484,1,0,0:0:0:0:
320,192,265556,1,0,0:0:0:0:
192,192,265627,1,0,0:0:0:0:
64,192,265699,1,2,0:0:0:0:
320,192,265699,1,0,0:0:0:0:
448,192,265699,1,0,0:0:0:0:
64,192,265842,128,0,265984:0:0:0:0:
192,192,265984,1,2,0:0:0:0:
320,192,265984,1,0,0:0:0:0:
320,192,266127,1,0,0:0:0:0:
64,192,266270,1,2,0:0:0:0:
192,192,266270,1,0,0:0:0:0:
448,192,266270,1,0,0:0:0:0:
64,192,266413,128,0,266556:0:0:0:0:
320,192,266556,1,2,0:0:0:0:
448,192,266556,1,0,0:0:0:0:
192,192,266699,1,0,0:0:0:0:
64,192,266842,128,2,266984:0:0:0:0:
320,192,266842,1,0,0:0:0:0:
448,192,266842,1,0,0:0:0:0:
320,192,266984,128,0,267127:0:0:0:0:
64,192,267127,1,2,0:0:0:0:
192,192,267127,128,0,267413:0:0:0:0:
448,192,267270,1,0,0:0:0:0:
64,192,267413,1,2,0:0:0:0:
320,192,267413,1,0,0:0:0:0:
448,192,267413,128,0,267556:0:0:0:0:
64,192,267556,128,0,267699:0:0:0:0:
192,192,267699,1,2,0:0:0:0:
448,192,267699,1,0,0:0:0:0:
320,192,267770,1,0,0:0:0:0:
64,192,267842,1,0,0:0:0:0:
192,192,267913,1,0,0:0:0:0:
64,192,267984,1,2,0:0:0:0:
320,192,267984,1,0,0:0:0:0:
448,192,267984,1,0,0:0:0:0:
448,192,268127,128,0,268270:0:0:0:0:
64,192,268270,1,2,0:0:0:0:
320,192,268270,1,0,0:0:0:0:
64,192,268413,1,0,0:0:0:0:
192,192,268556,1,2,0:0:0:0:
320,192,268556,1,0,0:0:0:0:
448,192,268556,1,0,0:0:0:0:
448,192,268699,128,0,268842:0:0:0:0:
64,192,268842,1,2,0:0:0:0:
192,192,268842,1,0,0:0:0:0:
192,192,268984,1,0,0:0:0:0:
64,192,269127,1,2,0:0:0:0:
320,192,269127,1,0,0:0:0:0:
448,192,269127,1,0,0:0:0:0:
448,192,269270,128,0,269413:0:0:0:0:
64,192,269413,1,2,0:0:0:0:
320,192,269413,1,0,0:0:0:0:
64,192,269556,1,0,0:0:0:0:
192,192,269699,1,2,0:0:0:0:
320,192,269699,1,0,0:0:0:0:
448,192,269699,1,0,0:0:0:0:
448,192,269842,128,0,269984:0:0:0:0:
192,192,269984,1,2,0:0:0:0:
320,192,269984,1,0,0:0:0:0:
448,192,270056,1,0,0:0:0:0:
64,192,270127,1,0,0:0:0:0:
320,192,270199,1,0,0:0:0:0:
64,192,270270,1,2,0:0:0:0:
192,192,270270,1,0,0:0:0:0:
448,192,270270,1,0,0:0:0:0:
448,192,270413,128,0,270556:0:0:0:0:
64,192,270556,1,2,0:0:0:0:
320,192,270556,1,0,0:0:0:0:
64,192,270699,1,0,0:0:0:0:
192,192,270842,1,2,0:0:0:0:
320,192,270842,1,0,0:0:0:0:
448,192,270842,1,0,0:0:0:0:
448,192,270984,128,0,271127:0:0:0:0:
192,192,271127,1,2,0:0:0:0:
320,192,271127,128,0,271270:0:0:0:0:
64,192,271270,1,0,0:0:0:0:
64,192,271413,128,2,271556:0:0:0:0:
192,192,271413,1,0,0:0:0:0:
320,192,271413,1,0,0:0:0:0:
448,192,271556,1,0,0:0:0:0:
192,192,271699,128,2,271984:0:0:0:0:
448,192,271699,1,0,0:0:0:0:
320,192,271842,1,0,0:0:0:0:
64,192,271984,1,0,0:0:0:80:ClapSlash.wav
320,192,271984,1,0,0:0:0:0:
448,192,271984,1,0,0:0:0:0:
64,192,272127,1,0,0:0:0:0:
192,192,272270,1,2,0:0:0:0:
448,192,272270,1,0,0:0:0:0:
320,192,272413,1,0,0:0:0:0:
320,192,272556,128,0,272699:0:0:0:0:
64,192,272699,1,2,0:0:0:0:
448,192,272699,1,0,0:0:0:0:
192,192,272842,1,0,0:0:0:0:
192,192,272984,128,0,273127:0:0:0:0:
320,192,273127,1,2,0:0:0:0:
448,192,273127,1,0,0:0:0:0:
64,192,273270,1,0,0:0:0:0:
64,192,273413,128,0,273556:0:0:0:0:
320,192,273556,1,2,0:0:0:0:
448,192,273556,1,0,0:0:0:0:
192,192,273699,1,0,0:0:0:0:
192,192,273842,128,0,273984:0:0:0:0:
64,192,273984,1,2,0:0:0:0:
448,192,273984,1,0,0:0:0:0:
320,192,274127,1,0,0:0:0:0:
320,192,274270,128,0,274413:0:0:0:0:
64,192,274413,128,2,275127:0:0:0:0:
448,192,274413,128,0,275413:0:0:0:0:
192,192,275699,128,0,275842:0:0:0:0:
320,192,275699,128,0,275842:0:0:0:0:
320,192,276556,128,0,276699:0:0:0:0:
448,192,276556,128,0,276699:0:0:0:0:
192,192,277984,1,8,0:0:0:0:
320,192,277984,1,2,0:1:0:0:
448,192,277984,1,0,0:0:0:0:
64,192,278127,1,8,0:0:0:0:
320,192,278127,1,2,0:1:0:0:
448,192,278127,1,0,0:0:0:0:
64,192,278413,1,8,0:0:0:0:
192,192,278413,1,2,0:1:0:0:
448,192,278413,1,0,0:0:0:0:
64,192,278699,1,8,0:0:0:0:
192,192,278699,1,2,0:1:0:0:
320,192,278699,1,0,0:0:0:0:
64,192,278984,128,8,279627:0:0:0:0:
448,192,278984,128,2,279627:0:1:0:0:
320,192,278984,1,0,0:0:0:0:
192,192,278984,1,0,0:0:0:0:
