osu file format v14

[General]
AudioFilename: audio.mp3
AudioLeadIn: 0
PreviewTime: 205413
Countdown: 0
SampleSet: Soft
StackLeniency: 0.7
Mode: 3
LetterboxInBreaks: 0
SpecialStyle: 0
WidescreenStoryboard: 0

[Editor]
DistanceSpacing: 0.8
BeatDivisor: 9
GridSize: 4
TimelineZoom: 2.2

[Metadata]
Title:Extreme Ongaku School feat. Nanahira
TitleUnicode:えくすとりーむ↑↑おんがくスクール feat. ​ななひら
Artist:Massive New Krew & RoughSketch
ArtistUnicode:Massive New Krew & RoughSketch
Creator:[GB]V1do
Version:HARD STYLE PUNCH!!
Source:
Tags:marathon featured artist fa hybrid japanese electronic speedcore denpa song 電波ソング splash!! MNFK-014 Massive CircleZ c88 comiket88 Comic Market 88 コミックマーケット88 コミケ88 Confetti-Box Confetto CFCD-0014 c93 comiket93 Comic Market 93 コミックマーケット93 コミケ93 Uno Shouhei 宇野将平 JAVELIN 本間絢人 Honma Ayato 橘亮佑 Ryousuke Tachibana mg mpg mappers' guild CFV4K Cute Female Vocal 4K Tiebreaker TB Semifinals SF
BeatmapID:4424787
BeatmapSetID:2108331

[Difficulty]
HPDrainRate:8
CircleSize:4
OverallDifficulty:7.2
ApproachRate:5
SliderMultiplier:1.4
SliderTickRate:1

[Events]
//Background and Video events
0,0,"bg.jpg",0,0
//Break Periods
//Storyboard Layer 0 (Background)
//Storyboard Layer 1 (Fail)
//Storyboard Layer 2 (Pass)
//Storyboard Layer 3 (Foreground)
//Storyboard Layer 4 (Overlay)
//Storyboard Sound Samples

[TimingPoints]
275,285.714285714286,4,2,1,50,1,0
275,-100,4,2,1,50,0,0
64275,428.571428571429,4,2,1,50,1,0
64275,-66.6666666666667,4,2,1,50,0,0
67703,285.714285714286,4,2,1,50,1,0
67703,-100,4,2,1,50,0,0
71131,-100,4,2,1,50,0,1
87131,-100,4,2,1,50,0,0
163703,555.555555555556,4,2,1,50,1,0
163703,-51.5463917525773,4,2,1,50,0,0
166848,480.961923847695,4,2,1,50,1,0
166848,-59.41770647653,4,2,1,50,0,0
170694,240,4,2,1,50,1,0
170694,-119.047619047619,4,2,1,50,0,0
171654,-119.047619047619,4,2,1,50,0,1
194700,285.714285714286,4,2,1,50,1,0
194700,-100,4,2,1,50,0,0
196842,428.571428571429,4,2,1,50,1,0
196842,-66.6666666666667,4,2,1,50,0,0
200270,285.714285714286,4,2,1,50,1,0
200270,-100,4,2,1,50,0,0
208270,-100,4,2,1,50,0,1
242555,-100,4,2,1,50,0,0

[HitObjects]
448,192,275,128,0,513:0:0:0:0:
320,192,322,128,0,560:0:0:0:0:
192,192,370,128,0,608:0:0:0:0:
64,192,417,128,0,655:0:0:0:0:
448,192,703,1,0,0:0:0:0:
64,192,751,1,0,0:0:0:0:
448,192,798,1,0,0:0:0:0:
64,192,846,128,0,1227:0:0:0:0:
192,192,894,128,0,1275:0:0:0:0:
320,192,941,128,0,1322:0:0:0:0:
448,192,989,128,0,1417:0:0:0:0:
192,192,1417,1,0,0:0:0:0:
320,192,1417,1,0,0:0:0:0:
64,192,1417,1,0,0:0:0:0:
320,192,1560,1,0,0:0:0:0:
192,192,1632,1,0,0:0:0:0:
64,192,1703,128,0,2275:0:0:0:0:
192,192,1846,128,0,2275:0:0:0:0:
320,192,1989,128,0,2275:0:0:0:0:
448,192,2132,128,0,2275:0:0:0:0:
448,192,2417,128,0,2703:0:0:0:0:
64,192,2417,1,0,0:0:0:0:
64,192,2703,1,0,0:0:0:0:
64,192,2846,128,0,2989:0:0:0:0:
448,192,2846,1,0,0:0:0:0:
448,192,2989,1,0,0:0:0:0:
448,192,3132,128,0,3275:0:0:0:0:
64,192,3132,1,0,0:0:0:0:
64,192,3275,1,0,0:0:0:0:
448,192,3417,1,0,0:0:0:0:
192,192,3417,1,0,0:0:0:0:
64,192,3417,128,0,3560:0:0:0:0:
448,192,3560,1,0,0:0:0:0:
448,192,3703,1,0,0:0:0:0:
320,192,3703,1,0,0:0:0:0:
192,192,3703,1,0,0:0:0:0:
64,192,3775,1,0,0:0:0:0:
192,192,3846,1,0,0:0:0:0:
320,192,3917,1,0,0:0:0:0:
448,192,3989,128,0,4560:0:0:0:0:
320,192,4132,128,0,4560:0:0:0:0:
192,192,4275,128,0,4560:0:0:0:0:
64,192,4417,128,0,4560:0:0:0:0:
64,192,4703,128,0,4989:0:0:0:0:
448,192,4703,1,0,0:0:0:0:
448,192,4989,128,0,5132:0:0:0:0:
320,192,4989,1,0,0:0:0:0:
320,192,5132,128,0,5275:0:0:0:0:
192,192,5132,1,0,0:0:0:0:
64,192,5275,1,0,0:0:0:0:
192,192,5275,128,0,5417:0:0:0:0:
64,192,5417,128,0,5560:0:0:0:0:
448,192,5417,1,0,0:0:0:0:
192,192,5560,128,0,5703:0:0:0:0:
320,192,5560,1,0,0:0:0:0:
64,192,5703,1,0,0:0:0:0:
320,192,5703,128,0,5846:0:0:0:0:
448,192,5703,1,0,0:0:0:0:
448,192,5846,128,0,5989:0:0:0:0:
192,192,5846,1,0,0:0:0:0:
64,192,5989,1,0,0:0:0:0:
192,192,5989,1,0,0:0:0:0:
320,192,5989,1,0,0:0:0:0:
448,192,6060,1,0,0:0:0:0:
320,192,6132,1,0,0:0:0:0:
192,192,6203,1,0,0:0:0:0:
64,192,6275,128,0,6846:0:0:0:0:
320,192,6275,128,0,6417:0:0:0:0:
448,192,6275,128,0,6560:0:0:0:0:
192,192,6417,128,0,6846:0:0:0:0:
320,192,6560,128,0,6846:0:0:0:0:
448,192,6703,128,0,6846:0:0:0:0:
64,192,6989,128,0,7275:0:0:0:0:
448,192,6989,128,0,7203:0:0:0:0:
448,192,7275,128,0,7417:0:0:0:0:
320,192,7275,128,0,7346:0:0:0:0:
320,192,7417,128,0,7560:0:0:0:0:
192,192,7417,128,0,7489:0:0:0:0:
192,192,7560,128,0,7703:0:0:0:0:
64,192,7560,128,0,7632:0:0:0:0:
448,192,7703,128,0,7989:0:0:0:0:
64,192,7703,128,0,7775:0:0:0:0:
64,192,7846,128,0,7989:0:0:0:0:
192,192,7846,128,0,7917:0:0:0:0:
192,192,7989,128,0,8132:0:0:0:0:
320,192,7989,128,0,8060:0:0:0:0:
320,192,8132,128,0,8275:0:0:0:0:
448,192,8132,128,0,8203:0:0:0:0:
192,192,8275,1,0,0:0:0:0:
64,192,8275,128,0,8489:0:0:0:0:
448,192,8275,128,0,8489:0:0:0:0:
320,192,8346,1,0,0:0:0:0:
192,192,8417,1,0,0:0:0:0:
320,192,8489,1,0,0:0:0:0:
64,192,8560,1,0,0:0:0:0:
448,192,8560,1,0,0:0:0:0:
448,192,8846,1,0,0:0:0:0:
192,192,8846,128,0,9060:0:0:0:0:
320,192,8846,128,0,9060:0:0:0:0:
64,192,8917,1,0,0:0:0:0:
448,192,8989,1,0,0:0:0:0:
64,192,9060,1,0,0:0:0:0:
192,192,9132,1,0,0:0:0:0:
320,192,9132,1,0,0:0:0:0:
64,192,9417,128,0,9489:0:0:0:0:
192,192,9417,128,0,9632:0:0:0:0:
448,192,9417,128,0,9632:0:0:0:0:
64,192,9560,128,0,9703:0:0:0:0:
192,192,9703,128,0,9775:0:0:0:0:
320,192,9703,128,0,9917:0:0:0:0:
448,192,9703,128,0,9917:0:0:0:0:
192,192,9846,128,0,9989:0:0:0:0:
64,192,9989,128,0,10203:0:0:0:0:
448,192,9989,128,0,10203:0:0:0:0:
320,192,9989,128,0,10060:0:0:0:0:
320,192,10132,128,0,10203:0:0:0:0:
64,192,10275,1,0,0:0:0:0:
192,192,10275,1,0,0:0:0:0:
448,192,10275,1,0,0:0:0:0:
320,192,10275,1,0,0:0:0:0:
448,192,10560,1,0,0:0:0:0:
320,192,10560,1,0,0:0:0:0:
64,192,10560,128,0,10775:0:0:0:0:
192,192,10632,128,0,10775:0:0:0:0:
320,192,10703,128,0,10775:0:0:0:0:
448,192,10775,128,0,10846:0:0:0:0:
192,192,10846,1,0,0:0:0:0:
320,192,10846,128,0,11060:0:0:0:0:
64,192,10846,128,0,10917:0:0:0:0:
192,192,10989,128,0,11132:0:0:0:0:
64,192,10989,128,0,11060:0:0:0:0:
448,192,11132,1,0,0:0:0:0:
64,192,11132,1,0,0:0:0:0:
320,192,11132,128,0,11203:0:0:0:0:
320,192,11275,128,0,11417:0:0:0:0:
192,192,11417,128,0,11632:0:0:0:0:
64,192,11417,1,0,0:0:0:0:
448,192,11417,128,0,11489:0:0:0:0:
320,192,11560,128,0,11775:0:0:0:0:
448,192,11560,128,0,11632:0:0:0:0:
64,192,11703,1,0,0:0:0:0:
448,192,11703,1,0,0:0:0:0:
192,192,11703,1,0,0:0:0:0:
320,192,11846,128,0,11989:0:0:0:0:
192,192,11989,128,0,12203:0:0:0:0:
64,192,11989,128,0,12060:0:0:0:0:
448,192,11989,1,0,0:0:0:0:
320,192,12132,128,0,12275:0:0:0:0:
64,192,12132,128,0,12203:0:0:0:0:
64,192,12275,1,0,0:0:0:0:
448,192,12275,1,0,0:0:0:0:
192,192,12275,128,0,12489:0:0:0:0:
320,192,12417,128,0,12560:0:0:0:0:
64,192,12560,1,0,0:0:0:0:
192,192,12560,128,0,12775:0:0:0:0:
448,192,12560,128,0,12632:0:0:0:0:
320,192,12703,128,0,12846:0:0:0:0:
448,192,12703,128,0,12775:0:0:0:0:
64,192,12846,1,0,0:0:0:0:
192,192,12846,1,0,0:0:0:0:
448,192,12846,128,0,13060:0:0:0:0:
320,192,12917,128,0,13060:0:0:0:0:
192,192,12989,128,0,13060:0:0:0:0:
64,192,13060,128,0,13132:0:0:0:0:
320,192,13132,1,0,0:0:0:0:
192,192,13132,128,0,13346:0:0:0:0:
448,192,13132,128,0,13203:0:0:0:0:
320,192,13275,128,0,13417:0:0:0:0:
448,192,13275,128,0,13346:0:0:0:0:
64,192,13417,1,0,0:0:0:0:
448,192,13417,1,0,0:0:0:0:
192,192,13417,128,0,13489:0:0:0:0:
192,192,13560,128,0,13703:0:0:0:0:
320,192,13703,128,0,13917:0:0:0:0:
448,192,13703,1,0,0:0:0:0:
64,192,13703,128,0,13775:0:0:0:0:
192,192,13846,128,0,14060:0:0:0:0:
64,192,13846,128,0,13917:0:0:0:0:
448,192,13989,1,0,0:0:0:0:
64,192,13989,1,0,0:0:0:0:
320,192,13989,1,0,0:0:0:0:
192,192,14132,128,0,14275:0:0:0:0:
320,192,14275,128,0,14489:0:0:0:0:
64,192,14275,1,0,0:0:0:0:
448,192,14275,128,0,14346:0:0:0:0:
192,192,14417,128,0,14560:0:0:0:0:
448,192,14417,128,0,14489:0:0:0:0:
448,192,14560,128,0,14775:0:0:0:0:
320,192,14560,128,0,14632:0:0:0:0:
64,192,14560,128,0,14775:0:0:0:0:
320,192,14703,128,0,14917:0:0:0:0:
192,192,14846,128,0,15060:0:0:0:0:
64,192,14846,128,0,14917:0:0:0:0:
448,192,14846,128,0,14917:0:0:0:0:
64,192,14989,128,0,15060:0:0:0:0:
448,192,14989,128,0,15060:0:0:0:0:
448,192,15132,1,0,0:0:0:0:
320,192,15132,1,0,0:0:0:0:
64,192,15132,128,0,15346:0:0:0:0:
192,192,15203,128,0,15346:0:0:0:0:
320,192,15275,128,0,15346:0:0:0:0:
448,192,15346,128,0,15417:0:0:0:0:
192,192,15417,1,0,0:0:0:0:
320,192,15417,128,0,15632:0:0:0:0:
64,192,15417,128,0,15489:0:0:0:0:
192,192,15560,128,0,15703:0:0:0:0:
64,192,15560,128,0,15632:0:0:0:0:
448,192,15703,1,0,0:0:0:0:
64,192,15703,1,0,0:0:0:0:
320,192,15703,128,0,15775:0:0:0:0:
320,192,15846,128,0,15989:0:0:0:0:
64,192,15989,1,0,0:0:0:0:
192,192,15989,128,0,16203:0:0:0:0:
448,192,15989,128,0,16060:0:0:0:0:
320,192,16132,128,0,16346:0:0:0:0:
448,192,16132,128,0,16203:0:0:0:0:
64,192,16275,1,0,0:0:0:0:
448,192,16275,1,0,0:0:0:0:
192,192,16275,1,0,0:0:0:0:
320,192,16417,128,0,16560:0:0:0:0:
192,192,16560,128,0,16775:0:0:0:0:
64,192,16560,128,0,16632:0:0:0:0:
448,192,16560,1,0,0:0:0:0:
320,192,16703,128,0,16846:0:0:0:0:
64,192,16703,128,0,16775:0:0:0:0:
64,192,16846,1,0,0:0:0:0:
448,192,16846,1,0,0:0:0:0:
192,192,16846,128,0,17060:0:0:0:0:
320,192,16989,128,0,17132:0:0:0:0:
64,192,17132,1,0,0:0:0:0:
192,192,17132,128,0,17346:0:0:0:0:
448,192,17132,128,0,17203:0:0:0:0:
320,192,17275,128,0,17417:0:0:0:0:
448,192,17275,128,0,17346:0:0:0:0:
64,192,17417,1,0,0:0:0:0:
192,192,17417,1,0,0:0:0:0:
448,192,17417,128,0,17632:0:0:0:0:
320,192,17489,128,0,17632:0:0:0:0:
192,192,17560,128,0,17632:0:0:0:0:
64,192,17632,128,0,17703:0:0:0:0:
320,192,17703,1,0,0:0:0:0:
192,192,17703,128,0,17917:0:0:0:0:
448,192,17703,128,0,17775:0:0:0:0:
320,192,17846,128,0,17989:0:0:0:0:
448,192,17846,128,0,17917:0:0:0:0:
64,192,17989,1,0,0:0:0:0:
448,192,17989,1,0,0:0:0:0:
192,192,17989,128,0,18060:0:0:0:0:
192,192,18132,128,0,18275:0:0:0:0:
320,192,18275,128,0,18489:0:0:0:0:
64,192,18275,128,0,18346:0:0:0:0:
448,192,18275,1,0,0:0:0:0:
64,192,18417,128,0,18489:0:0:0:0:
192,192,18417,128,0,18560:0:0:0:0:
448,192,18560,128,0,18775:0:0:0:0:
64,192,18560,128,0,18775:0:0:0:0:
320,192,18560,128,0,18632:0:0:0:0:
320,192,18703,128,0,18846:0:0:0:0:
192,192,18846,128,0,19060:0:0:0:0:
64,192,18846,128,0,18917:0:0:0:0:
448,192,18846,128,0,19060:0:0:0:0:
64,192,18989,128,0,19132:0:0:0:0:
448,192,19132,128,0,19346:0:0:0:0:
192,192,19132,128,0,19203:0:0:0:0:
320,192,19132,128,0,19346:0:0:0:0:
192,192,19275,128,0,19346:0:0:0:0:
64,192,19417,1,0,0:0:0:0:
448,192,19417,1,0,0:0:0:0:
320,192,19417,128,0,19632:0:0:0:0:
192,192,19417,128,0,19632:0:0:0:0:
448,192,19560,128,0,19632:0:0:0:0:
64,192,19560,128,0,19632:0:0:0:0:
64,192,19703,128,0,19989:0:0:0:0:
320,192,19703,128,0,19846:0:0:0:0:
448,192,19703,128,0,19989:0:0:0:0:
192,192,19703,1,0,0:0:0:0:
192,192,19846,128,0,19989:0:0:0:0:
320,192,19989,1,0,0:0:0:0:
448,192,20132,1,0,0:0:0:0:
64,192,20132,128,0,20417:0:0:0:0:
192,192,20132,128,0,20275:0:0:0:0:
320,192,20132,128,0,20417:0:0:0:0:
448,192,20275,128,0,20417:0:0:0:0:
192,192,20417,1,0,0:0:0:0:
64,192,20560,1,0,0:0:0:0:
192,192,20560,128,0,20846:0:0:0:0:
320,192,20560,128,0,20846:0:0:0:0:
448,192,20560,128,0,20703:0:0:0:0:
64,192,20703,128,0,20846:0:0:0:0:
448,192,20846,1,0,0:0:0:0:
320,192,20989,1,0,0:0:0:0:
448,192,20989,128,0,21275:0:0:0:0:
192,192,20989,128,0,21275:0:0:0:0:
64,192,20989,128,0,21132:0:0:0:0:
320,192,21132,128,0,21275:0:0:0:0:
64,192,21275,1,0,0:0:0:0:
192,192,21417,1,0,0:0:0:0:
64,192,21417,128,0,21703:0:0:0:0:
320,192,21417,128,0,21703:0:0:0:0:
448,192,21417,128,0,21560:0:0:0:0:
192,192,21560,128,0,21703:0:0:0:0:
448,192,21703,1,0,0:0:0:0:
64,192,21846,128,0,22275:0:0:0:0:
192,192,21846,128,0,22846:0:0:0:0:
320,192,21846,128,0,22846:0:0:0:0:
448,192,21846,128,0,22132:0:0:0:0:
448,192,22275,1,0,0:0:0:0:
64,192,22417,1,0,0:0:0:0:
448,192,22703,1,0,0:0:0:0:
64,192,22989,1,0,0:0:0:0:
448,192,23275,1,0,0:0:0:0:
448,192,23560,1,0,0:0:0:0:
448,192,23703,1,0,0:0:0:0:
192,192,25417,1,0,0:0:0:0:
320,192,25453,1,0,0:0:0:0:
448,192,25489,1,0,0:0:0:0:
192,192,25525,1,0,0:0:0:0:
64,192,25560,1,0,0:0:0:0:
448,192,26275,128,0,26370:0:0:0:0:
320,192,26298,128,0,26417:0:0:0:0:
192,192,26322,128,0,26465:0:0:0:0:
64,192,26560,128,0,26632:0:0:0:0:
320,192,26560,128,0,26632:0:0:0:0:
448,192,26560,128,0,26632:0:0:0:0:
64,192,26703,128,0,26917:0:0:0:0:
320,192,26703,128,0,26917:0:0:0:0:
448,192,26703,128,0,26917:0:0:0:0:
320,192,26989,128,0,27203:0:0:0:0:
192,192,26989,128,0,27203:0:0:0:0:
448,192,26989,128,0,27203:0:0:0:0:
320,192,27275,128,0,27489:0:0:0:0:
64,192,27275,128,0,27489:0:0:0:0:
192,192,27275,128,0,27489:0:0:0:0:
64,192,27560,128,0,27775:0:0:0:0:
448,192,27560,128,0,27775:0:0:0:0:
192,192,27560,128,0,27632:0:0:0:0:
320,192,27632,128,0,27703:0:0:0:0:
192,192,27703,128,0,27846:0:0:0:0:
320,192,27775,128,0,27917:0:0:0:0:
448,192,27846,128,0,27917:0:0:0:0:
64,192,27917,128,0,27989:0:0:0:0:
320,192,27989,1,0,0:0:0:0:
448,192,27989,1,0,0:0:0:0:
192,192,27989,1,0,0:0:0:0:
64,192,28132,1,0,0:0:0:0:
448,192,28155,1,0,0:0:0:0:
320,192,28275,1,0,0:0:0:0:
192,192,28275,1,0,0:0:0:0:
64,192,28275,1,0,0:0:0:0:
448,192,28417,1,0,0:0:0:0:
192,192,28441,1,0,0:0:0:0:
64,192,28560,1,0,0:0:0:0:
320,192,28560,1,0,0:0:0:0:
448,192,28560,1,0,0:0:0:0:
192,192,28703,1,0,0:0:0:0:
320,192,28727,1,0,0:0:0:0:
192,192,28846,1,0,0:0:0:0:
64,192,28846,1,0,0:0:0:0:
448,192,28846,1,0,0:0:0:0:
320,192,28989,1,0,0:0:0:0:
64,192,29013,1,0,0:0:0:0:
192,192,29132,1,0,0:0:0:0:
320,192,29132,1,0,0:0:0:0:
448,192,29132,1,0,0:0:0:0:
64,192,29275,1,0,0:0:0:0:
448,192,29298,1,0,0:0:0:0:
192,192,29417,1,0,0:0:0:0:
64,192,29417,1,0,0:0:0:0:
320,192,29417,1,0,0:0:0:0:
448,192,29560,1,0,0:0:0:0:
192,192,29584,1,0,0:0:0:0:
64,192,29703,1,0,0:0:0:0:
320,192,29703,1,0,0:0:0:0:
448,192,29703,1,0,0:0:0:0:
192,192,29846,1,0,0:0:0:0:
320,192,29870,1,0,0:0:0:0:
192,192,29989,1,0,0:0:0:0:
64,192,29989,1,0,0:0:0:0:
448,192,29989,1,0,0:0:0:0:
320,192,30132,1,0,0:0:0:0:
64,192,30155,1,0,0:0:0:0:
192,192,30275,1,0,0:0:0:0:
320,192,30275,1,0,0:0:0:0:
448,192,30275,1,0,0:0:0:0:
64,192,30417,1,0,0:0:0:0:
448,192,30441,1,0,0:0:0:0:
192,192,30560,1,0,0:0:0:0:
64,192,30560,1,0,0:0:0:0:
320,192,30560,1,0,0:0:0:0:
448,192,30703,1,0,0:0:0:0:
192,192,30727,1,0,0:0:0:0:
320,192,30846,1,0,0:0:0:0:
448,192,30846,1,0,0:0:0:0:
64,192,30846,1,0,0:0:0:0:
192,192,30989,1,0,0:0:0:0:
320,192,31013,1,0,0:0:0:0:
448,192,31132,128,0,31203:0:0:0:0:
192,192,31132,128,0,31203:0:0:0:0:
64,192,31132,128,0,31203:0:0:0:0:
448,192,31275,128,0,31489:0:0:0:0:
192,192,31275,128,0,31489:0:0:0:0:
64,192,31275,128,0,31489:0:0:0:0:
320,192,31417,128,0,31489:0:0:0:0:
320,192,31560,128,0,31775:0:0:0:0:
192,192,31560,128,0,31775:0:0:0:0:
448,192,31560,128,0,31775:0:0:0:0:
64,192,31703,128,0,31775:0:0:0:0:
320,192,31846,128,0,32060:0:0:0:0:
64,192,31846,128,0,32060:0:0:0:0:
192,192,31846,128,0,32060:0:0:0:0:
64,192,32132,128,0,32346:0:0:0:0:
448,192,32132,128,0,32346:0:0:0:0:
192,192,32132,128,0,32203:0:0:0:0:
320,192,32203,128,0,32275:0:0:0:0:
192,192,32275,128,0,32417:0:0:0:0:
320,192,32346,128,0,32489:0:0:0:0:
448,192,32417,128,0,32489:0:0:0:0:
64,192,32489,128,0,32560:0:0:0:0:
320,192,32560,1,0,0:0:0:0:
448,192,32560,1,0,0:0:0:0:
192,192,32560,1,0,0:0:0:0:
64,192,32655,1,0,0:0:0:0:
320,192,32703,1,0,0:0:0:0:
192,192,32751,1,0,0:0:0:0:
64,192,32846,1,0,0:0:0:0:
320,192,32846,1,0,0:0:0:0:
448,192,32846,1,0,0:0:0:0:
192,192,32941,1,0,0:0:0:0:
448,192,32989,1,0,0:0:0:0:
64,192,33036,1,0,0:0:0:0:
192,192,33132,1,0,0:0:0:0:
320,192,33132,1,0,0:0:0:0:
448,192,33132,1,0,0:0:0:0:
64,192,33227,1,0,0:0:0:0:
320,192,33275,1,0,0:0:0:0:
448,192,33322,1,0,0:0:0:0:
192,192,33417,1,0,0:0:0:0:
320,192,33417,1,0,0:0:0:0:
64,192,33417,1,0,0:0:0:0:
448,192,33513,1,0,0:0:0:0:
64,192,33560,1,0,0:0:0:0:
320,192,33608,1,0,0:0:0:0:
192,192,33703,1,0,0:0:0:0:
64,192,33703,1,0,0:0:0:0:
448,192,33703,1,0,0:0:0:0:
320,192,33798,1,0,0:0:0:0:
192,192,33846,1,0,0:0:0:0:
448,192,33894,1,0,0:0:0:0:
320,192,33989,1,0,0:0:0:0:
192,192,33989,1,0,0:0:0:0:
64,192,33989,1,0,0:0:0:0:
448,192,34084,1,0,0:0:0:0:
64,192,34132,1,0,0:0:0:0:
320,192,34179,1,0,0:0:0:0:
448,192,34275,1,0,0:0:0:0:
192,192,34275,1,0,0:0:0:0:
64,192,34275,1,0,0:0:0:0:
320,192,34370,1,0,0:0:0:0:
192,192,34417,1,0,0:0:0:0:
64,192,34465,1,0,0:0:0:0:
320,192,34560,1,0,0:0:0:0:
192,192,34560,1,0,0:0:0:0:
448,192,34560,1,0,0:0:0:0:
64,192,34655,1,0,0:0:0:0:
448,192,34703,1,0,0:0:0:0:
192,192,34751,1,0,0:0:0:0:
320,192,34846,1,0,0:0:0:0:
448,192,34846,1,0,0:0:0:0:
64,192,34846,1,0,0:0:0:0:
192,192,34941,1,0,0:0:0:0:
320,192,34989,1,0,0:0:0:0:
64,192,35036,1,0,0:0:0:0:
192,192,35132,1,0,0:0:0:0:
320,192,35132,1,0,0:0:0:0:
448,192,35132,1,0,0:0:0:0:
64,192,35227,1,0,0:0:0:0:
448,192,35275,1,0,0:0:0:0:
192,192,35322,1,0,0:0:0:0:
320,192,35417,1,0,0:0:0:0:
448,192,35417,1,0,0:0:0:0:
64,192,35417,1,0,0:0:0:0:
192,192,35513,1,0,0:0:0:0:
320,192,35560,1,0,0:0:0:0:
448,192,35608,1,0,0:0:0:0:
320,192,35703,1,0,0:0:0:0:
192,192,35703,1,0,0:0:0:0:
64,192,35703,1,0,0:0:0:0:
192,192,35846,1,0,0:0:0:0:
64,192,35846,1,0,0:0:0:0:
320,192,35917,1,0,0:0:0:0:
448,192,35917,1,0,0:0:0:0:
192,192,35989,1,0,0:0:0:0:
64,192,35989,1,0,0:0:0:0:
320,192,36132,1,0,0:0:0:0:
448,192,36132,1,0,0:0:0:0:
192,192,36132,1,0,0:0:0:0:
64,192,36275,1,0,0:0:0:0:
448,192,36275,128,0,36346:0:0:0:0:
320,192,36275,128,0,36346:0:0:0:0:
64,192,36417,1,0,0:0:0:0:
448,192,36417,128,0,36489:0:0:0:0:
320,192,36417,128,0,36489:0:0:0:0:
448,192,36560,128,0,36632:0:0:0:0:
320,192,36560,128,0,36632:0:0:0:0:
64,192,36560,1,0,0:0:0:0:
192,192,36703,1,0,0:0:0:0:
448,192,36703,1,0,0:0:0:0:
64,192,36703,128,0,36846:0:0:0:0:
320,192,36775,1,0,0:0:0:0:
192,192,36846,1,0,0:0:0:0:
448,192,36917,1,0,0:0:0:0:
64,192,36989,128,0,37132:0:0:0:0:
192,192,36989,128,0,37060:0:0:0:0:
320,192,37132,128,0,37203:0:0:0:0:
192,192,37132,128,0,37275:0:0:0:0:
448,192,37132,1,0,0:0:0:0:
448,192,37275,128,0,37346:0:0:0:0:
320,192,37275,128,0,37417:0:0:0:0:
64,192,37417,128,0,37489:0:0:0:0:
192,192,37417,128,0,37560:0:0:0:0:
448,192,37489,1,0,0:0:0:0:
64,192,37560,128,0,37632:0:0:0:0:
192,192,37632,1,0,0:0:0:0:
64,192,37703,128,0,37775:0:0:0:0:
448,192,37703,1,0,0:0:0:0:
320,192,37703,1,0,0:0:0:0:
192,192,37846,128,0,37989:0:0:0:0:
320,192,37917,1,0,0:0:0:0:
64,192,37989,1,0,0:0:0:0:
448,192,37989,1,0,0:0:0:0:
192,192,38060,1,0,0:0:0:0:
320,192,38132,128,0,38203:0:0:0:0:
448,192,38132,128,0,38275:0:0:0:0:
192,192,38275,128,0,38346:0:0:0:0:
320,192,38275,128,0,38417:0:0:0:0:
64,192,38275,1,0,0:0:0:0:
64,192,38417,128,0,38489:0:0:0:0:
192,192,38417,128,0,38560:0:0:0:0:
448,192,38560,128,0,38632:0:0:0:0:
320,192,38560,1,0,0:0:0:0:
64,192,38632,1,0,0:0:0:0:
448,192,38703,128,0,38775:0:0:0:0:
192,192,38775,1,0,0:0:0:0:
448,192,38846,128,0,38917:0:0:0:0:
64,192,38846,1,0,0:0:0:0:
320,192,38846,1,0,0:0:0:0:
320,192,38989,128,0,39132:0:0:0:0:
192,192,39060,1,0,0:0:0:0:
64,192,39132,1,0,0:0:0:0:
448,192,39132,1,0,0:0:0:0:
320,192,39203,1,0,0:0:0:0:
192,192,39275,128,0,39346:0:0:0:0:
64,192,39275,128,0,39417:0:0:0:0:
320,192,39417,128,0,39489:0:0:0:0:
192,192,39417,128,0,39560:0:0:0:0:
448,192,39417,1,0,0:0:0:0:
448,192,39560,128,0,39632:0:0:0:0:
320,192,39560,128,0,39703:0:0:0:0:
64,192,39703,128,0,39775:0:0:0:0:
192,192,39703,1,0,0:0:0:0:
448,192,39775,1,0,0:0:0:0:
64,192,39846,128,0,39917:0:0:0:0:
192,192,39917,1,0,0:0:0:0:
64,192,39989,128,0,40060:0:0:0:0:
320,192,39989,1,0,0:0:0:0:
448,192,39989,1,0,0:0:0:0:
448,192,40132,128,0,40275:0:0:0:0:
320,192,40275,1,0,0:0:0:0:
192,192,40275,1,0,0:0:0:0:
64,192,40275,1,0,0:0:0:0:
64,192,40417,1,0,0:0:0:0:
448,192,40417,1,0,0:0:0:0:
192,192,40417,1,0,0:0:0:0:
64,192,40560,1,0,0:0:0:0:
320,192,40560,1,0,0:0:0:0:
192,192,40703,1,0,0:0:0:0:
320,192,40703,1,0,0:0:0:0:
448,192,40703,1,0,0:0:0:0:
64,192,40846,1,0,0:0:0:0:
448,192,40846,1,0,0:0:0:0:
320,192,40989,1,0,0:0:0:0:
192,192,40989,1,0,0:0:0:0:
64,192,40989,1,0,0:0:0:0:
448,192,41132,1,0,0:0:0:0:
320,192,41132,1,0,0:0:0:0:
192,192,41275,1,0,0:0:0:0:
64,192,41275,1,0,0:0:0:0:
448,192,41275,128,0,41417:0:0:0:0:
320,192,41346,1,0,0:0:0:0:
192,192,41417,1,0,0:0:0:0:
64,192,41489,1,0,0:0:0:0:
320,192,41560,128,0,41632:0:0:0:0:
448,192,41560,128,0,41703:0:0:0:0:
192,192,41703,128,0,41775:0:0:0:0:
320,192,41703,128,0,41846:0:0:0:0:
64,192,41703,1,0,0:0:0:0:
64,192,41846,128,0,41917:0:0:0:0:
192,192,41846,128,0,41989:0:0:0:0:
320,192,41989,1,0,0:0:0:0:
448,192,41989,128,0,42060:0:0:0:0:
64,192,42060,1,0,0:0:0:0:
448,192,42132,128,0,42203:0:0:0:0:
192,192,42203,1,0,0:0:0:0:
448,192,42275,128,0,42346:0:0:0:0:
320,192,42275,1,0,0:0:0:0:
64,192,42275,1,0,0:0:0:0:
320,192,42417,128,0,42560:0:0:0:0:
192,192,42489,1,0,0:0:0:0:
448,192,42560,1,0,0:0:0:0:
64,192,42560,1,0,0:0:0:0:
320,192,42632,1,0,0:0:0:0:
192,192,42703,128,0,42775:0:0:0:0:
64,192,42703,128,0,42846:0:0:0:0:
320,192,42846,128,0,42917:0:0:0:0:
192,192,42846,128,0,42989:0:0:0:0:
448,192,42846,1,0,0:0:0:0:
448,192,42989,128,0,43060:0:0:0:0:
320,192,42989,128,0,43132:0:0:0:0:
192,192,43132,1,0,0:0:0:0:
64,192,43132,128,0,43203:0:0:0:0:
448,192,43203,1,0,0:0:0:0:
64,192,43275,128,0,43346:0:0:0:0:
320,192,43346,1,0,0:0:0:0:
64,192,43417,128,0,43489:0:0:0:0:
192,192,43417,1,0,0:0:0:0:
448,192,43417,1,0,0:0:0:0:
192,192,43560,128,0,43703:0:0:0:0:
64,192,43703,1,0,0:0:0:0:
320,192,43703,128,0,43917:0:0:0:0:
448,192,43703,128,0,43775:0:0:0:0:
448,192,43846,128,0,44060:0:0:0:0:
64,192,43846,1,0,0:0:0:0:
320,192,43989,128,0,44060:0:0:0:0:
64,192,43989,128,0,44203:0:0:0:0:
192,192,44132,128,0,44346:0:0:0:0:
320,192,44275,128,0,44489:0:0:0:0:
448,192,44275,1,0,0:0:0:0:
64,192,44275,1,0,0:0:0:0:
192,192,44417,128,0,44632:0:0:0:0:
320,192,44560,128,0,44775:0:0:0:0:
64,192,44560,1,0,0:0:0:0:
448,192,44560,1,0,0:0:0:0:
192,192,44703,128,0,44775:0:0:0:0:
64,192,44703,128,0,44917:0:0:0:0:
64,192,44989,128,0,45060:0:0:0:0:
64,192,45132,128,0,45203:0:0:0:0:
64,192,45275,128,0,45346:0:0:0:0:
64,192,45417,128,0,45870:0:0:0:0:
192,192,45441,128,0,45679:0:0:0:0:
320,192,45465,128,0,45655:0:0:0:0:
448,192,45703,128,0,45941:0:0:0:0:
320,192,45727,128,0,45917:0:0:0:0:
192,192,45751,128,0,45894:0:0:0:0:
320,192,45989,128,0,46060:0:0:0:0:
192,192,45989,128,0,46132:0:0:0:0:
64,192,45989,128,0,46203:0:0:0:0:
448,192,46060,1,0,0:0:0:0:
320,192,46132,1,0,0:0:0:0:
192,192,46203,1,0,0:0:0:0:
64,192,46275,128,0,46346:0:0:0:0:
320,192,46275,128,0,46417:0:0:0:0:
448,192,46275,128,0,46489:0:0:0:0:
192,192,46346,1,0,0:0:0:0:
64,192,46417,1,0,0:0:0:0:
320,192,46489,1,0,0:0:0:0:
448,192,46560,1,0,0:0:0:0:
192,192,46560,1,0,0:0:0:0:
64,192,46560,128,0,46775:0:0:0:0:
320,192,46632,128,0,46775:0:0:0:0:
192,192,46703,128,0,46775:0:0:0:0:
448,192,46775,1,0,0:0:0:0:
320,192,46846,1,0,0:0:0:0:
64,192,46846,128,0,46917:0:0:0:0:
192,192,46846,128,0,46989:0:0:0:0:
448,192,46917,1,0,0:0:0:0:
64,192,46989,128,0,47060:0:0:0:0:
320,192,47060,1,0,0:0:0:0:
448,192,47132,128,0,47203:0:0:0:0:
192,192,47132,128,0,47275:0:0:0:0:
64,192,47132,128,0,47346:0:0:0:0:
320,192,47203,1,0,0:0:0:0:
448,192,47275,1,0,0:0:0:0:
192,192,47346,1,0,0:0:0:0:
320,192,47417,128,0,47560:0:0:0:0:
448,192,47417,128,0,47632:0:0:0:0:
64,192,47417,128,0,47489:0:0:0:0:
192,192,47560,128,0,47703:0:0:0:0:
320,192,47632,128,0,47703:0:0:0:0:
64,192,47703,128,0,48060:0:0:0:0:
448,192,47846,128,0,48060:0:0:0:0:
192,192,48132,1,0,0:0:0:0:
448,192,48132,1,0,0:0:0:0:
64,192,48132,128,0,48346:0:0:0:0:
320,192,48203,1,0,0:0:0:0:
192,192,48275,1,0,0:0:0:0:
448,192,48346,1,0,0:0:0:0:
64,192,48417,1,0,0:0:0:0:
192,192,48489,1,0,0:0:0:0:
320,192,48560,1,0,0:0:0:0:
448,192,48560,1,0,0:0:0:0:
64,192,48560,1,0,0:0:0:0:
192,192,48632,1,0,0:0:0:0:
448,192,48703,1,0,0:0:0:0:
320,192,48775,1,0,0:0:0:0:
192,192,48846,1,0,0:0:0:0:
64,192,48846,1,0,0:0:0:0:
448,192,48917,1,0,0:0:0:0:
192,192,48989,1,0,0:0:0:0:
64,192,48989,1,0,0:0:0:0:
320,192,49060,1,0,0:0:0:0:
448,192,49132,1,0,0:0:0:0:
192,192,49132,1,0,0:0:0:0:
64,192,49203,1,0,0:0:0:0:
320,192,49275,1,0,0:0:0:0:
448,192,49275,1,0,0:0:0:0:
192,192,49346,1,0,0:0:0:0:
64,192,49417,1,0,0:0:0:0:
448,192,49417,1,0,0:0:0:0:
320,192,49489,1,0,0:0:0:0:
64,192,49560,1,0,0:0:0:0:
320,192,49632,1,0,0:0:0:0:
192,192,49703,1,0,0:0:0:0:
64,192,49703,1,0,0:0:0:0:
448,192,49703,1,0,0:0:0:0:
320,192,49775,1,0,0:0:0:0:
192,192,49846,1,0,0:0:0:0:
448,192,49917,1,0,0:0:0:0:
320,192,49989,1,0,0:0:0:0:
192,192,49989,1,0,0:0:0:0:
64,192,49989,1,0,0:0:0:0:
448,192,50060,1,0,0:0:0:0:
64,192,50132,1,0,0:0:0:0:
320,192,50203,1,0,0:0:0:0:
448,192,50275,1,0,0:0:0:0:
64,192,50275,1,0,0:0:0:0:
192,192,50346,1,0,0:0:0:0:
320,192,50417,1,0,0:0:0:0:
448,192,50417,1,0,0:0:0:0:
192,192,50489,1,0,0:0:0:0:
64,192,50560,1,0,0:0:0:0:
448,192,50560,1,0,0:0:0:0:
320,192,50632,1,0,0:0:0:0:
64,192,50703,1,0,0:0:0:0:
192,192,50703,1,0,0:0:0:0:
320,192,50775,1,0,0:0:0:0:
64,192,50846,1,0,0:0:0:0:
448,192,50846,1,0,0:0:0:0:
192,192,50917,1,0,0:0:0:0:
448,192,50989,1,0,0:0:0:0:
64,192,50989,1,0,0:0:0:0:
320,192,51060,1,0,0:0:0:0:
448,192,51132,1,0,0:0:0:0:
192,192,51132,1,0,0:0:0:0:
320,192,51203,1,0,0:0:0:0:
64,192,51275,1,0,0:0:0:0:
192,192,51346,1,0,0:0:0:0:
448,192,51417,1,0,0:0:0:0:
64,192,51417,1,0,0:0:0:0:
320,192,51417,1,0,0:0:0:0:
64,192,51560,128,0,51632:0:0:0:0:
192,192,51560,128,0,51703:0:0:0:0:
448,192,51560,128,0,51775:0:0:0:0:
64,192,51703,1,0,0:0:0:0:
320,192,51703,1,0,0:0:0:0:
192,192,51846,128,0,52060:0:0:0:0:
320,192,51846,128,0,51917:0:0:0:0:
64,192,51989,128,0,52203:0:0:0:0:
448,192,51989,128,0,52060:0:0:0:0:
320,192,51989,128,0,52132:0:0:0:0:
192,192,52132,1,0,0:0:0:0:
64,192,52275,1,0,0:0:0:0:
320,192,52275,1,0,0:0:0:0:
448,192,52275,1,0,0:0:0:0:
320,192,52417,1,0,0:0:0:0:
448,192,52417,1,0,0:0:0:0:
64,192,52417,1,0,0:0:0:0:
192,192,52560,1,0,0:0:0:0:
320,192,52560,1,0,0:0:0:0:
64,192,52703,1,0,0:0:0:0:
448,192,52703,128,0,52917:0:0:0:0:
192,192,52703,1,0,0:0:0:0:
320,192,52775,1,0,0:0:0:0:
64,192,52846,1,0,0:0:0:0:
192,192,52917,1,0,0:0:0:0:
448,192,52989,1,0,0:0:0:0:
320,192,53060,1,0,0:0:0:0:
64,192,53132,1,0,0:0:0:0:
448,192,53132,1,0,0:0:0:0:
192,192,53203,1,0,0:0:0:0:
320,192,53275,1,0,0:0:0:0:
448,192,53275,1,0,0:0:0:0:
64,192,53346,1,0,0:0:0:0:
192,192,53417,1,0,0:0:0:0:
320,192,53417,1,0,0:0:0:0:
448,192,53489,1,0,0:0:0:0:
64,192,53560,1,0,0:0:0:0:
320,192,53632,1,0,0:0:0:0:
448,192,53703,1,0,0:0:0:0:
192,192,53703,1,0,0:0:0:0:
320,192,53775,1,0,0:0:0:0:
192,192,53846,1,0,0:0:0:0:
64,192,53846,1,0,0:0:0:0:
448,192,53917,1,0,0:0:0:0:
320,192,53989,1,0,0:0:0:0:
192,192,53989,1,0,0:0:0:0:
448,192,54060,1,0,0:0:0:0:
320,192,54132,1,0,0:0:0:0:
64,192,54132,1,0,0:0:0:0:
192,192,54203,1,0,0:0:0:0:
64,192,54275,1,0,0:0:0:0:
448,192,54275,1,0,0:0:0:0:
320,192,54346,1,0,0:0:0:0:
64,192,54417,1,0,0:0:0:0:
192,192,54417,1,0,0:0:0:0:
320,192,54489,1,0,0:0:0:0:
448,192,54560,1,0,0:0:0:0:
192,192,54560,1,0,0:0:0:0:
64,192,54632,1,0,0:0:0:0:
320,192,54703,1,0,0:0:0:0:
64,192,54775,1,0,0:0:0:0:
448,192,54846,1,0,0:0:0:0:
192,192,54846,1,0,0:0:0:0:
320,192,54917,1,0,0:0:0:0:
192,192,54989,1,0,0:0:0:0:
64,192,54989,1,0,0:0:0:0:
320,192,55060,1,0,0:0:0:0:
448,192,55132,1,0,0:0:0:0:
64,192,55132,1,0,0:0:0:0:
192,192,55203,1,0,0:0:0:0:
448,192,55275,1,0,0:0:0:0:
320,192,55275,1,0,0:0:0:0:
192,192,55346,1,0,0:0:0:0:
320,192,55417,1,0,0:0:0:0:
64,192,55417,1,0,0:0:0:0:
448,192,55489,1,0,0:0:0:0:
64,192,55560,1,0,0:0:0:0:
192,192,55560,1,0,0:0:0:0:
320,192,55632,1,0,0:0:0:0:
448,192,55703,1,0,0:0:0:0:
192,192,55703,1,0,0:0:0:0:
64,192,55775,1,0,0:0:0:0:
320,192,55846,1,0,0:0:0:0:
448,192,55846,1,0,0:0:0:0:
64,192,55917,1,0,0:0:0:0:
320,192,55989,1,0,0:0:0:0:
448,192,55989,1,0,0:0:0:0:
192,192,56060,1,0,0:0:0:0:
448,192,56132,1,0,0:0:0:0:
320,192,56132,1,0,0:0:0:0:
192,192,56203,1,0,0:0:0:0:
64,192,56275,1,0,0:0:0:0:
320,192,56275,1,0,0:0:0:0:
448,192,56275,1,0,0:0:0:0:
192,192,56417,1,0,0:0:0:0:
64,192,56417,1,0,0:0:0:0:
320,192,56417,1,0,0:0:0:0:
448,192,56560,1,0,0:0:0:0:
192,192,56560,1,0,0:0:0:0:
320,192,56703,1,0,0:0:0:0:
448,192,56703,1,0,0:0:0:0:
192,192,56846,1,0,0:0:0:0:
64,192,56846,1,0,0:0:0:0:
320,192,56917,1,0,0:0:0:0:
448,192,56917,1,0,0:0:0:0:
192,192,56989,1,0,0:0:0:0:
64,192,56989,1,0,0:0:0:0:
320,192,57060,1,0,0:0:0:0:
448,192,57060,1,0,0:0:0:0:
192,192,57132,1,0,0:0:0:0:
64,192,57132,1,0,0:0:0:0:
320,192,57203,1,0,0:0:0:0:
192,192,57275,128,0,57417:0:0:0:0:
448,192,57275,128,0,57346:0:0:0:0:
64,192,57275,128,0,57489:0:0:0:0:
320,192,57346,1,0,0:0:0:0:
448,192,57417,1,0,0:0:0:0:
192,192,57489,1,0,0:0:0:0:
64,192,57560,1,0,0:0:0:0:
320,192,57632,1,0,0:0:0:0:
448,192,57703,1,0,0:0:0:0:
192,192,57703,1,0,0:0:0:0:
320,192,57775,1,0,0:0:0:0:
448,192,57846,1,0,0:0:0:0:
64,192,57846,1,0,0:0:0:0:
192,192,57917,1,0,0:0:0:0:
320,192,57989,128,0,58132:0:0:0:0:
448,192,57989,128,0,58060:0:0:0:0:
64,192,58060,1,0,0:0:0:0:
192,192,58132,1,0,0:0:0:0:
448,192,58132,1,0,0:0:0:0:
320,192,58203,1,0,0:0:0:0:
192,192,58275,1,0,0:0:0:0:
64,192,58275,128,0,58346:0:0:0:0:
320,192,58346,1,0,0:0:0:0:
448,192,58417,128,0,58489:0:0:0:0:
64,192,58417,128,0,58560:0:0:0:0:
192,192,58489,1,0,0:0:0:0:
320,192,58560,1,0,0:0:0:0:
448,192,58560,1,0,0:0:0:0:
64,192,58632,1,0,0:0:0:0:
192,192,58703,1,0,0:0:0:0:
320,192,58775,1,0,0:0:0:0:
448,192,58846,1,0,0:0:0:0:
64,192,58846,1,0,0:0:0:0:
320,192,58917,1,0,0:0:0:0:
192,192,58989,1,0,0:0:0:0:
64,192,58989,1,0,0:0:0:0:
448,192,59060,1,0,0:0:0:0:
320,192,59132,128,0,59275:0:0:0:0:
64,192,59132,128,0,59203:0:0:0:0:
192,192,59203,1,0,0:0:0:0:
448,192,59275,1,0,0:0:0:0:
64,192,59275,1,0,0:0:0:0:
320,192,59346,1,0,0:0:0:0:
448,192,59417,1,0,0:0:0:0:
192,192,59417,128,0,59489:0:0:0:0:
64,192,59489,1,0,0:0:0:0:
320,192,59560,128,0,59632:0:0:0:0:
192,192,59560,128,0,59703:0:0:0:0:
448,192,59632,1,0,0:0:0:0:
64,192,59703,1,0,0:0:0:0:
320,192,59703,1,0,0:0:0:0:
448,192,59775,1,0,0:0:0:0:
192,192,59846,1,0,0:0:0:0:
320,192,59917,1,0,0:0:0:0:
448,192,59989,1,0,0:0:0:0:
192,192,59989,1,0,0:0:0:0:
64,192,59989,1,0,0:0:0:0:
320,192,60060,1,0,0:0:0:0:
64,192,60132,1,0,0:0:0:0:
192,192,60203,1,0,0:0:0:0:
448,192,60275,1,0,0:0:0:0:
320,192,60275,128,0,60417:0:0:0:0:
64,192,60275,128,0,60346:0:0:0:0:
192,192,60346,1,0,0:0:0:0:
448,192,60417,1,0,0:0:0:0:
192,192,60489,1,0,0:0:0:0:
448,192,60560,1,0,0:0:0:0:
64,192,60560,128,0,60632:0:0:0:0:
320,192,60632,1,0,0:0:0:0:
192,192,60703,128,0,60775:0:0:0:0:
64,192,60703,128,0,60846:0:0:0:0:
448,192,60775,1,0,0:0:0:0:
320,192,60846,1,0,0:0:0:0:
192,192,60846,1,0,0:0:0:0:
64,192,60917,1,0,0:0:0:0:
448,192,60989,1,0,0:0:0:0:
320,192,61060,1,0,0:0:0:0:
192,192,61132,1,0,0:0:0:0:
64,192,61132,1,0,0:0:0:0:
448,192,61132,1,0,0:0:0:0:
320,192,61203,1,0,0:0:0:0:
64,192,61275,1,0,0:0:0:0:
192,192,61346,1,0,0:0:0:0:
448,192,61417,1,0,0:0:0:0:
320,192,61417,128,0,61489:0:0:0:0:
192,192,61489,1,0,0:0:0:0:
320,192,61560,128,0,61703:0:0:0:0:
448,192,61560,128,0,61632:0:0:0:0:
192,192,61632,1,0,0:0:0:0:
64,192,61703,1,0,0:0:0:0:
448,192,61703,1,0,0:0:0:0:
320,192,61775,1,0,0:0:0:0:
64,192,61846,128,0,61989:0:0:0:0:
192,192,61846,128,0,61917:0:0:0:0:
320,192,61917,1,0,0:0:0:0:
448,192,61989,1,0,0:0:0:0:
192,192,61989,1,0,0:0:0:0:
320,192,62060,1,0,0:0:0:0:
64,192,62132,1,0,0:0:0:0:
448,192,62203,1,0,0:0:0:0:
64,192,62275,1,0,0:0:0:0:
192,192,62275,1,0,0:0:0:0:
320,192,62275,1,0,0:0:0:0:
448,192,62346,1,0,0:0:0:0:
320,192,62417,1,0,0:0:0:0:
192,192,62489,1,0,0:0:0:0:
64,192,62560,1,0,0:0:0:0:
448,192,62560,1,0,0:0:0:0:
320,192,62632,1,0,0:0:0:0:
64,192,62703,1,0,0:0:0:0:
192,192,62703,1,0,0:0:0:0:
448,192,62775,1,0,0:0:0:0:
64,192,62846,1,0,0:0:0:0:
320,192,62846,1,0,0:0:0:0:
192,192,62917,1,0,0:0:0:0:
320,192,62989,1,0,0:0:0:0:
448,192,62989,1,0,0:0:0:0:
64,192,63060,1,0,0:0:0:0:
320,192,63132,1,0,0:0:0:0:
192,192,63132,1,0,0:0:0:0:
448,192,63203,1,0,0:0:0:0:
64,192,63275,1,0,0:0:0:0:
320,192,63346,1,0,0:0:0:0:
192,192,63417,1,0,0:0:0:0:
64,192,63417,1,0,0:0:0:0:
448,192,63417,1,0,0:0:0:0:
320,192,63489,1,0,0:0:0:0:
64,192,63560,1,0,0:0:0:0:
192,192,63632,1,0,0:0:0:0:
320,192,63703,1,0,0:0:0:0:
448,192,63703,1,0,0:0:0:0:
64,192,63703,1,0,0:0:0:0:
192,192,63775,1,0,0:0:0:0:
448,192,63846,1,0,0:0:0:0:
320,192,63917,1,0,0:0:0:0:
448,192,63989,1,0,0:0:0:0:
192,192,63989,1,0,0:0:0:0:
64,192,63989,1,0,0:0:0:0:
320,192,64060,1,0,0:0:0:0:
448,192,64132,1,0,0:0:0:0:
192,192,64203,1,0,0:0:0:0:
64,192,64275,128,0,64489:0:0:0:0:
320,192,64275,128,0,64346:0:0:0:0:
320,192,64417,128,0,64632:0:0:0:0:
448,192,64417,128,0,64489:0:0:0:0:
192,192,64417,1,0,0:0:0:0:
448,192,64560,128,0,64632:0:0:0:0:
64,192,64560,128,0,64632:0:0:0:0:
192,192,64560,1,0,0:0:0:0:
320,192,64703,128,0,64917:0:0:0:0:
64,192,64703,128,0,64775:0:0:0:0:
64,192,64846,128,0,65060:0:0:0:0:
192,192,64846,128,0,64917:0:0:0:0:
448,192,64846,1,0,0:0:0:0:
192,192,64989,128,0,65060:0:0:0:0:
320,192,64989,128,0,65060:0:0:0:0:
448,192,64989,1,0,0:0:0:0:
192,192,65132,128,0,65346:0:0:0:0:
320,192,65132,128,0,65203:0:0:0:0:
448,192,65275,128,0,65346:0:0:0:0:
320,192,65275,128,0,65489:0:0:0:0:
64,192,65275,1,0,0:0:0:0:
448,192,65417,128,0,65489:0:0:0:0:
64,192,65417,1,0,0:0:0:0:
192,192,65417,128,0,65489:0:0:0:0:
64,192,65560,128,0,65775:0:0:0:0:
320,192,65560,128,0,65632:0:0:0:0:
448,192,65703,128,0,65775:0:0:0:0:
320,192,65703,128,0,65917:0:0:0:0:
192,192,65703,1,0,0:0:0:0:
192,192,65846,1,0,0:0:0:0:
64,192,65846,128,0,65917:0:0:0:0:
448,192,65846,128,0,65917:0:0:0:0:
64,192,65989,128,0,66203:0:0:0:0:
448,192,65989,128,0,66060:0:0:0:0:
192,192,66132,128,0,66203:0:0:0:0:
448,192,66132,128,0,66346:0:0:0:0:
320,192,66132,1,0,0:0:0:0:
192,192,66275,128,0,66346:0:0:0:0:
64,192,66275,128,0,66346:0:0:0:0:
320,192,66275,1,0,0:0:0:0:
64,192,66417,128,0,66989:0:0:0:0:
192,192,66417,128,0,66775:0:0:0:0:
320,192,66417,128,0,66846:0:0:0:0:
448,192,66417,128,0,66917:0:0:0:0:
192,192,66846,128,0,67132:0:0:0:0:
320,192,66917,128,0,67060:0:0:0:0:
448,192,66989,128,0,67275:0:0:0:0:
64,192,67060,128,0,67203:0:0:0:0:
320,192,67132,128,0,67417:0:0:0:0:
192,192,67203,128,0,67346:0:0:0:0:
64,192,67275,128,0,67417:0:0:0:0:
448,192,67346,128,0,67489:0:0:0:0:
192,192,67417,128,0,67489:0:0:0:0:
320,192,67489,128,0,67560:0:0:0:0:
448,192,67560,128,0,67632:0:0:0:0:
320,192,67703,1,0,0:0:0:0:
448,192,67703,1,0,0:0:0:0:
192,192,67703,1,0,0:0:0:0:
64,192,67703,1,0,0:0:0:0:
64,192,67845,1,0,0:0:0:0:
192,192,67845,1,0,0:0:0:0:
320,192,67845,1,0,0:0:0:0:
448,192,67845,1,0,0:0:0:0:
448,192,67988,1,0,0:0:0:0:
320,192,67988,1,0,0:0:0:0:
192,192,67988,1,0,0:0:0:0:
64,192,67988,1,0,0:0:0:0:
192,192,68274,128,0,68417:0:0:0:0:
320,192,68560,128,0,68703:0:0:0:0:
448,192,68845,128,0,69203:0:0:0:0:
320,192,68845,128,0,69488:0:0:0:0:
192,192,68845,128,0,69203:0:0:0:0:
64,192,68845,128,0,69203:0:0:0:0:
448,192,69274,128,0,69488:0:0:0:0:
192,192,69274,128,0,69488:0:0:0:0:
64,192,69274,128,0,69774:0:0:0:0:
192,192,69560,128,0,69774:0:0:0:0:
320,192,69560,128,0,69774:0:0:0:0:
448,192,69560,128,0,70203:0:0:0:0:
320,192,69845,128,0,70203:0:0:0:0:
64,192,69845,128,0,70203:0:0:0:0:
192,192,69845,128,0,70488:0:0:0:0:
320,192,70274,128,0,70488:0:0:0:0:
64,192,70274,128,0,70488:0:0:0:0:
448,192,70274,128,0,70488:0:0:0:0:
320,192,70560,1,0,0:0:0:0:
64,192,70560,128,0,70774:0:0:0:0:
448,192,70560,128,0,70703:0:0:0:0:
192,192,70631,128,0,70774:0:0:0:0:
320,192,70703,128,0,70774:0:0:0:0:
192,192,70845,1,0,0:0:0:0:
64,192,70845,128,0,70988:0:0:0:0:
448,192,70845,128,0,71060:0:0:0:0:
320,192,70917,128,0,71060:0:0:0:0:
192,192,70988,128,0,71060:0:0:0:0:
64,192,71131,1,0,0:0:0:0:
448,192,71131,1,0,0:0:0:0:
320,192,71131,1,0,0:0:0:0:
192,192,71203,1,0,0:0:0:0:
448,192,71274,1,0,0:0:0:0:
320,192,71345,1,0,0:0:0:0:
448,192,71417,1,0,0:0:0:0:
64,192,71417,128,0,71631:0:0:0:0:
192,192,71488,128,0,71631:0:0:0:0:
320,192,71560,128,0,71631:0:0:0:0:
448,192,71631,128,0,71703:0:0:0:0:
320,192,71703,1,0,0:0:0:0:
64,192,71703,128,0,71917:0:0:0:0:
192,192,71774,1,0,0:0:0:0:
448,192,71845,128,0,71917:0:0:0:0:
320,192,71917,1,0,0:0:0:0:
64,192,71988,1,0,0:0:0:0:
448,192,71988,128,0,72203:0:0:0:0:
192,192,72060,1,0,0:0:0:0:
320,192,72131,128,0,72203:0:0:0:0:
192,192,72203,1,0,0:0:0:0:
64,192,72274,1,0,0:0:0:0:
448,192,72274,1,0,0:0:0:0:
320,192,72274,1,0,0:0:0:0:
192,192,72345,1,0,0:0:0:0:
448,192,72417,1,0,0:0:0:0:
320,192,72488,1,0,0:0:0:0:
192,192,72560,1,0,0:0:0:0:
64,192,72560,1,0,0:0:0:0:
448,192,72560,1,0,0:0:0:0:
320,192,72631,1,0,0:0:0:0:
64,192,72703,1,0,0:0:0:0:
192,192,72774,1,0,0:0:0:0:
320,192,72845,1,0,0:0:0:0:
448,192,72845,1,0,0:0:0:0:
64,192,72845,1,0,0:0:0:0:
192,192,72917,1,0,0:0:0:0:
320,192,72988,1,0,0:0:0:0:
448,192,73060,1,0,0:0:0:0:
64,192,73131,1,0,0:0:0:0:
192,192,73131,1,0,0:0:0:0:
320,192,73131,1,0,0:0:0:0:
448,192,73203,1,0,0:0:0:0:
64,192,73274,1,0,0:0:0:0:
192,192,73345,1,0,0:0:0:0:
64,192,73417,128,0,73631:0:0:0:0:
448,192,73417,128,0,73560:0:0:0:0:
320,192,73417,128,0,73488:0:0:0:0:
192,192,73488,1,0,0:0:0:0:
320,192,73560,1,0,0:0:0:0:
448,192,73631,1,0,0:0:0:0:
320,192,73703,1,0,0:0:0:0:
192,192,73703,128,0,73774:0:0:0:0:
64,192,73774,128,0,73845:0:0:0:0:
192,192,73845,128,0,73988:0:0:0:0:
64,192,73917,128,0,74060:0:0:0:0:
448,192,73988,1,0,0:0:0:0:
320,192,73988,128,0,74060:0:0:0:0:
192,192,74060,128,0,74131:0:0:0:0:
320,192,74131,128,0,74274:0:0:0:0:
192,192,74203,128,0,74345:0:0:0:0:
448,192,74274,128,0,74345:0:0:0:0:
64,192,74274,1,0,0:0:0:0:
320,192,74345,128,0,74417:0:0:0:0:
448,192,74417,128,0,74560:0:0:0:0:
320,192,74488,128,0,74631:0:0:0:0:
192,192,74560,1,0,0:0:0:0:
64,192,74560,128,0,74631:0:0:0:0:
448,192,74631,128,0,74703:0:0:0:0:
64,192,74703,128,0,74845:0:0:0:0:
448,192,74774,128,0,74917:0:0:0:0:
320,192,74845,1,0,0:0:0:0:
192,192,74845,128,0,74917:0:0:0:0:
64,192,74917,128,0,74988:0:0:0:0:
192,192,74988,128,0,75131:0:0:0:0:
64,192,75060,128,0,75203:0:0:0:0:
448,192,75131,1,0,0:0:0:0:
320,192,75131,128,0,75203:0:0:0:0:
192,192,75203,128,0,75274:0:0:0:0:
320,192,75274,128,0,75417:0:0:0:0:
192,192,75345,128,0,75488:0:0:0:0:
448,192,75417,128,0,75488:0:0:0:0:
64,192,75417,1,0,0:0:0:0:
320,192,75488,128,0,75560:0:0:0:0:
448,192,75560,128,0,75631:0:0:0:0:
320,192,75631,128,0,75703:0:0:0:0:
448,192,75703,128,0,75917:0:0:0:0:
64,192,75703,128,0,75917:0:0:0:0:
192,192,75703,128,0,75845:0:0:0:0:
320,192,75845,1,0,0:0:0:0:
64,192,75988,128,0,76203:0:0:0:0:
448,192,75988,128,0,76203:0:0:0:0:
192,192,75988,1,0,0:0:0:0:
320,192,76131,128,0,76203:0:0:0:0:
192,192,76131,128,0,76274:0:0:0:0:
64,192,76274,128,0,76488:0:0:0:0:
448,192,76274,128,0,76488:0:0:0:0:
320,192,76274,1,0,0:0:0:0:
192,192,76417,128,0,76488:0:0:0:0:
320,192,76417,128,0,76560:0:0:0:0:
192,192,76560,1,0,0:0:0:0:
448,192,76560,128,0,76631:0:0:0:0:
64,192,76560,128,0,76917:0:0:0:0:
448,192,76703,128,0,76917:0:0:0:0:
320,192,76703,128,0,76917:0:0:0:0:
192,192,76703,128,0,76917:0:0:0:0:
64,192,76988,1,0,0:0:0:0:
192,192,76988,1,0,0:0:0:0:
320,192,76988,1,0,0:0:0:0:
448,192,76988,1,0,0:0:0:0:
192,192,77131,1,0,0:0:0:0:
320,192,77131,1,0,0:0:0:0:
64,192,77274,128,0,77631:0:0:0:0:
448,192,77274,128,0,77488:0:0:0:0:
192,192,77298,128,0,77536:0:0:0:0:
320,192,77322,128,0,77512:0:0:0:0:
448,192,77560,128,0,77679:0:0:0:0:
320,192,77583,128,0,77655:0:0:0:0:
192,192,77607,128,0,77774:0:0:0:0:
64,192,77703,128,0,77774:0:0:0:0:
320,192,77726,128,0,77845:0:0:0:0:
448,192,77750,128,0,77845:0:0:0:0:
192,192,77845,1,0,0:0:0:0:
64,192,77845,1,0,0:0:0:0:
64,192,77988,128,0,78345:0:0:0:0:
192,192,77988,128,0,78631:0:0:0:0:
320,192,77988,128,0,78345:0:0:0:0:
448,192,77988,128,0,78345:0:0:0:0:
64,192,78417,128,0,78631:0:0:0:0:
320,192,78417,128,0,78631:0:0:0:0:
448,192,78417,128,0,78917:0:0:0:0:
320,192,78703,128,0,78917:0:0:0:0:
192,192,78703,128,0,78917:0:0:0:0:
64,192,78703,128,0,79345:0:0:0:0:
192,192,78988,128,0,79345:0:0:0:0:
448,192,78988,128,0,79345:0:0:0:0:
320,192,78988,128,0,79631:0:0:0:0:
192,192,79417,128,0,79631:0:0:0:0:
448,192,79417,128,0,79631:0:0:0:0:
64,192,79417,128,0,79631:0:0:0:0:
192,192,79703,1,0,0:0:0:0:
448,192,79703,128,0,79917:0:0:0:0:
64,192,79703,128,0,79845:0:0:0:0:
320,192,79774,128,0,79917:0:0:0:0:
192,192,79845,128,0,79917:0:0:0:0:
320,192,79988,1,0,0:0:0:0:
448,192,79988,128,0,80131:0:0:0:0:
64,192,79988,128,0,80203:0:0:0:0:
192,192,80060,128,0,80203:0:0:0:0:
320,192,80131,128,0,80203:0:0:0:0:
448,192,80274,1,0,0:0:0:0:
64,192,80274,1,0,0:0:0:0:
192,192,80274,1,0,0:0:0:0:
320,192,80345,1,0,0:0:0:0:
64,192,80417,1,0,0:0:0:0:
192,192,80488,1,0,0:0:0:0:
64,192,80560,1,0,0:0:0:0:
448,192,80560,128,0,80774:0:0:0:0:
320,192,80631,128,0,80774:0:0:0:0:
192,192,80703,128,0,80774:0:0:0:0:
64,192,80774,128,0,80845:0:0:0:0:
192,192,80845,1,0,0:0:0:0:
448,192,80845,128,0,81060:0:0:0:0:
320,192,80917,1,0,0:0:0:0:
64,192,80988,128,0,81060:0:0:0:0:
192,192,81060,1,0,0:0:0:0:
448,192,81131,1,0,0:0:0:0:
64,192,81131,128,0,81345:0:0:0:0:
320,192,81203,1,0,0:0:0:0:
192,192,81274,128,0,81345:0:0:0:0:
320,192,81345,1,0,0:0:0:0:
448,192,81417,1,0,0:0:0:0:
64,192,81417,1,0,0:0:0:0:
192,192,81417,1,0,0:0:0:0:
320,192,81488,1,0,0:0:0:0:
64,192,81560,1,0,0:0:0:0:
192,192,81631,1,0,0:0:0:0:
320,192,81703,1,0,0:0:0:0:
448,192,81703,1,0,0:0:0:0:
64,192,81703,1,0,0:0:0:0:
192,192,81774,1,0,0:0:0:0:
448,192,81845,1,0,0:0:0:0:
320,192,81917,1,0,0:0:0:0:
192,192,81988,1,0,0:0:0:0:
64,192,81988,1,0,0:0:0:0:
448,192,81988,1,0,0:0:0:0:
320,192,82060,1,0,0:0:0:0:
192,192,82131,1,0,0:0:0:0:
64,192,82203,1,0,0:0:0:0:
448,192,82274,1,0,0:0:0:0:
320,192,82274,1,0,0:0:0:0:
192,192,82274,1,0,0:0:0:0:
64,192,82345,1,0,0:0:0:0:
448,192,82417,1,0,0:0:0:0:
320,192,82488,1,0,0:0:0:0:
448,192,82560,128,0,82774:0:0:0:0:
64,192,82560,128,0,82703:0:0:0:0:
192,192,82560,128,0,82631:0:0:0:0:
320,192,82631,1,0,0:0:0:0:
192,192,82703,1,0,0:0:0:0:
64,192,82774,1,0,0:0:0:0:
192,192,82845,1,0,0:0:0:0:
320,192,82845,128,0,82917:0:0:0:0:
448,192,82917,128,0,82988:0:0:0:0:
320,192,82988,128,0,83131:0:0:0:0:
448,192,83060,128,0,83203:0:0:0:0:
64,192,83131,1,0,0:0:0:0:
192,192,83131,128,0,83203:0:0:0:0:
320,192,83203,128,0,83274:0:0:0:0:
192,192,83274,128,0,83417:0:0:0:0:
320,192,83345,128,0,83488:0:0:0:0:
64,192,83417,128,0,83488:0:0:0:0:
448,192,83417,1,0,0:0:0:0:
192,192,83488,128,0,83560:0:0:0:0:
64,192,83560,128,0,83703:0:0:0:0:
192,192,83631,128,0,83774:0:0:0:0:
320,192,83703,1,0,0:0:0:0:
448,192,83703,128,0,83774:0:0:0:0:
64,192,83774,128,0,83845:0:0:0:0:
448,192,83845,128,0,83988:0:0:0:0:
64,192,83917,128,0,84060:0:0:0:0:
192,192,83988,1,0,0:0:0:0:
320,192,83988,128,0,84060:0:0:0:0:
448,192,84060,128,0,84131:0:0:0:0:
320,192,84131,128,0,84274:0:0:0:0:
448,192,84203,128,0,84345:0:0:0:0:
64,192,84274,1,0,0:0:0:0:
192,192,84274,128,0,84345:0:0:0:0:
320,192,84345,128,0,84417:0:0:0:0:
192,192,84417,128,0,84560:0:0:0:0:
320,192,84488,128,0,84631:0:0:0:0:
64,192,84560,128,0,84631:0:0:0:0:
448,192,84560,1,0,0:0:0:0:
192,192,84631,128,0,84703:0:0:0:0:
64,192,84703,128,0,84774:0:0:0:0:
192,192,84774,128,0,84845:0:0:0:0:
64,192,84845,128,0,85060:0:0:0:0:
448,192,84845,128,0,85060:0:0:0:0:
320,192,84845,128,0,84988:0:0:0:0:
192,192,84988,1,0,0:0:0:0:
448,192,85131,128,0,85345:0:0:0:0:
64,192,85131,128,0,85345:0:0:0:0:
192,192,85131,128,0,85274:0:0:0:0:
320,192,85274,1,0,0:0:0:0:
448,192,85417,128,0,85631:0:0:0:0:
64,192,85417,128,0,85631:0:0:0:0:
320,192,85417,128,0,85560:0:0:0:0:
192,192,85560,1,0,0:0:0:0:
320,192,85703,1,0,0:0:0:0:
64,192,85703,128,0,85774:0:0:0:0:
448,192,85703,128,0,86060:0:0:0:0:
64,192,85845,128,0,86060:0:0:0:0:
192,192,85845,128,0,86060:0:0:0:0:
320,192,85845,128,0,86060:0:0:0:0:
448,192,86131,1,0,0:0:0:0:
320,192,86131,1,0,0:0:0:0:
192,192,86131,1,0,0:0:0:0:
64,192,86131,1,0,0:0:0:0:
320,192,86274,1,0,0:0:0:0:
192,192,86274,1,0,0:0:0:0:
64,192,86417,128,0,86631:0:0:0:0:
448,192,86417,128,0,86774:0:0:0:0:
320,192,86441,128,0,86679:0:0:0:0:
192,192,86464,128,0,86655:0:0:0:0:
64,192,86703,128,0,86822:0:0:0:0:
192,192,86726,128,0,86798:0:0:0:0:
320,192,86750,128,0,86917:0:0:0:0:
448,192,86845,128,0,87060:0:0:0:0:
192,192,86869,128,0,87060:0:0:0:0:
64,192,86893,128,0,87060:0:0:0:0:
320,192,86988,128,0,87131:0:0:0:0:
64,192,87131,1,0,0:0:0:0:
192,192,87131,1,0,0:0:0:0:
448,192,87131,128,0,87560:0:0:0:0:
320,192,87560,1,0,0:0:0:0:
192,192,87560,1,0,0:0:0:0:
64,192,87560,128,0,87917:0:0:0:0:
320,192,87703,1,0,0:0:0:0:
192,192,87703,1,0,0:0:0:0:
448,192,87988,1,0,0:0:0:0:
64,192,87988,1,0,0:0:0:0:
192,192,87988,128,0,88203:0:0:0:0:
64,192,88274,1,0,0:0:0:0:
192,192,88274,1,0,0:0:0:0:
320,192,88274,128,0,88774:0:0:0:0:
448,192,88560,1,0,0:0:0:0:
192,192,88703,1,0,0:0:0:0:
64,192,88703,1,0,0:0:0:0:
320,192,88845,1,0,0:0:0:0:
64,192,88845,1,0,0:0:0:0:
448,192,88845,128,0,89345:0:0:0:0:
320,192,89131,1,0,0:0:0:0:
192,192,89131,1,0,0:0:0:0:
64,192,89417,1,0,0:0:0:0:
320,192,89417,1,0,0:0:0:0:
448,192,89417,128,0,89774:0:0:0:0:
192,192,89703,1,0,0:0:0:0:
448,192,89845,1,0,0:0:0:0:
64,192,89845,1,0,0:0:0:0:
320,192,89845,128,0,90203:0:0:0:0:
192,192,89988,1,0,0:0:0:0:
64,192,89988,1,0,0:0:0:0:
320,192,90274,1,0,0:0:0:0:
448,192,90274,1,0,0:0:0:0:
64,192,90274,128,0,90488:0:0:0:0:
192,192,90417,1,0,0:0:0:0:
448,192,90417,1,0,0:0:0:0:
192,192,90560,1,0,0:0:0:0:
64,192,90560,128,0,91131:0:0:0:0:
320,192,90560,1,0,0:0:0:0:
320,192,90703,1,0,0:0:0:0:
448,192,90703,1,0,0:0:0:0:
192,192,90845,1,0,0:0:0:0:
320,192,90988,1,0,0:0:0:0:
448,192,90988,1,0,0:0:0:0:
192,192,91131,1,0,0:0:0:0:
320,192,91131,1,0,0:0:0:0:
448,192,91131,1,0,0:0:0:0:
192,192,91274,1,0,0:0:0:0:
320,192,91417,1,0,0:0:0:0:
448,192,91417,1,0,0:0:0:0:
64,192,91417,128,0,91631:0:0:0:0:
320,192,91560,1,0,0:0:0:0:
448,192,91703,1,0,0:0:0:0:
64,192,91703,1,0,0:0:0:0:
192,192,91703,128,0,91917:0:0:0:0:
192,192,91988,1,0,0:0:0:0:
448,192,91988,1,0,0:0:0:0:
320,192,91988,128,0,92488:0:0:0:0:
448,192,92274,1,0,0:0:0:0:
192,192,92417,1,0,0:0:0:0:
64,192,92417,1,0,0:0:0:0:
64,192,92560,1,0,0:0:0:0:
448,192,92560,1,0,0:0:0:0:
320,192,92560,128,0,92774:0:0:0:0:
320,192,92845,1,0,0:0:0:0:
192,192,92845,1,0,0:0:0:0:
448,192,92845,128,0,93345:0:0:0:0:
64,192,93131,1,0,0:0:0:0:
192,192,93131,1,0,0:0:0:0:
448,192,93417,128,0,93917:0:0:0:0:
320,192,93417,1,0,0:0:0:0:
64,192,93560,1,0,0:0:0:0:
192,192,93560,1,0,0:0:0:0:
64,192,93703,1,0,0:0:0:0:
320,192,93703,1,0,0:0:0:0:
448,192,93988,1,0,0:0:0:0:
192,192,93988,1,0,0:0:0:0:
64,192,93988,128,0,94988:0:0:0:0:
320,192,94131,1,0,0:0:0:0:
192,192,94131,1,0,0:0:0:0:
320,192,94274,1,0,0:0:0:0:
448,192,94274,1,0,0:0:0:0:
448,192,94560,1,0,0:0:0:0:
192,192,94560,1,0,0:0:0:0:
320,192,94703,1,0,0:0:0:0:
448,192,94703,1,0,0:0:0:0:
320,192,94845,1,0,0:0:0:0:
192,192,94845,1,0,0:0:0:0:
448,192,94988,1,0,0:0:0:0:
192,192,94988,1,0,0:0:0:0:
320,192,95131,1,0,0:0:0:0:
64,192,95131,1,0,0:0:0:0:
192,192,95131,1,0,0:0:0:0:
192,192,95274,1,0,0:0:0:0:
320,192,95274,1,0,0:0:0:0:
64,192,95274,1,0,0:0:0:0:
448,192,95417,1,0,0:0:0:0:
192,192,95417,1,0,0:0:0:0:
320,192,95417,1,0,0:0:0:0:
448,192,95560,1,0,0:0:0:0:
320,192,95560,1,0,0:0:0:0:
192,192,95560,1,0,0:0:0:0:
64,192,95703,1,0,0:0:0:0:
448,192,95703,1,0,0:0:0:0:
320,192,95703,1,0,0:0:0:0:
64,192,95845,1,0,0:0:0:0:
448,192,95845,1,0,0:0:0:0:
320,192,95845,1,0,0:0:0:0:
192,192,95988,1,0,0:0:0:0:
64,192,95988,1,0,0:0:0:0:
448,192,95988,1,0,0:0:0:0:
192,192,96131,1,0,0:0:0:0:
64,192,96131,1,0,0:0:0:0:
448,192,96131,1,0,0:0:0:0:
448,192,96274,128,0,96703:0:0:0:0:
320,192,96274,1,0,0:0:0:0:
64,192,96274,1,0,0:0:0:0:
192,192,96274,1,0,0:0:0:0:
64,192,96560,1,0,0:0:0:0:
320,192,96703,1,0,0:0:0:0:
192,192,96703,1,0,0:0:0:0:
64,192,96703,128,0,97060:0:0:0:0:
320,192,96845,1,0,0:0:0:0:
192,192,96845,1,0,0:0:0:0:
448,192,97131,1,0,0:0:0:0:
64,192,97131,1,0,0:0:0:0:
192,192,97131,128,0,97345:0:0:0:0:
64,192,97417,1,0,0:0:0:0:
192,192,97417,1,0,0:0:0:0:
320,192,97417,128,0,97917:0:0:0:0:
448,192,97703,1,0,0:0:0:0:
192,192,97845,1,0,0:0:0:0:
64,192,97845,1,0,0:0:0:0:
320,192,97988,1,0,0:0:0:0:
64,192,97988,1,0,0:0:0:0:
448,192,97988,128,0,98488:0:0:0:0:
192,192,98274,1,0,0:0:0:0:
64,192,98560,1,0,0:0:0:0:
320,192,98560,1,0,0:0:0:0:
448,192,98560,128,0,98917:0:0:0:0:
192,192,98845,1,0,0:0:0:0:
448,192,98988,1,0,0:0:0:0:
64,192,98988,1,0,0:0:0:0:
320,192,98988,128,0,99345:0:0:0:0:
192,192,99131,1,0,0:0:0:0:
64,192,99131,1,0,0:0:0:0:
64,192,99417,128,0,99631:0:0:0:0:
320,192,99417,1,0,0:0:0:0:
192,192,99560,1,0,0:0:0:0:
448,192,99560,1,0,0:0:0:0:
192,192,99703,1,0,0:0:0:0:
64,192,99703,128,0,100274:0:0:0:0:
320,192,99703,1,0,0:0:0:0:
320,192,99845,1,0,0:0:0:0:
448,192,99845,1,0,0:0:0:0:
192,192,99988,1,0,0:0:0:0:
320,192,100131,1,0,0:0:0:0:
448,192,100131,1,0,0:0:0:0:
192,192,100274,1,0,0:0:0:0:
64,192,100560,1,0,0:0:0:0:
320,192,100560,1,0,0:0:0:0:
448,192,100560,1,0,0:0:0:0:
192,192,100845,1,0,0:0:0:0:
64,192,100845,1,0,0:0:0:0:
448,192,100845,1,0,0:0:0:0:
192,192,100988,1,0,0:0:0:0:
64,192,100988,1,0,0:0:0:0:
320,192,100988,1,0,0:0:0:0:
64,192,101131,1,0,0:0:0:0:
192,192,101131,1,0,0:0:0:0:
448,192,101131,1,0,0:0:0:0:
192,192,101274,1,0,0:0:0:0:
64,192,101274,1,0,0:0:0:0:
320,192,101274,1,0,0:0:0:0:
64,192,101417,1,0,0:0:0:0:
320,192,101417,1,0,0:0:0:0:
448,192,101417,1,0,0:0:0:0:
192,192,101560,1,0,0:0:0:0:
320,192,101560,1,0,0:0:0:0:
448,192,101560,1,0,0:0:0:0:
64,192,101703,1,0,0:0:0:0:
320,192,101703,1,0,0:0:0:0:
448,192,101703,1,0,0:0:0:0:
192,192,101845,1,0,0:0:0:0:
320,192,101845,1,0,0:0:0:0:
448,192,101845,1,0,0:0:0:0:
192,192,101988,1,0,0:0:0:0:
64,192,101988,1,0,0:0:0:0:
320,192,102060,1,0,0:0:0:0:
448,192,102060,1,0,0:0:0:0:
192,192,102131,1,0,0:0:0:0:
64,192,102131,1,0,0:0:0:0:
320,192,102203,1,0,0:0:0:0:
448,192,102203,1,0,0:0:0:0:
192,192,102274,1,0,0:0:0:0:
64,192,102274,1,0,0:0:0:0:
320,192,102345,1,0,0:0:0:0:
448,192,102345,1,0,0:0:0:0:
192,192,102417,1,0,0:0:0:0:
64,192,102417,1,0,0:0:0:0:
320,192,102488,1,0,0:0:0:0:
448,192,102488,1,0,0:0:0:0:
64,192,102560,1,0,0:0:0:0:
192,192,102560,1,0,0:0:0:0:
448,192,102607,1,0,0:0:0:0:
320,192,102655,1,0,0:0:0:0:
192,192,102703,1,0,0:0:0:0:
448,192,102750,1,0,0:0:0:0:
64,192,102798,1,0,0:0:0:0:
320,192,102845,1,0,0:0:0:0:
192,192,102893,1,0,0:0:0:0:
64,192,102941,1,0,0:0:0:0:
448,192,102988,1,0,0:0:0:0:
320,192,103036,1,0,0:0:0:0:
192,192,103083,1,0,0:0:0:0:
320,192,103131,1,0,0:0:0:0:
448,192,103131,1,0,0:0:0:0:
64,192,103131,128,0,103274:0:0:0:0:
320,192,103274,1,0,0:0:0:0:
448,192,103274,1,0,0:0:0:0:
192,192,103274,128,0,103417:0:0:0:0:
64,192,103417,1,0,0:0:0:0:
448,192,103417,1,0,0:0:0:0:
320,192,103417,128,0,103560:0:0:0:0:
192,192,103560,1,0,0:0:0:0:
64,192,103560,1,0,0:0:0:0:
448,192,103560,128,0,103703:0:0:0:0:
320,192,103703,1,0,0:0:0:0:
192,192,103703,1,0,0:0:0:0:
64,192,103703,128,0,103988:0:0:0:0:
320,192,103988,1,0,0:0:0:0:
448,192,103988,1,0,0:0:0:0:
192,192,103988,128,0,104131:0:0:0:0:
320,192,104131,1,0,0:0:0:0:
64,192,104131,1,0,0:0:0:0:
448,192,104131,128,0,104417:0:0:0:0:
192,192,104417,1,0,0:0:0:0:
64,192,104417,1,0,0:0:0:0:
320,192,104417,128,0,104560:0:0:0:0:
64,192,104560,1,0,0:0:0:0:
448,192,104560,1,0,0:0:0:0:
192,192,104560,128,0,104703:0:0:0:0:
448,192,104703,128,0,104845:0:0:0:0:
320,192,104703,1,0,0:0:0:0:
64,192,104703,1,0,0:0:0:0:
320,192,104845,128,0,104988:0:0:0:0:
192,192,104845,1,0,0:0:0:0:
64,192,104845,1,0,0:0:0:0:
192,192,104988,128,0,105131:0:0:0:0:
448,192,104988,1,0,0:0:0:0:
64,192,104988,1,0,0:0:0:0:
64,192,105131,128,0,105274:0:0:0:0:
320,192,105131,1,0,0:0:0:0:
448,192,105131,1,0,0:0:0:0:
448,192,105274,128,0,105560:0:0:0:0:
192,192,105274,128,0,105703:0:0:0:0:
320,192,105274,128,0,105631:0:0:0:0:
64,192,105703,128,0,106060:0:0:0:0:
320,192,105703,128,0,105845:0:0:0:0:
448,192,105703,128,0,105917:0:0:0:0:
192,192,105845,128,0,105988:0:0:0:0:
320,192,105917,128,0,106131:0:0:0:0:
448,192,105988,128,0,106417:0:0:0:0:
192,192,106060,128,0,106203:0:0:0:0:
64,192,106131,128,0,106274:0:0:0:0:
320,192,106203,128,0,106345:0:0:0:0:
192,192,106274,128,0,106488:0:0:0:0:
64,192,106345,128,0,106488:0:0:0:0:
320,192,106417,128,0,106560:0:0:0:0:
448,192,106488,128,0,106560:0:0:0:0:
192,192,106560,1,0,0:0:0:0:
64,192,106560,1,0,0:0:0:0:
320,192,106631,1,0,0:0:0:0:
448,192,106631,1,0,0:0:0:0:
192,192,106703,1,0,0:0:0:0:
64,192,106703,1,0,0:0:0:0:
320,192,106774,1,0,0:0:0:0:
448,192,106774,1,0,0:0:0:0:
192,192,106845,1,0,0:0:0:0:
64,192,106845,1,0,0:0:0:0:
320,192,106917,1,0,0:0:0:0:
448,192,106917,1,0,0:0:0:0:
192,192,106988,1,0,0:0:0:0:
64,192,106988,1,0,0:0:0:0:
320,192,107060,1,0,0:0:0:0:
448,192,107060,1,0,0:0:0:0:
192,192,107131,1,0,0:0:0:0:
64,192,107131,1,0,0:0:0:0:
320,192,107203,1,0,0:0:0:0:
448,192,107203,1,0,0:0:0:0:
192,192,107274,1,0,0:0:0:0:
64,192,107274,1,0,0:0:0:0:
320,192,107345,1,0,0:0:0:0:
448,192,107417,1,0,0:0:0:0:
192,192,107417,1,0,0:0:0:0:
64,192,107417,1,0,0:0:0:0:
64,192,107703,1,0,0:0:0:0:
192,192,107703,1,0,0:0:0:0:
448,192,107703,128,0,107917:0:0:0:0:
320,192,107774,128,0,107917:0:0:0:0:
192,192,107845,128,0,107917:0:0:0:0:
64,192,107917,128,0,107988:0:0:0:0:
320,192,107988,1,0,0:0:0:0:
192,192,107988,128,0,108203:0:0:0:0:
448,192,107988,128,0,108060:0:0:0:0:
320,192,108131,128,0,108274:0:0:0:0:
448,192,108131,128,0,108203:0:0:0:0:
64,192,108274,1,0,0:0:0:0:
448,192,108274,1,0,0:0:0:0:
192,192,108274,128,0,108345:0:0:0:0:
192,192,108417,128,0,108560:0:0:0:0:
320,192,108560,128,0,108774:0:0:0:0:
448,192,108560,1,0,0:0:0:0:
64,192,108560,128,0,108631:0:0:0:0:
192,192,108703,128,0,108917:0:0:0:0:
64,192,108703,128,0,108774:0:0:0:0:
448,192,108845,1,0,0:0:0:0:
64,192,108845,1,0,0:0:0:0:
320,192,108845,1,0,0:0:0:0:
192,192,108988,128,0,109131:0:0:0:0:
320,192,109131,128,0,109345:0:0:0:0:
448,192,109131,128,0,109203:0:0:0:0:
64,192,109131,1,0,0:0:0:0:
192,192,109274,128,0,109417:0:0:0:0:
448,192,109274,128,0,109345:0:0:0:0:
448,192,109417,1,0,0:0:0:0:
64,192,109417,1,0,0:0:0:0:
320,192,109417,128,0,109631:0:0:0:0:
192,192,109560,128,0,109703:0:0:0:0:
448,192,109703,1,0,0:0:0:0:
320,192,109703,128,0,109917:0:0:0:0:
64,192,109703,128,0,109774:0:0:0:0:
192,192,109845,128,0,109988:0:0:0:0:
64,192,109845,128,0,109917:0:0:0:0:
448,192,109988,1,0,0:0:0:0:
320,192,109988,1,0,0:0:0:0:
64,192,109988,128,0,110203:0:0:0:0:
192,192,110060,128,0,110203:0:0:0:0:
320,192,110131,128,0,110203:0:0:0:0:
448,192,110203,128,0,110274:0:0:0:0:
192,192,110274,1,0,0:0:0:0:
320,192,110274,128,0,110488:0:0:0:0:
64,192,110274,128,0,110345:0:0:0:0:
192,192,110417,128,0,110560:0:0:0:0:
64,192,110417,128,0,110488:0:0:0:0:
448,192,110560,1,0,0:0:0:0:
64,192,110560,1,0,0:0:0:0:
320,192,110560,128,0,110631:0:0:0:0:
320,192,110703,128,0,110845:0:0:0:0:
192,192,110845,128,0,111060:0:0:0:0:
64,192,110845,1,0,0:0:0:0:
448,192,110845,128,0,110917:0:0:0:0:
320,192,110988,128,0,111203:0:0:0:0:
448,192,110988,128,0,111060:0:0:0:0:
64,192,111131,1,0,0:0:0:0:
448,192,111131,1,0,0:0:0:0:
192,192,111131,1,0,0:0:0:0:
320,192,111274,128,0,111417:0:0:0:0:
192,192,111417,128,0,111631:0:0:0:0:
448,192,111417,1,0,0:0:0:0:
64,192,111417,128,0,111488:0:0:0:0:
320,192,111560,128,0,111703:0:0:0:0:
64,192,111560,128,0,111631:0:0:0:0:
64,192,111703,128,0,111917:0:0:0:0:
192,192,111703,128,0,111774:0:0:0:0:
448,192,111703,128,0,111917:0:0:0:0:
192,192,111845,128,0,112060:0:0:0:0:
320,192,111988,128,0,112203:0:0:0:0:
448,192,111988,128,0,112060:0:0:0:0:
64,192,111988,128,0,112060:0:0:0:0:
448,192,112131,128,0,112203:0:0:0:0:
64,192,112131,128,0,112203:0:0:0:0:
64,192,112274,1,0,0:0:0:0:
192,192,112274,1,0,0:0:0:0:
448,192,112274,128,0,112488:0:0:0:0:
320,192,112345,128,0,112488:0:0:0:0:
192,192,112417,128,0,112488:0:0:0:0:
64,192,112488,128,0,112560:0:0:0:0:
320,192,112560,1,0,0:0:0:0:
192,192,112560,128,0,112774:0:0:0:0:
448,192,112560,128,0,112631:0:0:0:0:
320,192,112703,128,0,112845:0:0:0:0:
448,192,112703,128,0,112774:0:0:0:0:
64,192,112845,1,0,0:0:0:0:
448,192,112845,1,0,0:0:0:0:
192,192,112845,128,0,112917:0:0:0:0:
192,192,112988,128,0,113131:0:0:0:0:
448,192,113131,1,0,0:0:0:0:
320,192,113131,128,0,113345:0:0:0:0:
64,192,113131,128,0,113203:0:0:0:0:
192,192,113274,128,0,113488:0:0:0:0:
64,192,113274,128,0,113345:0:0:0:0:
448,192,113417,1,0,0:0:0:0:
64,192,113417,1,0,0:0:0:0:
320,192,113417,1,0,0:0:0:0:
192,192,113560,128,0,113703:0:0:0:0:
320,192,113703,128,0,113917:0:0:0:0:
448,192,113703,128,0,113774:0:0:0:0:
64,192,113703,1,0,0:0:0:0:
192,192,113845,128,0,113988:0:0:0:0:
448,192,113845,128,0,113917:0:0:0:0:
448,192,113988,1,0,0:0:0:0:
64,192,113988,1,0,0:0:0:0:
320,192,113988,128,0,114203:0:0:0:0:
192,192,114131,128,0,114274:0:0:0:0:
448,192,114274,1,0,0:0:0:0:
320,192,114274,128,0,114488:0:0:0:0:
64,192,114274,128,0,114345:0:0:0:0:
192,192,114417,128,0,114560:0:0:0:0:
64,192,114417,128,0,114488:0:0:0:0:
448,192,114560,1,0,0:0:0:0:
320,192,114560,1,0,0:0:0:0:
64,192,114560,128,0,114774:0:0:0:0:
192,192,114631,128,0,114774:0:0:0:0:
320,192,114703,128,0,114774:0:0:0:0:
448,192,114774,128,0,114845:0:0:0:0:
192,192,114845,1,0,0:0:0:0:
320,192,114845,128,0,115060:0:0:0:0:
64,192,114845,128,0,114917:0:0:0:0:
192,192,114988,128,0,115131:0:0:0:0:
64,192,114988,128,0,115060:0:0:0:0:
448,192,115131,1,0,0:0:0:0:
64,192,115131,1,0,0:0:0:0:
320,192,115131,128,0,115203:0:0:0:0:
320,192,115274,128,0,115417:0:0:0:0:
192,192,115417,128,0,115631:0:0:0:0:
448,192,115417,128,0,115488:0:0:0:0:
64,192,115417,1,0,0:0:0:0:
448,192,115560,128,0,115631:0:0:0:0:
320,192,115560,128,0,115703:0:0:0:0:
64,192,115703,128,0,115917:0:0:0:0:
448,192,115703,128,0,115917:0:0:0:0:
192,192,115703,128,0,115774:0:0:0:0:
192,192,115845,128,0,115988:0:0:0:0:
320,192,115988,128,0,116203:0:0:0:0:
448,192,115988,128,0,116060:0:0:0:0:
64,192,115988,128,0,116203:0:0:0:0:
448,192,116131,128,0,116274:0:0:0:0:
64,192,116274,128,0,116488:0:0:0:0:
320,192,116274,128,0,116345:0:0:0:0:
192,192,116274,128,0,116488:0:0:0:0:
320,192,116417,128,0,116488:0:0:0:0:
192,192,116560,128,0,116774:0:0:0:0:
448,192,116560,1,0,0:0:0:0:
64,192,116560,1,0,0:0:0:0:
320,192,116560,128,0,116774:0:0:0:0:
64,192,116703,128,0,116774:0:0:0:0:
448,192,116703,128,0,116774:0:0:0:0:
448,192,116845,128,0,117131:0:0:0:0:
192,192,116845,128,0,116988:0:0:0:0:
64,192,116845,128,0,117131:0:0:0:0:
320,192,116845,1,0,0:0:0:0:
320,192,116988,128,0,117131:0:0:0:0:
192,192,117131,1,0,0:0:0:0:
64,192,117274,1,0,0:0:0:0:
448,192,117274,128,0,117560:0:0:0:0:
320,192,117274,128,0,117417:0:0:0:0:
192,192,117274,128,0,117560:0:0:0:0:
64,192,117417,128,0,117560:0:0:0:0:
320,192,117560,1,0,0:0:0:0:
448,192,117703,1,0,0:0:0:0:
320,192,117703,128,0,117988:0:0:0:0:
192,192,117703,128,0,117988:0:0:0:0:
64,192,117703,128,0,117845:0:0:0:0:
448,192,117845,128,0,117988:0:0:0:0:
64,192,117988,1,0,0:0:0:0:
192,192,118131,1,0,0:0:0:0:
64,192,118131,128,0,118417:0:0:0:0:
320,192,118131,128,0,118417:0:0:0:0:
448,192,118131,128,0,118274:0:0:0:0:
192,192,118274,128,0,118417:0:0:0:0:
448,192,118417,1,0,0:0:0:0:
320,192,118560,1,0,0:0:0:0:
448,192,118560,128,0,118845:0:0:0:0:
192,192,118560,128,0,118845:0:0:0:0:
64,192,118560,128,0,118703:0:0:0:0:
320,192,118703,128,0,118845:0:0:0:0:
64,192,118845,1,0,0:0:0:0:
448,192,118988,128,0,119417:0:0:0:0:
320,192,118988,128,0,119988:0:0:0:0:
192,192,118988,128,0,119988:0:0:0:0:
64,192,118988,128,0,119274:0:0:0:0:
64,192,119417,1,0,0:0:0:0:
448,192,119560,1,0,0:0:0:0:
64,192,119703,1,0,0:0:0:0:
448,192,119845,1,0,0:0:0:0:
64,192,120131,1,0,0:0:0:0:
448,192,120560,1,0,0:0:0:0:
64,192,120845,1,0,0:0:0:0:
192,192,120917,1,0,0:0:0:0:
320,192,120988,1,0,0:0:0:0:
320,192,122560,1,0,0:0:0:0:
192,192,122595,1,0,0:0:0:0:
64,192,122631,1,0,0:0:0:0:
320,192,122667,1,0,0:0:0:0:
448,192,122703,1,0,0:0:0:0:
64,192,123417,128,0,123512:0:0:0:0:
192,192,123441,128,0,123560:0:0:0:0:
320,192,123464,128,0,123607:0:0:0:0:
64,192,123703,1,0,0:0:0:0:
192,192,123703,128,0,123869:0:0:0:0:
320,192,123750,128,0,123822:0:0:0:0:
448,192,123798,128,0,124203:0:0:0:0:
320,192,123893,128,0,124155:0:0:0:0:
192,192,123941,128,0,124107:0:0:0:0:
64,192,123988,128,0,124488:0:0:0:0:
192,192,124179,128,0,124441:0:0:0:0:
320,192,124226,128,0,124393:0:0:0:0:
448,192,124274,128,0,124679:0:0:0:0:
320,192,124464,128,0,124679:0:0:0:0:
192,192,124512,128,0,124679:0:0:0:0:
64,192,124560,128,0,124679:0:0:0:0:
448,192,124750,128,0,124869:0:0:0:0:
64,192,124750,1,0,0:0:0:0:
320,192,124798,128,0,125036:0:0:0:0:
192,192,124845,128,0,124988:0:0:0:0:
64,192,124893,128,0,124964:0:0:0:0:
448,192,124941,128,0,125060:0:0:0:0:
192,192,125036,1,0,0:0:0:0:
64,192,125036,1,0,0:0:0:0:
64,192,125131,1,0,0:0:0:0:
448,192,125131,1,0,0:0:0:0:
320,192,125179,1,0,0:0:0:0:
192,192,125226,1,0,0:0:0:0:
448,192,125274,1,0,0:0:0:0:
64,192,125417,1,0,0:0:0:0:
192,192,125417,1,0,0:0:0:0:
320,192,125464,1,0,0:0:0:0:
448,192,125512,1,0,0:0:0:0:
64,192,125560,1,0,0:0:0:0:
320,192,125631,1,0,0:0:0:0:
448,192,125703,1,0,0:0:0:0:
192,192,125703,1,0,0:0:0:0:
320,192,125893,1,0,0:0:0:0:
192,192,125941,1,0,0:0:0:0:
448,192,125988,1,0,0:0:0:0:
64,192,125988,1,0,0:0:0:0:
192,192,126179,1,0,0:0:0:0:
320,192,126203,1,0,0:0:0:0:
448,192,126274,1,0,0:0:0:0:
64,192,126274,1,0,0:0:0:0:
192,192,126322,1,0,0:0:0:0:
320,192,126369,1,0,0:0:0:0:
448,192,126417,1,0,0:0:0:0:
64,192,126560,1,0,0:0:0:0:
320,192,126560,1,0,0:0:0:0:
192,192,126607,1,0,0:0:0:0:
448,192,126655,1,0,0:0:0:0:
320,192,126703,1,0,0:0:0:0:
192,192,126774,1,0,0:0:0:0:
448,192,126845,1,0,0:0:0:0:
64,192,126845,1,0,0:0:0:0:
320,192,126893,1,0,0:0:0:0:
192,192,126941,1,0,0:0:0:0:
448,192,127036,1,0,0:0:0:0:
320,192,127036,1,0,0:0:0:0:
192,192,127083,1,0,0:0:0:0:
448,192,127131,1,0,0:0:0:0:
64,192,127131,1,0,0:0:0:0:
320,192,127322,1,0,0:0:0:0:
192,192,127345,1,0,0:0:0:0:
64,192,127417,1,0,0:0:0:0:
448,192,127417,1,0,0:0:0:0:
320,192,127464,1,0,0:0:0:0:
192,192,127512,1,0,0:0:0:0:
64,192,127560,1,0,0:0:0:0:
448,192,127703,1,0,0:0:0:0:
192,192,127703,1,0,0:0:0:0:
64,192,127750,1,0,0:0:0:0:
320,192,127798,1,0,0:0:0:0:
448,192,127845,1,0,0:0:0:0:
192,192,127917,1,0,0:0:0:0:
64,192,127988,1,0,0:0:0:0:
448,192,127988,1,0,0:0:0:0:
192,192,128179,1,0,0:0:0:0:
320,192,128226,1,0,0:0:0:0:
448,192,128274,1,0,0:0:0:0:
64,192,128274,1,0,0:0:0:0:
64,192,128464,128,0,128655:0:0:0:0:
192,192,128464,1,0,0:0:0:0:
192,192,128560,128,0,128750:0:0:0:0:
448,192,128560,128,0,128655:0:0:0:0:
448,192,128750,128,0,128845:0:0:0:0:
64,192,128845,1,0,0:0:0:0:
320,192,128845,1,0,0:0:0:0:
64,192,128941,1,0,0:0:0:0:
192,192,128941,1,0,0:0:0:0:
320,192,129036,1,0,0:0:0:0:
448,192,129036,1,0,0:0:0:0:
64,192,129131,128,0,129226:0:0:0:0:
192,192,129155,128,0,129250:0:0:0:0:
320,192,129179,128,0,129274:0:0:0:0:
64,192,129322,128,0,129560:0:0:0:0:
448,192,129322,128,0,129464:0:0:0:0:
192,192,129322,128,0,129512:0:0:0:0:
320,192,129607,1,0,0:0:0:0:
448,192,129607,1,0,0:0:0:0:
448,192,129703,1,0,0:0:0:0:
64,192,129703,1,0,0:0:0:0:
192,192,129750,1,0,0:0:0:0:
320,192,129798,1,0,0:0:0:0:
64,192,129845,1,0,0:0:0:0:
448,192,129988,1,0,0:0:0:0:
320,192,129988,1,0,0:0:0:0:
192,192,130036,1,0,0:0:0:0:
64,192,130083,1,0,0:0:0:0:
448,192,130131,1,0,0:0:0:0:
192,192,130203,1,0,0:0:0:0:
64,192,130274,1,0,0:0:0:0:
320,192,130274,1,0,0:0:0:0:
192,192,130464,1,0,0:0:0:0:
320,192,130512,1,0,0:0:0:0:
64,192,130560,1,0,0:0:0:0:
448,192,130560,1,0,0:0:0:0:
320,192,130750,1,0,0:0:0:0:
192,192,130774,1,0,0:0:0:0:
64,192,130845,1,0,0:0:0:0:
448,192,130845,1,0,0:0:0:0:
320,192,130893,1,0,0:0:0:0:
192,192,130941,1,0,0:0:0:0:
64,192,130988,1,0,0:0:0:0:
448,192,131131,1,0,0:0:0:0:
192,192,131131,1,0,0:0:0:0:
320,192,131179,1,0,0:0:0:0:
64,192,131226,1,0,0:0:0:0:
192,192,131274,1,0,0:0:0:0:
320,192,131345,1,0,0:0:0:0:
64,192,131417,1,0,0:0:0:0:
448,192,131417,1,0,0:0:0:0:
192,192,131464,1,0,0:0:0:0:
320,192,131512,1,0,0:0:0:0:
64,192,131607,1,0,0:0:0:0:
192,192,131607,1,0,0:0:0:0:
320,192,131655,1,0,0:0:0:0:
64,192,131703,1,0,0:0:0:0:
448,192,131703,1,0,0:0:0:0:
192,192,131893,1,0,0:0:0:0:
320,192,131917,1,0,0:0:0:0:
448,192,131988,1,0,0:0:0:0:
64,192,131988,1,0,0:0:0:0:
192,192,132036,1,0,0:0:0:0:
320,192,132083,1,0,0:0:0:0:
448,192,132131,1,0,0:0:0:0:
64,192,132274,1,0,0:0:0:0:
320,192,132274,1,0,0:0:0:0:
448,192,132322,1,0,0:0:0:0:
192,192,132369,1,0,0:0:0:0:
64,192,132417,1,0,0:0:0:0:
320,192,132488,1,0,0:0:0:0:
448,192,132560,1,0,0:0:0:0:
64,192,132560,1,0,0:0:0:0:
320,192,132750,1,0,0:0:0:0:
192,192,132798,1,0,0:0:0:0:
64,192,132845,1,0,0:0:0:0:
448,192,132845,1,0,0:0:0:0:
448,192,132941,1,0,0:0:0:0:
320,192,132941,1,0,0:0:0:0:
192,192,133036,1,0,0:0:0:0:
64,192,133036,1,0,0:0:0:0:
64,192,133131,1,0,0:0:0:0:
448,192,133131,1,0,0:0:0:0:
320,192,133226,1,0,0:0:0:0:
192,192,133322,1,0,0:0:0:0:
320,192,133417,128,0,133583:0:0:0:0:
448,192,133417,128,0,133607:0:0:0:0:
64,192,133417,128,0,133536:0:0:0:0:
64,192,133607,128,0,133845:0:0:0:0:
192,192,133631,128,0,133822:0:0:0:0:
320,192,133655,128,0,133798:0:0:0:0:
448,192,133679,128,0,133774:0:0:0:0:
448,192,133893,1,0,0:0:0:0:
320,192,133893,1,0,0:0:0:0:
192,192,133893,1,0,0:0:0:0:
64,192,133964,1,0,0:0:0:0:
320,192,134036,1,0,0:0:0:0:
192,192,134107,1,0,0:0:0:0:
64,192,134179,1,0,0:0:0:0:
448,192,134179,1,0,0:0:0:0:
320,192,134274,1,0,0:0:0:0:
448,192,134274,1,0,0:0:0:0:
192,192,134274,1,0,0:0:0:0:
64,192,134369,1,0,0:0:0:0:
320,192,134464,1,0,0:0:0:0:
192,192,134560,1,0,0:0:0:0:
64,192,134560,128,0,134750:0:0:0:0:
448,192,134560,128,0,134750:0:0:0:0:
192,192,134750,1,0,0:0:0:0:
64,192,134845,1,0,0:0:0:0:
448,192,134845,1,0,0:0:0:0:
320,192,134845,1,0,0:0:0:0:
192,192,134941,1,0,0:0:0:0:
448,192,135036,1,0,0:0:0:0:
192,192,135131,1,0,0:0:0:0:
320,192,135131,1,0,0:0:0:0:
64,192,135131,1,0,0:0:0:0:
448,192,135195,1,0,0:0:0:0:
320,192,135258,1,0,0:0:0:0:
64,192,135322,1,0,0:0:0:0:
192,192,135417,1,0,0:0:0:0:
320,192,135417,1,0,0:0:0:0:
448,192,135417,1,0,0:0:0:0:
64,192,135512,1,0,0:0:0:0:
448,192,135607,1,0,0:0:0:0:
320,192,135703,1,0,0:0:0:0:
192,192,135703,128,0,135893:0:0:0:0:
64,192,135703,128,0,135893:0:0:0:0:
320,192,135893,1,0,0:0:0:0:
448,192,135893,1,0,0:0:0:0:
64,192,135988,1,0,0:0:0:0:
448,192,135988,128,0,136083:0:0:0:0:
320,192,136012,128,0,136131:0:0:0:0:
192,192,136036,128,0,136179:0:0:0:0:
448,192,136179,1,0,0:0:0:0:
64,192,136179,1,0,0:0:0:0:
320,192,136250,1,0,0:0:0:0:
192,192,136322,1,0,0:0:0:0:
64,192,136393,1,0,0:0:0:0:
320,192,136464,1,0,0:0:0:0:
448,192,136464,1,0,0:0:0:0:
64,192,136560,1,0,0:0:0:0:
192,192,136560,1,0,0:0:0:0:
448,192,136560,1,0,0:0:0:0:
320,192,136655,1,0,0:0:0:0:
192,192,136750,1,0,0:0:0:0:
64,192,136845,1,0,0:0:0:0:
448,192,136845,1,0,0:0:0:0:
320,192,136845,1,0,0:0:0:0:
192,192,136909,1,0,0:0:0:0:
64,192,136972,1,0,0:0:0:0:
448,192,137036,1,0,0:0:0:0:
64,192,137131,1,0,0:0:0:0:
192,192,137131,1,0,0:0:0:0:
320,192,137131,1,0,0:0:0:0:
448,192,137226,1,0,0:0:0:0:
192,192,137322,1,0,0:0:0:0:
64,192,137417,1,0,0:0:0:0:
320,192,137417,1,0,0:0:0:0:
448,192,137417,1,0,0:0:0:0:
192,192,137480,1,0,0:0:0:0:
320,192,137544,1,0,0:0:0:0:
64,192,137607,1,0,0:0:0:0:
320,192,137703,1,0,0:0:0:0:
448,192,137703,1,0,0:0:0:0:
192,192,137703,1,0,0:0:0:0:
64,192,137798,1,0,0:0:0:0:
320,192,137893,1,0,0:0:0:0:
448,192,137893,1,0,0:0:0:0:
448,192,137988,1,0,0:0:0:0:
64,192,137988,1,0,0:0:0:0:
192,192,137988,1,0,0:0:0:0:
320,192,138052,1,0,0:0:0:0:
192,192,138115,1,0,0:0:0:0:
448,192,138179,128,0,138274:0:0:0:0:
320,192,138203,128,0,138322:0:0:0:0:
64,192,138226,128,0,138393:0:0:0:0:
192,192,138274,1,0,0:0:0:0:
448,192,138369,1,0,0:0:0:0:
320,192,138464,1,0,0:0:0:0:
64,192,138464,1,0,0:0:0:0:
192,192,138536,1,0,0:0:0:0:
448,192,138607,1,0,0:0:0:0:
320,192,138679,1,0,0:0:0:0:
192,192,138750,1,0,0:0:0:0:
64,192,138750,1,0,0:0:0:0:
64,192,138845,1,0,0:0:0:0:
448,192,138845,1,0,0:0:0:0:
320,192,138845,1,0,0:0:0:0:
192,192,138941,1,0,0:0:0:0:
320,192,139036,1,0,0:0:0:0:
192,192,139131,1,0,0:0:0:0:
448,192,139131,1,0,0:0:0:0:
64,192,139131,1,0,0:0:0:0:
320,192,139195,1,0,0:0:0:0:
64,192,139258,1,0,0:0:0:0:
448,192,139322,1,0,0:0:0:0:
192,192,139417,1,0,0:0:0:0:
64,192,139417,1,0,0:0:0:0:
320,192,139417,1,0,0:0:0:0:
448,192,139512,1,0,0:0:0:0:
64,192,139607,1,0,0:0:0:0:
320,192,139703,1,0,0:0:0:0:
448,192,139703,1,0,0:0:0:0:
192,192,139703,1,0,0:0:0:0:
64,192,139766,1,0,0:0:0:0:
192,192,139829,1,0,0:0:0:0:
448,192,139893,1,0,0:0:0:0:
192,192,139988,1,0,0:0:0:0:
64,192,139988,1,0,0:0:0:0:
320,192,139988,1,0,0:0:0:0:
448,192,140083,1,0,0:0:0:0:
64,192,140179,1,0,0:0:0:0:
320,192,140274,1,0,0:0:0:0:
448,192,140274,1,0,0:0:0:0:
192,192,140274,1,0,0:0:0:0:
64,192,140337,1,0,0:0:0:0:
448,192,140464,1,0,0:0:0:0:
192,192,140464,1,0,0:0:0:0:
64,192,140464,1,0,0:0:0:0:
320,192,140528,1,0,0:0:0:0:
320,192,140655,1,0,0:0:0:0:
448,192,140655,1,0,0:0:0:0:
64,192,140655,1,0,0:0:0:0:
192,192,140718,1,0,0:0:0:0:
320,192,140845,1,0,0:0:0:0:
192,192,140845,1,0,0:0:0:0:
64,192,140845,1,0,0:0:0:0:
448,192,140941,1,0,0:0:0:0:
64,192,141036,1,0,0:0:0:0:
192,192,141131,1,0,0:0:0:0:
320,192,141131,1,0,0:0:0:0:
448,192,141131,1,0,0:0:0:0:
64,192,141226,1,0,0:0:0:0:
320,192,141322,1,0,0:0:0:0:
192,192,141417,1,0,0:0:0:0:
448,192,141417,1,0,0:0:0:0:
64,192,141417,1,0,0:0:0:0:
320,192,141512,1,0,0:0:0:0:
192,192,141607,1,0,0:0:0:0:
448,192,141703,128,0,141917:0:0:0:0:
64,192,141703,128,0,141845:0:0:0:0:
320,192,141750,128,0,141893:0:0:0:0:
192,192,141798,128,0,141869:0:0:0:0:
64,192,141988,1,0,0:0:0:0:
448,192,141988,1,0,0:0:0:0:
192,192,141988,1,0,0:0:0:0:
320,192,142083,1,0,0:0:0:0:
448,192,142179,1,0,0:0:0:0:
192,192,142179,1,0,0:0:0:0:
64,192,142274,1,0,0:0:0:0:
320,192,142274,1,0,0:0:0:0:
448,192,142274,1,0,0:0:0:0:
192,192,142369,1,0,0:0:0:0:
64,192,142464,1,0,0:0:0:0:
448,192,142464,1,0,0:0:0:0:
64,192,142560,1,0,0:0:0:0:
192,192,142560,1,0,0:0:0:0:
320,192,142560,1,0,0:0:0:0:
448,192,142655,1,0,0:0:0:0:
192,192,142750,1,0,0:0:0:0:
320,192,142845,1,0,0:0:0:0:
448,192,142845,1,0,0:0:0:0:
192,192,142917,1,0,0:0:0:0:
64,192,142917,1,0,0:0:0:0:
320,192,142988,1,0,0:0:0:0:
448,192,142988,1,0,0:0:0:0:
192,192,143060,1,0,0:0:0:0:
64,192,143131,128,0,143345:0:0:0:0:
320,192,143131,128,0,143417:0:0:0:0:
448,192,143131,128,0,143274:0:0:0:0:
192,192,143274,1,0,0:0:0:0:
192,192,143417,128,0,143703:0:0:0:0:
64,192,143417,128,0,143560:0:0:0:0:
448,192,143417,128,0,143631:0:0:0:0:
320,192,143560,1,0,0:0:0:0:
320,192,143703,128,0,143845:0:0:0:0:
448,192,143703,128,0,143917:0:0:0:0:
64,192,143703,128,0,143917:0:0:0:0:
192,192,143845,1,0,0:0:0:0:
64,192,143988,128,0,144274:0:0:0:0:
192,192,143988,128,0,144203:0:0:0:0:
448,192,143988,128,0,144131:0:0:0:0:
320,192,144060,128,0,144167:0:0:0:0:
448,192,144274,128,0,144560:0:0:0:0:
192,192,144274,128,0,144417:0:0:0:0:
320,192,144274,128,0,144488:0:0:0:0:
64,192,144417,1,0,0:0:0:0:
192,192,144560,128,0,144631:0:0:0:0:
64,192,144560,128,0,144703:0:0:0:0:
320,192,144560,128,0,144845:0:0:0:0:
192,192,144703,128,0,144774:0:0:0:0:
448,192,144703,1,0,0:0:0:0:
448,192,144845,128,0,144988:0:0:0:0:
64,192,144845,128,0,145060:0:0:0:0:
192,192,144845,128,0,145131:0:0:0:0:
320,192,144988,1,0,0:0:0:0:
64,192,145131,128,0,145417:0:0:0:0:
448,192,145131,128,0,145203:0:0:0:0:
320,192,145131,128,0,145274:0:0:0:0:
448,192,145274,128,0,145345:0:0:0:0:
192,192,145274,1,0,0:0:0:0:
320,192,145417,128,0,145560:0:0:0:0:
192,192,145417,128,0,145631:0:0:0:0:
448,192,145417,128,0,145703:0:0:0:0:
64,192,145560,1,0,0:0:0:0:
64,192,145703,128,0,145988:0:0:0:0:
192,192,145703,128,0,145845:0:0:0:0:
320,192,145703,128,0,145774:0:0:0:0:
448,192,145845,1,0,0:0:0:0:
320,192,145845,128,0,145917:0:0:0:0:
448,192,145988,128,0,146274:0:0:0:0:
320,192,145988,128,0,146131:0:0:0:0:
192,192,145988,128,0,146060:0:0:0:0:
192,192,146131,128,0,146203:0:0:0:0:
64,192,146274,128,0,146345:0:0:0:0:
192,192,146274,128,0,146560:0:0:0:0:
320,192,146274,128,0,146417:0:0:0:0:
64,192,146417,128,0,146560:0:0:0:0:
448,192,146560,128,0,146631:0:0:0:0:
320,192,146560,1,0,0:0:0:0:
448,192,146703,128,0,146774:0:0:0:0:
448,192,146845,128,0,146988:0:0:0:0:
320,192,146845,1,0,0:0:0:0:
448,192,147131,128,0,147488:0:0:0:0:
64,192,147274,128,0,147488:0:0:0:0:
192,192,147417,128,0,147488:0:0:0:0:
320,192,147560,1,0,0:0:0:0:
64,192,147560,1,0,0:0:0:0:
448,192,147560,128,0,147774:0:0:0:0:
192,192,147631,1,0,0:0:0:0:
320,192,147703,1,0,0:0:0:0:
64,192,147774,1,0,0:0:0:0:
448,192,147845,1,0,0:0:0:0:
320,192,147917,1,0,0:0:0:0:
192,192,147988,1,0,0:0:0:0:
64,192,147988,1,0,0:0:0:0:
448,192,147988,1,0,0:0:0:0:
320,192,148060,1,0,0:0:0:0:
64,192,148131,1,0,0:0:0:0:
192,192,148203,1,0,0:0:0:0:
320,192,148274,1,0,0:0:0:0:
448,192,148274,1,0,0:0:0:0:
64,192,148345,1,0,0:0:0:0:
320,192,148417,1,0,0:0:0:0:
448,192,148417,1,0,0:0:0:0:
192,192,148488,1,0,0:0:0:0:
64,192,148560,1,0,0:0:0:0:
320,192,148560,1,0,0:0:0:0:
448,192,148631,1,0,0:0:0:0:
192,192,148703,1,0,0:0:0:0:
64,192,148703,1,0,0:0:0:0:
320,192,148774,1,0,0:0:0:0:
448,192,148845,1,0,0:0:0:0:
64,192,148845,1,0,0:0:0:0:
192,192,148917,1,0,0:0:0:0:
448,192,148988,1,0,0:0:0:0:
320,192,148988,1,0,0:0:0:0:
192,192,149060,1,0,0:0:0:0:
448,192,149131,1,0,0:0:0:0:
64,192,149131,1,0,0:0:0:0:
192,192,149203,1,0,0:0:0:0:
320,192,149274,1,0,0:0:0:0:
64,192,149345,1,0,0:0:0:0:
192,192,149417,1,0,0:0:0:0:
448,192,149417,1,0,0:0:0:0:
64,192,149488,1,0,0:0:0:0:
448,192,149560,1,0,0:0:0:0:
320,192,149560,1,0,0:0:0:0:
192,192,149631,1,0,0:0:0:0:
64,192,149703,1,0,0:0:0:0:
448,192,149703,1,0,0:0:0:0:
320,192,149774,1,0,0:0:0:0:
192,192,149845,1,0,0:0:0:0:
64,192,149845,1,0,0:0:0:0:
320,192,149917,1,0,0:0:0:0:
448,192,149988,1,0,0:0:0:0:
64,192,149988,1,0,0:0:0:0:
192,192,150060,1,0,0:0:0:0:
448,192,150131,1,0,0:0:0:0:
320,192,150131,1,0,0:0:0:0:
192,192,150203,1,0,0:0:0:0:
448,192,150274,1,0,0:0:0:0:
64,192,150274,1,0,0:0:0:0:
320,192,150345,1,0,0:0:0:0:
64,192,150417,1,0,0:0:0:0:
448,192,150417,1,0,0:0:0:0:
192,192,150488,1,0,0:0:0:0:
64,192,150560,1,0,0:0:0:0:
320,192,150560,1,0,0:0:0:0:
192,192,150631,1,0,0:0:0:0:
448,192,150703,1,0,0:0:0:0:
320,192,150774,1,0,0:0:0:0:
64,192,150845,1,0,0:0:0:0:
448,192,150845,1,0,0:0:0:0:
192,192,150845,1,0,0:0:0:0:
448,192,150988,128,0,151060:0:0:0:0:
320,192,150988,128,0,151131:0:0:0:0:
64,192,150988,128,0,151203:0:0:0:0:
448,192,151131,1,0,0:0:0:0:
192,192,151131,1,0,0:0:0:0:
320,192,151274,128,0,151488:0:0:0:0:
192,192,151274,128,0,151345:0:0:0:0:
448,192,151417,128,0,151631:0:0:0:0:
64,192,151417,128,0,151488:0:0:0:0:
192,192,151417,128,0,151560:0:0:0:0:
320,192,151560,1,0,0:0:0:0:
448,192,151703,1,0,0:0:0:0:
192,192,151703,1,0,0:0:0:0:
64,192,151703,1,0,0:0:0:0:
192,192,151845,1,0,0:0:0:0:
64,192,151845,1,0,0:0:0:0:
448,192,151845,1,0,0:0:0:0:
320,192,151988,1,0,0:0:0:0:
192,192,151988,1,0,0:0:0:0:
448,192,152131,1,0,0:0:0:0:
64,192,152131,128,0,152345:0:0:0:0:
320,192,152131,1,0,0:0:0:0:
192,192,152203,1,0,0:0:0:0:
448,192,152274,1,0,0:0:0:0:
192,192,152345,1,0,0:0:0:0:
64,192,152417,1,0,0:0:0:0:
320,192,152488,1,0,0:0:0:0:
448,192,152560,1,0,0:0:0:0:
192,192,152560,1,0,0:0:0:0:
64,192,152560,1,0,0:0:0:0:
320,192,152631,1,0,0:0:0:0:
64,192,152703,1,0,0:0:0:0:
448,192,152774,1,0,0:0:0:0:
320,192,152845,1,0,0:0:0:0:
192,192,152845,1,0,0:0:0:0:
448,192,152917,1,0,0:0:0:0:
64,192,152988,1,0,0:0:0:0:
192,192,152988,1,0,0:0:0:0:
448,192,153060,1,0,0:0:0:0:
64,192,153131,1,0,0:0:0:0:
320,192,153131,1,0,0:0:0:0:
192,192,153203,1,0,0:0:0:0:
320,192,153274,1,0,0:0:0:0:
448,192,153274,1,0,0:0:0:0:
64,192,153345,1,0,0:0:0:0:
192,192,153417,1,0,0:0:0:0:
320,192,153417,1,0,0:0:0:0:
64,192,153488,1,0,0:0:0:0:
192,192,153560,1,0,0:0:0:0:
448,192,153560,1,0,0:0:0:0:
320,192,153631,1,0,0:0:0:0:
448,192,153703,1,0,0:0:0:0:
64,192,153703,1,0,0:0:0:0:
192,192,153774,1,0,0:0:0:0:
320,192,153845,1,0,0:0:0:0:
192,192,153917,1,0,0:0:0:0:
64,192,153988,1,0,0:0:0:0:
320,192,153988,1,0,0:0:0:0:
448,192,153988,1,0,0:0:0:0:
192,192,154060,1,0,0:0:0:0:
64,192,154131,1,0,0:0:0:0:
320,192,154203,1,0,0:0:0:0:
64,192,154274,1,0,0:0:0:0:
448,192,154274,1,0,0:0:0:0:
192,192,154345,1,0,0:0:0:0:
320,192,154417,1,0,0:0:0:0:
448,192,154417,1,0,0:0:0:0:
192,192,154488,1,0,0:0:0:0:
64,192,154560,1,0,0:0:0:0:
448,192,154560,1,0,0:0:0:0:
320,192,154631,1,0,0:0:0:0:
64,192,154703,1,0,0:0:0:0:
192,192,154703,1,0,0:0:0:0:
320,192,154774,1,0,0:0:0:0:
192,192,154845,1,0,0:0:0:0:
448,192,154845,1,0,0:0:0:0:
64,192,154917,1,0,0:0:0:0:
448,192,154988,1,0,0:0:0:0:
320,192,154988,1,0,0:0:0:0:
192,192,155060,1,0,0:0:0:0:
64,192,155131,1,0,0:0:0:0:
320,192,155131,1,0,0:0:0:0:
448,192,155203,1,0,0:0:0:0:
192,192,155274,1,0,0:0:0:0:
64,192,155274,1,0,0:0:0:0:
448,192,155345,1,0,0:0:0:0:
192,192,155417,1,0,0:0:0:0:
64,192,155417,1,0,0:0:0:0:
320,192,155488,1,0,0:0:0:0:
64,192,155560,1,0,0:0:0:0:
192,192,155560,1,0,0:0:0:0:
320,192,155631,1,0,0:0:0:0:
448,192,155703,1,0,0:0:0:0:
192,192,155703,1,0,0:0:0:0:
64,192,155703,1,0,0:0:0:0:
320,192,155845,1,0,0:0:0:0:
448,192,155845,1,0,0:0:0:0:
192,192,155845,1,0,0:0:0:0:
64,192,155988,1,0,0:0:0:0:
320,192,155988,1,0,0:0:0:0:
192,192,156131,1,0,0:0:0:0:
64,192,156131,1,0,0:0:0:0:
320,192,156274,1,0,0:0:0:0:
448,192,156274,1,0,0:0:0:0:
192,192,156345,1,0,0:0:0:0:
64,192,156345,1,0,0:0:0:0:
320,192,156417,1,0,0:0:0:0:
448,192,156417,1,0,0:0:0:0:
192,192,156488,1,0,0:0:0:0:
64,192,156488,1,0,0:0:0:0:
320,192,156560,1,0,0:0:0:0:
448,192,156560,1,0,0:0:0:0:
192,192,156631,1,0,0:0:0:0:
320,192,156703,128,0,156845:0:0:0:0:
64,192,156703,128,0,156774:0:0:0:0:
448,192,156703,128,0,156917:0:0:0:0:
192,192,156774,1,0,0:0:0:0:
64,192,156845,1,0,0:0:0:0:
320,192,156917,1,0,0:0:0:0:
448,192,156988,1,0,0:0:0:0:
192,192,157060,1,0,0:0:0:0:
64,192,157131,1,0,0:0:0:0:
320,192,157131,1,0,0:0:0:0:
448,192,157131,1,0,0:0:0:0:
192,192,157203,1,0,0:0:0:0:
448,192,157274,1,0,0:0:0:0:
320,192,157345,1,0,0:0:0:0:
192,192,157417,128,0,157560:0:0:0:0:
64,192,157417,128,0,157488:0:0:0:0:
448,192,157488,1,0,0:0:0:0:
320,192,157560,1,0,0:0:0:0:
64,192,157560,1,0,0:0:0:0:
192,192,157631,1,0,0:0:0:0:
320,192,157703,1,0,0:0:0:0:
448,192,157703,128,0,157774:0:0:0:0:
192,192,157774,1,0,0:0:0:0:
64,192,157845,128,0,157917:0:0:0:0:
448,192,157845,128,0,157988:0:0:0:0:
320,192,157917,1,0,0:0:0:0:
192,192,157988,1,0,0:0:0:0:
64,192,157988,1,0,0:0:0:0:
448,192,158060,1,0,0:0:0:0:
64,192,158131,1,0,0:0:0:0:
192,192,158131,1,0,0:0:0:0:
320,192,158203,1,0,0:0:0:0:
64,192,158274,1,0,0:0:0:0:
448,192,158274,1,0,0:0:0:0:
192,192,158345,1,0,0:0:0:0:
320,192,158417,1,0,0:0:0:0:
64,192,158488,1,0,0:0:0:0:
192,192,158560,128,0,158703:0:0:0:0:
448,192,158560,128,0,158631:0:0:0:0:
320,192,158631,1,0,0:0:0:0:
64,192,158703,1,0,0:0:0:0:
448,192,158703,1,0,0:0:0:0:
192,192,158774,1,0,0:0:0:0:
64,192,158845,1,0,0:0:0:0:
320,192,158845,128,0,158917:0:0:0:0:
448,192,158917,1,0,0:0:0:0:
192,192,158988,128,0,159060:0:0:0:0:
320,192,158988,128,0,159131:0:0:0:0:
64,192,159060,1,0,0:0:0:0:
448,192,159131,1,0,0:0:0:0:
192,192,159131,1,0,0:0:0:0:
64,192,159203,1,0,0:0:0:0:
320,192,159274,1,0,0:0:0:0:
448,192,159274,1,0,0:0:0:0:
192,192,159345,1,0,0:0:0:0:
320,192,159417,1,0,0:0:0:0:
448,192,159417,1,0,0:0:0:0:
64,192,159488,1,0,0:0:0:0:
448,192,159560,1,0,0:0:0:0:
192,192,159560,1,0,0:0:0:0:
320,192,159631,1,0,0:0:0:0:
192,192,159703,128,0,159845:0:0:0:0:
64,192,159703,128,0,159774:0:0:0:0:
320,192,159774,1,0,0:0:0:0:
448,192,159845,1,0,0:0:0:0:
64,192,159845,1,0,0:0:0:0:
320,192,159917,1,0,0:0:0:0:
448,192,159988,1,0,0:0:0:0:
64,192,159988,128,0,160060:0:0:0:0:
192,192,160060,1,0,0:0:0:0:
320,192,160131,128,0,160203:0:0:0:0:
64,192,160131,128,0,160274:0:0:0:0:
448,192,160203,1,0,0:0:0:0:
320,192,160274,1,0,0:0:0:0:
192,192,160274,1,0,0:0:0:0:
64,192,160345,1,0,0:0:0:0:
448,192,160417,1,0,0:0:0:0:
192,192,160488,1,0,0:0:0:0:
320,192,160560,1,0,0:0:0:0:
448,192,160560,1,0,0:0:0:0:
64,192,160560,1,0,0:0:0:0:
192,192,160631,1,0,0:0:0:0:
448,192,160703,1,0,0:0:0:0:
320,192,160774,1,0,0:0:0:0:
64,192,160845,1,0,0:0:0:0:
192,192,160845,128,0,160917:0:0:0:0:
320,192,160917,1,0,0:0:0:0:
192,192,160988,128,0,161131:0:0:0:0:
64,192,160988,128,0,161060:0:0:0:0:
320,192,161060,1,0,0:0:0:0:
448,192,161131,1,0,0:0:0:0:
64,192,161131,1,0,0:0:0:0:
192,192,161203,1,0,0:0:0:0:
448,192,161274,128,0,161417:0:0:0:0:
320,192,161274,128,0,161345:0:0:0:0:
192,192,161345,1,0,0:0:0:0:
64,192,161417,1,0,0:0:0:0:
320,192,161417,1,0,0:0:0:0:
192,192,161488,1,0,0:0:0:0:
448,192,161560,1,0,0:0:0:0:
64,192,161631,1,0,0:0:0:0:
448,192,161703,1,0,0:0:0:0:
320,192,161703,1,0,0:0:0:0:
192,192,161703,1,0,0:0:0:0:
64,192,161774,1,0,0:0:0:0:
192,192,161845,1,0,0:0:0:0:
320,192,161917,1,0,0:0:0:0:
448,192,161988,1,0,0:0:0:0:
64,192,161988,1,0,0:0:0:0:
192,192,162060,1,0,0:0:0:0:
448,192,162131,1,0,0:0:0:0:
320,192,162131,1,0,0:0:0:0:
64,192,162203,1,0,0:0:0:0:
448,192,162274,1,0,0:0:0:0:
192,192,162274,1,0,0:0:0:0:
320,192,162345,1,0,0:0:0:0:
192,192,162417,1,0,0:0:0:0:
64,192,162417,1,0,0:0:0:0:
448,192,162488,1,0,0:0:0:0:
192,192,162560,1,0,0:0:0:0:
320,192,162560,1,0,0:0:0:0:
64,192,162560,1,0,0:0:0:0:
448,192,162631,1,0,0:0:0:0:
64,192,162703,1,0,0:0:0:0:
192,192,162774,1,0,0:0:0:0:
320,192,162845,1,0,0:0:0:0:
448,192,162845,1,0,0:0:0:0:
64,192,162845,1,0,0:0:0:0:
192,192,162917,1,0,0:0:0:0:
448,192,162988,1,0,0:0:0:0:
320,192,163060,1,0,0:0:0:0:
192,192,163131,1,0,0:0:0:0:
64,192,163131,1,0,0:0:0:0:
448,192,163131,1,0,0:0:0:0:
320,192,163203,1,0,0:0:0:0:
64,192,163274,1,0,0:0:0:0:
192,192,163345,1,0,0:0:0:0:
64,192,163417,1,0,0:0:0:0:
320,192,163417,1,0,0:0:0:0:
448,192,163417,1,0,0:0:0:0:
192,192,163560,1,0,0:0:0:0:
320,192,163703,1,0,0:0:0:0:
448,192,163703,1,0,0:0:0:0:
192,192,163703,1,0,0:0:0:0:
64,192,163703,128,0,166758:0:0:0:0:
192,192,164258,128,0,166758:0:0:0:0:
320,192,164258,1,0,0:0:0:0:
448,192,164258,1,0,0:0:0:0:
320,192,164814,128,0,166758:0:0:0:0:
448,192,164814,1,0,0:0:0:0:
448,192,165369,128,0,166758:0:0:0:0:
448,192,166848,128,0,169733:0:0:0:0:
320,192,166848,1,0,0:0:0:0:
192,192,166848,1,0,0:0:0:0:
64,192,166848,1,0,0:0:0:0:
320,192,167328,128,0,169733:0:0:0:0:
192,192,167328,1,0,0:0:0:0:
64,192,167328,1,0,0:0:0:0:
192,192,167809,128,0,169733:0:0:0:0:
64,192,167809,1,0,0:0:0:0:
64,192,168290,128,0,169733:0:0:0:0:
448,192,170694,128,0,170854:0:0:0:0:
320,192,170714,128,0,170854:0:0:0:0:
192,192,170734,128,0,170854:0:0:0:0:
64,192,170754,128,0,170854:0:0:0:0:
64,192,170934,128,0,171094:0:0:0:0:
192,192,170954,128,0,171094:0:0:0:0:
320,192,170974,128,0,171094:0:0:0:0:
448,192,170994,128,0,171094:0:0:0:0:
64,192,171174,128,0,171534:0:0:0:0:
192,192,171204,128,0,171534:0:0:0:0:
320,192,171234,128,0,171534:0:0:0:0:
64,192,171654,1,0,0:0:0:0:
192,192,171654,1,0,0:0:0:0:
320,192,171654,1,0,0:0:0:0:
448,192,171654,1,0,0:0:0:0:
320,192,171774,1,0,0:0:0:0:
192,192,171774,1,0,0:0:0:0:
64,192,171894,1,0,0:0:0:0:
320,192,171894,1,0,0:0:0:0:
448,192,171894,1,0,0:0:0:0:
64,192,172014,1,0,0:0:0:0:
192,192,172014,1,0,0:0:0:0:
64,192,172134,1,0,0:0:0:0:
448,192,172134,1,0,0:0:0:0:
320,192,172134,1,0,0:0:0:0:
192,192,172254,1,0,0:0:0:0:
320,192,172254,1,0,0:0:0:0:
64,192,172374,1,0,0:0:0:0:
448,192,172374,1,0,0:0:0:0:
192,192,172374,1,0,0:0:0:0:
320,192,172494,1,0,0:0:0:0:
64,192,172494,1,0,0:0:0:0:
192,192,172614,1,0,0:0:0:0:
320,192,172614,1,0,0:0:0:0:
448,192,172614,1,0,0:0:0:0:
448,192,172734,1,0,0:0:0:0:
64,192,172734,1,0,0:0:0:0:
64,192,172854,1,0,0:0:0:0:
192,192,172854,1,0,0:0:0:0:
320,192,172854,1,0,0:0:0:0:
192,192,172974,1,0,0:0:0:0:
448,192,172974,1,0,0:0:0:0:
320,192,173094,1,0,0:0:0:0:
448,192,173094,1,0,0:0:0:0:
64,192,173094,1,0,0:0:0:0:
192,192,173214,1,0,0:0:0:0:
320,192,173214,1,0,0:0:0:0:
192,192,173334,1,0,0:0:0:0:
64,192,173334,1,0,0:0:0:0:
448,192,173334,1,0,0:0:0:0:
64,192,173454,1,0,0:0:0:0:
320,192,173454,1,0,0:0:0:0:
192,192,173574,1,0,0:0:0:0:
320,192,173574,1,0,0:0:0:0:
448,192,173574,1,0,0:0:0:0:
64,192,173694,1,0,0:0:0:0:
448,192,173694,1,0,0:0:0:0:
448,192,173814,1,0,0:0:0:0:
64,192,173814,1,0,0:0:0:0:
320,192,173814,1,0,0:0:0:0:
320,192,173934,1,0,0:0:0:0:
192,192,173934,1,0,0:0:0:0:
64,192,174054,1,0,0:0:0:0:
192,192,174054,1,0,0:0:0:0:
448,192,174054,1,0,0:0:0:0:
320,192,174174,1,0,0:0:0:0:
64,192,174174,1,0,0:0:0:0:
192,192,174294,1,0,0:0:0:0:
320,192,174294,1,0,0:0:0:0:
448,192,174294,1,0,0:0:0:0:
64,192,174414,1,0,0:0:0:0:
448,192,174414,1,0,0:0:0:0:
64,192,174534,1,0,0:0:0:0:
192,192,174534,1,0,0:0:0:0:
320,192,174534,1,0,0:0:0:0:
192,192,174654,1,0,0:0:0:0:
448,192,174654,1,0,0:0:0:0:
320,192,174774,1,0,0:0:0:0:
448,192,174774,1,0,0:0:0:0:
64,192,174774,1,0,0:0:0:0:
192,192,174894,1,0,0:0:0:0:
320,192,174894,1,0,0:0:0:0:
192,192,175014,1,0,0:0:0:0:
64,192,175014,1,0,0:0:0:0:
448,192,175014,1,0,0:0:0:0:
320,192,175134,1,0,0:0:0:0:
448,192,175134,1,0,0:0:0:0:
192,192,175254,1,0,0:0:0:0:
64,192,175254,1,0,0:0:0:0:
320,192,175254,1,0,0:0:0:0:
192,192,175374,1,0,0:0:0:0:
448,192,175374,1,0,0:0:0:0:
448,192,175494,1,0,0:0:0:0:
320,192,175494,1,0,0:0:0:0:
192,192,175494,1,0,0:0:0:0:
64,192,175494,1,0,0:0:0:0:
64,192,175614,1,0,0:0:0:0:
320,192,175614,1,0,0:0:0:0:
448,192,175734,1,0,0:0:0:0:
192,192,175734,1,0,0:0:0:0:
64,192,175734,1,0,0:0:0:0:
448,192,175854,1,0,0:0:0:0:
320,192,175854,1,0,0:0:0:0:
448,192,175974,1,0,0:0:0:0:
64,192,175974,1,0,0:0:0:0:
192,192,175974,1,0,0:0:0:0:
320,192,176094,1,0,0:0:0:0:
192,192,176094,1,0,0:0:0:0:
448,192,176214,1,0,0:0:0:0:
64,192,176214,1,0,0:0:0:0:
320,192,176214,1,0,0:0:0:0:
192,192,176334,1,0,0:0:0:0:
448,192,176334,1,0,0:0:0:0:
320,192,176454,1,0,0:0:0:0:
192,192,176454,1,0,0:0:0:0:
64,192,176454,1,0,0:0:0:0:
64,192,176574,1,0,0:0:0:0:
448,192,176574,1,0,0:0:0:0:
448,192,176694,1,0,0:0:0:0:
320,192,176694,1,0,0:0:0:0:
192,192,176694,1,0,0:0:0:0:
320,192,176814,1,0,0:0:0:0:
64,192,176814,1,0,0:0:0:0:
192,192,176934,1,0,0:0:0:0:
64,192,176934,1,0,0:0:0:0:
448,192,176934,1,0,0:0:0:0:
320,192,177054,1,0,0:0:0:0:
192,192,177054,1,0,0:0:0:0:
320,192,177174,1,0,0:0:0:0:
448,192,177174,1,0,0:0:0:0:
64,192,177174,1,0,0:0:0:0:
448,192,177294,1,0,0:0:0:0:
192,192,177294,1,0,0:0:0:0:
192,192,177414,1,0,0:0:0:0:
64,192,177414,1,0,0:0:0:0:
320,192,177414,1,0,0:0:0:0:
448,192,177474,1,0,0:0:0:0:
64,192,177534,1,0,0:0:0:0:
448,192,177594,1,0,0:0:0:0:
320,192,177654,1,0,0:0:0:0:
192,192,177654,1,0,0:0:0:0:
64,192,177714,1,0,0:0:0:0:
320,192,177774,1,0,0:0:0:0:
64,192,177834,1,0,0:0:0:0:
192,192,177894,1,0,0:0:0:0:
448,192,177894,1,0,0:0:0:0:
320,192,177954,1,0,0:0:0:0:
192,192,178014,1,0,0:0:0:0:
320,192,178074,1,0,0:0:0:0:
64,192,178134,1,0,0:0:0:0:
448,192,178134,1,0,0:0:0:0:
192,192,178194,1,0,0:0:0:0:
448,192,178254,1,0,0:0:0:0:
320,192,178314,1,0,0:0:0:0:
192,192,178374,1,0,0:0:0:0:
64,192,178374,1,0,0:0:0:0:
448,192,178434,1,0,0:0:0:0:
320,192,178494,1,0,0:0:0:0:
192,192,178494,1,0,0:0:0:0:
64,192,178554,1,0,0:0:0:0:
320,192,178614,1,0,0:0:0:0:
448,192,178614,1,0,0:0:0:0:
192,192,178674,1,0,0:0:0:0:
448,192,178734,1,0,0:0:0:0:
64,192,178734,1,0,0:0:0:0:
320,192,178794,1,0,0:0:0:0:
64,192,178854,128,0,178934:0:0:0:0:
192,192,178894,128,0,178974:0:0:0:0:
320,192,178934,128,0,179014:0:0:0:0:
448,192,178974,128,0,179054:0:0:0:0:
64,192,179014,128,0,179154:0:0:0:0:
192,192,179054,128,0,179174:0:0:0:0:
320,192,179094,128,0,179194:0:0:0:0:
64,192,179334,1,0,0:0:0:0:
192,192,179334,1,0,0:0:0:0:
448,192,179334,1,0,0:0:0:0:
320,192,179334,1,0,0:0:0:0:
64,192,179454,1,0,0:0:0:0:
192,192,179454,1,0,0:0:0:0:
64,192,179574,1,0,0:0:0:0:
320,192,179574,1,0,0:0:0:0:
448,192,179574,1,0,0:0:0:0:
320,192,179694,1,0,0:0:0:0:
448,192,179694,1,0,0:0:0:0:
192,192,179814,1,0,0:0:0:0:
64,192,179814,1,0,0:0:0:0:
448,192,179814,1,0,0:0:0:0:
320,192,179934,1,0,0:0:0:0:
192,192,179934,1,0,0:0:0:0:
64,192,180054,1,0,0:0:0:0:
320,192,180054,1,0,0:0:0:0:
448,192,180054,1,0,0:0:0:0:
64,192,180174,1,0,0:0:0:0:
448,192,180174,1,0,0:0:0:0:
320,192,180294,1,0,0:0:0:0:
192,192,180294,1,0,0:0:0:0:
64,192,180294,1,0,0:0:0:0:
320,192,180414,1,0,0:0:0:0:
448,192,180414,1,0,0:0:0:0:
448,192,180534,1,0,0:0:0:0:
320,192,180534,1,0,0:0:0:0:
192,192,180534,1,0,0:0:0:0:
192,192,180654,1,0,0:0:0:0:
64,192,180654,1,0,0:0:0:0:
64,192,180774,1,0,0:0:0:0:
320,192,180774,1,0,0:0:0:0:
448,192,180774,1,0,0:0:0:0:
192,192,180894,1,0,0:0:0:0:
320,192,180894,1,0,0:0:0:0:
64,192,181014,1,0,0:0:0:0:
192,192,181014,1,0,0:0:0:0:
448,192,181014,1,0,0:0:0:0:
320,192,181134,1,0,0:0:0:0:
448,192,181134,1,0,0:0:0:0:
192,192,181254,1,0,0:0:0:0:
64,192,181254,1,0,0:0:0:0:
320,192,181254,1,0,0:0:0:0:
448,192,181374,1,0,0:0:0:0:
64,192,181374,1,0,0:0:0:0:
192,192,181494,1,0,0:0:0:0:
320,192,181494,1,0,0:0:0:0:
448,192,181494,1,0,0:0:0:0:
320,192,181614,1,0,0:0:0:0:
192,192,181614,1,0,0:0:0:0:
64,192,181734,1,0,0:0:0:0:
192,192,181734,1,0,0:0:0:0:
448,192,181734,1,0,0:0:0:0:
320,192,181854,1,0,0:0:0:0:
448,192,181854,1,0,0:0:0:0:
64,192,181974,1,0,0:0:0:0:
320,192,181974,1,0,0:0:0:0:
448,192,181974,1,0,0:0:0:0:
192,192,182094,1,0,0:0:0:0:
64,192,182094,1,0,0:0:0:0:
64,192,182214,1,0,0:0:0:0:
320,192,182214,1,0,0:0:0:0:
448,192,182214,1,0,0:0:0:0:
192,192,182334,1,0,0:0:0:0:
448,192,182334,1,0,0:0:0:0:
320,192,182454,1,0,0:0:0:0:
192,192,182454,1,0,0:0:0:0:
64,192,182454,1,0,0:0:0:0:
64,192,182574,1,0,0:0:0:0:
320,192,182574,1,0,0:0:0:0:
448,192,182694,1,0,0:0:0:0:
320,192,182694,1,0,0:0:0:0:
192,192,182694,1,0,0:0:0:0:
64,192,182814,1,0,0:0:0:0:
448,192,182814,1,0,0:0:0:0:
192,192,182934,1,0,0:0:0:0:
320,192,182934,1,0,0:0:0:0:
448,192,182934,1,0,0:0:0:0:
192,192,183054,1,0,0:0:0:0:
64,192,183054,1,0,0:0:0:0:
448,192,183174,1,0,0:0:0:0:
320,192,183174,1,0,0:0:0:0:
64,192,183174,1,0,0:0:0:0:
192,192,183174,1,0,0:0:0:0:
448,192,183294,1,0,0:0:0:0:
320,192,183294,1,0,0:0:0:0:
448,192,183414,1,0,0:0:0:0:
192,192,183414,1,0,0:0:0:0:
64,192,183414,1,0,0:0:0:0:
192,192,183534,1,0,0:0:0:0:
64,192,183534,1,0,0:0:0:0:
320,192,183654,1,0,0:0:0:0:
448,192,183654,1,0,0:0:0:0:
64,192,183654,1,0,0:0:0:0:
192,192,183774,1,0,0:0:0:0:
320,192,183774,1,0,0:0:0:0:
448,192,183894,1,0,0:0:0:0:
192,192,183894,1,0,0:0:0:0:
64,192,183894,1,0,0:0:0:0:
448,192,184014,1,0,0:0:0:0:
64,192,184014,1,0,0:0:0:0:
192,192,184134,1,0,0:0:0:0:
320,192,184134,1,0,0:0:0:0:
448,192,184134,1,0,0:0:0:0:
192,192,184254,1,0,0:0:0:0:
64,192,184254,1,0,0:0:0:0:
64,192,184374,1,0,0:0:0:0:
192,192,184374,1,0,0:0:0:0:
320,192,184374,1,0,0:0:0:0:
320,192,184494,1,0,0:0:0:0:
448,192,184494,1,0,0:0:0:0:
448,192,184614,1,0,0:0:0:0:
192,192,184614,1,0,0:0:0:0:
64,192,184614,1,0,0:0:0:0:
320,192,184734,1,0,0:0:0:0:
192,192,184734,1,0,0:0:0:0:
448,192,184854,1,0,0:0:0:0:
320,192,184854,1,0,0:0:0:0:
64,192,184854,1,0,0:0:0:0:
192,192,184974,1,0,0:0:0:0:
64,192,184974,1,0,0:0:0:0:
320,192,185094,1,0,0:0:0:0:
448,192,185094,1,0,0:0:0:0:
192,192,185094,1,0,0:0:0:0:
64,192,185214,1,0,0:0:0:0:
448,192,185214,1,0,0:0:0:0:
320,192,185334,1,0,0:0:0:0:
192,192,185334,1,0,0:0:0:0:
64,192,185334,1,0,0:0:0:0:
192,192,185454,1,0,0:0:0:0:
320,192,185454,1,0,0:0:0:0:
448,192,185574,1,0,0:0:0:0:
320,192,185574,1,0,0:0:0:0:
64,192,185574,1,0,0:0:0:0:
192,192,185694,1,0,0:0:0:0:
64,192,185694,1,0,0:0:0:0:
448,192,185814,1,0,0:0:0:0:
192,192,185814,1,0,0:0:0:0:
64,192,185814,1,0,0:0:0:0:
320,192,185934,1,0,0:0:0:0:
448,192,185934,1,0,0:0:0:0:
448,192,186054,1,0,0:0:0:0:
192,192,186054,1,0,0:0:0:0:
64,192,186054,1,0,0:0:0:0:
320,192,186054,1,0,0:0:0:0:
192,192,186174,1,0,0:0:0:0:
64,192,186174,1,0,0:0:0:0:
64,192,186294,1,0,0:0:0:0:
192,192,186294,1,0,0:0:0:0:
320,192,186294,1,0,0:0:0:0:
448,192,186294,1,0,0:0:0:0:
320,192,186414,1,0,0:0:0:0:
448,192,186414,1,0,0:0:0:0:
448,192,186534,1,0,0:0:0:0:
320,192,186534,1,0,0:0:0:0:
192,192,186534,1,0,0:0:0:0:
64,192,186534,1,0,0:0:0:0:
192,192,186774,128,0,186954:0:0:0:0:
320,192,186834,128,0,186954:0:0:0:0:
448,192,186894,128,0,186954:0:0:0:0:
448,192,187014,1,0,0:0:0:0:
320,192,187014,1,0,0:0:0:0:
192,192,187014,1,0,0:0:0:0:
64,192,187014,1,0,0:0:0:0:
64,192,187134,1,0,0:0:0:0:
448,192,187254,1,0,0:0:0:0:
320,192,187254,1,0,0:0:0:0:
192,192,187254,1,0,0:0:0:0:
64,192,187254,1,0,0:0:0:0:
320,192,187374,1,0,0:0:0:0:
448,192,187494,1,0,0:0:0:0:
320,192,187494,1,0,0:0:0:0:
192,192,187494,1,0,0:0:0:0:
64,192,187494,1,0,0:0:0:0:
192,192,187614,1,0,0:0:0:0:
448,192,187734,1,0,0:0:0:0:
320,192,187734,1,0,0:0:0:0:
192,192,187734,1,0,0:0:0:0:
64,192,187734,1,0,0:0:0:0:
448,192,187854,1,0,0:0:0:0:
320,192,187974,1,0,0:0:0:0:
192,192,187974,1,0,0:0:0:0:
64,192,187974,1,0,0:0:0:0:
448,192,187974,1,0,0:0:0:0:
64,192,188094,1,0,0:0:0:0:
448,192,188214,1,0,0:0:0:0:
320,192,188214,1,0,0:0:0:0:
192,192,188214,1,0,0:0:0:0:
64,192,188214,1,0,0:0:0:0:
320,192,188334,1,0,0:0:0:0:
448,192,188454,1,0,0:0:0:0:
320,192,188454,1,0,0:0:0:0:
192,192,188454,1,0,0:0:0:0:
64,192,188454,1,0,0:0:0:0:
192,192,188574,1,0,0:0:0:0:
320,192,188694,1,0,0:0:0:0:
448,192,188694,1,0,0:0:0:0:
192,192,188694,1,0,0:0:0:0:
64,192,188694,1,0,0:0:0:0:
448,192,188814,1,0,0:0:0:0:
448,192,188934,1,0,0:0:0:0:
320,192,188934,1,0,0:0:0:0:
64,192,188934,1,0,0:0:0:0:
192,192,188934,1,0,0:0:0:0:
64,192,189054,1,0,0:0:0:0:
448,192,189174,1,0,0:0:0:0:
192,192,189174,1,0,0:0:0:0:
64,192,189174,1,0,0:0:0:0:
320,192,189174,1,0,0:0:0:0:
320,192,189294,1,0,0:0:0:0:
320,192,189414,1,0,0:0:0:0:
448,192,189414,1,0,0:0:0:0:
192,192,189414,1,0,0:0:0:0:
64,192,189414,1,0,0:0:0:0:
192,192,189534,1,0,0:0:0:0:
448,192,189654,1,0,0:0:0:0:
192,192,189654,1,0,0:0:0:0:
64,192,189654,1,0,0:0:0:0:
320,192,189654,1,0,0:0:0:0:
448,192,189774,1,0,0:0:0:0:
192,192,189894,1,0,0:0:0:0:
320,192,189894,1,0,0:0:0:0:
448,192,189894,1,0,0:0:0:0:
64,192,189894,1,0,0:0:0:0:
64,192,190014,1,0,0:0:0:0:
64,192,190134,1,0,0:0:0:0:
192,192,190134,1,0,0:0:0:0:
320,192,190134,1,0,0:0:0:0:
448,192,190134,1,0,0:0:0:0:
320,192,190254,1,0,0:0:0:0:
448,192,190374,1,0,0:0:0:0:
192,192,190374,1,0,0:0:0:0:
64,192,190374,1,0,0:0:0:0:
320,192,190374,1,0,0:0:0:0:
192,192,190494,1,0,0:0:0:0:
448,192,190614,1,0,0:0:0:0:
320,192,190614,1,0,0:0:0:0:
64,192,190614,1,0,0:0:0:0:
192,192,190614,1,0,0:0:0:0:
448,192,190734,1,0,0:0:0:0:
192,192,190854,1,0,0:0:0:0:
64,192,190854,1,0,0:0:0:0:
320,192,190854,1,0,0:0:0:0:
448,192,190854,1,0,0:0:0:0:
64,192,190974,1,0,0:0:0:0:
192,192,190974,1,0,0:0:0:0:
320,192,191094,1,0,0:0:0:0:
448,192,191094,1,0,0:0:0:0:
64,192,191094,1,0,0:0:0:0:
320,192,191214,1,0,0:0:0:0:
192,192,191214,1,0,0:0:0:0:
64,192,191334,1,0,0:0:0:0:
192,192,191334,1,0,0:0:0:0:
448,192,191334,1,0,0:0:0:0:
320,192,191454,1,0,0:0:0:0:
448,192,191454,1,0,0:0:0:0:
64,192,191574,1,0,0:0:0:0:
320,192,191574,1,0,0:0:0:0:
448,192,191574,1,0,0:0:0:0:
192,192,191694,1,0,0:0:0:0:
64,192,191694,1,0,0:0:0:0:
64,192,191814,1,0,0:0:0:0:
320,192,191814,1,0,0:0:0:0:
448,192,191814,1,0,0:0:0:0:
192,192,191814,1,0,0:0:0:0:
448,192,191934,1,0,0:0:0:0:
320,192,191934,1,0,0:0:0:0:
192,192,192054,1,0,0:0:0:0:
64,192,192054,1,0,0:0:0:0:
448,192,192054,1,0,0:0:0:0:
64,192,192174,1,0,0:0:0:0:
320,192,192174,1,0,0:0:0:0:
448,192,192294,1,0,0:0:0:0:
320,192,192294,1,0,0:0:0:0:
192,192,192294,1,0,0:0:0:0:
448,192,192414,1,0,0:0:0:0:
192,192,192414,1,0,0:0:0:0:
320,192,192534,1,0,0:0:0:0:
448,192,192534,1,0,0:0:0:0:
64,192,192534,1,0,0:0:0:0:
192,192,192654,1,0,0:0:0:0:
64,192,192654,1,0,0:0:0:0:
448,192,192774,1,0,0:0:0:0:
320,192,192774,1,0,0:0:0:0:
64,192,192774,1,0,0:0:0:0:
192,192,192774,1,0,0:0:0:0:
320,192,192894,1,0,0:0:0:0:
448,192,192894,1,0,0:0:0:0:
64,192,193014,1,0,0:0:0:0:
192,192,193014,1,0,0:0:0:0:
448,192,193014,1,0,0:0:0:0:
64,192,193134,1,0,0:0:0:0:
192,192,193134,1,0,0:0:0:0:
64,192,193254,1,0,0:0:0:0:
448,192,193254,1,0,0:0:0:0:
320,192,193254,1,0,0:0:0:0:
320,192,193374,1,0,0:0:0:0:
448,192,193374,1,0,0:0:0:0:
64,192,193494,1,0,0:0:0:0:
192,192,193494,1,0,0:0:0:0:
448,192,193494,1,0,0:0:0:0:
64,192,193614,1,0,0:0:0:0:
192,192,193614,1,0,0:0:0:0:
320,192,193734,1,0,0:0:0:0:
448,192,193734,1,0,0:0:0:0:
192,192,193794,1,0,0:0:0:0:
64,192,193854,1,0,0:0:0:0:
448,192,193854,1,0,0:0:0:0:
320,192,193914,1,0,0:0:0:0:
192,192,193974,1,0,0:0:0:0:
64,192,193974,1,0,0:0:0:0:
448,192,194034,1,0,0:0:0:0:
320,192,194094,1,0,0:0:0:0:
192,192,194094,1,0,0:0:0:0:
64,192,194154,1,0,0:0:0:0:
448,192,194214,1,0,0:0:0:0:
320,192,194248,1,0,0:0:0:0:
192,192,194282,1,0,0:0:0:0:
64,192,194316,1,0,0:0:0:0:
448,192,194351,1,0,0:0:0:0:
320,192,194385,1,0,0:0:0:0:
192,192,194419,1,0,0:0:0:0:
64,192,194454,1,0,0:0:0:0:
448,192,194488,1,0,0:0:0:0:
320,192,194522,1,0,0:0:0:0:
192,192,194556,1,0,0:0:0:0:
64,192,194591,1,0,0:0:0:0:
448,192,194625,1,0,0:0:0:0:
320,192,194659,1,0,0:0:0:0:
64,192,194700,128,0,194938:0:0:0:0:
192,192,194747,128,0,194985:0:0:0:0:
320,192,194795,128,0,195033:0:0:0:0:
448,192,194842,128,0,195080:0:0:0:0:
64,192,195128,1,0,0:0:0:0:
448,192,195176,1,0,0:0:0:0:
64,192,195223,1,0,0:0:0:0:
448,192,195271,128,0,196652:0:0:0:0:
320,192,195319,128,0,196700:0:0:0:0:
192,192,195366,128,0,196747:0:0:0:0:
64,192,195414,128,0,196795:0:0:0:0:
448,192,196842,128,0,197056:0:0:0:0:
192,192,196842,128,0,196913:0:0:0:0:
192,192,196984,128,0,197199:0:0:0:0:
64,192,196984,128,0,197056:0:0:0:0:
320,192,196984,1,0,0:0:0:0:
64,192,197127,128,0,197199:0:0:0:0:
448,192,197127,128,0,197199:0:0:0:0:
320,192,197127,1,0,0:0:0:0:
192,192,197270,128,0,197484:0:0:0:0:
448,192,197270,128,0,197342:0:0:0:0:
448,192,197413,128,0,197627:0:0:0:0:
320,192,197413,128,0,197484:0:0:0:0:
64,192,197413,1,0,0:0:0:0:
320,192,197556,128,0,197627:0:0:0:0:
192,192,197556,128,0,197627:0:0:0:0:
64,192,197556,1,0,0:0:0:0:
320,192,197699,128,0,197913:0:0:0:0:
192,192,197699,128,0,197770:0:0:0:0:
64,192,197842,128,0,197913:0:0:0:0:
192,192,197842,128,0,198056:0:0:0:0:
448,192,197842,1,0,0:0:0:0:
64,192,197984,128,0,198056:0:0:0:0:
448,192,197984,1,0,0:0:0:0:
320,192,197984,128,0,198056:0:0:0:0:
448,192,198127,128,0,198342:0:0:0:0:
192,192,198127,128,0,198199:0:0:0:0:
64,192,198270,128,0,198342:0:0:0:0:
192,192,198270,128,0,198484:0:0:0:0:
320,192,198270,1,0,0:0:0:0:
320,192,198413,1,0,0:0:0:0:
448,192,198413,128,0,198484:0:0:0:0:
64,192,198413,128,0,198484:0:0:0:0:
448,192,198556,128,0,198770:0:0:0:0:
64,192,198556,128,0,198627:0:0:0:0:
320,192,198699,128,0,198770:0:0:0:0:
64,192,198699,128,0,198913:0:0:0:0:
192,192,198699,1,0,0:0:0:0:
320,192,198842,128,0,198913:0:0:0:0:
448,192,198842,128,0,198913:0:0:0:0:
192,192,198842,1,0,0:0:0:0:
64,192,198984,128,0,199199:0:0:0:0:
320,192,198984,128,0,199056:0:0:0:0:
320,192,199127,128,0,199342:0:0:0:0:
448,192,199127,128,0,199199:0:0:0:0:
192,192,199127,1,0,0:0:0:0:
448,192,199270,128,0,199342:0:0:0:0:
64,192,199270,128,0,199342:0:0:0:0:
192,192,199270,1,0,0:0:0:0:
320,192,199413,128,0,199627:0:0:0:0:
64,192,199413,128,0,199484:0:0:0:0:
64,192,199556,128,0,199770:0:0:0:0:
192,192,199556,128,0,199627:0:0:0:0:
448,192,199556,1,0,0:0:0:0:
192,192,199699,128,0,199770:0:0:0:0:
320,192,199699,128,0,199770:0:0:0:0:
448,192,199699,1,0,0:0:0:0:
192,192,199842,128,0,200056:0:0:0:0:
320,192,199842,128,0,199913:0:0:0:0:
448,192,199984,128,0,200056:0:0:0:0:
320,192,199984,128,0,200199:0:0:0:0:
64,192,199984,1,0,0:0:0:0:
448,192,200127,128,0,200199:0:0:0:0:
64,192,200127,1,0,0:0:0:0:
192,192,200127,128,0,200199:0:0:0:0:
192,192,200270,128,0,200484:0:0:0:0:
64,192,200270,128,0,200484:0:0:0:0:
320,192,200270,1,0,0:0:0:0:
448,192,200270,1,0,0:0:0:0:
320,192,200412,1,0,0:0:0:0:
448,192,200412,1,0,0:0:0:0:
192,192,200555,128,0,200770:0:0:0:0:
320,192,200555,128,0,200770:0:0:0:0:
64,192,200555,1,0,0:0:0:0:
448,192,200555,1,0,0:0:0:0:
448,192,200698,1,0,0:0:0:0:
64,192,200698,1,0,0:0:0:0:
320,192,200841,128,0,201055:0:0:0:0:
448,192,200841,128,0,201055:0:0:0:0:
192,192,200841,1,0,0:0:0:0:
64,192,200841,1,0,0:0:0:0:
192,192,200984,1,0,0:0:0:0:
64,192,200984,1,0,0:0:0:0:
64,192,201127,128,0,201341:0:0:0:0:
448,192,201127,128,0,201341:0:0:0:0:
192,192,201127,1,0,0:0:0:0:
320,192,201127,1,0,0:0:0:0:
320,192,201270,1,0,0:0:0:0:
192,192,201270,1,0,0:0:0:0:
64,192,201412,128,0,201555:0:0:0:0:
448,192,201412,1,0,0:0:0:0:
320,192,201412,1,0,0:0:0:0:
192,192,201555,128,0,201698:0:0:0:0:
448,192,201555,1,0,0:0:0:0:
320,192,201555,1,0,0:0:0:0:
320,192,201698,128,0,201841:0:0:0:0:
64,192,201698,1,0,0:0:0:0:
448,192,201698,1,0,0:0:0:0:
448,192,201841,128,0,201984:0:0:0:0:
192,192,201841,1,0,0:0:0:0:
64,192,201841,1,0,0:0:0:0:
64,192,201984,128,0,202127:0:0:0:0:
320,192,201984,128,0,202055:0:0:0:0:
192,192,201984,128,0,202055:0:0:0:0:
192,192,202127,128,0,202270:0:0:0:0:
320,192,202127,128,0,202198:0:0:0:0:
448,192,202127,128,0,202198:0:0:0:0:
320,192,202270,128,0,202341:0:0:0:0:
64,192,202270,128,0,202341:0:0:0:0:
448,192,202270,128,0,202341:0:0:0:0:
64,192,202412,128,0,202984:0:0:0:0:
192,192,202412,128,0,202770:0:0:0:0:
320,192,202412,128,0,202841:0:0:0:0:
448,192,202412,128,0,202912:0:0:0:0:
192,192,202841,128,0,203127:0:0:0:0:
320,192,202912,128,0,203055:0:0:0:0:
448,192,202984,128,0,203270:0:0:0:0:
64,192,203055,128,0,203198:0:0:0:0:
320,192,203127,128,0,203412:0:0:0:0:
192,192,203198,128,0,203341:0:0:0:0:
64,192,203270,128,0,203412:0:0:0:0:
448,192,203341,128,0,203484:0:0:0:0:
192,192,203412,128,0,203484:0:0:0:0:
320,192,203484,128,0,203555:0:0:0:0:
448,192,203555,128,0,203627:0:0:0:0:
320,192,203698,1,0,0:0:0:0:
448,192,203698,1,0,0:0:0:0:
192,192,203698,1,0,0:0:0:0:
64,192,203698,1,0,0:0:0:0:
64,192,203841,1,0,0:0:0:0:
192,192,203841,1,0,0:0:0:0:
320,192,203841,1,0,0:0:0:0:
448,192,203841,1,0,0:0:0:0:
448,192,203984,1,0,0:0:0:0:
320,192,203984,1,0,0:0:0:0:
192,192,203984,1,0,0:0:0:0:
64,192,203984,1,0,0:0:0:0:
320,192,204270,128,0,204520:0:0:0:0:
448,192,204270,128,0,204555:0:0:0:0:
192,192,204305,128,0,204484:0:0:0:0:
64,192,204341,128,0,204770:0:0:0:0:
192,192,204555,128,0,204770:0:0:0:0:
320,192,204591,128,0,204770:0:0:0:0:
448,192,204627,128,0,204770:0:0:0:0:
64,192,204841,1,0,0:0:0:0:
192,192,204841,1,0,0:0:0:0:
320,192,204841,1,0,0:0:0:0:
448,192,204841,1,0,0:0:0:0:
448,192,204984,1,0,0:0:0:0:
320,192,204984,1,0,0:0:0:0:
192,192,204984,1,0,0:0:0:0:
64,192,204984,1,0,0:0:0:0:
64,192,205127,1,0,0:0:0:0:
192,192,205127,1,0,0:0:0:0:
320,192,205127,1,0,0:0:0:0:
448,192,205127,1,0,0:0:0:0:
192,192,205412,128,0,205555:0:0:0:0:
320,192,205698,128,0,205841:0:0:0:0:
448,192,205984,128,0,206341:0:0:0:0:
320,192,205984,128,0,206627:0:0:0:0:
192,192,205984,128,0,206341:0:0:0:0:
64,192,205984,128,0,206341:0:0:0:0:
448,192,206412,128,0,206627:0:0:0:0:
192,192,206412,128,0,206627:0:0:0:0:
64,192,206412,128,0,206912:0:0:0:0:
192,192,206698,128,0,206912:0:0:0:0:
320,192,206698,128,0,206912:0:0:0:0:
448,192,206698,128,0,207341:0:0:0:0:
320,192,206984,128,0,207341:0:0:0:0:
64,192,206984,128,0,207341:0:0:0:0:
192,192,206984,128,0,207627:0:0:0:0:
320,192,207412,128,0,207627:0:0:0:0:
64,192,207412,128,0,207627:0:0:0:0:
448,192,207412,128,0,207627:0:0:0:0:
320,192,207698,1,0,0:0:0:0:
64,192,207698,128,0,207912:0:0:0:0:
448,192,207698,128,0,207841:0:0:0:0:
192,192,207770,128,0,207912:0:0:0:0:
320,192,207841,128,0,207912:0:0:0:0:
192,192,207984,1,0,0:0:0:0:
64,192,207984,128,0,208127:0:0:0:0:
448,192,207984,128,0,208198:0:0:0:0:
320,192,208055,128,0,208198:0:0:0:0:
192,192,208127,128,0,208198:0:0:0:0:
64,192,208270,1,0,0:0:0:0:
448,192,208270,1,0,0:0:0:0:
320,192,208270,1,0,0:0:0:0:
192,192,208341,1,0,0:0:0:0:
448,192,208412,1,0,0:0:0:0:
320,192,208484,1,0,0:0:0:0:
448,192,208555,1,0,0:0:0:0:
64,192,208555,128,0,208770:0:0:0:0:
192,192,208627,128,0,208770:0:0:0:0:
320,192,208698,128,0,208770:0:0:0:0:
448,192,208770,128,0,208841:0:0:0:0:
320,192,208841,1,0,0:0:0:0:
64,192,208841,128,0,209055:0:0:0:0:
192,192,208912,1,0,0:0:0:0:
448,192,208984,128,0,209055:0:0:0:0:
320,192,209055,1,0,0:0:0:0:
64,192,209127,1,0,0:0:0:0:
448,192,209127,128,0,209341:0:0:0:0:
192,192,209198,1,0,0:0:0:0:
320,192,209270,128,0,209341:0:0:0:0:
192,192,209341,1,0,0:0:0:0:
64,192,209412,1,0,0:0:0:0:
448,192,209412,1,0,0:0:0:0:
320,192,209412,1,0,0:0:0:0:
192,192,209484,1,0,0:0:0:0:
448,192,209555,1,0,0:0:0:0:
320,192,209627,1,0,0:0:0:0:
192,192,209698,1,0,0:0:0:0:
64,192,209698,1,0,0:0:0:0:
448,192,209698,1,0,0:0:0:0:
320,192,209770,1,0,0:0:0:0:
64,192,209841,1,0,0:0:0:0:
192,192,209912,1,0,0:0:0:0:
320,192,209984,1,0,0:0:0:0:
448,192,209984,1,0,0:0:0:0:
64,192,209984,1,0,0:0:0:0:
192,192,210055,1,0,0:0:0:0:
320,192,210127,1,0,0:0:0:0:
448,192,210198,1,0,0:0:0:0:
64,192,210270,1,0,0:0:0:0:
192,192,210270,1,0,0:0:0:0:
320,192,210270,1,0,0:0:0:0:
448,192,210341,1,0,0:0:0:0:
64,192,210412,1,0,0:0:0:0:
192,192,210484,1,0,0:0:0:0:
64,192,210555,128,0,210770:0:0:0:0:
448,192,210555,128,0,210698:0:0:0:0:
320,192,210555,128,0,210627:0:0:0:0:
192,192,210627,1,0,0:0:0:0:
320,192,210698,1,0,0:0:0:0:
448,192,210770,1,0,0:0:0:0:
320,192,210841,1,0,0:0:0:0:
192,192,210841,128,0,210912:0:0:0:0:
64,192,210912,128,0,210984:0:0:0:0:
192,192,210984,128,0,211127:0:0:0:0:
64,192,211055,128,0,211270:0:0:0:0:
448,192,211127,1,0,0:0:0:0:
320,192,211127,128,0,211198:0:0:0:0:
192,192,211198,128,0,211270:0:0:0:0:
320,192,211270,128,0,211412:0:0:0:0:
192,192,211341,128,0,211555:0:0:0:0:
448,192,211412,128,0,211484:0:0:0:0:
64,192,211412,1,0,0:0:0:0:
320,192,211484,128,0,211555:0:0:0:0:
448,192,211555,128,0,211698:0:0:0:0:
320,192,211627,128,0,211841:0:0:0:0:
192,192,211698,1,0,0:0:0:0:
64,192,211698,128,0,211770:0:0:0:0:
448,192,211770,128,0,211841:0:0:0:0:
64,192,211841,128,0,211984:0:0:0:0:
448,192,211912,128,0,212127:0:0:0:0:
320,192,211984,1,0,0:0:0:0:
192,192,211984,128,0,212055:0:0:0:0:
64,192,212055,128,0,212127:0:0:0:0:
192,192,212127,128,0,212270:0:0:0:0:
64,192,212198,128,0,212412:0:0:0:0:
448,192,212270,1,0,0:0:0:0:
320,192,212270,128,0,212341:0:0:0:0:
192,192,212341,128,0,212412:0:0:0:0:
320,192,212412,128,0,212555:0:0:0:0:
192,192,212484,128,0,212698:0:0:0:0:
448,192,212555,128,0,212627:0:0:0:0:
64,192,212555,1,0,0:0:0:0:
320,192,212627,128,0,212698:0:0:0:0:
448,192,212698,128,0,212770:0:0:0:0:
320,192,212770,128,0,212841:0:0:0:0:
448,192,212841,128,0,213055:0:0:0:0:
64,192,212841,128,0,213055:0:0:0:0:
192,192,212841,128,0,212984:0:0:0:0:
320,192,212984,1,0,0:0:0:0:
64,192,213127,128,0,213341:0:0:0:0:
448,192,213127,128,0,213341:0:0:0:0:
192,192,213127,1,0,0:0:0:0:
320,192,213198,128,0,213341:0:0:0:0:
192,192,213270,128,0,213341:0:0:0:0:
64,192,213412,128,0,213627:0:0:0:0:
448,192,213412,128,0,213627:0:0:0:0:
320,192,213412,1,0,0:0:0:0:
192,192,213555,128,0,213627:0:0:0:0:
320,192,213555,128,0,213698:0:0:0:0:
192,192,213698,1,0,0:0:0:0:
448,192,213698,128,0,213770:0:0:0:0:
64,192,213698,128,0,214055:0:0:0:0:
448,192,213841,128,0,214055:0:0:0:0:
320,192,213841,128,0,214055:0:0:0:0:
192,192,213841,128,0,214055:0:0:0:0:
64,192,214127,1,0,0:0:0:0:
192,192,214127,1,0,0:0:0:0:
320,192,214127,1,0,0:0:0:0:
448,192,214127,1,0,0:0:0:0:
192,192,214270,1,0,0:0:0:0:
320,192,214270,1,0,0:0:0:0:
64,192,214412,128,0,214770:0:0:0:0:
448,192,214412,128,0,214627:0:0:0:0:
192,192,214436,128,0,214674:0:0:0:0:
320,192,214460,128,0,214650:0:0:0:0:
448,192,214698,128,0,214817:0:0:0:0:
320,192,214722,128,0,214793:0:0:0:0:
192,192,214746,128,0,214912:0:0:0:0:
64,192,214841,128,0,214912:0:0:0:0:
320,192,214865,128,0,214984:0:0:0:0:
448,192,214889,128,0,214984:0:0:0:0:
192,192,214984,1,0,0:0:0:0:
64,192,214984,1,0,0:0:0:0:
64,192,215127,128,0,215484:0:0:0:0:
192,192,215127,128,0,215770:0:0:0:0:
320,192,215127,128,0,215484:0:0:0:0:
448,192,215127,128,0,215484:0:0:0:0:
64,192,215555,128,0,215770:0:0:0:0:
320,192,215555,128,0,215770:0:0:0:0:
448,192,215555,128,0,216055:0:0:0:0:
320,192,215841,128,0,216055:0:0:0:0:
192,192,215841,128,0,216055:0:0:0:0:
64,192,215841,128,0,216484:0:0:0:0:
192,192,216127,128,0,216484:0:0:0:0:
448,192,216127,128,0,216484:0:0:0:0:
320,192,216127,128,0,216770:0:0:0:0:
192,192,216555,128,0,216770:0:0:0:0:
448,192,216555,128,0,216770:0:0:0:0:
64,192,216555,128,0,216770:0:0:0:0:
192,192,216841,1,0,0:0:0:0:
448,192,216841,128,0,217055:0:0:0:0:
64,192,216841,128,0,216984:0:0:0:0:
320,192,216912,128,0,217055:0:0:0:0:
192,192,216984,128,0,217055:0:0:0:0:
320,192,217127,1,0,0:0:0:0:
448,192,217127,128,0,217270:0:0:0:0:
64,192,217127,128,0,217341:0:0:0:0:
192,192,217198,128,0,217341:0:0:0:0:
320,192,217270,128,0,217341:0:0:0:0:
448,192,217412,1,0,0:0:0:0:
64,192,217412,1,0,0:0:0:0:
192,192,217412,1,0,0:0:0:0:
320,192,217484,1,0,0:0:0:0:
64,192,217555,1,0,0:0:0:0:
192,192,217627,1,0,0:0:0:0:
64,192,217698,1,0,0:0:0:0:
448,192,217698,128,0,217912:0:0:0:0:
320,192,217770,128,0,217912:0:0:0:0:
192,192,217841,128,0,217912:0:0:0:0:
64,192,217912,128,0,217984:0:0:0:0:
192,192,217984,1,0,0:0:0:0:
448,192,217984,128,0,218198:0:0:0:0:
320,192,218055,1,0,0:0:0:0:
64,192,218127,128,0,218198:0:0:0:0:
192,192,218198,1,0,0:0:0:0:
448,192,218270,1,0,0:0:0:0:
64,192,218270,128,0,218484:0:0:0:0:
320,192,218341,1,0,0:0:0:0:
192,192,218412,128,0,218484:0:0:0:0:
320,192,218484,1,0,0:0:0:0:
448,192,218555,1,0,0:0:0:0:
64,192,218555,1,0,0:0:0:0:
192,192,218555,1,0,0:0:0:0:
320,192,218627,1,0,0:0:0:0:
64,192,218698,1,0,0:0:0:0:
192,192,218770,1,0,0:0:0:0:
320,192,218841,1,0,0:0:0:0:
448,192,218841,1,0,0:0:0:0:
64,192,218841,1,0,0:0:0:0:
192,192,218912,1,0,0:0:0:0:
448,192,218984,1,0,0:0:0:0:
320,192,219055,1,0,0:0:0:0:
192,192,219127,1,0,0:0:0:0:
64,192,219127,1,0,0:0:0:0:
448,192,219127,1,0,0:0:0:0:
320,192,219198,1,0,0:0:0:0:
192,192,219270,1,0,0:0:0:0:
64,192,219341,1,0,0:0:0:0:
448,192,219412,1,0,0:0:0:0:
320,192,219412,1,0,0:0:0:0:
192,192,219412,1,0,0:0:0:0:
64,192,219484,1,0,0:0:0:0:
448,192,219555,1,0,0:0:0:0:
320,192,219627,1,0,0:0:0:0:
448,192,219698,128,0,219912:0:0:0:0:
64,192,219698,128,0,219841:0:0:0:0:
192,192,219698,128,0,219770:0:0:0:0:
320,192,219770,1,0,0:0:0:0:
192,192,219841,1,0,0:0:0:0:
64,192,219912,1,0,0:0:0:0:
192,192,219984,1,0,0:0:0:0:
320,192,219984,128,0,220055:0:0:0:0:
448,192,220055,128,0,220127:0:0:0:0:
320,192,220127,128,0,220270:0:0:0:0:
448,192,220198,128,0,220412:0:0:0:0:
64,192,220270,1,0,0:0:0:0:
192,192,220270,128,0,220341:0:0:0:0:
320,192,220341,128,0,220412:0:0:0:0:
192,192,220412,128,0,220555:0:0:0:0:
320,192,220484,128,0,220698:0:0:0:0:
64,192,220555,128,0,220627:0:0:0:0:
448,192,220555,1,0,0:0:0:0:
192,192,220627,128,0,220698:0:0:0:0:
64,192,220698,128,0,220841:0:0:0:0:
192,192,220770,128,0,220984:0:0:0:0:
320,192,220841,1,0,0:0:0:0:
448,192,220841,128,0,220912:0:0:0:0:
64,192,220912,128,0,220984:0:0:0:0:
448,192,220984,128,0,221127:0:0:0:0:
64,192,221055,128,0,221270:0:0:0:0:
192,192,221127,1,0,0:0:0:0:
320,192,221127,128,0,221198:0:0:0:0:
448,192,221198,128,0,221270:0:0:0:0:
320,192,221270,128,0,221412:0:0:0:0:
448,192,221341,128,0,221555:0:0:0:0:
64,192,221412,1,0,0:0:0:0:
192,192,221412,128,0,221484:0:0:0:0:
320,192,221484,128,0,221555:0:0:0:0:
192,192,221555,128,0,221698:0:0:0:0:
320,192,221627,128,0,221841:0:0:0:0:
64,192,221698,128,0,221770:0:0:0:0:
448,192,221698,1,0,0:0:0:0:
192,192,221770,128,0,221841:0:0:0:0:
64,192,221841,128,0,221912:0:0:0:0:
192,192,221912,128,0,221984:0:0:0:0:
64,192,221984,128,0,222198:0:0:0:0:
448,192,221984,128,0,222198:0:0:0:0:
320,192,221984,128,0,222127:0:0:0:0:
192,192,222127,1,0,0:0:0:0:
448,192,222270,128,0,222484:0:0:0:0:
64,192,222270,128,0,222484:0:0:0:0:
192,192,222270,128,0,222412:0:0:0:0:
320,192,222412,1,0,0:0:0:0:
448,192,222555,128,0,222770:0:0:0:0:
64,192,222555,128,0,222770:0:0:0:0:
320,192,222555,128,0,222698:0:0:0:0:
192,192,222698,1,0,0:0:0:0:
320,192,222841,1,0,0:0:0:0:
64,192,222841,128,0,222912:0:0:0:0:
448,192,222841,128,0,223198:0:0:0:0:
64,192,222984,128,0,223198:0:0:0:0:
192,192,222984,128,0,223198:0:0:0:0:
320,192,222984,128,0,223198:0:0:0:0:
448,192,223270,1,0,0:0:0:0:
320,192,223270,1,0,0:0:0:0:
192,192,223270,1,0,0:0:0:0:
64,192,223270,1,0,0:0:0:0:
320,192,223412,1,0,0:0:0:0:
192,192,223412,1,0,0:0:0:0:
64,192,223555,128,0,223770:0:0:0:0:
448,192,223555,128,0,223912:0:0:0:0:
320,192,223579,128,0,223817:0:0:0:0:
192,192,223603,128,0,223793:0:0:0:0:
64,192,223841,128,0,223960:0:0:0:0:
192,192,223865,128,0,223936:0:0:0:0:
320,192,223889,128,0,224055:0:0:0:0:
448,192,223984,128,0,224198:0:0:0:0:
192,192,224008,128,0,224198:0:0:0:0:
64,192,224031,128,0,224198:0:0:0:0:
320,192,224127,128,0,224198:0:0:0:0:
448,192,224270,128,0,224627:0:0:0:0:
320,192,224270,128,0,224912:0:0:0:0:
192,192,224270,128,0,224627:0:0:0:0:
64,192,224270,128,0,224627:0:0:0:0:
448,192,224698,128,0,224912:0:0:0:0:
192,192,224698,128,0,224912:0:0:0:0:
64,192,224698,128,0,225198:0:0:0:0:
192,192,224984,128,0,225198:0:0:0:0:
320,192,224984,128,0,225198:0:0:0:0:
448,192,224984,128,0,225627:0:0:0:0:
320,192,225270,128,0,225627:0:0:0:0:
64,192,225270,128,0,225627:0:0:0:0:
192,192,225270,128,0,225912:0:0:0:0:
320,192,225698,128,0,225912:0:0:0:0:
64,192,225698,128,0,225912:0:0:0:0:
448,192,225698,128,0,225912:0:0:0:0:
320,192,225984,1,0,0:0:0:0:
64,192,225984,128,0,226198:0:0:0:0:
448,192,225984,128,0,226127:0:0:0:0:
192,192,226055,128,0,226198:0:0:0:0:
320,192,226127,128,0,226198:0:0:0:0:
192,192,226270,1,0,0:0:0:0:
64,192,226270,128,0,226412:0:0:0:0:
448,192,226270,128,0,226484:0:0:0:0:
320,192,226341,128,0,226484:0:0:0:0:
192,192,226412,128,0,226484:0:0:0:0:
64,192,226555,1,0,0:0:0:0:
448,192,226555,1,0,0:0:0:0:
320,192,226555,1,0,0:0:0:0:
192,192,226627,1,0,0:0:0:0:
448,192,226698,1,0,0:0:0:0:
320,192,226770,1,0,0:0:0:0:
448,192,226841,1,0,0:0:0:0:
64,192,226841,128,0,227055:0:0:0:0:
192,192,226912,128,0,227055:0:0:0:0:
320,192,226984,128,0,227055:0:0:0:0:
448,192,227055,128,0,227127:0:0:0:0:
320,192,227127,1,0,0:0:0:0:
64,192,227127,128,0,227341:0:0:0:0:
192,192,227198,1,0,0:0:0:0:
448,192,227270,128,0,227341:0:0:0:0:
320,192,227341,1,0,0:0:0:0:
64,192,227412,1,0,0:0:0:0:
448,192,227412,128,0,227627:0:0:0:0:
192,192,227484,1,0,0:0:0:0:
320,192,227555,128,0,227627:0:0:0:0:
192,192,227627,1,0,0:0:0:0:
64,192,227698,1,0,0:0:0:0:
448,192,227698,1,0,0:0:0:0:
320,192,227698,1,0,0:0:0:0:
192,192,227770,1,0,0:0:0:0:
448,192,227841,1,0,0:0:0:0:
320,192,227912,1,0,0:0:0:0:
192,192,227984,1,0,0:0:0:0:
64,192,227984,1,0,0:0:0:0:
448,192,227984,1,0,0:0:0:0:
320,192,228055,1,0,0:0:0:0:
64,192,228127,1,0,0:0:0:0:
192,192,228198,1,0,0:0:0:0:
320,192,228270,1,0,0:0:0:0:
448,192,228270,1,0,0:0:0:0:
64,192,228270,1,0,0:0:0:0:
192,192,228341,1,0,0:0:0:0:
320,192,228412,1,0,0:0:0:0:
448,192,228484,1,0,0:0:0:0:
64,192,228555,1,0,0:0:0:0:
192,192,228555,1,0,0:0:0:0:
320,192,228555,1,0,0:0:0:0:
448,192,228627,1,0,0:0:0:0:
64,192,228698,1,0,0:0:0:0:
192,192,228770,1,0,0:0:0:0:
64,192,228841,128,0,229055:0:0:0:0:
448,192,228841,128,0,228984:0:0:0:0:
320,192,228841,128,0,228912:0:0:0:0:
192,192,228912,1,0,0:0:0:0:
320,192,228984,1,0,0:0:0:0:
448,192,229055,1,0,0:0:0:0:
320,192,229127,1,0,0:0:0:0:
192,192,229127,128,0,229198:0:0:0:0:
64,192,229198,128,0,229270:0:0:0:0:
192,192,229270,128,0,229412:0:0:0:0:
64,192,229341,128,0,229555:0:0:0:0:
448,192,229412,1,0,0:0:0:0:
320,192,229412,128,0,229484:0:0:0:0:
192,192,229484,128,0,229555:0:0:0:0:
320,192,229555,128,0,229698:0:0:0:0:
192,192,229627,128,0,229841:0:0:0:0:
448,192,229698,128,0,229770:0:0:0:0:
64,192,229698,1,0,0:0:0:0:
320,192,229770,128,0,229841:0:0:0:0:
448,192,229841,128,0,229984:0:0:0:0:
320,192,229912,128,0,230127:0:0:0:0:
192,192,229984,1,0,0:0:0:0:
64,192,229984,128,0,230055:0:0:0:0:
448,192,230055,128,0,230127:0:0:0:0:
64,192,230127,128,0,230270:0:0:0:0:
448,192,230198,128,0,230412:0:0:0:0:
320,192,230270,1,0,0:0:0:0:
192,192,230270,128,0,230341:0:0:0:0:
64,192,230341,128,0,230412:0:0:0:0:
192,192,230412,128,0,230555:0:0:0:0:
64,192,230484,128,0,230698:0:0:0:0:
448,192,230555,1,0,0:0:0:0:
320,192,230555,128,0,230627:0:0:0:0:
192,192,230627,128,0,230698:0:0:0:0:
320,192,230698,128,0,230841:0:0:0:0:
192,192,230770,128,0,230984:0:0:0:0:
448,192,230841,128,0,230912:0:0:0:0:
64,192,230841,1,0,0:0:0:0:
320,192,230912,128,0,230984:0:0:0:0:
448,192,230984,128,0,231055:0:0:0:0:
320,192,231055,128,0,231127:0:0:0:0:
448,192,231127,128,0,231341:0:0:0:0:
64,192,231127,128,0,231341:0:0:0:0:
192,192,231127,128,0,231270:0:0:0:0:
320,192,231270,1,0,0:0:0:0:
64,192,231412,128,0,231627:0:0:0:0:
448,192,231412,128,0,231627:0:0:0:0:
192,192,231412,1,0,0:0:0:0:
320,192,231555,128,0,231627:0:0:0:0:
192,192,231555,128,0,231698:0:0:0:0:
64,192,231698,128,0,231912:0:0:0:0:
448,192,231698,128,0,231912:0:0:0:0:
320,192,231698,1,0,0:0:0:0:
192,192,231841,128,0,231912:0:0:0:0:
320,192,231841,128,0,231984:0:0:0:0:
192,192,231984,1,0,0:0:0:0:
448,192,231984,128,0,232055:0:0:0:0:
64,192,231984,128,0,232341:0:0:0:0:
448,192,232127,128,0,232341:0:0:0:0:
320,192,232127,128,0,232341:0:0:0:0:
192,192,232127,128,0,232341:0:0:0:0:
64,192,232412,1,0,0:0:0:0:
192,192,232412,1,0,0:0:0:0:
320,192,232412,1,0,0:0:0:0:
448,192,232412,1,0,0:0:0:0:
192,192,232555,1,0,0:0:0:0:
320,192,232555,1,0,0:0:0:0:
64,192,232698,128,0,233055:0:0:0:0:
448,192,232698,128,0,232912:0:0:0:0:
192,192,232722,128,0,232960:0:0:0:0:
320,192,232746,128,0,232936:0:0:0:0:
448,192,232984,128,0,233103:0:0:0:0:
320,192,233008,128,0,233079:0:0:0:0:
192,192,233031,128,0,233198:0:0:0:0:
64,192,233127,128,0,233198:0:0:0:0:
320,192,233150,128,0,233270:0:0:0:0:
448,192,233174,128,0,233270:0:0:0:0:
192,192,233270,1,0,0:0:0:0:
64,192,233270,1,0,0:0:0:0:
64,192,233412,128,0,233770:0:0:0:0:
192,192,233412,128,0,234055:0:0:0:0:
320,192,233412,128,0,233770:0:0:0:0:
448,192,233412,128,0,233770:0:0:0:0:
64,192,233841,128,0,234055:0:0:0:0:
320,192,233841,128,0,234055:0:0:0:0:
448,192,233841,128,0,234341:0:0:0:0:
320,192,234127,128,0,234341:0:0:0:0:
192,192,234127,128,0,234341:0:0:0:0:
64,192,234127,128,0,234770:0:0:0:0:
192,192,234412,128,0,234770:0:0:0:0:
448,192,234412,128,0,234770:0:0:0:0:
320,192,234412,128,0,235055:0:0:0:0:
192,192,234841,128,0,235055:0:0:0:0:
448,192,234841,128,0,235055:0:0:0:0:
64,192,234841,128,0,235055:0:0:0:0:
192,192,235127,1,0,0:0:0:0:
448,192,235127,128,0,235341:0:0:0:0:
64,192,235127,128,0,235270:0:0:0:0:
320,192,235198,128,0,235341:0:0:0:0:
192,192,235270,128,0,235341:0:0:0:0:
320,192,235412,1,0,0:0:0:0:
448,192,235412,128,0,235555:0:0:0:0:
64,192,235412,128,0,235627:0:0:0:0:
192,192,235484,128,0,235627:0:0:0:0:
320,192,235555,128,0,235627:0:0:0:0:
448,192,235698,1,0,0:0:0:0:
64,192,235698,1,0,0:0:0:0:
192,192,235698,1,0,0:0:0:0:
320,192,235770,1,0,0:0:0:0:
64,192,235841,1,0,0:0:0:0:
192,192,235912,1,0,0:0:0:0:
64,192,235984,1,0,0:0:0:0:
448,192,235984,128,0,236198:0:0:0:0:
320,192,236055,128,0,236198:0:0:0:0:
192,192,236127,128,0,236198:0:0:0:0:
64,192,236198,128,0,236270:0:0:0:0:
192,192,236270,1,0,0:0:0:0:
448,192,236270,128,0,236484:0:0:0:0:
320,192,236341,1,0,0:0:0:0:
64,192,236412,128,0,236484:0:0:0:0:
192,192,236484,1,0,0:0:0:0:
448,192,236555,1,0,0:0:0:0:
64,192,236555,128,0,236770:0:0:0:0:
320,192,236627,1,0,0:0:0:0:
192,192,236698,128,0,236770:0:0:0:0:
320,192,236770,1,0,0:0:0:0:
448,192,236841,1,0,0:0:0:0:
64,192,236841,1,0,0:0:0:0:
192,192,236841,1,0,0:0:0:0:
320,192,236912,1,0,0:0:0:0:
64,192,236984,1,0,0:0:0:0:
192,192,237055,1,0,0:0:0:0:
320,192,237127,1,0,0:0:0:0:
448,192,237127,1,0,0:0:0:0:
64,192,237127,1,0,0:0:0:0:
192,192,237198,1,0,0:0:0:0:
448,192,237270,1,0,0:0:0:0:
320,192,237341,1,0,0:0:0:0:
192,192,237412,1,0,0:0:0:0:
64,192,237412,1,0,0:0:0:0:
448,192,237412,1,0,0:0:0:0:
320,192,237484,1,0,0:0:0:0:
192,192,237555,1,0,0:0:0:0:
64,192,237627,1,0,0:0:0:0:
448,192,237698,1,0,0:0:0:0:
320,192,237698,1,0,0:0:0:0:
192,192,237698,1,0,0:0:0:0:
64,192,237770,1,0,0:0:0:0:
448,192,237841,1,0,0:0:0:0:
320,192,237912,1,0,0:0:0:0:
64,192,237984,1,0,0:0:0:0:
448,192,237984,1,0,0:0:0:0:
192,192,238031,1,0,0:0:0:0:
320,192,238079,1,0,0:0:0:0:
448,192,238127,1,0,0:0:0:0:
192,192,238174,1,0,0:0:0:0:
320,192,238222,1,0,0:0:0:0:
448,192,238270,1,0,0:0:0:0:
64,192,238270,1,0,0:0:0:0:
192,192,238317,1,0,0:0:0:0:
320,192,238365,1,0,0:0:0:0:
448,192,238412,1,0,0:0:0:0:
192,192,238484,1,0,0:0:0:0:
448,192,238555,1,0,0:0:0:0:
64,192,238555,1,0,0:0:0:0:
320,192,238603,1,0,0:0:0:0:
192,192,238650,1,0,0:0:0:0:
64,192,238698,1,0,0:0:0:0:
320,192,238746,1,0,0:0:0:0:
192,192,238793,1,0,0:0:0:0:
64,192,238841,1,0,0:0:0:0:
448,192,238841,1,0,0:0:0:0:
320,192,238889,1,0,0:0:0:0:
192,192,238936,1,0,0:0:0:0:
64,192,238984,1,0,0:0:0:0:
320,192,239055,1,0,0:0:0:0:
64,192,239127,1,0,0:0:0:0:
448,192,239127,1,0,0:0:0:0:
192,192,239174,1,0,0:0:0:0:
320,192,239222,1,0,0:0:0:0:
448,192,239270,1,0,0:0:0:0:
192,192,239317,1,0,0:0:0:0:
320,192,239365,1,0,0:0:0:0:
448,192,239412,1,0,0:0:0:0:
64,192,239412,1,0,0:0:0:0:
192,192,239460,1,0,0:0:0:0:
320,192,239508,1,0,0:0:0:0:
448,192,239555,1,0,0:0:0:0:
192,192,239627,1,0,0:0:0:0:
448,192,239698,1,0,0:0:0:0:
64,192,239698,1,0,0:0:0:0:
320,192,239746,1,0,0:0:0:0:
192,192,239793,1,0,0:0:0:0:
64,192,239841,1,0,0:0:0:0:
320,192,239889,1,0,0:0:0:0:
192,192,239936,1,0,0:0:0:0:
64,192,239984,1,0,0:0:0:0:
448,192,239984,1,0,0:0:0:0:
320,192,240031,1,0,0:0:0:0:
192,192,240079,1,0,0:0:0:0:
64,192,240127,1,0,0:0:0:0:
320,192,240198,1,0,0:0:0:0:
448,192,240270,128,0,240484:0:0:0:0:
64,192,240270,128,0,240484:0:0:0:0:
192,192,240270,128,0,240412:0:0:0:0:
320,192,240412,1,0,0:0:0:0:
64,192,240555,128,0,240770:0:0:0:0:
448,192,240555,128,0,240770:0:0:0:0:
320,192,240555,128,0,240698:0:0:0:0:
192,192,240698,1,0,0:0:0:0:
64,192,240841,128,0,241055:0:0:0:0:
448,192,240841,128,0,241055:0:0:0:0:
192,192,240841,128,0,240984:0:0:0:0:
320,192,240984,1,0,0:0:0:0:
448,192,241127,128,0,241198:0:0:0:0:
64,192,241127,128,0,241484:0:0:0:0:
192,192,241127,1,0,0:0:0:0:
448,192,241270,128,0,241484:0:0:0:0:
320,192,241270,128,0,241484:0:0:0:0:
192,192,241270,128,0,241484:0:0:0:0:
64,192,241555,1,0,0:0:0:0:
192,192,241555,1,0,0:0:0:0:
320,192,241555,1,0,0:0:0:0:
448,192,241555,1,0,0:0:0:0:
320,192,241698,1,0,0:0:0:0:
192,192,241698,1,0,0:0:0:0:
64,192,241841,128,0,242055:0:0:0:0:
448,192,241841,128,0,242198:0:0:0:0:
320,192,241865,128,0,242103:0:0:0:0:
192,192,241889,128,0,242079:0:0:0:0:
64,192,242127,128,0,242246:0:0:0:0:
192,192,242150,128,0,242222:0:0:0:0:
320,192,242174,128,0,242341:0:0:0:0:
448,192,242270,128,0,242484:0:0:0:0:
192,192,242293,128,0,242484:0:0:0:0:
64,192,242317,128,0,242484:0:0:0:0:
320,192,242412,128,0,242555:0:0:0:0:
448,192,242555,128,0,242984:0:0:0:0:
192,192,242555,1,0,0:0:0:0:
64,192,242555,1,0,0:0:0:0:
320,192,242984,1,0,0:0:0:0:
192,192,242984,1,0,0:0:0:0:
64,192,242984,128,0,243341:0:0:0:0:
320,192,243127,1,0,0:0:0:0:
192,192,243127,1,0,0:0:0:0:
448,192,243412,1,0,0:0:0:0:
64,192,243412,1,0,0:0:0:0:
192,192,243412,128,0,243627:0:0:0:0:
64,192,243698,1,0,0:0:0:0:
192,192,243698,1,0,0:0:0:0:
320,192,243698,128,0,244198:0:0:0:0:
448,192,243984,1,0,0:0:0:0:
192,192,244127,1,0,0:0:0:0:
64,192,244127,1,0,0:0:0:0:
320,192,244270,1,0,0:0:0:0:
64,192,244270,1,0,0:0:0:0:
448,192,244270,128,0,244770:0:0:0:0:
320,192,244555,1,0,0:0:0:0:
192,192,244555,1,0,0:0:0:0:
64,192,244841,1,0,0:0:0:0:
320,192,244841,1,0,0:0:0:0:
448,192,244841,128,0,245198:0:0:0:0:
192,192,245127,1,0,0:0:0:0:
448,192,245270,1,0,0:0:0:0:
64,192,245270,1,0,0:0:0:0:
320,192,245270,128,0,245627:0:0:0:0:
192,192,245412,1,0,0:0:0:0:
64,192,245412,1,0,0:0:0:0:
320,192,245698,1,0,0:0:0:0:
448,192,245698,1,0,0:0:0:0:
64,192,245698,128,0,245912:0:0:0:0:
192,192,245841,1,0,0:0:0:0:
448,192,245841,1,0,0:0:0:0:
192,192,245984,1,0,0:0:0:0:
64,192,245984,128,0,246555:0:0:0:0:
320,192,245984,1,0,0:0:0:0:
320,192,246127,1,0,0:0:0:0:
448,192,246127,1,0,0:0:0:0:
192,192,246270,1,0,0:0:0:0:
320,192,246412,1,0,0:0:0:0:
448,192,246412,1,0,0:0:0:0:
192,192,246555,1,0,0:0:0:0:
320,192,246555,1,0,0:0:0:0:
448,192,246555,1,0,0:0:0:0:
192,192,246698,1,0,0:0:0:0:
320,192,246841,1,0,0:0:0:0:
448,192,246841,1,0,0:0:0:0:
64,192,246841,128,0,247055:0:0:0:0:
320,192,246984,1,0,0:0:0:0:
448,192,247127,1,0,0:0:0:0:
64,192,247127,1,0,0:0:0:0:
192,192,247127,128,0,247341:0:0:0:0:
192,192,247412,1,0,0:0:0:0:
448,192,247412,1,0,0:0:0:0:
320,192,247412,128,0,247912:0:0:0:0:
448,192,247698,1,0,0:0:0:0:
192,192,247841,1,0,0:0:0:0:
64,192,247841,1,0,0:0:0:0:
64,192,247984,1,0,0:0:0:0:
448,192,247984,1,0,0:0:0:0:
320,192,247984,128,0,248198:0:0:0:0:
320,192,248270,1,0,0:0:0:0:
192,192,248270,1,0,0:0:0:0:
448,192,248270,128,0,248770:0:0:0:0:
64,192,248555,1,0,0:0:0:0:
192,192,248555,1,0,0:0:0:0:
448,192,248841,128,0,249341:0:0:0:0:
320,192,248841,1,0,0:0:0:0:
64,192,248984,1,0,0:0:0:0:
192,192,248984,1,0,0:0:0:0:
64,192,249127,1,0,0:0:0:0:
320,192,249127,1,0,0:0:0:0:
448,192,249412,1,0,0:0:0:0:
192,192,249412,1,0,0:0:0:0:
64,192,249412,128,0,250412:0:0:0:0:
320,192,249555,1,0,0:0:0:0:
192,192,249555,1,0,0:0:0:0:
320,192,249698,1,0,0:0:0:0:
448,192,249698,1,0,0:0:0:0:
448,192,249984,1,0,0:0:0:0:
192,192,249984,1,0,0:0:0:0:
320,192,250127,1,0,0:0:0:0:
448,192,250127,1,0,0:0:0:0:
320,192,250270,1,0,0:0:0:0:
192,192,250270,1,0,0:0:0:0:
448,192,250412,1,0,0:0:0:0:
192,192,250412,1,0,0:0:0:0:
320,192,250555,1,0,0:0:0:0:
64,192,250555,1,0,0:0:0:0:
192,192,250555,1,0,0:0:0:0:
192,192,250698,1,0,0:0:0:0:
320,192,250698,1,0,0:0:0:0:
64,192,250698,1,0,0:0:0:0:
448,192,250841,1,0,0:0:0:0:
192,192,250841,1,0,0:0:0:0:
320,192,250841,1,0,0:0:0:0:
448,192,250984,1,0,0:0:0:0:
320,192,250984,1,0,0:0:0:0:
192,192,250984,1,0,0:0:0:0:
64,192,251127,1,0,0:0:0:0:
448,192,251127,1,0,0:0:0:0:
320,192,251127,1,0,0:0:0:0:
64,192,251270,1,0,0:0:0:0:
448,192,251270,1,0,0:0:0:0:
320,192,251270,1,0,0:0:0:0:
192,192,251412,1,0,0:0:0:0:
64,192,251412,1,0,0:0:0:0:
448,192,251412,1,0,0:0:0:0:
192,192,251555,1,0,0:0:0:0:
64,192,251555,1,0,0:0:0:0:
448,192,251555,1,0,0:0:0:0:
448,192,251698,128,0,252127:0:0:0:0:
320,192,251698,1,0,0:0:0:0:
64,192,251698,1,0,0:0:0:0:
192,192,251698,1,0,0:0:0:0:
64,192,251984,1,0,0:0:0:0:
320,192,252127,1,0,0:0:0:0:
192,192,252127,1,0,0:0:0:0:
64,192,252127,128,0,252484:0:0:0:0:
320,192,252270,1,0,0:0:0:0:
192,192,252270,1,0,0:0:0:0:
448,192,252555,1,0,0:0:0:0:
64,192,252555,1,0,0:0:0:0:
192,192,252555,128,0,252770:0:0:0:0:
64,192,252841,1,0,0:0:0:0:
192,192,252841,1,0,0:0:0:0:
320,192,252841,128,0,253341:0:0:0:0:
448,192,253127,1,0,0:0:0:0:
192,192,253270,1,0,0:0:0:0:
64,192,253270,1,0,0:0:0:0:
320,192,253412,1,0,0:0:0:0:
64,192,253412,1,0,0:0:0:0:
448,192,253412,128,0,253912:0:0:0:0:
192,192,253698,1,0,0:0:0:0:
64,192,253984,1,0,0:0:0:0:
320,192,253984,1,0,0:0:0:0:
448,192,253984,128,0,254341:0:0:0:0:
192,192,254270,1,0,0:0:0:0:
448,192,254412,1,0,0:0:0:0:
64,192,254412,1,0,0:0:0:0:
320,192,254412,128,0,254770:0:0:0:0:
192,192,254555,1,0,0:0:0:0:
64,192,254555,1,0,0:0:0:0:
64,192,254841,128,0,255055:0:0:0:0:
320,192,254841,1,0,0:0:0:0:
192,192,254984,1,0,0:0:0:0:
448,192,254984,1,0,0:0:0:0:
192,192,255127,1,0,0:0:0:0:
64,192,255127,128,0,255698:0:0:0:0:
320,192,255127,1,0,0:0:0:0:
320,192,255270,1,0,0:0:0:0:
448,192,255270,1,0,0:0:0:0:
192,192,255412,1,0,0:0:0:0:
320,192,255555,1,0,0:0:0:0:
448,192,255555,1,0,0:0:0:0:
192,192,255698,1,0,0:0:0:0:
64,192,255984,1,0,0:0:0:0:
320,192,255984,1,0,0:0:0:0:
448,192,255984,1,0,0:0:0:0:
192,192,256270,1,0,0:0:0:0:
64,192,256270,1,0,0:0:0:0:
448,192,256270,1,0,0:0:0:0:
192,192,256412,1,0,0:0:0:0:
64,192,256412,1,0,0:0:0:0:
320,192,256412,1,0,0:0:0:0:
64,192,256555,1,0,0:0:0:0:
192,192,256555,1,0,0:0:0:0:
448,192,256555,1,0,0:0:0:0:
192,192,256698,1,0,0:0:0:0:
64,192,256698,1,0,0:0:0:0:
320,192,256698,1,0,0:0:0:0:
64,192,256841,1,0,0:0:0:0:
320,192,256841,1,0,0:0:0:0:
448,192,256841,1,0,0:0:0:0:
192,192,256984,1,0,0:0:0:0:
320,192,256984,1,0,0:0:0:0:
448,192,256984,1,0,0:0:0:0:
64,192,257127,1,0,0:0:0:0:
320,192,257127,1,0,0:0:0:0:
448,192,257127,1,0,0:0:0:0:
192,192,257270,1,0,0:0:0:0:
320,192,257270,1,0,0:0:0:0:
448,192,257270,1,0,0:0:0:0:
192,192,257412,1,0,0:0:0:0:
64,192,257412,1,0,0:0:0:0:
320,192,257484,1,0,0:0:0:0:
448,192,257484,1,0,0:0:0:0:
192,192,257555,1,0,0:0:0:0:
64,192,257555,1,0,0:0:0:0:
320,192,257627,1,0,0:0:0:0:
448,192,257627,1,0,0:0:0:0:
192,192,257698,1,0,0:0:0:0:
64,192,257698,1,0,0:0:0:0:
320,192,257770,1,0,0:0:0:0:
448,192,257770,1,0,0:0:0:0:
192,192,257841,1,0,0:0:0:0:
64,192,257841,1,0,0:0:0:0:
320,192,257912,1,0,0:0:0:0:
448,192,257912,1,0,0:0:0:0:
64,192,257984,1,0,0:0:0:0:
192,192,257984,1,0,0:0:0:0:
448,192,258031,1,0,0:0:0:0:
320,192,258079,1,0,0:0:0:0:
192,192,258127,1,0,0:0:0:0:
448,192,258174,1,0,0:0:0:0:
64,192,258222,1,0,0:0:0:0:
320,192,258270,1,0,0:0:0:0:
192,192,258317,1,0,0:0:0:0:
64,192,258365,1,0,0:0:0:0:
448,192,258412,1,0,0:0:0:0:
320,192,258460,1,0,0:0:0:0:
192,192,258508,1,0,0:0:0:0:
320,192,258555,1,0,0:0:0:0:
448,192,258555,1,0,0:0:0:0:
64,192,258555,128,0,258698:0:0:0:0:
320,192,258698,1,0,0:0:0:0:
448,192,258698,1,0,0:0:0:0:
192,192,258698,128,0,258841:0:0:0:0:
64,192,258841,1,0,0:0:0:0:
448,192,258841,1,0,0:0:0:0:
320,192,258841,128,0,258984:0:0:0:0:
192,192,258984,1,0,0:0:0:0:
64,192,258984,1,0,0:0:0:0:
448,192,258984,128,0,259127:0:0:0:0:
320,192,259127,1,0,0:0:0:0:
192,192,259127,1,0,0:0:0:0:
64,192,259127,128,0,259412:0:0:0:0:
320,192,259412,1,0,0:0:0:0:
448,192,259412,1,0,0:0:0:0:
192,192,259412,128,0,259555:0:0:0:0:
320,192,259555,1,0,0:0:0:0:
64,192,259555,1,0,0:0:0:0:
448,192,259555,128,0,259841:0:0:0:0:
192,192,259841,1,0,0:0:0:0:
64,192,259841,1,0,0:0:0:0:
320,192,259841,128,0,259984:0:0:0:0:
64,192,259984,1,0,0:0:0:0:
448,192,259984,1,0,0:0:0:0:
192,192,259984,128,0,260127:0:0:0:0:
448,192,260127,128,0,260270:0:0:0:0:
320,192,260127,1,0,0:0:0:0:
64,192,260127,1,0,0:0:0:0:
320,192,260270,128,0,260412:0:0:0:0:
192,192,260270,1,0,0:0:0:0:
64,192,260270,1,0,0:0:0:0:
192,192,260412,128,0,260555:0:0:0:0:
448,192,260412,1,0,0:0:0:0:
64,192,260412,1,0,0:0:0:0:
64,192,260555,128,0,260698:0:0:0:0:
320,192,260555,1,0,0:0:0:0:
448,192,260555,1,0,0:0:0:0:
448,192,260698,128,0,260984:0:0:0:0:
192,192,260698,128,0,261127:0:0:0:0:
320,192,260698,128,0,261055:0:0:0:0:
64,192,261127,128,0,261484:0:0:0:0:
320,192,261127,128,0,261270:0:0:0:0:
448,192,261127,128,0,261341:0:0:0:0:
192,192,261270,128,0,261412:0:0:0:0:
320,192,261341,128,0,261555:0:0:0:0:
448,192,261412,128,0,261841:0:0:0:0:
192,192,261484,128,0,261627:0:0:0:0:
64,192,261555,128,0,261698:0:0:0:0:
320,192,261627,128,0,261770:0:0:0:0:
192,192,261698,128,0,261912:0:0:0:0:
64,192,261770,128,0,261912:0:0:0:0:
320,192,261841,128,0,261984:0:0:0:0:
448,192,261912,128,0,261984:0:0:0:0:
192,192,261984,1,0,0:0:0:0:
64,192,261984,1,0,0:0:0:0:
320,192,262055,1,0,0:0:0:0:
448,192,262055,1,0,0:0:0:0:
192,192,262127,1,0,0:0:0:0:
64,192,262127,1,0,0:0:0:0:
320,192,262198,1,0,0:0:0:0:
448,192,262198,1,0,0:0:0:0:
192,192,262270,1,0,0:0:0:0:
64,192,262270,1,0,0:0:0:0:
320,192,262341,1,0,0:0:0:0:
448,192,262341,1,0,0:0:0:0:
192,192,262412,1,0,0:0:0:0:
64,192,262412,1,0,0:0:0:0:
320,192,262484,1,0,0:0:0:0:
448,192,262484,1,0,0:0:0:0:
192,192,262555,1,0,0:0:0:0:
64,192,262555,1,0,0:0:0:0:
320,192,262627,1,0,0:0:0:0:
448,192,262627,1,0,0:0:0:0:
192,192,262698,1,0,0:0:0:0:
64,192,262698,1,0,0:0:0:0:
320,192,262770,1,0,0:0:0:0:
448,192,262841,1,0,0:0:0:0:
192,192,262841,1,0,0:0:0:0:
64,192,262841,1,0,0:0:0:0:
64,192,263127,1,0,0:0:0:0:
192,192,263127,1,0,0:0:0:0:
448,192,263127,128,0,263341:0:0:0:0:
320,192,263198,128,0,263341:0:0:0:0:
192,192,263270,128,0,263341:0:0:0:0:
64,192,263341,128,0,263412:0:0:0:0:
320,192,263412,1,0,0:0:0:0:
192,192,263412,128,0,263627:0:0:0:0:
448,192,263412,128,0,263484:0:0:0:0:
320,192,263555,128,0,263698:0:0:0:0:
448,192,263555,128,0,263627:0:0:0:0:
64,192,263698,1,0,0:0:0:0:
448,192,263698,1,0,0:0:0:0:
192,192,263698,128,0,263770:0:0:0:0:
192,192,263841,128,0,263984:0:0:0:0:
320,192,263984,128,0,264198:0:0:0:0:
448,192,263984,1,0,0:0:0:0:
64,192,263984,128,0,264055:0:0:0:0:
192,192,264127,128,0,264341:0:0:0:0:
64,192,264127,128,0,264198:0:0:0:0:
448,192,264270,1,0,0:0:0:0:
64,192,264270,1,0,0:0:0:0:
320,192,264270,1,0,0:0:0:0:
192,192,264412,128,0,264555:0:0:0:0:
320,192,264555,128,0,264770:0:0:0:0:
448,192,264555,128,0,264627:0:0:0:0:
64,192,264555,1,0,0:0:0:0:
192,192,264698,128,0,264841:0:0:0:0:
448,192,264698,128,0,264770:0:0:0:0:
448,192,264841,1,0,0:0:0:0:
64,192,264841,1,0,0:0:0:0:
320,192,264841,128,0,265055:0:0:0:0:
192,192,264984,128,0,265127:0:0:0:0:
448,192,265127,1,0,0:0:0:0:
320,192,265127,128,0,265341:0:0:0:0:
64,192,265127,128,0,265198:0:0:0:0:
192,192,265270,128,0,265412:0:0:0:0:
64,192,265270,128,0,265341:0:0:0:0:
448,192,265412,1,0,0:0:0:0:
320,192,265412,1,0,0:0:0:0:
64,192,265412,128,0,265627:0:0:0:0:
192,192,265484,128,0,265627:0:0:0:0:
320,192,265555,128,0,265627:0:0:0:0:
448,192,265627,128,0,265698:0:0:0:0:
192,192,265698,1,0,0:0:0:0:
320,192,265698,128,0,265912:0:0:0:0:
64,192,265698,128,0,265770:0:0:0:0:
192,192,265841,128,0,265984:0:0:0:0:
64,192,265841,128,0,265912:0:0:0:0:
448,192,265984,1,0,0:0:0:0:
64,192,265984,1,0,0:0:0:0:
320,192,265984,128,0,266055:0:0:0:0:
320,192,266127,128,0,266270:0:0:0:0:
192,192,266270,128,0,266484:0:0:0:0:
64,192,266270,1,0,0:0:0:0:
448,192,266270,128,0,266341:0:0:0:0:
320,192,266412,128,0,266627:0:0:0:0:
448,192,266412,128,0,266484:0:0:0:0:
64,192,266555,1,0,0:0:0:0:
448,192,266555,1,0,0:0:0:0:
192,192,266555,1,0,0:0:0:0:
320,192,266698,128,0,266841:0:0:0:0:
192,192,266841,128,0,267055:0:0:0:0:
448,192,266841,1,0,0:0:0:0:
64,192,266841,128,0,266912:0:0:0:0:
320,192,266984,128,0,267127:0:0:0:0:
64,192,266984,128,0,267055:0:0:0:0:
64,192,267127,128,0,267341:0:0:0:0:
192,192,267127,128,0,267198:0:0:0:0:
448,192,267127,128,0,267341:0:0:0:0:
192,192,267270,128,0,267484:0:0:0:0:
320,192,267412,128,0,267627:0:0:0:0:
448,192,267412,128,0,267484:0:0:0:0:
64,192,267412,128,0,267484:0:0:0:0:
448,192,267555,128,0,267627:0:0:0:0:
64,192,267555,128,0,267627:0:0:0:0:
64,192,267698,1,0,0:0:0:0:
192,192,267698,1,0,0:0:0:0:
448,192,267698,128,0,267912:0:0:0:0:
320,192,267770,128,0,267912:0:0:0:0:
192,192,267841,128,0,267912:0:0:0:0:
64,192,267912,128,0,267984:0:0:0:0:
320,192,267984,1,0,0:0:0:0:
192,192,267984,128,0,268198:0:0:0:0:
448,192,267984,128,0,268055:0:0:0:0:
320,192,268127,128,0,268270:0:0:0:0:
448,192,268127,128,0,268198:0:0:0:0:
64,192,268270,1,0,0:0:0:0:
448,192,268270,1,0,0:0:0:0:
192,192,268270,128,0,268341:0:0:0:0:
192,192,268412,128,0,268555:0:0:0:0:
448,192,268555,1,0,0:0:0:0:
320,192,268555,128,0,268770:0:0:0:0:
64,192,268555,128,0,268627:0:0:0:0:
192,192,268698,128,0,268912:0:0:0:0:
64,192,268698,128,0,268770:0:0:0:0:
448,192,268841,1,0,0:0:0:0:
64,192,268841,1,0,0:0:0:0:
320,192,268841,1,0,0:0:0:0:
192,192,268984,128,0,269127:0:0:0:0:
320,192,269127,128,0,269341:0:0:0:0:
448,192,269127,128,0,269198:0:0:0:0:
64,192,269127,1,0,0:0:0:0:
192,192,269270,128,0,269412:0:0:0:0:
448,192,269270,128,0,269341:0:0:0:0:
448,192,269412,1,0,0:0:0:0:
64,192,269412,1,0,0:0:0:0:
320,192,269412,128,0,269627:0:0:0:0:
192,192,269555,128,0,269698:0:0:0:0:
448,192,269698,1,0,0:0:0:0:
320,192,269698,128,0,269912:0:0:0:0:
64,192,269698,128,0,269770:0:0:0:0:
192,192,269841,128,0,269984:0:0:0:0:
64,192,269841,128,0,269912:0:0:0:0:
448,192,269984,1,0,0:0:0:0:
320,192,269984,1,0,0:0:0:0:
64,192,269984,128,0,270198:0:0:0:0:
192,192,270055,128,0,270198:0:0:0:0:
320,192,270127,128,0,270198:0:0:0:0:
448,192,270198,128,0,270270:0:0:0:0:
192,192,270270,1,0,0:0:0:0:
320,192,270270,128,0,270484:0:0:0:0:
64,192,270270,128,0,270341:0:0:0:0:
192,192,270412,128,0,270555:0:0:0:0:
64,192,270412,128,0,270484:0:0:0:0:
448,192,270555,1,0,0:0:0:0:
64,192,270555,1,0,0:0:0:0:
320,192,270555,128,0,270627:0:0:0:0:
320,192,270698,128,0,270841:0:0:0:0:
192,192,270841,128,0,271055:0:0:0:0:
448,192,270841,128,0,270912:0:0:0:0:
64,192,270841,1,0,0:0:0:0:
320,192,270984,128,0,271055:0:0:0:0:
448,192,270984,128,0,271055:0:0:0:0:
64,192,270984,1,0,0:0:0:0:
64,192,271127,128,0,271341:0:0:0:0:
448,192,271127,128,0,271341:0:0:0:0:
192,192,271127,128,0,271198:0:0:0:0:
192,192,271270,128,0,271412:0:0:0:0:
320,192,271412,128,0,271627:0:0:0:0:
448,192,271412,128,0,271484:0:0:0:0:
64,192,271412,128,0,271627:0:0:0:0:
448,192,271555,128,0,271698:0:0:0:0:
64,192,271698,128,0,271912:0:0:0:0:
320,192,271698,128,0,271770:0:0:0:0:
192,192,271698,128,0,271912:0:0:0:0:
320,192,271841,128,0,271912:0:0:0:0:
448,192,271984,1,0,0:0:0:0:
64,192,271984,1,0,0:0:0:0:
192,192,271984,128,0,272198:0:0:0:0:
320,192,271984,128,0,272198:0:0:0:0:
64,192,272127,128,0,272198:0:0:0:0:
448,192,272127,128,0,272198:0:0:0:0:
448,192,272270,128,0,272555:0:0:0:0:
192,192,272270,128,0,272412:0:0:0:0:
64,192,272270,128,0,272555:0:0:0:0:
320,192,272270,1,0,0:0:0:0:
320,192,272412,128,0,272555:0:0:0:0:
192,192,272555,1,0,0:0:0:0:
64,192,272698,1,0,0:0:0:0:
448,192,272698,128,0,272984:0:0:0:0:
320,192,272698,128,0,272841:0:0:0:0:
192,192,272698,128,0,272984:0:0:0:0:
64,192,272841,128,0,272984:0:0:0:0:
320,192,272984,1,0,0:0:0:0:
448,192,273127,1,0,0:0:0:0:
320,192,273127,128,0,273412:0:0:0:0:
192,192,273127,128,0,273412:0:0:0:0:
64,192,273127,128,0,273270:0:0:0:0:
448,192,273270,128,0,273412:0:0:0:0:
64,192,273412,1,0,0:0:0:0:
192,192,273555,1,0,0:0:0:0:
64,192,273555,128,0,273841:0:0:0:0:
320,192,273555,128,0,273841:0:0:0:0:
448,192,273555,128,0,273698:0:0:0:0:
192,192,273698,128,0,273841:0:0:0:0:
448,192,273841,1,0,0:0:0:0:
320,192,273984,1,0,0:0:0:0:
448,192,273984,128,0,274270:0:0:0:0:
192,192,273984,128,0,274270:0:0:0:0:
64,192,273984,128,0,274127:0:0:0:0:
320,192,274127,128,0,274270:0:0:0:0:
64,192,274270,1,0,0:0:0:0:
448,192,274412,128,0,274841:0:0:0:0:
320,192,274412,128,0,275127:0:0:0:0:
192,192,274412,128,0,275412:0:0:0:0:
64,192,274412,128,0,274698:0:0:0:0:
192,192,275698,1,0,0:0:0:0:
320,192,275734,1,0,0:0:0:0:
448,192,275770,1,0,0:0:0:0:
192,192,275805,1,0,0:0:0:0:
64,192,275841,1,0,0:0:0:0:
448,192,276555,128,0,276674:0:0:0:0:
320,192,276579,128,0,276698:0:0:0:0:
192,192,276603,128,0,276722:0:0:0:0:
64,192,277984,128,0,278055:0:0:0:0:
448,192,277984,128,0,278055:0:0:0:0:
192,192,277984,128,0,278079:0:0:0:0:
320,192,278008,128,0,278055:0:0:0:0:
448,192,278127,128,0,278365:0:0:0:0:
64,192,278127,128,0,278293:0:0:0:0:
320,192,278127,128,0,278341:0:0:0:0:
192,192,278150,128,0,278317:0:0:0:0:
64,192,278412,128,0,278650:0:0:0:0:
192,192,278436,128,0,278627:0:0:0:0:
320,192,278460,128,0,278603:0:0:0:0:
448,192,278484,128,0,278579:0:0:0:0:
448,192,278698,128,0,278912:0:0:0:0:
320,192,278722,128,0,278912:0:0:0:0:
192,192,278746,128,0,278912:0:0:0:0:
64,192,278770,128,0,278912:0:0:0:0:
64,192,278984,128,0,279484:0:0:0:0:
448,192,278984,128,0,279555:0:0:0:0:
320,192,278984,128,0,279627:0:0:0:0:
192,192,278984,128,0,279698:0:0:0:0:
