osu file format v14

[General]
AudioFilename: audio.mp3
AudioLeadIn: 0
PreviewTime: 216415
Countdown: 1
SampleSet: None
StackLeniency: 0
Mode: 0
LetterboxInBreaks: 0
WidescreenStoryboard: 0

[Editor]
DistanceSpacing: 2.2
BeatDivisor: 6
GridSize: 4
TimelineZoom: 1.3

[Metadata]
Title:Sanzameku
TitleUnicode:さんざめく
Artist:Mass of the Fermenting Dregs
ArtistUnicode:Mass of the Fermenting Dregs
Creator:Yumeko
Version:old
Source:
Tags:ゼロコンマ、色とりどりの世界 alternative progressive rock jrock Zero Comma, Iro Toridori no Sekai shoegaze masu dore
BeatmapID:3898866
BeatmapSetID:977092

[Difficulty]
HPDrainRate:5
CircleSize:3
OverallDifficulty:5
ApproachRate:5
SliderMultiplier:1.4
SliderTickRate:1

[Events]
//Background and Video events
0,0,"maxresdefault.jpg",0,0
//Break Periods
2,22548,25818
//Storyboard Layer 0 (Background)
//Storyboard Layer 1 (Fail)
//Storyboard Layer 2 (Pass)
//Storyboard Layer 3 (Foreground)
//Storyboard Layer 4 (Overlay)
//Storyboard Sound Samples

[TimingPoints]
623,659.340659340659,4,1,0,50,1,0
623,-100,4,1,0,70,0,0
27018,659.340659340659,4,1,0,50,1,0
27018,-100,4,1,0,60,0,0
31633,-1000,4,1,0,60,0,0
32292,-100,4,1,0,60,0,0
36908,-1000,4,1,0,60,0,0
37567,-100,4,1,0,60,0,0
42182,-1000,4,1,0,60,0,0
42841,-100,4,1,0,60,0,0
47457,-1000,4,1,0,60,0,0
48116,-100,4,1,0,60,0,0
52732,-1000,4,1,0,60,0,0
53391,-100,4,1,0,60,0,0
68776,-100,4,1,0,60,0,0
77127,-100,4,1,0,80,0,0
79105,-200,4,2,0,60,0,0
79765,-50,4,1,0,70,0,0
100864,-100,4,1,0,60,0,0
105479,-1000,4,1,0,60,0,0
106138,-100,4,1,0,60,0,0
110754,-1000,4,1,0,60,0,0
111413,-100,4,1,0,60,0,0
116028,-1000,4,1,0,60,0,0
116688,-100,4,1,0,60,0,0
131193,-100,4,1,0,65,0,0
131413,-100,4,1,0,70,0,0
132512,-100,4,1,0,60,0,0
135809,-81.3008130081301,4,1,0,60,0,0
136468,-100,4,1,0,60,0,0
140424,-100,4,1,0,70,0,0
141083,-100,4,1,0,73,0,0
141743,-100,4,1,0,76,0,0
142402,-100,4,1,0,80,0,0
145039,-100,4,1,0,70,0,0
145699,-50,4,1,0,80,0,0
146358,-25.062656641604,4,1,0,70,0,0
147017,-50,4,1,0,80,0,0
147677,-25,4,1,0,70,0,0
148336,-100,4,1,0,70,0,0
150974,-50,4,1,0,80,0,0
151633,-25.062656641604,4,1,0,70,0,0
152292,-50,4,1,0,80,0,0
152952,-25,4,1,0,70,0,0
153611,-100,4,1,0,70,0,0
156248,-50,4,1,0,80,0,0
156907,-25.062656641604,4,1,0,70,0,0
157566,-50,4,1,0,80,0,0
158226,-25,4,1,0,70,0,0
158885,-100,4,1,0,70,0,0
161523,-100,4,1,0,75,0,0
162182,-50.5050505050505,4,1,0,70,0,0
162842,-100,4,1,0,70,0,0
166798,-100,4,1,0,80,0,0
167457,-28.5714285714286,4,1,0,70,0,0
168116,-100,4,1,0,80,0,0
168776,-100,4,1,0,70,0,0
169435,-100,4,1,0,75,0,0
169875,-100,4,1,0,70,0,0
170094,-66.6666666666667,4,1,0,40,0,0
170314,-66.6666666666667,4,1,0,43,0,0
170534,-66.6666666666667,4,1,0,46,0,0
170754,-66.6666666666667,4,1,0,49,0,0
170974,-66.6666666666667,4,1,0,52,0,0
171194,-66.6666666666667,4,1,0,55,0,0
171413,-66.6666666666667,4,1,0,58,0,0
171633,-66.6666666666667,4,1,0,61,0,0
171853,-66.6666666666667,4,1,0,64,0,0
172072,-33.3333333333333,4,1,0,80,0,0
172292,-33.3333333333333,4,1,0,70,0,0
172732,-33.3333333333333,4,1,0,80,0,0
172952,-33.3333333333333,4,1,0,70,0,0
173391,-33.3333333333333,4,1,0,80,0,0
173611,-33.3333333333333,4,1,0,70,0,0
174710,659.340659340659,4,1,0,50,1,0
174710,-66.6666666666667,4,1,0,80,0,0
174929,-66.6666666666667,4,1,0,70,0,0
185259,-66.6666666666667,4,1,0,80,0,0
185479,-66.6666666666667,4,1,0,70,0,0
187896,-28.5714285714286,4,1,0,85,0,0
190534,-66.6666666666667,4,1,0,70,0,0
214270,-66.6666666666667,4,1,0,75,0,0
214490,-66.6666666666667,4,1,0,70,0,0
214929,-66.6666666666667,4,1,0,75,0,0
215149,-66.6666666666667,4,1,0,70,0,0
215589,-66.6666666666667,4,1,0,75,0,0
215809,-66.6666666666667,4,1,0,70,0,0
216248,-66.6666666666667,4,1,0,75,0,0
216358,-66.6666666666667,4,1,0,70,0,0
216907,-66.6666666666667,4,1,0,80,0,0
217347,-66.6666666666667,4,1,0,70,0,0
219545,-66.6666666666667,4,1,0,80,0,0
219985,-66.6666666666667,4,1,0,70,0,0
222182,-66.6666666666667,4,1,0,80,0,0
222622,-66.6666666666667,4,1,0,70,0,0
224819,-66.6666666666667,4,1,0,80,0,0
225259,-66.6666666666667,4,1,0,70,0,0
227457,-66.6666666666667,4,1,0,80,0,0
227897,-66.6666666666667,4,1,0,70,0,0
230094,-66.6666666666667,4,1,0,80,0,0
230534,-66.6666666666667,4,1,0,70,0,0
232731,-66.6666666666667,4,1,0,80,0,0
233171,-66.6666666666667,4,1,0,70,0,0
235369,-66.6666666666667,4,1,0,80,0,0
235589,-66.6666666666667,4,1,0,70,0,0
236028,-66.6666666666667,4,1,0,75,0,0
236248,-66.6666666666667,4,1,0,70,0,0
236688,-66.6666666666667,4,1,0,75,0,0
236907,-66.6666666666667,4,1,0,80,0,0
237127,-66.6666666666667,4,1,0,75,0,0
237347,-66.6666666666667,4,1,0,70,0,0
238006,-66.6666666666667,4,1,0,80,0,0
238446,-66.6666666666667,4,1,0,70,0,0
240644,-66.6666666666667,4,1,0,80,0,0
240863,-66.6666666666667,4,1,0,70,0,0
241303,-66.6666666666667,4,1,0,75,0,0
241523,-66.6666666666667,4,1,0,70,0,0
241962,-66.6666666666667,4,1,0,75,0,0
242182,-66.6666666666667,4,1,0,70,0,0
242622,-66.6666666666667,4,1,0,75,0,0
242842,-66.6666666666667,4,1,0,70,0,0
243281,-66.6666666666667,4,1,0,80,0,0
243721,-66.6666666666667,4,1,0,70,0,0
245918,-66.6666666666667,4,1,0,80,0,0
246138,-66.6666666666667,4,1,0,70,0,0
246578,-66.6666666666667,4,1,0,75,0,0
246798,-66.6666666666667,4,1,0,70,0,0
247237,-66.6666666666667,4,1,0,75,0,0
247457,-66.6666666666667,4,1,0,70,0,0
247896,-66.6666666666667,4,1,0,75,0,0
248116,-66.6666666666667,4,1,0,70,0,0
248556,-66.6666666666667,4,1,0,80,0,0
248996,-66.6666666666667,4,1,0,70,0,0
251193,-66.6666666666667,4,1,0,80,0,0
251633,-66.6666666666667,4,1,0,70,0,0
253830,-66.6666666666667,4,1,0,80,0,0
254270,-66.6666666666667,4,1,0,70,0,0
256468,-66.6666666666667,4,1,0,80,0,0
256688,-66.6666666666667,4,1,0,70,0,0
257127,-66.6666666666667,4,1,0,80,0,0
257347,-66.6666666666667,4,1,0,70,0,0
257786,-66.6666666666667,4,1,0,80,0,0
258226,-66.6666666666667,4,1,0,70,0,0
258446,-66.6666666666667,4,1,0,75,0,0
258556,-66.6666666666667,4,1,0,70,0,0
259105,-66.6666666666667,4,1,0,80,0,0
259545,-66.6666666666667,4,1,0,70,0,0
261742,-66.6666666666667,4,1,0,80,0,0
262182,-66.6666666666667,4,1,0,70,0,0
263720,-66.6666666666667,4,1,0,75,0,0
264160,-66.6666666666667,4,1,0,70,0,0
264380,-66.6666666666667,4,1,0,80,0,0
264820,-66.6666666666667,4,1,0,70,0,0
267017,-66.6666666666667,4,1,0,80,0,0
267457,-66.6666666666667,4,1,0,70,0,0
267677,-66.6666666666667,4,1,0,75,0,0
268116,-66.6666666666667,4,1,0,70,0,0
268556,-66.6666666666667,4,1,0,80,0,0
268995,-66.6666666666667,4,1,0,70,0,0
269655,-66.6666666666667,4,1,0,80,0,0
270095,-66.6666666666667,4,1,0,70,0,0
272292,-66.6666666666667,4,1,0,80,0,0
272732,-66.6666666666667,4,1,0,70,0,0
274270,-66.6666666666667,4,1,0,75,0,0
274709,-66.6666666666667,4,1,0,70,0,0
274929,-66.6666666666667,4,1,0,80,0,0
275369,-66.6666666666667,4,1,0,70,0,0
277607,689.655172413793,4,1,0,40,1,0
277607,-100,4,1,0,70,0,0
277836,-100,4,1,0,67,0,0
278066,-100,4,1,0,64,0,0
278296,-100,4,1,0,60,0,0
278526,-100,4,1,0,57,0,0
278756,-100,4,1,0,54,0,0
278986,-100,4,1,0,50,0,0
279216,-100,4,1,0,47,0,0
279446,1333.33333333333,4,1,0,40,1,0
279446,-100,4,1,0,44,0,0
279668,-100,4,1,0,40,0,0
279890,1578.94736842105,4,1,0,39,1,0
279890,-100,4,1,0,37,0,0
280151,-100,4,1,0,34,0,0
280496,2749.77085242896,4,1,0,40,1,0
280496,-100,4,1,0,60,0,0

[HitObjects]
400,156,623,6,0,P|344:136|304:140,1,93.3333333333333,4|0,3:0|0:0,0:0:0:0:
400,156,1283,1,8,0:1:0:0:
311,138,1503,1,8,0:1:0:0:
400,156,1722,1,8,0:1:0:0:
336,224,1942,2,0,L|384:248,1,46.6666666666667,2|0,3:0|0:0,0:0:0:0:
336,224,2272,1,0,0:0:0:0:
336,224,2382,1,0,3:0:0:0:
368,72,2601,1,8,0:1:0:0:
308,136,2821,1,8,0:1:0:0:
400,156,3041,1,8,0:1:0:0:
108,64,3261,6,0,L|120:132,1,46.6666666666667,2|0,3:0|3:0,0:0:0:0:
108,64,3590,1,0,0:0:0:0:
108,64,3700,1,8,0:1:0:0:
248,148,3920,2,0,L|236:216,1,46.6666666666667,2|0,3:0|3:0,0:0:0:0:
248,148,4250,1,0,0:0:0:0:
248,148,4360,1,8,0:1:0:0:
356,44,4579,2,0,L|368:112,1,46.6666666666667,2|0,3:0|3:0,0:0:0:0:
356,44,4909,1,0,0:0:0:0:
356,44,5019,1,8,0:1:0:0:
496,128,5239,2,0,L|484:196,1,46.6666666666667,2|0,3:0|0:0,0:0:0:0:
496,128,5568,1,0,0:0:0:0:
496,128,5678,1,8,0:1:0:0:
176,268,5898,6,0,L|288:280|288:280,1,93.3333333333333,4|0,3:0|0:0,0:0:0:0:
176,268,6557,1,8,0:1:0:0:
268,277,6777,1,8,0:1:0:0:
176,268,6997,1,8,0:1:0:0:
232,192,7217,2,0,L|180:184,1,46.6666666666667,2|0,3:0|0:0,0:0:0:0:
232,192,7546,1,0,0:0:0:0:
232,192,7656,1,0,3:0:0:0:
308,248,7876,1,8,0:1:0:0:
400,240,8096,1,8,0:1:0:0:
476,188,8316,1,8,0:1:0:0:
508,320,8535,5,6,3:0:0:0:
508,320,8755,1,8,0:1:0:0:
508,320,8865,1,8,0:1:0:0:
508,320,8975,1,8,0:1:0:0:
364,247,9195,1,2,3:0:0:0:
364,247,9415,1,8,0:1:0:0:
364,247,9524,1,8,0:1:0:0:
364,247,9634,1,8,0:1:0:0:
220,320,9854,1,2,3:0:0:0:
220,320,10074,1,8,0:1:0:0:
220,320,10184,1,8,0:1:0:0:
220,320,10294,1,8,0:1:0:0:
76,247,10513,1,2,3:0:0:0:
76,247,10733,1,8,0:1:0:0:
76,247,10843,1,8,0:1:0:0:
76,247,10953,1,8,0:1:0:0:
192,28,11173,6,0,P|188:96|164:128,1,93.3333333333333,4|0,3:0|0:0,0:0:0:0:
192,28,11832,1,8,0:1:0:0:
175,116,12052,1,8,0:1:0:0:
192,28,12272,1,8,0:1:0:0:
100,60,12492,2,0,L|40:76,1,46.6666666666667,2|0,3:0|0:0,0:0:0:0:
100,60,12821,1,0,0:0:0:0:
100,60,12931,1,0,3:0:0:0:
192,28,13151,1,8,0:1:0:0:
175,116,13371,1,8,0:1:0:0:
224,196,13590,1,8,0:1:0:0:
312,172,13810,6,0,P|324:136|320:116,1,46.6666666666667,2|0,3:0|3:0,0:0:0:0:
312,172,14140,1,0,0:0:0:0:
312,172,14250,1,8,0:1:0:0:
175,116,14470,2,0,P|163:152|167:172,1,46.6666666666667,2|0,3:0|3:0,0:0:0:0:
175,116,14799,1,0,0:0:0:0:
175,116,14909,1,8,0:1:0:0:
256,309,15129,2,0,P|268:273|264:253,1,46.6666666666667,2|0,3:0|3:0,0:0:0:0:
256,309,15459,1,0,0:0:0:0:
256,309,15568,1,8,0:1:0:0:
119,253,15788,2,0,P|107:289|111:309,1,46.6666666666667,2|0,3:0|3:0,0:0:0:0:
119,253,16118,1,0,0:0:0:0:
119,253,16228,1,8,0:1:0:0:
440,322,16448,6,0,L|432:230,1,93.3333333333333,4|0,3:0|0:0,0:0:0:0:
440,322,17107,1,8,0:1:0:0:
431,229,17327,1,8,0:1:0:0:
440,322,17546,1,8,0:1:0:0:
356,282,17766,2,0,P|333:277|304:286,1,46.6666666666667,2|0,3:0|0:0,0:0:0:0:
356,282,18096,1,0,0:0:0:0:
356,282,18206,1,0,3:0:0:0:
232,334,18426,5,8,0:1:0:0:
158,280,18645,1,8,0:1:0:0:
74,317,18865,1,8,0:1:0:0:
9,170,19085,5,4,3:0:0:0:
83,224,19305,1,2,3:0:0:0:
167,186,19524,1,8,0:1:0:0:
336,110,19744,5,4,3:0:0:0:
261,57,19964,1,2,3:0:0:0:
175,95,20184,1,8,0:1:0:0:
241,241,20404,5,4,3:0:0:0:
336,110,20623,1,2,3:0:0:0:
167,186,20843,1,8,0:1:0:0:
332,205,21063,5,4,3:0:0:0:
336,110,21283,1,2,3:0:0:0:
261,57,21503,1,8,0:1:0:0:
241,241,21722,5,2,0:1:0:0:
34,63,27018,6,0,P|105:113|165:111,1,140,4|8,3:0|0:1,0:0:0:0:
244,84,27898,1,0,0:0:0:0:
244,84,28117,1,0,0:0:0:0:
333,111,28337,2,0,P|375:151|377:154,1,46.6666666666667,0|0,3:0|0:0,0:0:0:0:
333,111,28777,1,0,0:0:0:0:
285,190,28996,2,0,P|268:237|271:254,1,46.6666666666667,8|0,0:1|0:0,0:0:0:0:
285,190,29436,1,0,0:0:0:0:
169,114,29656,2,0,L|175:198,1,46.6666666666667,0|0,3:0|0:0,0:0:0:0:
169,114,30095,1,0,0:0:0:0:
77,234,30315,2,0,L|72:172,1,46.6666666666667,8|0,0:1|0:0,0:0:0:0:
77,234,30755,1,0,0:0:0:0:
182,307,30974,2,0,P|190:276|177:245,1,46.6666666666667,0|0,3:0|0:0,0:0:0:0:
182,307,31414,1,0,0:0:0:0:
121,132,31634,6,0,L|116:134,2,4.66666666666667,8|0|0,0:1|0:0|3:0,3:0:0:0:
182,307,32293,6,0,B|232:285|281:316|321:303,1,140,2|8,3:0|0:1,0:0:0:0:
368,152,33172,1,0,0:0:0:0:
442,259,33392,1,0,0:0:0:0:
368,152,33612,2,0,P|386:216|452:262,1,140,0|8,3:0|0:1,0:0:0:0:
213,227,34491,1,0,0:0:0:0:
176,307,34711,1,0,0:0:0:0:
213,227,34930,2,0,P|195:291|146:321,1,93.3333333333333,0|0,3:0|0:0,0:0:0:0:
177,145,35590,2,0,P|195:209|224:234,1,93.3333333333333,8|0,0:1|0:0,0:0:0:0:
116,232,36249,2,0,L|83:195,1,46.6666666666667,0|0,3:0|0:0,0:0:0:0:
116,232,36689,1,0,0:0:0:0:
148,136,36909,6,0,L|150:132,2,4.66666666666667,8|0|0,0:1|0:0|3:0,0:0:0:0:
87,323,37568,6,0,P|153:346|222:337,1,140,2|8,3:0|0:1,0:0:0:0:
117,138,38667,1,0,0:0:0:0:
117,138,38887,2,0,P|192:146|226:171,1,93.3333333333333,0|0,3:0|0:0,0:0:0:0:
143,229,39546,2,0,P|86:238|6:229,1,93.3333333333333,8|0,0:1|0:0,0:0:0:0:
39,144,40205,2,0,L|52:251,1,93.3333333333333,2|0,3:0|0:0,0:0:0:0:
209,213,40865,2,0,L|199:271,1,46.6666666666667,8|0,0:1|0:0,0:0:0:0:
209,213,41304,1,0,0:0:0:0:
69,92,41524,2,0,L|79:151,1,46.6666666666667,0|0,3:0|0:0,0:0:0:0:
69,92,41963,1,0,0:0:0:0:
168,128,42183,6,0,L|172:129,2,4.66666666666667,8|0|0,0:1|0:0|3:0,0:0:0:0:
248,20,42843,6,0,L|380:17,1,93.3333333333333,2|0,3:0|0:0,0:0:0:0:
387,116,43502,2,0,P|439:101|461:57,1,93.3333333333333,8|0,0:1|0:0,0:0:0:0:
344,136,44161,2,0,P|394:154|438:131,1,93.3333333333333,0|0,3:0|0:0,0:0:0:0:
293,132,44821,2,0,P|323:176|371:184,1,93.3333333333333,8|0,0:1|0:0,0:0:0:0:
211,83,45480,2,0,P|197:135|210:182,1,93.3333333333333,4|0,3:0|0:0,0:0:0:0:
361,215,46139,2,0,P|324:243|315:255,1,46.6666666666667,8|0,0:1|0:0,0:0:0:0:
361,215,46579,1,0,0:0:0:0:
354,319,46799,2,0,P|412:324|416:323,1,46.6666666666667,0|0,3:0|0:0,0:0:0:0:
354,319,47238,1,0,0:0:0:0:
262,355,47458,6,0,L|266:357,2,4.66666666666667,8|0|0,0:1|0:0|3:0,0:0:0:0:
109,351,48117,6,0,P|78:329|58:266,1,93.3333333333333,2|0,3:0|0:0,0:0:0:0:
190,202,48777,2,0,P|220:166|226:120,1,93.3333333333333,8|0,0:1|0:0,0:0:0:0:
112,96,49436,2,0,L|122:3,1,93.3333333333333,0|0,3:0|0:0,0:0:0:0:
253,226,50095,2,0,L|242:133,1,93.3333333333333,8|0,0:1|0:0,0:0:0:0:
162,201,50755,2,0,L|149:303,1,93.3333333333333,2|0,3:0|0:0,0:0:0:0:
228,319,51414,2,0,L|299:303,1,46.6666666666667,8|0,0:1|0:0,0:0:0:0:
228,319,51854,1,0,0:0:0:0:
326,233,52073,2,0,L|373:176,1,46.6666666666667,0|0,3:0|0:0,0:0:0:0:
326,233,52513,1,0,0:0:0:0:
260,152,52733,6,0,L|256:150,2,4.66666666666667,8|0|0,0:1|0:0|3:0,0:0:0:0:
112,216,53392,6,0,P|138:259|186:300,1,93.3333333333333,2|0,3:0|0:0,0:0:0:0:
254,294,54051,2,0,L|372:286,1,93.3333333333333,8|0,0:1|0:0,0:0:0:0:
436,200,54711,2,0,L|318:208,1,93.3333333333333,0|0,3:0|0:0,0:0:0:0:
231,197,55370,2,0,P|185:162|167:111,1,93.3333333333333,8|0,0:1|0:0,0:0:0:0:
317,42,56029,2,0,P|298:85|260:110,1,93.3333333333333,2|0,3:0|0:0,0:0:0:0:
165,194,56689,2,0,P|182:209|205:217,1,46.6666666666667,8|0,0:1|0:0,0:0:0:0:
165,194,57128,1,0,0:0:0:0:
303,244,57348,2,0,P|308:221|304:199,1,46.6666666666667,0|0,3:0|0:0,0:0:0:0:
302,244,57788,1,0,0:0:0:0:
278,98,58007,2,0,P|257:106|240:122,1,46.6666666666667,8|0,0:1|0:0,0:0:0:0:
278,98,58447,1,0,3:0:0:0:
98,250,58667,6,0,P|78:330|101:371,1,93.3333333333333,4|0,3:0|0:0,0:0:0:0:
70,161,59326,2,0,P|88:230|107:266,1,93.3333333333333,8|0,0:1|0:0,0:0:0:0:
70,161,59985,1,0,3:0:0:0:
70,161,60645,2,0,P|88:230|107:266,1,93.3333333333333,8|0,0:1|0:0,0:0:0:0:
70,161,61304,1,0,3:0:0:0:
165,309,61963,2,0,P|216:290|254:279,1,93.3333333333333,8|0,0:1|0:0,0:0:0:0:
328,334,62623,2,0,P|341:288|348:239,1,93.3333333333333,0|0,3:0|0:0,0:0:0:0:
267,178,63282,2,0,P|254:128|247:83,1,93.3333333333333,8|0,0:1|3:0,0:0:0:0:
448,273,63941,5,4,3:0:0:0:
458,180,64601,2,0,L|447:273,1,93.3333333333333,8|0,0:1|0:0,0:0:0:0:
458,180,65260,1,0,3:0:0:0:
458,180,65919,2,0,L|447:273,1,93.3333333333333,8|0,0:1|0:0,0:0:0:0:
458,180,66579,1,2,3:0:0:0:
248,120,67238,6,0,P|303:132|347:126,1,93.3333333333333,8|0,0:1|3:0,0:0:0:0:
248,120,67898,1,0,3:0:0:0:
324,265,68117,1,4,0:1:0:0:
512,226,68337,1,0,3:0:0:0:
512,226,68557,1,4,0:1:0:0:
194,242,68777,1,0,3:0:0:0:
191,0,68996,1,4,0:1:0:0:
284,263,69216,6,0,P|250:315|213:333,1,93.3333333333333,4|0,3:0|0:0,0:0:0:0:
273,170,69875,2,0,L|287:281,1,93.3333333333333,8|0,0:1|0:0,0:0:0:0:
273,170,70535,1,0,3:0:0:0:
273,170,71193,2,0,L|287:281,1,93.3333333333333,8|0,0:1|0:0,0:0:0:0:
273,170,71854,1,2,3:0:0:0:
372,254,72513,2,0,P|338:268|283:262,1,93.3333333333333,8|0,0:1|0:0,0:0:0:0:
191,230,73172,2,0,P|161:265|154:311,1,93.3333333333333,0|0,3:0|0:0,0:0:0:0:
263,166,73832,2,0,P|248:122|212:93,1,93.3333333333333,8|0,0:1|3:0,0:0:0:0:
331,222,74491,6,0,P|374:206|403:170,1,93.3333333333333,2|0,3:0|3:0,0:0:0:0:
497,291,75150,2,0,L|483:233,1,46.6666666666667,8|0,0:1|0:0,0:0:0:0:
497,291,75590,1,0,0:0:0:0:
427,111,75810,2,0,L|412:179,1,46.6666666666667,0|0,3:0|0:0,0:0:0:0:
427,111,76249,1,0,0:0:0:0:
338,219,76469,2,0,L|324:161,1,46.6666666666667,8|0,0:1|0:0,0:0:0:0:
338,219,76799,1,8,0:1:0:0:
338,219,76908,1,8,0:1:0:0:
327,173,77128,1,4,3:0:0:0:
103,218,79106,6,0,L|97:163,1,46.6666666666667
83,32,79766,6,0,L|103:218,1,186.666666666667,4|0,3:0|3:0,0:0:0:0:
83,32,80315,1,0,0:0:0:0:
83,32,80425,1,8,0:1:0:0:
102,217,80645,1,8,0:1:0:0:
83,32,80865,1,8,0:1:0:0:
255,317,81084,6,0,B|249:252|249:252|270:196|270:196|263:111,1,186.666666666667,4|0,3:0|3:0,0:0:0:0:
255,317,81634,1,0,0:0:0:0:
255,317,81744,1,8,0:1:0:0:
264,134,81963,1,8,0:1:0:0:
255,317,82183,1,8,0:1:0:0:
453,203,82403,5,2,3:0:0:0:
453,203,82623,1,8,0:1:0:0:
453,203,82733,1,8,0:1:0:0:
453,203,82843,1,8,0:1:0:0:
225,184,83062,1,2,3:0:0:0:
225,184,83282,1,8,0:1:0:0:
225,184,83392,1,8,0:1:0:0:
225,184,83502,1,8,0:1:0:0:
397,338,83722,1,2,3:0:0:0:
397,338,83941,1,8,0:1:0:0:
397,338,84051,1,8,0:1:0:0:
397,338,84161,1,8,0:1:0:0:
445,113,84381,1,2,3:0:0:0:
445,113,84601,1,8,0:1:0:0:
445,113,84711,1,8,0:1:0:0:
445,113,84821,1,8,0:1:0:0:
511,217,85040,6,0,L|395:227,1,93.3333333333333,4|0,3:0|0:0,0:0:0:0:
511,217,85370,1,0,0:0:0:0:
511,217,85480,1,0,3:0:0:0:
418,225,85700,1,8,0:1:0:0:
511,217,85919,1,8,0:1:0:0:
418,225,86139,1,8,0:1:0:0:
214,16,86359,2,0,L|244:108,1,93.3333333333333,4|0,3:0|0:0,0:0:0:0:
214,16,86689,1,0,0:0:0:0:
214,16,86799,1,0,3:0:0:0:
242,104,87018,1,8,0:1:0:0:
214,16,87238,1,8,0:1:0:0:
242,104,87458,1,8,0:1:0:0:
170,278,87677,2,0,P|194:196|223:162,1,93.3333333333333,2|0,3:0|3:0,0:0:0:0:
170,278,88007,1,0,0:0:0:0:
170,278,88117,1,8,0:1:0:0:
268,257,88336,2,0,P|326:318|341:360,1,93.3333333333333,2|0,3:0|3:0,0:0:0:0:
268,257,88667,1,0,0:0:0:0:
268,257,88777,1,8,0:0:0:0:
237,352,88996,2,0,P|154:372|110:364,1,93.3333333333333,2|0,3:0|3:0,0:0:0:0:
237,352,89326,1,0,0:0:0:0:
237,352,89436,1,8,0:1:0:0:
80,297,89656,1,8,0:1:0:0:
272,154,89876,1,8,0:1:0:0:
426,336,90095,1,8,0:1:0:0:
450,153,90315,6,0,B|451:255|451:255|425:339,1,186.666666666667,4|0,3:0|3:0,0:0:0:0:
450,153,90865,1,0,0:0:0:0:
450,153,90974,1,8,0:1:0:0:
425,335,91194,1,8,0:1:0:0:
450,153,91414,1,8,0:1:0:0:
364,14,91634,6,0,B|331:111|331:111|346:209,1,186.666666666667,4|0,3:0|0:3,0:0:0:0:
364,14,92183,1,0,0:0:0:0:
364,14,92293,1,8,0:1:0:0:
343,194,92513,1,8,0:1:0:0:
364,14,92733,1,8,0:1:0:0:
499,121,92952,5,4,3:0:0:0:
281,103,93172,1,8,0:1:0:0:
127,221,93392,1,8,0:1:0:0:
394,384,93612,5,4,3:0:0:0:
479,186,93832,1,8,0:1:0:0:
340,31,94051,1,8,0:1:0:0:
60,31,94271,5,4,3:0:0:0:
46,310,94491,1,8,0:1:0:0:
325,324,94711,1,8,0:1:0:0:
339,45,94930,5,4,3:0:0:0:
325,324,95150,1,8,0:1:0:0:
46,310,95370,1,8,0:1:0:0:
325,324,95590,6,0,B|213:328,1,93.3333333333333,4|0,3:0|0:0,0:0:0:0:
325,324,95919,1,0,0:0:0:0:
325,324,96029,1,0,3:0:0:0:
231,327,96249,1,8,0:1:0:0:
325,324,96469,1,8,0:1:0:0:
231,327,96689,1,8,0:1:0:0:
400,232,96908,6,0,B|517:225,1,93.3333333333333,4|0,3:0|0:0,0:0:0:0:
400,232,97238,1,0,0:0:0:0:
400,232,97348,1,0,3:0:0:0:
493,226,97568,1,8,0:1:0:0:
400,232,97788,1,8,0:1:0:0:
493,226,98007,1,8,0:1:0:0:
315,111,98227,5,4,3:0:0:0:
229,2,98447,1,8,0:1:0:0:
229,2,98557,1,8,0:1:0:0:
229,2,98667,1,8,0:1:0:0:
315,111,98887,1,4,3:0:0:0:
229,2,99106,1,8,0:1:0:0:
229,2,99216,1,8,0:1:0:0:
229,2,99326,1,8,0:1:0:0:
315,111,99546,1,4,3:0:0:0:
315,111,99765,1,0,3:0:0:0:
173,129,99985,1,8,0:1:0:0:
173,129,100094,1,0,0:0:0:0:
173,129,100205,1,8,0:1:0:0:
173,129,100315,1,8,0:1:0:0:
173,129,100425,1,8,0:1:0:0:
173,129,100535,1,8,0:1:0:0:
173,129,100645,1,8,0:1:0:0:
173,129,100755,1,8,0:1:0:0:
172,128,100865,6,0,B|237:175|237:175|310:187,1,140,4|8,3:0|0:1,0:0:0:0:
351,100,101963,1,0,0:0:0:0:
351,100,102183,2,0,L|477:92,1,93.3333333333333,0|0,3:0|0:0,0:0:0:0:
359,190,102843,2,0,L|265:195,1,93.3333333333333,8|0,0:1|0:0,0:0:0:0:
438,0,103502,2,0,L|443:93,1,93.3333333333333,0|0,3:0|0:0,0:0:0:0:
265,195,104161,1,8,0:1:0:0:
265,195,104601,1,0,0:0:0:0:
265,195,104821,2,0,L|259:288,1,93.3333333333333,0|0,3:0|0:0,0:0:0:0:
152,337,105480,6,0,L|152:329,2,4.66666666666667,8|0|0,0:1|0:0|3:0,0:0:0:0:
352,282,106139,6,0,L|258:287,1,93.3333333333333,2|0,3:0|0:0,0:0:0:0:
160,192,106799,1,8,0:1:0:0:
160,192,107238,1,0,0:0:0:0:
160,192,107458,2,0,P|122:227|82:243,1,93.3333333333333,0|0,3:0|0:0,0:0:0:0:
291,154,108117,1,8,0:1:0:0:
291,154,108557,1,0,0:0:0:0:
291,154,108777,2,0,P|340:168|374:195,1,93.3333333333333,2|0,3:0|0:0,0:0:0:0:
451,298,109436,1,8,0:1:0:0:
451,298,109876,1,0,0:0:0:0:
451,298,110095,2,0,L|447:222,2,46.6666666666667,0|0|0,3:0|0:0|0:0,0:0:0:0:
333,320,110755,6,0,L|329:319,2,4.66666666666667,8|0|0,0:1|0:0|3:0,0:0:0:0:
359,111,111414,6,0,L|380:218,1,93.3333333333333,2|0,3:0|0:0,0:0:0:0:
294,29,112073,1,8,0:1:0:0:
294,29,112513,1,0,0:0:0:0:
294,29,112733,2,0,L|187:50,1,93.3333333333333,0|0,3:0|0:0,0:0:0:0:
348,331,113392,1,8,0:1:0:0:
266,290,113832,1,0,0:0:0:0:
348,331,114051,2,0,P|287:309|247:256,1,93.3333333333333,2|0,3:0|0:0,0:0:0:0:
86,146,114711,1,8,0:1:0:0:
86,146,115150,1,0,0:0:0:0:
86,146,115370,2,0,L|70:255,1,93.3333333333333,0|0,3:0|0:0,0:0:0:0:
32,80,116029,6,0,L|36:76,2,4.66666666666667,8|0|0,0:1|0:0|3:0,0:0:0:0:
264,48,116689,6,0,L|164:60,1,93.3333333333333,2|0,3:0|0:0,0:0:0:0:
363,187,117348,1,8,0:1:0:0:
363,187,117788,1,0,0:0:0:0:
363,187,118007,2,0,L|480:204,1,93.3333333333333,0|0,3:0|0:0,0:0:0:0:
160,244,118667,1,8,0:1:0:0:
160,244,119106,1,0,0:0:0:0:
160,244,119326,2,0,B|113:240|113:240|51:257,1,93.3333333333333,2|0,3:0|0:0,0:0:0:0:
261,354,119985,2,0,P|297:285|299:253,1,93.3333333333333,8|0,0:1|0:0,0:0:0:0:
241,198,120644,2,0,L|232:153,2,46.6666666666667,0|0|0,3:0|0:0|0:0,0:0:0:0:
159,90,121303,2,0,L|146:144,1,46.6666666666667,8|0,0:1|0:0,0:0:0:0:
159,90,121744,1,0,3:0:0:0:
368,48,121963,6,0,L|329:214,1,140,4|8,3:0|0:1,0:0:0:0:
67,98,123282,1,0,3:0:0:0:
67,98,123722,1,0,0:0:0:0:
67,98,123941,2,0,P|47:34|57:-14,1,93.3333333333333,8|0,0:1|0:0,0:0:0:0:
159,90,124601,2,0,P|161:134|156:152,2,46.6666666666667,2|0|0,3:0|0:0|0:0,0:0:0:0:
333,122,125260,2,0,P|299:181|234:200,1,140,8|0,0:1|3:0,0:0:0:0:
333,122,126139,1,0,3:0:0:0:
201,74,126359,1,0,3:0:0:0:
71,128,126579,1,8,0:1:0:0:
71,128,126799,1,0,3:0:0:0:
333,122,127018,1,8,0:1:0:0:
225,344,127238,5,2,3:0:0:0:
365,355,127898,2,0,L|200:342,1,140,8|0,0:1|3:0,0:0:0:0:
488,349,128996,1,0,0:0:0:0:
488,349,129216,2,0,B|492:282|492:282|480:245,1,93.3333333333333,8|0,0:1|0:0,0:0:0:0:
368,237,129876,2,0,L|403:101,1,140,2|8,3:0|0:1,0:0:0:0:
228,274,130755,5,0,3:0:0:0:
264,153,130974,1,8,0:1:0:0:
144,117,131194,1,0,3:0:0:0:
264,153,131414,1,4,0:1:0:0:
477,43,131634,1,0,3:0:0:0:
34,43,131854,1,4,0:1:0:0:
264,153,132073,1,0,3:0:0:0:
200,356,132293,1,4,0:1:0:0:
280,380,132513,6,8,P|322:343|343:256,1,140,4|8,3:0|0:1,0:1:0:0:
197,152,133612,1,0,0:0:0:0:
197,152,133832,2,0,P|256:189|303:179,1,93.3333333333333,0|0,3:0|0:0,0:0:0:0:
141,76,134491,2,0,P|105:127|104:169,1,93.3333333333333,8|0,0:1|0:0,0:0:0:0:
197,152,135150,2,0,L|248:139,2,46.6666666666667,2|0|0,3:0|0:0|0:0,0:0:0:0:
102,156,135810,2,0,P|130:217|190:249,1,114.800001751709,8|0,0:1|0:0,0:0:0:0:
102,156,136469,1,0,3:0:0:0:
102,156,136689,1,8,0:1:0:0:
168,242,136908,1,8,0:1:0:0:
102,156,137128,1,0,3:0:0:0:
210,142,137348,1,8,0:1:0:0:
168,242,137568,1,0,3:0:0:0:
102,156,137788,1,2,3:0:0:0:
210,142,138447,6,0,L|246:238,1,93.3333333333333,8|0,0:1|0:0,0:0:0:0:
247,314,139106,2,0,L|236:373,2,46.6666666666667,0|0|0,3:0|0:0|0:0,0:0:0:0:
171,267,139766,2,0,L|151:214,1,52.5,8|0,0:1|0:0,0:0:0:0:
139,126,140205,1,0,3:0:0:0:
277,169,140425,1,4,3:0:0:0:
171,267,140645,1,8,0:1:0:0:
375,275,140865,1,8,0:1:0:0:
269,373,141084,1,4,3:0:0:0:
171,267,141304,1,8,0:1:0:0:
269,373,141524,1,8,0:1:0:0:
413,364,141744,1,4,3:0:0:0:
509,255,141963,1,8,0:1:0:0:
500,111,142183,1,8,0:1:0:0:
392,15,142403,1,8,0:1:0:0:
247,24,142623,1,8,0:1:0:0:
151,132,142843,1,8,0:1:0:0:
160,277,143062,5,4,3:0:0:0:
447,264,143282,1,0,3:0:0:0:
437,119,143502,1,8,0:1:0:0:
437,119,143612,1,8,0:1:0:0:
437,119,143722,1,8,0:1:0:0:
312,191,143941,1,0,3:0:0:0:
312,191,144051,1,8,0:1:0:0:
312,191,144161,1,8,0:1:0:0:
313,47,144381,1,4,3:0:0:0:
437,119,144601,1,0,3:0:0:0:
312,191,144821,1,8,0:1:0:0:
312,191,145040,1,8,0:1:0:0:
312,191,145150,1,8,0:1:0:0:
312,191,145260,1,8,0:1:0:0:
312,191,145370,1,8,0:1:0:0:
312,191,145480,1,8,0:1:0:0:
312,191,145590,1,8,0:1:0:0:
312,191,145700,6,0,L|122:207,1,186.666666666667,4|4,3:0|3:0,0:0:0:0:
312,191,146359,2,0,L|63:212,2,186.200001775742,8|0|8,0:1|3:0|0:1,0:0:0:0:
126,206,147018,2,0,L|334:190,1,186.666666666667,4|4,3:0|3:0,0:0:0:0:
126,206,147678,1,8,0:1:0:0:
312,191,147898,1,0,3:0:0:0:
126,206,148117,1,0,3:0:0:0:
126,206,148337,5,4,3:0:0:0:
312,191,148557,1,8,0:0:0:0:
312,191,148667,1,8,0:0:0:0:
312,191,148777,1,8,0:0:0:0:
400,116,148996,1,2,3:0:0:0:
400,116,149216,1,0,3:0:0:0:
312,191,149436,1,8,0:1:0:0:
372,280,149656,2,0,L|379:341,1,46.6666666666667,2|0,3:0|0:0,0:0:0:0:
372,280,149985,1,8,0:1:0:0:
372,280,150095,1,8,0:1:0:0:
372,280,150205,1,8,0:1:0:0:
372,280,150315,1,8,0:1:0:0:
372,280,150425,1,8,0:1:0:0:
372,280,150535,1,8,0:1:0:0:
372,280,150645,1,8,0:1:0:0:
456,240,150755,1,8,0:1:0:0:
456,240,150974,6,0,L|489:56,1,186.666666666667,4|4,3:0|3:0,0:0:0:0:
456,240,151634,2,0,L|489:56,2,186.200001775742,8|0|8,0:1|3:0|0:1,0:0:0:0:
488,56,152293,2,0,L|454:247,1,186.666666666667,4|4,3:0|3:0,0:0:0:0:
488,56,152952,1,8,0:1:0:0:
456,240,153172,1,0,3:0:0:0:
488,56,153392,1,0,3:0:0:0:
488,56,153612,5,4,3:0:0:0:
456,240,153832,1,8,0:1:0:0:
456,240,153941,1,8,0:1:0:0:
456,240,154051,1,8,0:1:0:0:
336,164,154271,2,0,L|328:210,1,46.6666666666667,2|0,3:0|0:0,0:0:0:0:
336,164,154601,1,0,0:0:0:0:
336,164,154711,1,8,0:1:0:0:
232,70,154930,2,0,L|237:137,1,46.6666666666667,2|0,3:0|0:0,0:0:0:0:
232,70,155259,1,8,0:1:0:0:
232,70,155370,1,8,0:0:0:0:
232,70,155480,1,8,0:0:0:0:
232,70,155590,1,8,0:0:0:0:
232,70,155700,1,8,0:0:0:0:
232,70,155810,1,8,0:0:0:0:
232,70,155919,1,8,0:0:0:0:
232,70,156029,1,8,0:0:0:0:
232,70,156139,1,8,0:0:0:0:
232,70,156249,6,0,L|248:276,1,186.666666666667,4|4,3:0|3:0,0:0:0:0:
232,70,156908,6,0,L|248:288,2,186.200001775742,8|0|8,0:1|3:0|0:1,0:0:0:0:
246,256,157568,2,0,L|231:69,1,186.666666666667,4|4,3:0|3:0,0:0:0:0:
246,256,158227,1,8,0:1:0:0:
232,70,158447,1,0,3:0:0:0:
246,256,158667,1,0,3:0:0:0:
246,256,158887,5,4,3:0:0:0:
232,70,159106,1,8,0:1:0:0:
232,70,159216,1,8,0:1:0:0:
232,70,159326,1,8,0:1:0:0:
339,201,159546,2,0,L|393:192,1,46.6666666666667,2|8,3:0|0:0,0:0:0:0:
339,201,159876,1,8,0:1:0:0:
339,201,159985,1,8,0:1:0:0:
172,228,160205,2,0,P|156:199|156:170,1,46.6666666666667,2|0,3:0|0:0,0:0:0:0:
172,228,160534,1,0,0:0:0:0:
172,228,160645,1,8,0:0:0:0:
172,228,160755,1,8,0:0:0:0:
172,228,160865,1,8,0:1:0:0:
172,228,160974,1,8,0:1:0:0:
172,228,161084,1,8,0:1:0:0:
172,228,161194,1,8,0:1:0:0:
119,292,161304,1,8,0:1:0:0:
119,292,161524,6,0,L|212:311,1,93.3333333333333,4|4,3:0|3:0,0:0:0:0:
119,292,162183,2,0,L|229:315,2,92.3999997180176,8|0|8,0:1|3:0|0:1,0:0:0:0:
209,310,162843,1,0,3:0:0:0:
119,292,163062,1,8,0:1:0:0:
209,310,163282,1,8,0:1:0:0:
209,310,163502,1,0,3:0:0:0:
268,208,163722,1,8,0:1:0:0:
136,148,163941,1,8,0:1:0:0:
253,63,164161,5,4,3:0:0:0:
136,148,164381,1,8,0:1:0:0:
268,208,164601,1,8,0:1:0:0:
253,63,164821,1,8,0:1:0:0:
388,120,165040,1,8,0:1:0:0:
388,120,165150,1,8,0:1:0:0:
388,120,165260,1,8,0:1:0:0:
268,208,165480,1,2,3:0:0:0:
253,63,165700,1,8,0:1:0:0:
136,148,165919,1,2,3:0:0:0:
136,148,166029,1,8,0:1:0:0:
136,148,166139,1,8,0:1:0:0:
136,148,166249,1,8,0:1:0:0:
136,148,166359,1,2,3:0:0:0:
136,148,166469,1,8,0:1:0:0:
67,87,166579,1,8,0:1:0:0:
67,87,166799,6,0,L|72:184,1,93.3333333333333,4|4,3:0|3:0,0:0:0:0:
109,275,167458,6,0,P|160:283|193:283,1,81.6666674455007,8|0,0:1|0:0,0:0:0:0:
199,133,167678,2,0,P|165:173|150:201,1,81.6666674455007,8|0,0:1|0:0,0:0:0:0:
277,281,167898,2,0,P|258:232|241:204,1,81.6666674455007,8|0,0:1|0:0,0:0:0:0:
352,122,168117,6,0,L|346:225,1,93.3333333333333,4|4,3:0|3:0,0:0:0:0:
352,122,168777,1,8,0:1:0:0:
352,122,168996,1,8,0:1:0:0:
352,122,169216,1,8,0:1:0:0:
16,184,169436,2,0,L|124:192,1,93.3333333333333,4|0,3:0|0:0,0:0:0:0:
312,256,170095,5,8,0:1:0:0:
192,176,170315,1,8,0:1:0:0:
320,112,170535,1,8,0:1:0:0:
192,176,170755,1,8,0:1:0:0:
320,112,170974,1,8,0:1:0:0:
96,88,171194,1,8,0:1:0:0:
296,336,171414,1,8,0:1:0:0:
72,312,171634,1,8,0:1:0:0:
296,336,171854,1,8,0:1:0:0:
96,88,172073,5,4,3:0:0:0:
392,0,172293,1,8,0:1:0:0:
392,0,172403,1,8,0:1:0:0:
392,0,172513,1,8,0:1:0:0:
96,88,172733,1,4,3:0:0:0:
308,288,172952,1,8,0:1:0:0:
308,288,173062,1,8,0:1:0:0:
308,288,173172,1,8,0:1:0:0:
122,379,173392,1,4,3:0:0:0:
136,172,173612,1,8,0:0:0:0:
136,172,173722,1,8,0:0:0:0:
136,172,173832,1,8,0:0:0:0:
136,172,173941,1,8,0:0:0:0:
136,172,174051,1,10,0:0:0:0:
136,172,174161,1,8,0:0:0:0:
136,172,174271,1,8,0:0:0:0:
136,172,174381,1,8,0:0:0:0:
136,172,174491,1,8,0:0:0:0:
136,172,174601,1,8,0:0:0:0:
136,172,174710,5,4,3:0:0:0:
206,20,174930,1,0,0:0:0:0:
41,35,175150,1,0,3:0:0:0:
140,196,175370,5,8,0:1:0:0:
177,34,175590,1,0,0:0:0:0:
19,83,175809,1,8,0:1:0:0:
149,220,176029,5,0,3:0:0:0:
152,53,176249,1,0,0:0:0:0:
7,134,176469,1,0,3:0:0:0:
163,241,176688,5,8,0:1:0:0:
131,77,176908,1,0,0:0:0:0:
6,186,177128,1,8,0:1:0:0:
181,258,177348,5,2,3:0:0:0:
116,105,177568,1,0,0:0:0:0:
17,238,177787,1,0,3:0:0:0:
202,271,178007,5,8,0:1:0:0:
107,135,178227,1,0,0:0:0:0:
37,286,178447,1,8,0:1:0:0:
226,280,178666,5,0,3:0:0:0:
104,167,178886,1,0,0:0:0:0:
67,328,179106,1,0,3:0:0:0:
251,284,179326,5,8,0:1:0:0:
108,198,179546,1,0,0:0:0:0:
106,364,179765,1,8,0:1:0:0:
312,193,179985,6,0,P|244:201|195:155,1,140.000005340576,6|0,3:0|3:0,0:0:0:0:
312,193,180644,2,0,L|364:217,1,35.0000013351441,8|0,0:1|0:0,0:0:0:0:
279,268,180864,2,0,L|232:301,1,35.0000013351441
231,204,181084,2,0,L|225:150,1,35.0000013351441
103,237,181304,6,0,P|130:174|194:154,1,140.000005340576,6|0,3:0|3:0,0:0:0:0:
103,237,181963,2,0,L|56:270,1,35.0000013351441,8|0,0:1|0:0,0:0:0:0:
54,170,182183,2,0,L|48:112,1,35.0000013351441
133,161,182403,2,0,L|186:184,1,35.0000013351441
170,35,182622,6,0,P|210:89|195:155,1,140.000005340576,6|0,3:0|3:0,0:0:0:0:
170,35,183282,2,0,L|164:-22,1,35.0000013351441,8|0,0:1|0:0,0:0:0:0:
252,26,183502,2,0,L|304:50,1,35.0000013351441
220,98,183721,2,0,L|172:132,1,35.0000013351441
227,282,183941,2,0,P|187:202|207:134,1,140.000005340576,6|0,3:0|0:0,0:0:0:0:
227,282,184601,1,8,0:1:0:0:
227,282,184820,1,8,0:0:0:0:
227,282,184930,1,8,0:0:0:0:
227,282,185040,1,8,0:0:0:0:
227,282,185150,1,8,0:0:0:0:
227,282,185260,5,4,3:0:0:0:
350,125,185480,1,0,0:0:0:0:
426,309,185699,1,0,3:0:0:0:
220,258,185919,5,8,0:1:0:0:
373,130,186139,1,0,0:0:0:0:
409,326,186359,1,8,0:1:0:0:
218,234,186579,5,0,3:0:0:0:
394,141,186798,1,0,0:0:0:0:
389,340,187018,1,0,3:0:0:0:
222,210,187238,5,8,0:1:0:0:
413,155,187458,1,0,0:0:0:0:
367,349,187677,1,8,0:1:0:0:
231,186,187897,6,0,B|262:227|262:227|286:244,1,81.6666674455007,4|0,3:0|0:0,0:0:0:0:
430,173,188117,2,0,B|378:179|378:179|329:202,1,81.6666674455007,10|0,0:1|0:0,0:0:0:0:
344,352,188337,2,0,B|363:303|363:303|368:250,1,81.6666674455007,10|0,0:1|0:0,0:0:0:0:
244,166,188557,6,0,B|266:213|266:213|302:252,1,81.6666674455007,4|0,3:0|0:0,0:0:0:0:
441,194,188776,2,0,B|388:189|388:189|336:201,1,81.6666674455007,10|0,0:1|0:0,0:0:0:0:
320,352,188996,2,0,B|349:308|349:308|365:257,1,81.6666674455007,10|0,0:1|0:0,0:0:0:0:
260,148,189216,6,0,B|272:198|272:198|299:244,1,81.6666674455007,4|0,3:0|0:0,0:0:0:0:
448,217,189436,2,0,B|397:202|397:202|344:203,1,81.6666674455007,10|0,0:1|0:0,0:0:0:0:
296,346,189655,2,0,B|333:310|333:310|359:263,1,81.6666674455007,10|0,0:1|0:0,0:0:0:0:
281,135,189875,6,0,B|282:187|282:187|299:237,1,81.6666674455007,4|0,3:0|0:0,0:0:0:0:
450,241,190095,2,0,B|404:216|404:216|351:206,1,81.6666674455007,10|0,0:1|0:0,0:0:0:0:
274,336,190315,2,0,B|318:308|318:308|353:268,1,81.6666674455007,10|0,0:1|0:0,0:0:0:0:
112,192,190535,6,0,P|164:244|248:280,1,140.000005340576,4|0,3:0|0:0,0:0:0:0:
208,168,191194,2,0,P|156:116|72:80,1,140.000005340576,8|0,0:1|0:0,0:0:0:0:
222,273,191853,6,0,P|274:221|310:137,1,140.000005340576,0|0,3:0|0:0,0:0:0:0:
132,224,192513,2,0,P|125:297|152:384,1,140.000005340576,8|0,0:1|0:0,0:0:0:0:
258,266,193172,5,2,3:0:0:0:
317,51,193392,1,8,0:1:0:0:
317,51,193502,1,8,0:1:0:0:
317,51,193611,1,8,0:1:0:0:
179,60,193831,1,2,3:0:0:0:
366,180,194051,1,8,0:1:0:0:
366,180,194161,1,8,0:1:0:0:
366,180,194271,1,8,0:1:0:0:
366,180,194381,1,8,0:1:0:0:
366,180,194491,1,2,3:0:0:0:
179,60,194710,1,8,0:1:0:0:
317,51,194930,1,2,3:0:0:0:
144,192,195150,1,10,0:1:0:0:
144,192,195260,1,8,0:1:0:0:
144,192,195370,1,8,0:1:0:0:
144,192,195480,1,8,0:1:0:0:
144,192,195590,1,8,0:1:0:0:
144,192,195699,1,8,0:1:0:0:
144,192,195809,6,0,P|172:246|248:268,1,140.000005340576,4|0,3:0|0:0,0:0:0:0:
368,196,196469,2,0,P|400:144|381:67,1,140.000005340576,8|0,0:1|0:0,0:0:0:0:
256,176,197128,2,0,P|223:227|244:312,1,140.000005340576,0|0,3:0|0:0,0:0:0:0:
486,232,197787,2,0,P|494:176|482:140,2,70.0000026702882,8|0|0,0:1|0:0|3:0,0:0:0:0:
376,116,198447,2,0,L|288:92,2,70.0000026702882,2|0|0,3:0|0:0|0:0,0:0:0:0:
472,48,199106,1,2,3:0:0:0:
472,48,199326,1,0,0:0:0:0:
472,48,199546,1,0,0:0:0:0:
492,164,199765,1,2,3:0:0:0:
492,164,199985,1,0,0:0:0:0:
492,164,200205,1,0,0:0:0:0:
376,116,200425,1,2,3:0:0:0:
472,48,200644,1,0,0:0:0:0:
492,164,200864,1,0,0:0:0:0:
260,164,201084,6,0,L|248:316,1,140.000005340576,4|0,3:0|0:0,0:0:0:0:
312,80,201743,2,0,P|256:68|180:108,1,140.000005340576,8|0,0:1|0:0,0:0:0:0:
248,303,202403,2,0,L|260:164,1,140.000005340576,2|0,3:0|0:0,0:0:0:0:
6,339,203062,2,0,L|144:320,1,140.000005340576,8|0,0:1|0:0,0:0:0:0:
92,160,203721,5,2,3:0:0:0:
324,84,203941,1,0,3:0:0:0:
468,284,204161,1,8,0:1:0:0:
106,98,204381,5,2,3:0:0:0:
350,97,204601,1,0,3:0:0:0:
426,332,204820,1,8,0:1:0:0:
140,43,205040,5,2,3:0:0:0:
372,118,205260,1,0,3:0:0:0:
371,365,205480,1,8,0:1:0:0:
188,2,205699,5,2,3:0:0:0:
386,145,205919,1,0,3:0:0:0:
309,379,206139,1,8,0:1:0:0:
418,276,206359,6,0,B|430:191|382:140,1,140.000005340576,4|0,3:0|0:0,0:0:0:0:
272,196,207018,2,0,B|210:215|139:167,1,140.000005340576,8|0,0:1|0:0,0:0:0:0:
64,32,207677,2,0,B|48:176,1,140.000005340576,0|0,3:0|0:0,0:0:0:0:
124,276,208337,2,0,P|184:304|216:308,2,70.0000026702882,8|0|0,0:1|0:0|3:0,0:0:0:0:
332,248,208996,2,0,L|244:272,2,70.0000026702882,2|0|0,3:0|0:0|3:0,0:0:0:0:
428,316,209655,1,2,3:0:0:0:
428,316,209875,1,0,3:0:0:0:
428,316,210095,1,8,0:1:0:0:
448,200,210315,1,2,3:0:0:0:
448,200,210535,1,0,3:0:0:0:
448,200,210754,1,8,0:1:0:0:
268,241,210974,1,2,3:0:0:0:
450,371,211194,1,0,3:0:0:0:
468,168,211414,1,8,0:1:0:0:
268,241,211633,6,0,P|344:249|396:201,1,140.000005340576,2|0,3:0|0:0,0:0:0:0:
425,89,212293,2,0,P|380:150|395:219,1,140.000005340576,8|0,0:1|0:0,0:0:0:0:
477,302,212952,2,0,P|445:232|378:211,1,140.000005340576,2|0,3:0|0:0,0:0:0:0:
180,150,213611,2,0,P|211:219|278:240,1,140.000005340576,8|0,0:1|3:0,0:0:0:0:
236,28,214271,5,4,3:0:0:0:
40,88,214491,1,8,0:1:0:0:
40,88,214601,1,8,0:1:0:0:
40,88,214710,1,8,0:1:0:0:
217,193,214930,1,2,3:0:0:0:
37,293,215150,1,8,0:1:0:0:
37,293,215260,1,8,0:1:0:0:
37,293,215370,1,8,0:1:0:0:
230,354,215590,1,2,3:0:0:0:
354,190,215809,1,8,0:1:0:0:
354,190,215919,1,8,0:1:0:0:
354,190,216029,1,8,0:1:0:0:
354,190,216139,1,8,0:1:0:0:
354,190,216249,1,2,3:0:0:0:
354,190,216359,1,8,0:1:0:0:
354,190,216469,1,8,0:1:0:0:
354,190,216579,1,8,0:1:0:0:
354,190,216688,1,10,0:1:0:0:
439,98,216908,6,0,P|473:140|474:250,1,140.000005340576,4|0,3:0|0:0,0:0:0:0:
246,178,217568,2,0,P|296:158|401:191,1,140.000005340576,8|0,0:1|0:0,0:0:0:0:
277,376,218227,2,0,P|274:322|338:232,1,140.000005340576,0|0,3:0|0:0,0:0:0:0:
425,278,218886,2,0,P|459:236|460:126,1,140.000005340576,8|0,0:1|0:0,0:0:0:0:
232,198,219546,2,0,P|282:217|387:184,1,140.000005340576,4|0,3:0|0:0,0:0:0:0:
263,0,220205,2,0,P|260:53|324:143,1,140.000005340576,8|0,0:1|0:0,0:0:0:0:
362,252,220864,2,0,P|316:222|207:233,1,140.000005340576,0|0,3:0|0:0,0:0:0:0:
92,211,221524,2,0,P|140:186|185:86,1,140.000005340576,8|0,0:1|0:0,0:0:0:0:
294,30,222183,6,0,L|309:178,1,140.000005340576,4|0,3:0|0:0,0:0:0:0:
153,323,222842,2,0,L|167:183,1,140.000005340576,8|0,0:1|0:0,0:0:0:0:
418,230,223502,2,0,L|270:245,1,140.000005340576,2|0,3:0|0:0,0:0:0:0:
125,89,224161,2,0,L|264:103,1,140.000005340576,8|0,0:1|0:0,0:0:0:0:
48,156,224820,2,0,B|28:78|28:78|55:18,1,140.000005340576,2|0,3:0|0:0,0:0:0:0:
259,145,225480,2,0,B|178:139|178:139|129:95,1,140.000005340576,8|0,0:1|0:0,0:0:0:0:
370,139,226139,2,0,B|340:213|340:213|283:246,1,140.000005340576,0|0,3:0|0:0,0:0:0:0:
397,32,226798,1,8,0:1:0:0:
397,32,227018,1,8,0:1:0:0:
438,184,227238,1,8,0:1:0:0:
438,184,227348,1,8,0:1:0:0:
438,184,227458,6,0,P|406:239|330:269,1,140.000005340576,4|0,3:0|0:0,0:0:0:0:
262,68,228117,2,0,P|317:99|347:176,1,140.000005340576,8|0,0:1|0:0,0:0:0:0:
144,246,228776,2,0,P|175:190|252:161,1,140.000005340576,0|0,3:0|0:0,0:0:0:0:
321,363,229436,2,0,P|265:331|236:255,1,140.000005340576,8|0,0:1|0:0,0:0:0:0:
428,276,230095,2,0,P|369:302|291:281,1,140.000005340576,2|0,3:0|0:0,0:0:0:0:
428,165,230754,2,0,P|396:220|320:249,1,140.000005340576,8|0,0:1|0:0,0:0:0:0:
363,72,231414,2,0,P|369:135|325:204,1,140.000005340576,0|0,3:0|0:0,0:0:0:0:
258,37,232073,1,8,0:1:0:0:
258,37,232293,1,8,0:1:0:0:
170,118,232513,1,8,0:1:0:0:
170,118,232622,1,8,0:1:0:0:
170,118,232732,6,0,P|224:108|256:26,1,140.000005340576,4|0,3:0|0:0,0:0:0:0:
68,109,233392,2,0,B|55:193|55:193|69:260,1,140.000005340576,8|0,0:1|0:0,0:0:0:0:
292,158,234051,2,0,L|271:12,1,140.000005340576,0|0,3:0|0:0,0:0:0:0:
174,210,234710,2,0,P|216:279|279:312,1,140.000005340576,8|0,0:1|0:0,0:0:0:0:
341,142,235370,1,4,3:0:0:0:
266,309,235590,5,8,0:1:0:0:
266,309,235699,1,8,0:1:0:0:
266,309,235809,1,8,0:1:0:0:
266,309,235919,1,8,0:1:0:0:
266,309,236029,1,2,3:0:0:0:
99,234,236249,1,8,0:1:0:0:
99,234,236359,1,8,0:1:0:0:
99,234,236469,1,8,0:1:0:0:
99,234,236579,1,8,0:1:0:0:
99,234,236688,1,2,3:0:0:0:
181,61,236908,1,6,3:0:0:0:
99,234,237128,1,2,3:0:0:0:
290,218,237348,1,10,0:1:0:0:
290,218,237458,1,8,0:1:0:0:
290,218,237568,1,8,0:1:0:0:
290,218,237677,1,8,0:1:0:0:
290,218,237787,1,8,0:1:0:0:
290,218,237897,1,8,0:1:0:0:
290,218,238007,6,0,P|265:282|203:310,1,140.000005340576,4|0,3:0|3:0,0:0:0:0:
99,197,238666,2,0,P|43:234|41:327,1,140.000005340576,8|0,0:1|3:0,0:0:0:0:
192,218,239326,2,0,P|186:151|107:103,1,140.000005340576,2|0,3:0|3:0,0:0:0:0:
203,310,239985,2,0,P|264:284|286:193,1,140.000005340576,8|0,0:1|3:0,0:0:0:0:
319,132,240644,1,4,3:0:0:0:
395,83,240864,1,0,3:0:0:0:
485,90,241084,1,8,0:1:0:0:
485,90,241304,1,2,3:0:0:0:
485,90,241524,1,0,3:0:0:0:
485,90,241743,1,8,0:1:0:0:
440,169,241963,1,2,3:0:0:0:
356,204,242183,1,0,3:0:0:0:
269,176,242403,1,8,0:1:0:0:
227,95,242622,1,2,3:0:0:0:
240,261,242842,1,0,3:0:0:0:
86,324,243062,1,8,0:1:0:0:
414,346,243282,6,0,P|472:331|521:257,1,140.000005340576,4|0,3:0|3:0,0:0:0:0:
282,318,243941,2,0,P|383:351|437:336,1,140.000005340576,8|0,0:1|0:0,0:0:0:0:
273,184,244600,2,0,P|263:274|300:340,1,140.000005340576,2|0,3:0|3:0,0:0:0:0:
281,50,245260,2,0,P|291:140|254:206,1,140.000005340576,8|0,0:1|3:0,0:0:0:0:
281,50,245919,1,4,3:0:0:0:
312,135,246139,1,8,0:1:0:0:
268,215,246359,1,8,0:1:0:0:
303,298,246579,1,2,3:0:0:0:
146,30,246798,5,8,0:1:0:0:
146,30,246908,1,8,0:1:0:0:
146,30,247018,1,8,0:1:0:0:
146,30,247128,1,8,0:1:0:0:
146,30,247238,1,2,3:0:0:0:
68,304,247458,1,8,0:1:0:0:
68,304,247568,1,8,0:1:0:0:
68,304,247677,1,8,0:1:0:0:
68,304,247787,1,8,0:1:0:0:
68,304,247897,1,2,3:0:0:0:
498,254,248117,1,8,0:1:0:0:
498,254,248227,1,8,0:1:0:0:
498,254,248337,1,8,0:1:0:0:
498,254,248447,1,8,0:1:0:0:
498,254,248557,6,0,P|480:224|501:110,1,140.000005340576,4|0,3:0|3:0,0:0:0:0:
498,254,249216,2,0,P|516:284|494:397,1,140.000005340576,8|0,0:1|3:0,0:0:0:0:
376,301,249875,2,0,P|398:274|513:259,1,140.000005340576,0|0,3:0|3:0,0:0:0:0:
376,301,250535,2,0,P|353:327|238:342,1,140.000005340576,8|0,0:1|3:0,0:0:0:0:
171,247,251194,2,0,P|203:260|253:365,1,140.000005340576,2|0,3:0|3:0,0:0:0:0:
171,247,251853,2,0,P|138:233|88:128,1,140.000005340576,8|0,0:1|3:0,0:0:0:0:
271,164,252513,2,0,P|257:196|152:246,1,140.000005340576,0|0,3:0|3:0,0:0:0:0:
298,33,253172,1,8,0:1:0:0:
298,33,253392,1,8,0:1:0:0:
460,77,253611,1,8,0:1:0:0:
460,77,253721,1,8,0:1:0:0:
460,77,253831,6,0,P|457:145|413:199,1,140.000005340576,4|0,3:0|3:0,0:0:0:0:
312,116,254491,2,0,P|280:176|291:244,1,140.000005340576,8|0,0:1|3:0,0:0:0:0:
413,199,255150,2,0,P|377:140|313:116,1,140.000005340576,2|0,3:0|3:0,0:0:0:0:
169,290,255809,2,0,P|238:287|292:243,1,140.000005340576,8|0,0:1|3:0,0:0:0:0:
175,9,256469,5,4,3:0:0:0:
302,169,256688,1,8,0:1:0:0:
302,169,256798,1,8,0:1:0:0:
302,169,256908,1,8,0:1:0:0:
99,199,257128,1,4,3:0:0:0:
226,359,257348,1,8,0:1:0:0:
226,359,257458,1,8,0:1:0:0:
226,359,257568,1,8,0:1:0:0:
302,169,257787,1,2,3:0:0:0:
99,199,258007,1,2,3:0:0:0:
99,199,258227,1,8,0:1:0:0:
99,199,258337,1,8,0:1:0:0:
99,199,258447,1,10,0:1:0:0:
99,199,258557,1,8,0:1:0:0:
99,199,258666,1,8,0:1:0:0:
99,199,258776,1,8,0:1:0:0:
99,199,258886,1,8,0:1:0:0:
99,199,258996,1,8,0:1:0:0:
99,199,259106,6,0,L|95:59,1,140.000005340576,4|0,3:0|3:0,0:0:0:0:
203,176,259765,2,0,L|200:316,1,140.000005340576,8|0,0:1|3:0,0:0:0:0:
308,196,260425,2,0,L|304:56,1,140.000005340576,2|0,3:0|3:0,0:0:0:0:
408,176,261084,2,0,L|404:315,1,140.000005340576,8|0,0:1|3:0,0:0:0:0:
304,56,261743,2,0,L|307:195,1,140.000005340576,4|0,3:0|3:0,0:0:0:0:
200,316,262403,2,0,L|203:176,1,140.000005340576,8|0,0:1|3:0,0:0:0:0:
95,59,263062,2,0,L|99:199,1,140.000005340576,2|0,3:0|3:0,0:0:0:0:
215,369,263721,1,10,0:1:0:0:
215,369,263941,1,8,0:1:0:0:
413,285,264161,1,8,0:1:0:0:
413,285,264271,1,8,0:1:0:0:
413,285,264381,6,0,L|264:304,1,140.000005340576,4|0,3:0|3:0,0:0:0:0:
156,243,265040,2,0,L|216:370,1,140.000005340576,8|0,0:1|3:0,0:0:0:0:
74,209,265699,2,0,L|183:106,1,140.000005340576,2|0,3:0|3:0,0:0:0:0:
306,91,266359,2,0,L|183:24,1,140.000005340576,8|0,0:1|3:0,0:0:0:0:
392,71,267018,2,0,L|364:219,1,140.000005340576,4|0,3:0|3:0,0:0:0:0:
183,24,267677,1,10,0:1:0:0:
183,24,267897,1,8,0:1:0:0:
366,208,268117,1,8,0:1:0:0:
366,208,268227,1,8,0:1:0:0:
366,208,268337,1,2,3:0:0:0:
216,370,268557,1,4,3:0:0:0:
176,113,268776,1,2,3:0:0:0:
274,302,268996,1,10,0:1:0:0:
297,299,269106,1,8,0:1:0:0:
320,296,269216,1,8,0:1:0:0:
343,293,269326,1,8,0:1:0:0:
366,290,269436,1,8,0:1:0:0:
389,287,269546,1,8,0:1:0:0:
413,285,269655,6,0,P|440:224|412:140,1,140.000005340576,4|0,3:0|3:0,0:0:0:0:
99,99,270315,2,0,P|72:160|100:244,1,140.000005340576,8|0,0:1|3:0,0:0:0:0:
349,35,270974,2,0,P|288:8|204:36,1,140.000005340576,2|0,3:0|3:0,0:0:0:0:
163,349,271633,2,0,P|224:376|308:348,1,140.000005340576,8|0,0:1|3:0,0:0:0:0:
438,194,272293,2,0,P|431:127|365:68,1,140.000005340576,4|0,3:0|3:0,0:0:0:0:
163,349,272952,2,0,P|224:375|308:348,1,140.000005340576,8|0,0:1|3:0,0:0:0:0:
166,32,273611,2,0,P|112:72|94:159,1,140.000005340576,2|0,3:0|3:0,0:0:0:0:
293,358,274271,1,10,0:1:0:0:
293,358,274491,1,8,0:1:0:0:
92,140,274710,1,8,0:1:0:0:
92,140,274820,1,8,0:1:0:0:
92,140,274930,6,0,P|111:74|166:32,1,140.000005340576,4|0,3:0|3:0,0:0:0:0:
419,243,275590,2,0,P|400:309|345:351,1,140.000005340576,8|0,0:1|3:0,0:0:0:0:
307,28,276249,2,0,P|373:47|415:102,1,140.000005340576,2|0,3:0|3:0,0:0:0:0:
204,355,276908,2,0,P|138:336|96:281,1,140.000005340576,8|0,0:1|3:0,0:0:0:0:
324,128,277607,5,4,3:0:0:0:
196,256,277837,1,2,3:0:0:0:
320,252,278067,5,8,0:1:0:0:
273,100,278296,1,4,3:0:0:0:
348,196,278526,5,2,3:0:0:0:
245,279,278756,1,8,0:1:0:0:
180,149,278986,5,4,3:0:0:0:
296,107,279215,1,2,3:0:0:0:
272,232,279446,6,0,L|271:258,1,23.3333333333333,4|0,3:0|3:0,0:0:0:0:
384,272,279890,2,0,L|381:300,1,23.3333333333333,4|0,3:0|0:0,0:0:0:0:
496,312,280496,1,2,0:1:0:0:
