osu file format v14

[General]
AudioFilename: audio.mp3
AudioLeadIn: 0
PreviewTime: 216415
Countdown: 1
SampleSet: Normal
StackLeniency: 0
Mode: 0
LetterboxInBreaks: 0
WidescreenStoryboard: 1

[Editor]
DistanceSpacing: 2.6
BeatDivisor: 6
GridSize: 8
TimelineZoom: 3.699998

[Metadata]
Title:Sanzameku
TitleUnicode:さんざめく
Artist:Mass of the Fermenting Dregs
ArtistUnicode:Mass of the Fermenting Dregs
Creator:Yumeko
Version:Deafening
Source:
Tags:ゼロコンマ、色とりどりの世界 alternative progressive rock jrock Zero Comma, Iro Toridori no Sekai shoegaze masu dore
BeatmapID:2045053
BeatmapSetID:977092

[Difficulty]
HPDrainRate:5
CircleSize:3
OverallDifficulty:5
ApproachRate:5
SliderMultiplier:1.4
SliderTickRate:1

[Events]
//Background and Video events
0,0,"sdfw.jpg",0,0
//Break Periods
2,21902,25794
//Storyboard Layer 0 (Background)
//Storyboard Layer 1 (Fail)
//Storyboard Layer 2 (Pass)
//Storyboard Layer 3 (Foreground)
//Storyboard Layer 4 (Overlay)
//Storyboard Sound Samples

[TimingPoints]
623,659.340659340659,4,1,0,70,1,0
623,-100,4,1,0,70,0,0
1316,628.2722513089,4,1,0,60,1,0
2572,674.157303370786,4,1,0,60,1,0
3246,662.983425414365,4,1,0,60,1,0
5897,661.157024793388,4,1,0,60,1,0
10525,645.16129032258,4,1,0,60,1,0
11170,659.340659340659,4,1,0,60,1,0
13148,645.16129032258,4,1,0,60,1,0
13793,659.340659340659,4,1,0,60,1,0
17749,674.157303370786,4,1,0,60,1,0
18423,645.16129032258,4,1,0,60,1,0
19068,662.983425414364,4,1,0,60,1,0
20393,643.43163538874,4,1,0,60,1,0
21036,666.666666666666,4,1,0,60,1,0
22369,650.40650406504,4,1,0,60,1,0
23669,693.641618497109,4,1,0,60,1,0
24362,666.666666666666,4,1,0,60,1,0
25028,648.648648648648,4,1,0,60,1,0
26994,681.818181818182,4,1,0,60,1,0
26994,-100,4,1,0,60,0,0
27675,652.173913043478,4,1,0,60,1,0
28979,631.578947368421,4,1,0,60,1,0
29610,652.173913043478,4,1,0,60,1,0
30262,666.666666666666,4,1,0,60,1,0
31595,681.818181818181,4,1,0,60,1,0
31595,-1000,4,1,0,60,0,0
32276,659.340659340659,4,1,0,60,1,0
32276,-100,4,1,0,60,0,0
36232,645.16129032258,4,1,0,60,1,0
36877,674.157303370786,4,1,0,60,1,0
36877,-1000,4,1,0,60,0,0
37551,-100,4,1,0,60,0,0
38225,650.40650406504,4,1,0,60,1,0
42127,674.157303370786,4,1,0,60,1,0
42127,-1000,4,1,0,60,0,0
42801,-100,4,1,0,60,0,0
43475,681.818181818181,4,1,0,60,1,0
44156,641.711229946524,4,1,0,60,1,0
44797,652.173913043478,4,1,0,60,1,0
46101,662.983425414364,4,1,0,60,1,0
47426,-1000,4,1,0,60,0,0
48089,-100,4,1,0,60,0,0
50078,645.16129032258,4,1,0,60,1,0
50723,659.340659340659,4,1,0,60,1,0
51382,652.173913043478,4,1,0,60,1,0
52034,666.666666666666,4,1,0,60,1,0
52700,679.886685552407,4,1,0,60,1,0
52700,-1000,4,1,0,60,0,0
53379,652.173913043478,4,1,0,60,1,0
53379,-100,4,1,0,60,0,0
55987,657.534246575342,4,1,0,60,1,0
58617,666.666666666666,4,1,0,60,1,0
61283,659.340659340659,4,1,0,60,1,0
63920,681.818181818181,4,1,0,60,1,0
64601,662.983425414364,4,1,0,60,1,0
65263,653.950953678474,4,1,0,60,1,0
66570,641.711229946524,4,1,0,60,1,0
67211,674.157303370786,4,1,0,60,1,0
67885,659.340659340659,4,1,0,60,1,0
68764,-100,4,1,0,60,0,0
69203,664.819944598338,4,1,0,60,1,0
70532,648.648648648648,4,1,0,60,1,0
71829,659.340659340659,4,1,0,60,1,0
72488,655.737704918032,4,1,0,60,1,0
73799,659.340659340659,4,1,0,60,1,0
77095,643.43163538874,4,1,0,60,1,0
77095,-100,4,1,0,80,0,0
79025,729.483282674772,4,1,0,50,1,0
79025,-200,4,2,0,60,0,0
79754,664.819944598338,4,1,0,70,1,0
79754,-50,4,1,0,70,0,0
81748,652.173913043478,4,1,0,70,1,0
82400,662.983425414364,4,1,0,70,1,0
84388,650.40650406504,4,1,0,70,1,0
85038,-50,4,1,0,70,0,0
88290,674.157303370786,4,1,0,70,1,0
88290,-50,4,1,0,70,0,0
88964,659.340659340659,4,1,0,70,1,0
88964,-50,4,1,0,70,0,0
89623,667.779632721202,4,1,0,70,1,0
90290,689.655172413793,4,1,0,70,1,0
90290,-50,4,1,0,70,0,0
90979,638.297872340425,4,1,0,70,1,0
91617,662.983425414364,4,1,0,70,1,0
91617,-50,4,1,0,70,0,0
94268,645.16129032258,4,1,0,70,1,0
95558,681.818181818181,4,1,0,70,1,0
95558,-50,4,1,0,70,0,0
96239,657.534246575342,4,1,0,70,1,0
96896,-50,4,1,0,70,0,0
98869,652.173913043478,4,1,0,70,1,0
100173,638.297872340425,4,1,0,70,1,0
100811,689.655172413792,4,1,0,70,1,0
100811,-100,4,1,0,60,0,0
101500,662.983425414364,4,1,0,60,1,0
104151,652.173913043478,4,1,0,60,1,0
105455,-1000,4,1,0,60,0,0
106107,666.666666666666,4,1,0,60,1,0
106107,-100,4,1,0,60,0,0
108107,657.534246575342,4,1,0,60,1,0
110737,-1000,4,1,0,60,0,0
111394,662.983425414364,4,1,0,60,1,0
111394,-100,4,1,0,60,0,0
112719,652.173913043478,4,1,0,60,1,0
114023,662.983425414364,4,1,0,60,1,0
115348,655.737704918032,4,1,0,60,1,0
116003,666.666666666666,4,1,0,60,1,0
116003,-1000,4,1,0,60,0,0
116669,-100,4,1,0,60,0,0
117336,661.157024793388,4,1,0,60,1,0
119319,655.737704918032,4,1,0,60,1,0
121941,662.983425414364,4,1,0,60,1,0
125918,646.900269541778,4,1,0,60,1,0
127211,657.534246575342,4,1,0,60,1,0
131156,-100,4,1,0,65,0,0
131375,-100,4,1,0,70,0,0
132471,666.666666666666,4,1,0,60,1,0
132471,-100,4,1,0,60,0,0
133137,697.67441860465,4,1,0,60,1,0
133834,652.173913043477,4,1,0,60,1,0
135790,666.666666666666,4,1,0,60,1,0
135790,-81.3008130081301,4,1,0,60,0,0
136456,659.340659340658,4,1,0,60,1,0
136456,-100,4,1,0,60,0,0
137774,648.648648648648,4,1,0,60,1,0
139071,672.268907563024,4,1,0,60,1,0
140415,-100,4,1,0,70,0,0
141087,659.340659340658,4,1,0,70,1,0
141087,-100,4,1,0,73,0,0
141746,-100,4,1,0,76,0,0
142405,666.666666666666,4,1,0,70,1,0
142405,-100,4,1,0,80,0,0
143738,652.173913043477,4,1,0,70,1,0
145042,659.340659340658,4,1,0,70,1,0
145042,-100,4,1,0,70,0,0
145701,662.983425414364,4,1,0,70,1,0
145701,-50,4,1,0,80,0,0
146363,-25.062656641604,4,1,0,70,0,0
147026,652.173913043477,4,1,0,70,1,0
147026,-50,4,1,0,80,0,0
147678,-25,4,1,0,70,0,0
148330,659.340659340658,4,1,0,70,1,0
148330,-100,4,1,0,70,0,0
150308,652.173913043477,4,1,0,70,1,0
150960,-50,4,1,0,80,0,0
151612,659.340659340658,4,1,0,70,1,0
151612,-25.062656641604,4,1,0,70,0,0
152271,674.157303370786,4,1,0,70,1,0
152271,-50,4,1,0,80,0,0
152945,659.340659340658,4,1,0,70,1,0
152945,-25,4,1,0,70,0,0
153604,-100,4,1,0,70,0,0
154263,648.648648648648,4,1,0,70,1,0
155560,666.666666666666,4,1,0,70,1,0
156226,-50,4,1,0,80,0,0
156893,-25.062656641604,4,1,0,70,0,0
157560,659.340659340658,4,1,0,70,1,0
157560,-50,4,1,0,80,0,0
158219,-25,4,1,0,70,0,0
158878,-100,4,1,0,70,0,0
159538,652.173913043477,4,1,0,70,1,0
161494,681.818181818181,4,1,0,70,1,0
161494,-100,4,1,0,75,0,0
162175,652.173913043478,4,1,0,70,1,0
162175,-50.5050505050505,4,1,0,70,0,0
162827,-100,4,1,0,70,0,0
163479,659.340659340659,4,1,0,70,1,0
164138,689.655172413792,4,1,0,70,1,0
164827,666.666666666666,4,1,0,70,1,0
165493,652.173913043477,4,1,0,70,1,0
166145,659.340659340659,4,1,0,70,1,0
166804,-100,4,1,0,80,0,0
167463,645.16129032258,4,1,0,70,1,0
167463,-28.5714285714286,4,1,0,70,0,0
168108,-100,4,1,0,80,0,0
168753,666.666666666666,4,1,0,70,1,0
168753,-100,4,1,0,70,0,0
169419,-100,4,1,0,75,0,0
169864,-100,4,1,0,70,0,0
170086,659.340659340659,4,1,0,70,1,0
170086,-66.6666666666667,4,1,0,40,0,0
170305,-66.6666666666667,4,1,0,43,0,0
170525,-66.6666666666667,4,1,0,46,0,0
170745,-66.6666666666667,4,1,0,49,0,0
170965,-66.6666666666667,4,1,0,52,0,0
171185,-66.6666666666667,4,1,0,55,0,0
171404,-66.6666666666667,4,1,0,58,0,0
171624,-66.6666666666667,4,1,0,61,0,0
171844,-66.6666666666667,4,1,0,64,0,0
172064,650.40650406504,4,1,0,70,1,0
172064,-33.3333333333333,4,1,0,80,0,0
172280,-33.3333333333333,4,1,0,70,0,0
172714,-33.3333333333333,4,1,0,80,0,0
172931,-33.3333333333333,4,1,0,70,0,0
173364,-33.3333333333333,4,1,0,80,0,0
173581,-33.3333333333333,4,1,0,70,0,0
174015,657.534246575342,4,1,0,70,1,0
174015,-100,4,1,0,80,0,0
174672,681.818181818181,4,1,0,70,1,0
174672,-66.6666666666667,4,1,0,80,0,0
174899,-66.6666666666667,4,1,0,70,0,0
175353,664.819944598338,4,1,0,70,1,0
175353,-100,4,1,0,70,0,0
178012,659.340659340659,4,1,0,70,1,0
178012,-100,4,1,0,70,0,0
179330,648.648648648648,4,1,0,70,1,0
179330,-100,4,1,0,70,0,0
179978,-66.6666666666667,4,1,0,70,0,0
180627,659.340659340659,4,1,0,70,1,0
180627,-66.6666666666667,4,1,0,70,0,0
182605,676.056338028169,4,1,0,70,1,0
182605,-66.6666666666667,4,1,0,70,0,0
183281,659.340659340659,4,1,0,70,1,0
183281,-66.6666666666667,4,1,0,70,0,0
183940,666.666666666666,4,1,0,70,1,0
183940,-66.6666666666667,4,1,0,70,0,0
184606,648.648648648648,4,1,0,70,1,0
185254,655.737704918032,4,1,0,70,1,0
185254,-66.6666666666667,4,1,0,80,0,0
185472,-66.6666666666667,4,1,0,70,0,0
186565,664.819944598338,4,1,0,70,1,0
187894,-28.5714285714286,4,1,0,85,0,0
189224,659.340659340659,4,1,0,70,1,0
189224,-28.5714285714286,4,1,0,85,0,0
190542,-66.6666666666667,4,1,0,70,0,0
191202,645.16129032258,4,1,0,70,1,0
191202,-66.6666666666667,4,1,0,70,0,0
192492,652.173913043478,4,1,0,70,1,0
192492,-66.6666666666667,4,1,0,70,0,0
193144,679.886685552408,4,1,0,70,1,0
193823,652.173913043478,4,1,0,70,1,0
194475,631.578947368421,4,1,0,70,1,0
195106,650.40650406504,4,1,0,70,1,0
195756,697.674418604651,4,1,0,70,1,0
195756,-66.6666666666667,4,1,0,70,0,0
196453,674.157303370786,4,1,0,70,1,0
196453,-66.6666666666667,4,1,0,70,0,0
197127,655.737704918032,4,1,0,70,1,0
197127,-66.6666666666667,4,1,0,70,0,0
198438,659.340659340659,4,1,0,70,1,0
198438,-66.6666666666667,4,1,0,70,0,0
199756,652.173913043478,4,1,0,70,1,0
200408,670.391061452514,4,1,0,70,1,0
201078,-66.6666666666667,4,1,0,70,0,0
201748,659.340659340659,4,1,0,70,1,0
201748,-66.6666666666667,4,1,0,70,0,0
202407,670.391061452514,4,1,0,70,1,0
202407,-66.6666666666667,4,1,0,70,0,0
203747,645.16129032258,4,1,0,70,1,0
205037,659.340659340659,4,1,0,70,1,0
206355,674.157303370786,4,1,0,70,1,0
206355,-66.6666666666667,4,1,0,70,0,0
207029,655.737704918032,4,1,0,70,1,0
207029,-66.6666666666667,4,1,0,70,0,0
208340,652.173913043478,4,1,0,70,1,0
208340,-66.6666666666667,4,1,0,70,0,0
210296,662.983425414364,4,1,0,70,1,0
210958,646.900269541779,4,1,0,70,1,0
211604,674.157303370786,4,1,0,70,1,0
211604,-66.6666666666667,4,1,0,70,0,0
212278,659.340659340659,4,1,0,70,1,0
212278,-66.6666666666667,4,1,0,70,0,0
212937,668.523676880223,4,1,0,70,1,0
212937,-66.6666666666667,4,1,0,70,0,0
214274,-66.6666666666667,4,1,0,75,0,0
214496,-66.6666666666667,4,1,0,70,0,0
214942,652.173913043478,4,1,0,70,1,0
214942,-66.6666666666667,4,1,0,75,0,0
215159,-66.6666666666667,4,1,0,70,0,0
215594,-66.6666666666667,4,1,0,75,0,0
215811,-66.6666666666667,4,1,0,70,0,0
216246,-66.6666666666667,4,1,0,75,0,0
216355,-66.6666666666667,4,1,0,70,0,0
216898,659.340659340659,4,1,0,70,1,0
216898,-66.6666666666667,4,1,0,80,0,0
217337,-66.6666666666667,4,1,0,70,0,0
217557,666.666666666666,4,1,0,70,1,0
217557,-66.6666666666667,4,1,0,70,0,0
219557,652.173913043478,4,1,0,70,1,0
219557,-66.6666666666667,4,1,0,80,0,0
219991,-66.6666666666667,4,1,0,70,0,0
220861,662.983425414364,4,1,0,70,1,0
220861,-66.6666666666667,4,1,0,70,0,0
221523,645.16129032258,4,1,0,70,1,0
221523,-66.6666666666667,4,1,0,70,0,0
222168,662.983425414364,4,1,0,70,1,0
222168,-66.6666666666667,4,1,0,80,0,0
222609,-66.6666666666667,4,1,0,70,0,0
224156,659.340659340659,4,1,0,70,1,0
224156,-66.6666666666667,4,1,0,70,0,0
224815,-66.6666666666667,4,1,0,80,0,0
225254,-66.6666666666667,4,1,0,70,0,0
226134,674.157303370786,4,1,0,70,1,0
226134,-66.6666666666667,4,1,0,70,0,0
226808,659.340659340659,4,1,0,70,1,0
227467,-66.6666666666667,4,1,0,80,0,0
227906,-66.6666666666667,4,1,0,70,0,0
228786,641.711229946524,4,1,0,70,1,0
228786,-66.6666666666667,4,1,0,70,0,0
230069,676.056338028169,4,1,0,70,1,0
230069,-66.6666666666667,4,1,0,80,0,0
230519,-66.6666666666667,4,1,0,70,0,0
230745,645.16129032258,4,1,0,70,1,0
230745,-66.6666666666667,4,1,0,70,0,0
231390,674.157303370786,4,1,0,70,1,0
231390,-66.6666666666667,4,1,0,70,0,0
232064,641.711229946524,4,1,0,70,1,0
232064,-66.6666666666667,4,1,0,70,0,0
232705,659.340659340659,4,1,0,70,1,0
232705,-66.6666666666667,4,1,0,80,0,0
233144,-66.6666666666667,4,1,0,70,0,0
234683,670.391061452514,4,1,0,70,1,0
234683,-66.6666666666667,4,1,0,70,0,0
235353,655.737704918032,4,1,0,70,1,0
235353,-66.6666666666667,4,1,0,80,0,0
235571,-66.6666666666667,4,1,0,70,0,0
236008,-66.6666666666667,4,1,0,75,0,0
236227,-66.6666666666667,4,1,0,70,0,0
236664,652.173913043478,4,1,0,70,1,0
236664,-66.6666666666667,4,1,0,75,0,0
236881,-66.6666666666667,4,1,0,80,0,0
237098,-66.6666666666667,4,1,0,75,0,0
237316,674.157303370786,4,1,0,70,1,0
237316,-66.6666666666667,4,1,0,70,0,0
237990,652.173913043478,4,1,0,70,1,0
237990,-66.6666666666667,4,1,0,80,0,0
238424,-66.6666666666667,4,1,0,70,0,0
239294,681.818181818182,4,1,0,70,1,0
239294,-66.6666666666667,4,1,0,70,0,0
239975,659.340659340659,4,1,0,70,1,0
239975,-66.6666666666667,4,1,0,70,0,0
240634,674.157303370786,4,1,0,70,1,0
240634,-66.6666666666667,4,1,0,80,0,0
240858,-66.6666666666667,4,1,0,70,0,0
241308,659.340659340659,4,1,0,70,1,0
241308,-66.6666666666667,4,1,0,75,0,0
241527,-66.6666666666667,4,1,0,70,0,0
241967,-66.6666666666667,4,1,0,75,0,0
242187,-66.6666666666667,4,1,0,70,0,0
242626,645.16129032258,4,1,0,70,1,0
242626,-66.6666666666667,4,1,0,75,0,0
242841,-66.6666666666667,4,1,0,70,0,0
243271,674.157303370786,4,1,0,70,1,0
243271,-66.6666666666667,4,1,0,80,0,0
243720,-66.6666666666667,4,1,0,70,0,0
243945,652.173913043478,4,1,0,70,1,0
243945,-66.6666666666667,4,1,0,70,0,0
245249,664.819944598338,4,1,0,70,1,0
245249,-66.6666666666667,4,1,0,70,0,0
245913,-66.6666666666667,4,1,0,80,0,0
246135,-66.6666666666667,4,1,0,70,0,0
246578,657.534246575342,4,1,0,70,1,0
246578,-66.6666666666667,4,1,0,75,0,0
246797,-66.6666666666667,4,1,0,70,0,0
247235,631.578947368421,4,1,0,70,1,0
247235,-66.6666666666667,4,1,0,75,0,0
247445,-66.6666666666667,4,1,0,70,0,0
247866,655.737704918032,4,1,0,70,1,0
247866,-66.6666666666667,4,1,0,75,0,0
248084,-66.6666666666667,4,1,0,70,0,0
248521,674.157303370786,4,1,0,70,1,0
248521,-66.6666666666667,4,1,0,80,0,0
248970,-66.6666666666667,4,1,0,70,0,0
251217,648.648648648648,4,1,0,70,1,0
251217,-66.6666666666667,4,1,0,80,0,0
251649,-66.6666666666667,4,1,0,70,0,0
253811,664.819944598338,4,1,0,70,1,0
253811,-66.6666666666667,4,1,0,80,0,0
254254,-66.6666666666667,4,1,0,70,0,0
255805,659.340659340659,4,1,0,70,1,0
255805,-66.6666666666667,4,1,0,70,0,0
256464,648.648648648648,4,1,0,70,1,0
256464,-66.6666666666667,4,1,0,80,0,0
256680,-66.6666666666667,4,1,0,70,0,0
257112,-66.6666666666667,4,1,0,80,0,0
257328,-66.6666666666667,4,1,0,70,0,0
257761,-66.6666666666667,4,1,0,80,0,0
258193,-66.6666666666667,4,1,0,70,0,0
258409,662.983425414364,4,1,0,70,1,0
258409,-66.6666666666667,4,1,0,75,0,0
258519,-66.6666666666667,4,1,0,70,0,0
259071,-66.6666666666667,4,1,0,80,0,0
259513,-66.6666666666667,4,1,0,70,0,0
261060,674.157303370786,4,1,0,70,1,0
261060,-66.6666666666667,4,1,0,70,0,0
261734,-66.6666666666667,4,1,0,80,0,0
262183,-66.6666666666667,4,1,0,70,0,0
262408,659.340659340659,4,1,0,70,1,0
262408,-66.6666666666667,4,1,0,70,0,0
263726,-66.6666666666667,4,1,0,75,0,0
264166,-66.6666666666667,4,1,0,70,0,0
264386,652.173913043478,4,1,0,70,1,0
264386,-66.6666666666667,4,1,0,80,0,0
264820,-66.6666666666667,4,1,0,70,0,0
266994,674.157303370786,4,1,0,70,1,0
266994,-66.6666666666667,4,1,0,80,0,0
267443,-66.6666666666667,4,1,0,70,0,0
267668,652.173913043478,4,1,0,70,1,0
267668,-66.6666666666667,4,1,0,75,0,0
268102,-66.6666666666667,4,1,0,70,0,0
268537,-66.6666666666667,4,1,0,80,0,0
268972,674.157303370786,4,1,0,70,1,0
268972,-66.6666666666667,4,1,0,70,0,0
269646,659.340659340659,4,1,0,70,1,0
269646,-66.6666666666667,4,1,0,80,0,0
270085,-66.6666666666667,4,1,0,70,0,0
272283,-66.6666666666667,4,1,0,80,0,0
272722,-66.6666666666667,4,1,0,70,0,0
273602,681.818181818182,4,1,0,70,1,0
273602,-66.6666666666667,4,1,0,70,0,0
274283,652.173913043478,4,1,0,70,1,0
274283,-66.6666666666667,4,1,0,75,0,0
274717,-66.6666666666667,4,1,0,70,0,0
274935,-66.6666666666667,4,1,0,80,0,0
275369,-66.6666666666667,4,1,0,70,0,0
275587,674.157303370786,4,1,0,70,1,0
275587,-66.6666666666667,4,1,0,70,0,0
276261,652.173913043478,4,1,0,70,1,0
276261,-66.6666666666667,4,1,0,70,0,0
276913,679.886685552408,4,1,0,70,1,0
276913,-66.6666666666667,4,1,0,70,0,0
277592,-100,4,1,0,70,0,0
277819,-100,4,1,0,67,0,0
278046,-100,4,1,0,64,0,0
278272,638.297872340425,4,1,0,70,1,0
278272,-100,4,1,0,60,0,0
278484,-100,4,1,0,57,0,0
278697,740.74074074074,4,1,0,70,1,0
278697,-100,4,1,0,54,0,0
278943,718.562874251497,4,1,0,70,1,0
278943,-100,4,1,0,50,0,0
279182,-100,4,1,0,47,0,0
279422,-100,4,1,0,44,0,0
279661,714.285714285714,4,1,0,70,1,0
279661,-100,4,1,0,40,0,0
279899,-100,4,1,0,37,0,0
280137,1090.90909090909,4,1,0,70,1,0
280137,-100,4,1,0,34,0,0
280500,2714.93212669683,4,1,0,70,1,0

[HitObjects]
400,156,623,6,0,P|344:136|304:140,1,93.3333333333333,4|0,3:0|0:0,0:0:0:0:
400,156,1316,1,8,0:1:0:0:
311,138,1525,1,8,0:1:0:0:
400,156,1734,1,8,0:1:0:0:
336,224,1944,2,0,L|384:248,1,46.6666666666667,2|0,3:0|0:0,0:0:0:0:
336,224,2258,1,0,0:0:0:0:
336,224,2363,1,0,3:0:0:0:
368,72,2572,1,8,0:1:0:0:
308,136,2796,1,8,0:1:0:0:
400,156,3021,1,8,0:1:0:0:
108,64,3246,6,0,L|120:132,1,46.6666666666667,2|0,3:0|3:0,0:0:0:0:
108,64,3576,1,0,0:0:0:0:
108,64,3688,1,8,0:1:0:0:
248,148,3908,2,0,L|236:216,1,46.6666666666667,2|0,3:0|3:0,0:0:0:0:
248,148,4240,1,0,0:0:0:0:
248,148,4350,1,8,0:1:0:0:
356,44,4571,2,0,L|368:112,1,46.6666666666667,2|0,3:0|3:0,0:0:0:0:
356,44,4903,1,0,0:0:0:0:
356,44,5013,1,8,0:1:0:0:
496,128,5234,2,0,L|484:196,1,46.6666666666667,2|0,3:0|0:0,0:0:0:0:
496,128,5566,1,0,0:0:0:0:
496,128,5676,1,8,0:1:0:0:
176,268,5897,6,0,L|288:280|288:280,1,93.3333333333333,4|0,3:0|0:0,0:0:0:0:
176,268,6558,1,8,0:1:0:0:
268,277,6778,1,8,0:1:0:0:
176,268,6998,1,8,0:1:0:0:
232,192,7219,2,0,L|180:184,1,46.6666666666667,2|0,3:0|0:0,0:0:0:0:
232,192,7549,1,0,0:0:0:0:
232,192,7660,1,0,3:0:0:0:
308,248,7880,1,8,0:1:0:0:
400,240,8100,1,8,0:1:0:0:
476,188,8321,1,8,0:1:0:0:
508,320,8541,5,6,3:0:0:0:
508,320,8762,1,8,0:1:0:0:
508,320,8872,1,8,0:1:0:0:
508,320,8982,1,8,0:1:0:0:
364,247,9202,1,2,3:0:0:0:
364,247,9423,1,8,0:1:0:0:
364,247,9533,1,8,0:1:0:0:
364,247,9643,1,8,0:1:0:0:
220,320,9864,1,2,3:0:0:0:
220,320,10084,1,8,0:1:0:0:
220,320,10194,1,8,0:1:0:0:
220,320,10304,1,8,0:1:0:0:
76,247,10525,1,2,3:0:0:0:
76,247,10740,1,8,0:1:0:0:
76,247,10848,1,8,0:1:0:0:
76,247,10955,1,8,0:1:0:0:
192,28,11170,6,0,P|188:96|164:128,1,93.3333333333333,4|0,3:0|0:0,0:0:0:0:
192,28,11829,1,8,0:1:0:0:
175,116,12050,1,8,0:1:0:0:
192,28,12269,1,8,0:1:0:0:
100,60,12488,2,0,L|40:76,1,46.6666666666667,2|0,3:0|0:0,0:0:0:0:
100,60,12819,1,0,0:0:0:0:
100,60,12929,1,0,3:0:0:0:
192,28,13148,1,8,0:1:0:0:
175,116,13363,1,8,0:1:0:0:
224,196,13578,1,8,0:1:0:0:
312,172,13793,6,0,P|324:136|320:116,1,46.6666666666667,2|0,3:0|3:0,0:0:0:0:
312,172,14122,1,0,0:0:0:0:
312,172,14232,1,8,0:1:0:0:
175,116,14452,2,0,P|163:152|167:172,1,46.6666666666667,2|0,3:0|3:0,0:0:0:0:
175,116,14782,1,0,0:0:0:0:
175,116,14891,1,8,0:1:0:0:
256,309,15111,2,0,P|268:273|264:253,1,46.6666666666667,2|0,3:0|3:0,0:0:0:0:
256,309,15441,1,0,0:0:0:0:
256,309,15551,1,8,0:1:0:0:
119,253,15771,2,0,P|107:289|111:309,1,46.6666666666667,2|0,3:0|3:0,0:0:0:0:
119,253,16101,1,0,0:0:0:0:
119,253,16211,1,8,0:1:0:0:
440,322,16430,6,0,L|432:230,1,93.3333333333333,4|0,3:0|0:0,0:0:0:0:
440,322,17090,1,8,0:1:0:0:
431,229,17310,1,8,0:1:0:0:
440,322,17530,1,8,0:1:0:0:
356,282,17749,2,0,P|333:277|304:286,1,46.6666666666667,2|0,3:0|0:0,0:0:0:0:
356,282,18086,1,0,0:0:0:0:
356,282,18198,1,0,3:0:0:0:
232,334,18423,5,8,0:1:0:0:
158,280,18638,1,8,0:1:0:0:
74,317,18853,1,8,0:1:0:0:
9,170,19068,5,4,3:0:0:0:
83,224,19288,1,2,3:0:0:0:
167,186,19509,1,8,0:1:0:0:
336,110,19730,5,4,3:0:0:0:
261,57,19951,1,2,3:0:0:0:
175,95,20172,1,8,0:1:0:0:
241,241,20393,5,4,3:0:0:0:
336,110,20607,1,2,3:0:0:0:
167,186,20821,1,8,0:1:0:0:
332,205,21036,5,4,3:0:0:0:
336,110,21258,1,2,3:0:0:0:
261,57,21480,1,8,0:1:0:0:
241,241,21702,5,2,0:1:0:0:
34,63,26994,6,0,P|105:113|165:111,1,140,4|8,3:0|0:1,0:0:0:0:
244,84,27892,1,0,0:0:0:0:
244,84,28109,1,0,0:0:0:0:
333,111,28327,2,0,P|375:151|377:154,1,46.6666666666667,0|0,3:0|0:0,0:0:0:0:
333,111,28761,1,0,0:0:0:0:
285,190,28979,2,0,P|268:237|271:254,1,46.6666666666667,8|0,0:1|0:0,0:0:0:0:
285,190,29400,1,0,0:0:0:0:
169,114,29610,2,0,L|175:198,1,46.6666666666667,0|0,3:0|0:0,0:0:0:0:
169,114,30044,1,0,0:0:0:0:
77,234,30262,2,0,L|72:172,1,46.6666666666667,8|0,0:1|0:0,0:0:0:0:
77,234,30706,1,0,0:0:0:0:
182,307,30928,2,0,P|190:276|177:245,1,46.6666666666667,0|0,3:0|0:0,0:0:0:0:
182,307,31373,1,0,0:0:0:0:
121,132,31595,6,0,L|116:134,2,4.66666666666667,8|0|0,0:1|0:0|3:0,3:0:0:0:
182,307,32276,6,0,B|232:285|281:316|321:303,1,140,2|8,3:0|0:1,0:0:0:0:
368,152,33155,1,0,0:0:0:0:
442,259,33374,1,0,0:0:0:0:
368,152,33594,2,0,P|386:216|452:262,1,140,0|8,3:0|0:1,0:0:0:0:
213,227,34473,1,0,0:0:0:0:
176,307,34693,1,0,0:0:0:0:
213,227,34913,2,0,P|195:291|146:321,1,93.3333333333333,0|0,3:0|0:0,0:0:0:0:
177,145,35572,2,0,P|195:209|224:234,1,93.3333333333333,8|0,0:1|0:0,0:0:0:0:
116,232,36232,2,0,L|83:195,1,46.6666666666667,0|0,3:0|0:0,0:0:0:0:
116,232,36662,1,0,0:0:0:0:
148,136,36877,6,0,L|150:132,2,4.66666666666667,8|0|0,0:1|0:0|3:0,0:0:0:0:
87,323,37551,6,0,P|153:346|222:337,1,140,2|8,3:0|0:1,0:0:0:0:
117,138,38658,1,0,0:0:0:0:
117,138,38875,2,0,P|192:146|226:171,1,93.3333333333333,0|0,3:0|0:0,0:0:0:0:
143,229,39525,2,0,P|86:238|6:229,1,93.3333333333333,8|0,0:1|0:0,0:0:0:0:
39,144,40176,2,0,L|52:251,1,93.3333333333333,2|0,3:0|0:0,0:0:0:0:
209,213,40826,2,0,L|199:271,1,46.6666666666667,8|0,0:1|0:0,0:0:0:0:
209,213,41260,1,0,0:0:0:0:
69,92,41477,2,0,L|79:151,1,46.6666666666667,0|0,3:0|0:0,0:0:0:0:
69,92,41910,1,0,0:0:0:0:
168,128,42127,6,0,L|172:129,2,4.66666666666667,8|0|0,0:1|0:0|3:0,0:0:0:0:
248,20,42801,6,0,L|380:17,1,93.3333333333333,2|0,3:0|0:0,0:0:0:0:
387,116,43475,2,0,P|439:101|461:57,1,93.3333333333333,8|0,0:1|0:0,0:0:0:0:
344,136,44156,2,0,P|394:154|438:131,1,93.3333333333333,0|0,3:0|0:0,0:0:0:0:
293,132,44797,2,0,P|323:176|371:184,1,93.3333333333333,8|0,0:1|0:0,0:0:0:0:
211,83,45449,2,0,P|197:135|210:182,1,93.3333333333333,4|0,3:0|0:0,0:0:0:0:
361,215,46101,2,0,P|324:243|315:255,1,46.6666666666667,8|0,0:1|0:0,0:0:0:0:
361,215,46542,1,0,0:0:0:0:
354,319,46763,2,0,P|412:324|416:323,1,46.6666666666667,0|0,3:0|0:0,0:0:0:0:
354,319,47205,1,0,0:0:0:0:
262,355,47426,6,0,L|266:357,2,4.66666666666667,8|0|0,0:1|0:0|3:0,0:0:0:0:
109,351,48089,6,0,P|78:329|58:266,1,93.3333333333333,2|0,3:0|0:0,0:0:0:0:
190,202,48752,2,0,P|220:166|226:120,1,93.3333333333333,8|0,0:1|0:0,0:0:0:0:
112,96,49415,2,0,L|122:3,1,93.3333333333333,0|0,3:0|0:0,0:0:0:0:
253,226,50078,2,0,L|242:133,1,93.3333333333333,8|0,0:1|0:0,0:0:0:0:
162,201,50723,2,0,L|149:303,1,93.3333333333333,2|0,3:0|0:0,0:0:0:0:
228,319,51382,2,0,L|299:303,1,46.6666666666667,8|0,0:1|0:0,0:0:0:0:
228,319,51816,1,0,0:0:0:0:
326,233,52034,2,0,L|373:176,1,46.6666666666667,0|0,3:0|0:0,0:0:0:0:
326,233,52478,1,0,0:0:0:0:
260,152,52700,6,0,L|256:150,2,4.66666666666667,8|0|0,0:1|0:0|3:0,0:0:0:0:
112,216,53379,6,0,P|138:259|186:300,1,93.3333333333333,2|0,3:0|0:0,0:0:0:0:
254,294,54031,2,0,L|372:286,1,93.3333333333333,8|0,0:1|0:0,0:0:0:0:
436,200,54683,2,0,L|318:208,1,93.3333333333333,0|0,3:0|0:0,0:0:0:0:
231,197,55335,2,0,P|185:162|167:111,1,93.3333333333333,8|0,0:1|0:0,0:0:0:0:
317,42,55987,2,0,P|298:85|260:110,1,93.3333333333333,2|0,3:0|0:0,0:0:0:0:
165,194,56644,2,0,P|182:209|205:217,1,46.6666666666667,8|0,0:1|0:0,0:0:0:0:
165,194,57082,1,0,0:0:0:0:
303,244,57302,2,0,P|308:221|304:199,1,46.6666666666667,0|0,3:0|0:0,0:0:0:0:
302,244,57740,1,0,0:0:0:0:
278,98,57959,2,0,P|257:106|240:122,1,46.6666666666667,8|0,0:1|0:0,0:0:0:0:
278,98,58397,1,0,3:0:0:0:
161,342,58617,5,4,3:0:0:0:
133,253,59283,2,0,P|151:322|170:358,1,93.3333333333333,8|0,0:1|0:0,0:0:0:0:
133,253,59950,1,0,3:0:0:0:
133,253,60617,2,0,P|151:322|170:358,1,93.3333333333333,8|0,0:1|0:0,0:0:0:0:
133,253,61283,1,0,3:0:0:0:
229,253,61942,2,0,P|280:234|318:223,1,93.3333333333333,8|0,0:1|0:0,0:0:0:0:
98,292,62601,2,0,P|111:246|118:197,1,93.3333333333333,0|0,3:0|0:0,0:0:0:0:
331,122,63261,2,0,P|318:72|311:27,1,93.3333333333333,8|0,0:1|3:0,0:0:0:0:
512,217,63920,5,4,3:0:0:0:
512,217,64601,2,0,L|501:310,1,93.3333333333333,8|0,0:1|0:0,0:0:0:0:
512,217,65263,1,0,3:0:0:0:
512,217,65916,2,0,L|501:310,1,93.3333333333333,8|0,0:1|0:0,0:0:0:0:
512,217,66570,1,2,3:0:0:0:
248,120,67211,6,0,P|303:132|347:126,1,93.3333333333333,8|0,0:1|3:0,0:0:0:0:
248,120,67885,1,0,3:0:0:0:
324,265,68104,1,4,0:1:0:0:
512,226,68324,1,0,3:0:0:0:
512,226,68544,1,4,0:1:0:0:
194,242,68764,1,0,3:0:0:0:
191,0,68983,1,4,0:1:0:0:
284,263,69203,6,0,P|250:315|213:333,1,93.3333333333333,4|0,3:0|0:0,0:0:0:0:
273,170,69867,2,0,L|287:281,1,93.3333333333333,8|0,0:1|0:0,0:0:0:0:
273,170,70532,1,0,3:0:0:0:
273,170,71180,2,0,L|287:281,1,93.3333333333333,8|0,0:1|0:0,0:0:0:0:
273,170,71829,1,2,3:0:0:0:
284,262,72488,2,0,L|273:170,1,93.3333333333333,8|0,0:1|0:0,0:0:0:0:
296,360,73143,1,0,3:0:0:0:
273,170,73580,1,0,0:0:0:0:
296,360,73799,2,0,P|348:339|372:309,1,93.3333333333333,8|0,0:1|3:0,0:0:0:0:
182,181,74458,6,0,P|198:224|234:253,1,93.3333333333333,2|0,3:0|3:0,0:0:0:0:
497,291,75117,2,0,L|483:233,1,46.6666666666667,8|0,0:1|0:0,0:0:0:0:
497,291,75557,1,0,0:0:0:0:
427,111,75777,2,0,L|412:179,1,46.6666666666667,0|0,3:0|0:0,0:0:0:0:
427,111,76216,1,0,0:0:0:0:
371,313,76436,2,0,L|357:255,1,46.6666666666667,8|0,0:1|0:0,0:0:0:0:
371,313,76766,1,8,0:1:0:0:
371,313,76875,1,8,0:1:0:0:
371,313,77095,1,4,3:0:0:0:
103,218,79025,6,0,L|97:163,1,46.6666666666667
83,32,79754,6,0,L|103:218,1,186.666666666667,4|0,3:0|3:0,0:0:0:0:
83,32,80308,1,0,0:0:0:0:
83,32,80418,1,8,0:1:0:0:
102,217,80640,1,8,0:1:0:0:
83,32,80862,1,8,0:1:0:0:
255,317,81083,6,0,B|249:252|249:252|270:196|270:196|263:111,1,186.666666666667,4|0,3:0|3:0,0:0:0:0:
255,317,81637,1,0,0:0:0:0:
255,317,81748,1,8,0:1:0:0:
264,134,81965,1,8,0:1:0:0:
255,317,82182,1,8,0:1:0:0:
453,203,82400,5,2,3:0:0:0:
453,203,82620,1,8,0:1:0:0:
453,203,82731,1,8,0:1:0:0:
453,203,82841,1,8,0:1:0:0:
225,184,83062,1,2,3:0:0:0:
225,184,83283,1,8,0:1:0:0:
225,184,83394,1,8,0:1:0:0:
225,184,83504,1,8,0:1:0:0:
397,338,83725,1,2,3:0:0:0:
397,338,83946,1,8,0:1:0:0:
397,338,84057,1,8,0:1:0:0:
397,338,84167,1,8,0:1:0:0:
445,113,84388,1,2,3:0:0:0:
445,113,84604,1,8,0:1:0:0:
445,113,84713,1,8,0:1:0:0:
445,113,84821,1,8,0:1:0:0:
481,360,85038,6,0,L|365:370,1,93.3333333333333,4|0,3:0|0:0,0:0:0:0:
481,360,85363,1,0,0:0:0:0:
481,360,85472,1,0,3:0:0:0:
388,368,85688,1,8,0:1:0:0:
481,360,85905,1,8,0:1:0:0:
388,368,86122,1,8,0:1:0:0:
53,230,86339,2,0,L|83:322,1,93.3333333333333,4|0,3:0|0:0,0:0:0:0:
53,230,86664,1,0,0:0:0:0:
53,230,86772,1,0,3:0:0:0:
81,318,86989,1,8,0:1:0:0:
53,230,87206,1,8,0:1:0:0:
81,318,87423,1,8,0:1:0:0:
188,178,87640,2,0,P|212:96|241:62,1,93.3333333333333,2|0,3:0|3:0,0:0:0:0:
188,178,87965,1,0,0:0:0:0:
188,178,88073,1,8,0:1:0:0:
286,157,88290,2,0,P|344:218|359:260,1,93.3333333333333,2|0,3:0|3:0,0:0:0:0:
286,157,88627,1,0,0:0:0:0:
286,157,88739,1,8,0:0:0:0:
255,252,88964,2,0,P|172:272|128:264,1,93.3333333333333,2|0,3:0|3:0,0:0:0:0:
255,252,89293,1,0,0:0:0:0:
255,252,89403,1,8,0:1:0:0:
108,208,89623,1,8,0:1:0:0:
290,54,89845,1,8,0:1:0:0:
444,236,90068,1,8,0:1:0:0:
468,53,90290,6,0,B|469:155|469:155|443:239,1,186.666666666667,4|0,3:0|3:0,0:0:0:0:
468,53,90864,1,0,0:0:0:0:
468,53,90979,1,8,0:1:0:0:
443,235,91191,1,8,0:1:0:0:
468,53,91404,1,8,0:1:0:0:
147,40,91617,6,0,B|114:137|114:137|129:235,1,186.666666666667,4|0,3:0|0:3,0:0:0:0:
147,40,92169,1,0,0:0:0:0:
147,40,92279,1,8,0:1:0:0:
126,220,92500,1,8,0:1:0:0:
147,40,92721,1,8,0:1:0:0:
499,121,92942,5,4,3:0:0:0:
281,103,93163,1,8,0:1:0:0:
127,221,93384,1,8,0:1:0:0:
394,384,93605,5,4,3:0:0:0:
479,186,93826,1,8,0:1:0:0:
340,31,94047,1,8,0:1:0:0:
60,31,94268,5,4,3:0:0:0:
46,310,94483,1,8,0:1:0:0:
325,324,94698,1,8,0:1:0:0:
339,45,94913,5,4,3:0:0:0:
325,324,95128,1,8,0:1:0:0:
46,310,95343,1,8,0:1:0:0:
463,330,95558,6,0,B|351:334,1,93.3333333333333,4|0,3:0|0:0,0:0:0:0:
463,330,95898,1,0,0:0:0:0:
463,330,96012,1,0,3:0:0:0:
369,333,96239,1,8,0:1:0:0:
463,330,96458,1,8,0:1:0:0:
369,333,96677,1,8,0:1:0:0:
37,236,96896,6,0,B|154:229,1,93.3333333333333,4|0,3:0|0:0,0:0:0:0:
37,236,97225,1,0,0:0:0:0:
37,236,97334,1,0,3:0:0:0:
130,230,97554,1,8,0:1:0:0:
37,236,97773,1,8,0:1:0:0:
130,230,97992,1,8,0:1:0:0:
451,152,98211,5,4,3:0:0:0:
229,2,98430,1,8,0:1:0:0:
229,2,98540,1,8,0:1:0:0:
229,2,98649,1,8,0:1:0:0:
451,152,98869,1,4,0:1:0:0:
229,2,99085,1,8,0:1:0:0:
229,2,99194,1,8,0:1:0:0:
229,2,99303,1,4,3:0:0:0:
451,152,99521,2,0,L|452:99,1,46.6666666666667,4|0,3:0|0:0,0:0:0:0:
451,152,99847,1,0,0:0:0:0:
451,152,99955,1,8,0:1:0:0:
211,270,100173,1,8,0:1:0:0:
211,270,100279,1,8,0:1:0:0:
211,270,100385,1,8,0:1:0:0:
211,270,100492,1,8,0:1:0:0:
211,270,100598,1,8,0:1:0:0:
211,270,100704,1,8,0:1:0:0:
210,269,100811,6,0,B|275:316|275:316|348:328,1,140,4|8,3:0|0:1,0:0:0:0:
351,100,101941,1,0,0:0:0:0:
351,100,102162,2,0,L|477:92,1,93.3333333333333,0|0,3:0|0:0,0:0:0:0:
265,195,102825,2,0,L|171:200,1,93.3333333333333,8|0,0:1|0:0,0:0:0:0:
456,44,103488,2,0,L|461:137,1,93.3333333333333,0|0,3:0|0:0,0:0:0:0:
265,195,104151,1,8,0:1:0:0:
265,195,104585,1,0,0:0:0:0:
265,195,104803,2,0,L|259:288,1,93.3333333333333,0|0,3:0|0:0,0:0:0:0:
152,337,105455,6,0,L|152:329,2,4.66666666666667,8|0|0,0:1|0:0|3:0,0:0:0:0:
312,304,106107,6,0,P|262:313|218:309,1,93.3333333333333,2|0,3:0|0:0,0:0:0:0:
106,164,106773,1,8,0:1:0:0:
106,164,107218,1,0,0:0:0:0:
106,164,107440,2,0,P|58:182|28:215,1,93.3333333333333,0|0,3:0|0:0,0:0:0:0:
302,40,108107,1,8,0:1:0:0:
302,40,108545,1,0,0:0:0:0:
302,40,108764,2,0,P|351:54|385:81,1,93.3333333333333,2|0,3:0|0:0,0:0:0:0:
481,348,109422,1,8,0:1:0:0:
481,348,109860,1,0,0:0:0:0:
481,348,110079,2,0,L|477:272,2,46.6666666666667,0|0|0,3:0|0:0|0:0,0:0:0:0:
333,320,110737,6,0,L|329:319,2,4.66666666666667,8|0|0,0:1|0:0|3:0,0:0:0:0:
372,90,111394,6,0,L|393:197,1,93.3333333333333,2|0,3:0|0:0,0:0:0:0:
131,113,112056,1,8,0:1:0:0:
131,113,112498,1,0,0:0:0:0:
131,113,112719,2,0,L|110:6,1,93.3333333333333,0|0,3:0|0:0,0:0:0:0:
116,358,113371,1,8,0:1:0:0:
90,270,113805,1,0,0:0:0:0:
116,358,114023,2,0,P|90:298|101:232,1,93.3333333333333,2|0,0:0|2:0,2:0:0:0:
84,69,114685,1,8,0:1:0:0:
84,69,115127,1,0,0:0:0:0:
84,69,115348,2,0,L|68:178,1,93.3333333333333,0|0,3:0|0:0,0:0:0:0:
30,3,116003,6,0,L|34:-1,2,4.66666666666667,8|0|0,0:1|0:0|3:0,0:0:0:0:
282,72,116669,6,0,L|182:84,1,93.3333333333333,2|0,3:0|0:0,0:0:0:0:
420,201,117336,1,8,0:1:0:0:
420,201,117776,1,0,0:0:0:0:
420,201,117997,2,0,L|537:218,1,93.3333333333333,0|0,3:0|0:0,0:0:0:0:
120,267,118658,1,8,0:1:0:0:
120,267,119099,1,0,0:0:0:0:
120,267,119319,2,0,B|73:263|73:263|11:280,1,93.3333333333333,2|0,3:0|0:0,0:0:0:0:
261,354,119974,2,0,P|297:285|299:253,1,93.3333333333333,8|0,0:1|0:0,0:0:0:0:
241,198,120630,2,0,L|232:153,1,46.6666666666667,0|0,3:0|0:0,0:0:0:0:
241,198,121067,1,0,0:0:0:0:
159,90,121286,2,0,L|146:144,1,46.6666666666667,8|0,0:1|0:0,0:0:0:0:
159,90,121723,1,0,3:0:0:0:
336,36,121941,6,0,P|347:112|325:193,1,140,4|8,3:0|0:1,0:0:0:0:
67,98,123266,1,0,3:0:0:0:
67,98,123708,1,0,0:0:0:0:
67,98,123929,2,0,P|47:34|57:-14,1,93.3333333333333,8|0,0:1|0:0,0:0:0:0:
140,155,124592,2,0,P|142:199|137:217,2,46.6666666666667,2|0|0,3:0|0:0|0:0,0:0:0:0:
333,122,125255,2,0,P|299:181|234:200,1,140,8|2,0:1|3:0,0:0:0:0:
333,122,126133,1,0,3:0:0:0:
201,74,126349,1,0,3:0:0:0:
71,128,126564,1,8,0:1:0:0:
71,128,126780,1,0,3:0:0:0:
333,122,126996,1,8,0:1:0:0:
225,344,127211,5,2,3:0:0:0:
365,355,127868,2,0,L|200:342,1,140,8|0,0:1|3:0,0:0:0:0:
488,349,128964,1,0,0:0:0:0:
488,349,129183,2,0,B|492:282|492:282|480:245,1,93.3333333333333,8|0,0:1|0:0,0:0:0:0:
368,237,129841,2,0,L|403:101,1,140,2|8,3:0|0:1,0:0:0:0:
228,274,130717,5,0,3:0:0:0:
264,153,130937,1,8,0:1:0:0:
144,117,131156,1,0,3:0:0:0:
264,153,131375,1,4,0:1:0:0:
477,43,131594,1,0,3:0:0:0:
34,43,131813,1,4,0:1:0:0:
264,153,132032,1,0,3:0:0:0:
200,356,132252,1,4,0:1:0:0:
356,376,132471,6,8,P|398:339|419:252,1,140,4|8,3:0|0:1,0:1:0:0:
197,152,133602,1,0,0:0:0:0:
197,152,133834,2,0,P|256:189|303:179,1,93.3333333333333,0|0,3:0|0:0,0:0:0:0:
73,10,134486,2,0,P|37:61|36:103,1,93.3333333333333,8|0,0:1|0:0,0:0:0:0:
224,56,135138,2,0,L|275:43,1,46.6666666666667,2|0,3:0|0:0,0:0:0:0:
224,56,135573,1,0,0:0:0:0:
34,90,135790,2,0,P|62:151|122:183,1,114.800001751709,8|0,0:1|0:0,0:0:0:0:
100,176,136456,1,0,3:0:0:0:
100,176,136675,1,8,0:1:0:0:
209,318,136895,1,8,0:1:0:0:
100,176,137115,1,0,3:0:0:0:
279,152,137335,1,8,0:1:0:0:
209,318,137554,1,0,3:0:0:0:
100,176,137774,1,2,3:0:0:0:
279,152,138422,6,0,L|315:248,1,93.3333333333333,8|0,0:1|0:0,0:0:0:0:
247,314,139071,2,0,L|236:373,1,46.6666666666667,0|0,3:0|0:0,0:0:0:0:
247,314,139519,1,0,0:0:0:0:
171,267,139743,2,0,L|151:214,1,52.5,12|0,0:1|0:0,0:0:0:0:
139,126,140191,1,4,0:1:0:0:
277,169,140415,1,4,3:0:0:0:
171,267,140639,1,8,0:1:0:0:
375,275,140863,1,8,0:1:0:0:
269,373,141087,1,4,0:1:0:0:
171,267,141306,1,8,0:1:0:0:
269,373,141526,1,8,0:1:0:0:
413,364,141746,1,4,0:1:0:0:
509,255,141966,1,8,0:1:0:0:
500,111,142185,1,8,0:1:0:0:
392,15,142405,1,4,0:1:0:0:
247,24,142627,1,8,0:1:0:0:
151,132,142849,1,8,0:1:0:0:
160,277,143071,5,4,0:1:0:0:
509,255,143293,1,0,3:0:0:0:
160,277,143516,1,8,0:1:0:0:
160,277,143627,1,8,0:1:0:0:
160,277,143738,1,8,0:1:0:0:
509,255,143955,1,0,3:0:0:0:
509,255,144064,1,8,0:1:0:0:
509,255,144172,1,8,0:1:0:0:
160,277,144390,1,4,3:0:0:0:
160,277,144607,1,0,3:0:0:0:
509,255,144824,1,8,0:1:0:0:
160,277,145042,1,8,0:1:0:0:
160,277,145151,1,8,0:1:0:0:
160,277,145261,1,8,0:1:0:0:
160,277,145371,1,8,0:1:0:0:
160,277,145481,1,8,0:1:0:0:
160,277,145591,1,8,0:1:0:0:
160,277,145701,6,0,L|352:265,1,186.666666666667,4|4,3:0|3:0,0:0:0:0:
346,265,146363,6,0,L|160:277,2,186.666666666667,8|0|8,0:1|3:0|0:1,0:0:0:0:
160,277,147026,6,0,L|352:265,1,186.666666666667,4|4,3:0|3:0,0:0:0:0:
160,277,147678,1,8,0:1:0:0:
346,265,147895,1,0,3:0:0:0:
160,277,148112,1,0,3:0:0:0:
160,277,148330,5,4,3:0:0:0:
346,265,148549,1,8,0:0:0:0:
346,265,148659,1,8,0:0:0:0:
346,265,148769,1,8,0:0:0:0:
256,324,148989,2,0,L|254:382,1,46.6666666666667
256,324,149319,1,0,0:0:0:0:
256,324,149428,1,8,0:1:0:0:
415,338,149648,2,0,L|422:399,1,46.6666666666667,2|0,3:0|0:0,0:0:0:0:
415,338,149978,1,8,0:1:0:0:
415,338,150088,1,8,0:1:0:0:
415,338,150198,1,8,0:1:0:0:
415,338,150308,1,8,0:1:0:0:
415,338,150416,1,8,0:1:0:0:
415,338,150525,1,8,0:1:0:0:
415,338,150634,1,8,0:1:0:0:
512,272,150742,1,8,0:1:0:0:
512,272,150960,6,0,L|479:88,1,186.666666666667,4|4,3:0|3:0,0:0:0:0:
512,272,151612,2,0,L|479:88,2,186.200001775742,8|0|8,0:1|3:0|0:1,0:0:0:0:
479,88,152271,2,0,L|513:279,1,186.666666666667,4|4,3:0|3:0,0:0:0:0:
479,88,152945,1,8,0:1:0:0:
511,271,153164,1,0,3:0:0:0:
479,88,153384,1,0,3:0:0:0:
479,88,153604,5,4,3:0:0:0:
511,271,153824,1,8,0:1:0:0:
511,271,153934,1,8,0:1:0:0:
511,271,154043,1,8,0:1:0:0:
313,148,154263,2,0,L|305:194,1,46.6666666666667,2|0,3:0|0:0,0:0:0:0:
313,148,154587,1,0,0:0:0:0:
313,148,154695,1,8,0:1:0:0:
141,54,154911,2,0,L|146:121,1,46.6666666666667,2|0,3:0|0:0,0:0:0:0:
141,54,155235,1,8,0:1:0:0:
141,54,155344,1,8,0:0:0:0:
141,54,155452,1,8,0:0:0:0:
141,54,155560,1,8,0:0:0:0:
141,54,155671,1,8,0:0:0:0:
141,54,155782,1,8,0:0:0:0:
141,54,155893,1,8,0:0:0:0:
28,104,156004,1,8,0:0:0:0:
28,104,156226,6,0,L|44:310,1,186.666666666667,4|4,3:0|3:0,0:0:0:0:
28,104,156893,6,0,L|44:322,2,186.200001775742,8|0|8,0:1|3:0|0:1,0:0:0:0:
42,290,157560,2,0,L|27:103,1,186.666666666667,4|4,3:0|3:0,0:0:0:0:
42,290,158219,1,8,0:1:0:0:
28,104,158439,1,0,3:0:0:0:
42,290,158658,1,0,3:0:0:0:
42,290,158878,5,4,3:0:0:0:
28,104,159098,1,8,0:1:0:0:
28,104,159208,1,8,0:1:0:0:
28,104,159318,1,8,0:1:0:0:
240,124,159538,2,0,P|256:96|260:72,1,46.6666666666667,2|8,3:0|0:0,0:0:0:0:
240,124,159864,1,8,0:1:0:0:
240,124,159972,1,8,0:1:0:0:
200,248,160190,2,0,P|184:219|184:190,1,46.6666666666667,2|0,3:0|0:0,0:0:0:0:
200,248,160516,1,0,0:0:0:0:
200,248,160624,1,8,0:0:0:0:
200,248,160733,1,8,0:0:0:0:
200,248,160842,1,8,0:1:0:0:
200,248,160951,1,8,0:1:0:0:
200,248,161059,1,8,0:1:0:0:
200,248,161168,1,8,0:1:0:0:
102,304,161277,1,8,0:1:0:0:
102,304,161494,6,0,L|195:323,1,93.3333333333333,4|4,3:0|3:0,0:0:0:0:
102,304,162175,2,0,L|212:327,2,92.3999997180176,8|0|8,0:1|3:0|0:1,0:0:0:0:
192,322,162827,1,0,3:0:0:0:
102,304,163044,1,8,0:1:0:0:
192,322,163261,1,8,0:1:0:0:
192,322,163479,1,0,3:0:0:0:
308,192,163698,1,8,0:1:0:0:
159,124,163918,1,8,0:1:0:0:
291,28,164138,5,4,3:0:0:0:
159,124,164367,1,8,0:1:0:0:
308,192,164597,1,8,0:1:0:0:
291,28,164827,1,8,0:1:0:0:
442,92,165049,1,8,0:1:0:0:
442,92,165160,1,8,0:1:0:0:
442,92,165271,1,8,0:1:0:0:
308,192,165493,1,2,3:0:0:0:
291,28,165710,1,8,0:1:0:0:
159,124,165927,1,2,3:0:0:0:
159,124,166036,1,0,0:0:0:0:
159,124,166145,1,8,0:1:0:0:
159,124,166254,1,8,0:1:0:0:
159,124,166364,1,2,3:0:0:0:
159,124,166474,1,8,0:1:0:0:
112,32,166584,1,8,0:1:0:0:
112,32,166804,6,4,L|117:129,1,93.3333333333333,4|4,0:1|0:1,0:1:0:0:
152,280,167463,6,0,P|203:288|236:288,1,81.6666674455007,8|0,0:1|0:0,0:0:0:0:
242,138,167678,2,0,P|208:178|193:206,1,81.6666674455007,8|0,0:1|0:0,0:0:0:0:
320,286,167893,2,0,P|301:237|284:209,1,81.6666674455007,8|0,0:1|0:0,0:0:0:0:
337,38,168108,6,4,L|331:141,1,93.3333333333333,4|4,0:1|0:1,0:1:0:0:
232,288,168753,1,8,0:1:0:0:
286,212,168975,1,8,0:1:0:0:
331,131,169197,1,8,0:1:0:0:
16,184,169419,2,0,L|124:192,1,93.3333333333333,4|0,3:0|0:0,0:0:0:0:
312,256,170086,5,8,0:1:0:0:
192,176,170305,1,8,0:1:0:0:
320,112,170525,1,8,0:1:0:0:
192,176,170745,1,8,0:1:0:0:
320,112,170965,1,8,0:1:0:0:
96,88,171184,1,8,0:1:0:0:
296,336,171404,1,8,0:1:0:0:
72,312,171624,1,8,0:1:0:0:
296,336,171844,1,8,0:1:0:0:
96,88,172064,5,4,0:1:0:0:
392,0,172280,1,8,0:1:0:0:
392,0,172389,1,8,0:1:0:0:
392,0,172497,1,8,0:1:0:0:
96,88,172714,1,4,0:1:0:0:
488,296,172931,1,8,0:1:0:0:
488,296,173039,1,8,0:1:0:0:
488,296,173148,1,8,0:1:0:0:
122,379,173364,1,4,0:1:0:0:
136,172,173581,1,8,0:0:0:0:
136,172,173690,1,8,0:0:0:0:
136,172,173798,1,8,0:0:0:0:
136,172,173906,1,8,0:0:0:0:
136,172,174015,1,4,0:1:0:0:
136,172,174124,1,8,0:0:0:0:
136,172,174234,1,8,0:0:0:0:
136,172,174343,1,8,0:0:0:0:
136,172,174453,1,8,0:0:0:0:
136,172,174562,1,8,0:0:0:0:
136,172,174672,5,4,3:0:0:0:
206,20,174899,1,0,0:0:0:0:
41,35,175126,1,0,3:0:0:0:
140,196,175353,5,8,0:1:0:0:
177,34,175574,1,0,0:0:0:0:
19,83,175796,1,8,0:1:0:0:
149,220,176017,5,0,3:0:0:0:
152,53,176239,1,0,0:0:0:0:
7,134,176461,1,0,3:0:0:0:
163,241,176682,5,8,0:1:0:0:
131,77,176904,1,0,0:0:0:0:
6,186,177125,1,8,0:1:0:0:
181,258,177347,5,2,3:0:0:0:
116,105,177569,1,0,0:0:0:0:
17,238,177791,1,0,3:0:0:0:
202,271,178012,5,8,0:1:0:0:
107,135,178231,1,0,0:0:0:0:
37,286,178451,1,8,0:1:0:0:
226,280,178671,5,0,3:0:0:0:
104,167,178891,1,0,0:0:0:0:
67,328,179110,1,0,3:0:0:0:
251,284,179330,5,8,0:1:0:0:
108,198,179546,1,0,0:0:0:0:
106,364,179762,1,8,0:1:0:0:
333,202,179978,6,0,P|265:210|216:164,1,140.000005340576,6|0,3:0|3:0,0:0:0:0:
333,202,180627,1,0,0:0:0:0:
333,202,180736,1,0,0:0:0:0:
386,260,180846,1,0,0:0:0:0:
386,260,180956,1,0,0:0:0:0:
362,334,181066,1,0,0:0:0:0:
362,334,181176,1,0,0:0:0:0:
494,305,181286,6,0,P|504:234|439:164,1,140.000005340576,6|0,3:0|3:0,0:0:0:0:
333,202,181945,1,0,0:0:0:0:
333,202,182055,1,0,0:0:0:0:
259,226,182165,1,0,0:0:0:0:
259,226,182275,1,0,0:0:0:0:
201,173,182385,1,0,0:0:0:0:
201,173,182494,1,0,0:0:0:0:
178,308,182604,6,0,P|236:344|304:334,1,140.000005340576,6|0,3:0|3:0,0:0:0:0:
201,173,183281,1,0,0:0:0:0:
201,173,183391,1,0,0:0:0:0:
177,99,183501,1,0,0:0:0:0:
177,99,183611,1,0,0:0:0:0:
230,41,183721,1,0,0:0:0:0:
230,41,183830,1,0,0:0:0:0:
94,18,183940,6,0,P|58:76|69:144,1,140.000005340576,6|0,3:0|3:0,0:0:0:0:
188,257,184606,2,0,L|217:216,1,46.6666666666667
188,257,184930,1,0,0:0:0:0:
188,257,185038,1,8,0:0:0:0:
188,257,185254,5,4,3:0:0:0:
330,73,185472,1,0,0:0:0:0:
418,288,185691,1,0,3:0:0:0:
179,229,185909,5,8,0:1:0:0:
357,79,186128,1,0,0:0:0:0:
399,307,186346,1,8,0:1:0:0:
176,201,186565,5,0,3:0:0:0:
381,92,186786,1,0,0:0:0:0:
376,324,187008,1,0,3:0:0:0:
181,172,187229,5,8,0:1:0:0:
404,108,187451,1,0,0:0:0:0:
350,334,187673,1,8,0:1:0:0:
191,144,187894,6,0,B|227:192|227:192|255:212,1,81.6666674455007,4|0,3:0|0:0,0:0:0:0:
423,129,188116,2,0,B|362:136|362:136|305:162,1,81.6666674455007,10|0,0:1|0:0,0:0:0:0:
323,338,188337,2,0,B|345:281|345:281|351:218,1,81.6666674455007,10|0,0:1|0:0,0:0:0:0:
207,121,188559,6,0,B|232:176|232:176|274:221,1,81.6666674455007,4|0,3:0|0:0,0:0:0:0:
436,153,188781,2,0,B|374:147|374:147|313:161,1,81.6666674455007,10|0,0:1|0:0,0:0:0:0:
295,338,189002,2,0,B|328:286|328:286|347:227,1,81.6666674455007,10|0,0:1|0:0,0:0:0:0:
225,101,189224,6,0,B|238:158|238:158|270:212,1,81.6666674455007,4|0,3:0|0:0,0:0:0:0:
444,181,189443,2,0,B|384:164|384:164|323:165,1,81.6666674455007,10|0,0:1|0:0,0:0:0:0:
267,330,189663,2,0,B|310:288|310:288|340:233,1,81.6666674455007,10|0,0:1|0:0,0:0:0:0:
249,85,189883,6,0,B|250:145|250:145|269:204,1,81.6666674455007,4|0,3:0|0:0,0:0:0:0:
446,208,190103,2,0,B|392:179|392:179|330:167,1,81.6666674455007,10|0,0:1|0:0,0:0:0:0:
242,319,190322,2,0,B|293:286|293:286|333:239,1,81.6666674455007,10|0,0:1|0:0,0:0:0:0:
20,220,190542,2,0,L|72:272,1,70.0000026702882,4|0,3:0|0:0,0:0:0:0:
212,224,190982,1,0,0:0:0:0:
338,140,191202,2,0,P|336:94|314:70,1,70.0000026702882,8|0,0:1|0:0,0:0:0:0:
314,287,191632,1,0,0:0:0:0:
123,189,191847,2,0,P|117:230|123:262,1,70.0000026702882,8|0,0:1|0:0,0:0:0:0:
314,287,192277,1,0,0:0:0:0:
314,287,192492,6,0,P|364:227|344:152,1,140.000005340576,8|0,0:1|0:0,0:0:0:0:
314,287,193035,1,0,0:0:0:0:
314,287,193144,1,6,3:0:0:0:
186,73,193370,1,8,0:1:0:0:
436,69,193596,1,8,0:1:0:0:
436,69,193710,1,8,0:1:0:0:
436,69,193823,1,2,3:0:0:0:
314,287,194039,1,8,0:1:0:0:
314,287,194148,1,8,0:1:0:0:
314,287,194257,1,8,0:1:0:0:
186,73,194474,1,8,0:1:0:0:
186,73,194583,1,2,3:0:0:0:
186,73,194685,1,8,0:1:0:0:
186,73,194790,1,8,0:1:0:0:
186,73,194896,1,2,3:0:0:0:
67,291,195106,1,10,0:1:0:0:
67,291,195214,1,8,0:1:0:0:
67,291,195322,1,8,0:1:0:0:
104,264,195431,1,8,0:1:0:0:
136,240,195539,1,8,0:1:0:0:
168,216,195648,1,8,0:1:0:0:
216,176,195756,6,0,P|280:184|357:169,1,140.000005340576,4|0,3:0|0:0,0:0:0:0:
243,102,196453,1,6,3:0:0:0:
366,14,196677,1,2,3:0:0:0:
488,104,196902,1,8,0:1:0:0:
440,248,197127,1,8,0:1:0:0:
440,248,197345,1,6,3:0:0:0:
288,246,197563,1,2,3:0:0:0:
188,111,197783,1,8,0:1:0:0:
188,111,198001,1,8,0:1:0:0:
344,87,198219,1,6,3:0:0:0:
500,63,198438,1,2,3:0:0:0:
188,111,198657,1,8,3:1:0:0:
188,111,198877,1,8,0:1:0:0:
344,87,199097,1,6,3:0:0:0:
500,63,199317,1,2,3:0:0:0:
188,111,199536,1,8,0:1:0:0:
500,63,199756,1,8,0:1:0:0:
344,87,199973,1,6,3:0:0:0:
188,111,200190,1,2,3:0:0:0:
32,135,200408,1,6,3:0:0:0:
500,63,200631,1,8,0:1:0:0:
500,63,200854,1,8,0:1:0:0:
70,2,201078,6,0,P|42:57|31:149,1,140.000005340576,4|0,3:0|0:0,0:0:0:0:
312,80,201748,2,0,P|256:68|180:108,1,140.000005340576,8|0,0:1|0:0,0:0:0:0:
306,259,202407,2,0,L|440:216,1,140.000005340576,6|0,3:0|0:0,0:0:0:0:
92,160,203077,2,0,L|232:115,1,140.000005340576,8|0,0:1|0:0,0:0:0:0:
92,160,203747,5,4,3:1:0:0:
324,84,203962,1,0,3:0:0:0:
468,284,204177,1,8,0:1:0:0:
106,98,204392,5,4,3:1:0:0:
350,97,204607,1,0,3:0:0:0:
426,332,204822,1,8,0:1:0:0:
140,43,205037,5,4,3:1:0:0:
372,118,205256,1,0,3:0:0:0:
371,365,205476,1,8,0:1:0:0:
188,2,205696,5,4,3:1:0:0:
386,145,205916,1,0,3:0:0:0:
309,379,206135,1,8,0:1:0:0:
418,276,206355,6,0,B|430:191|382:140,1,140.000005340576,4|0,3:1|0:0,0:0:0:0:
320,232,207029,1,6,3:0:0:0:
292,88,207247,1,2,3:0:0:0:
160,20,207466,1,8,0:1:0:0:
100,256,207684,1,8,0:1:0:0:
244,280,207903,1,6,3:0:0:0:
356,184,208121,1,2,3:0:0:0:
100,256,208340,1,8,0:1:0:0:
244,280,208557,1,8,0:1:0:0:
356,184,208774,1,6,3:0:0:0:
296,0,208992,1,2,3:0:0:0:
100,256,209209,1,8,0:1:0:0:
244,280,209426,1,8,0:1:0:0:
296,0,209644,1,6,3:0:0:0:
356,184,209861,1,2,3:0:0:0:
244,280,210079,1,8,0:1:0:0:
296,0,210296,1,8,0:1:0:0:
96,224,210516,1,6,3:0:0:0:
244,280,210737,1,2,3:0:0:0:
356,184,210958,1,4,3:0:0:0:
296,0,211173,1,8,0:1:0:0:
296,0,211390,1,8,0:1:0:0:
244,280,211604,6,0,P|320:288|372:240,1,140.000005340576,6|0,3:0|0:0,0:0:0:0:
156,170,212278,2,0,P|111:232|127:301,1,140.000005340576,8|0,0:1|0:0,0:0:0:0:
295,149,212937,2,0,P|264:79|196:58,1,140.000005340576,6|0,3:0|0:0,0:0:0:0:
40,224,213605,2,0,P|71:293|138:314,1,140.000005340576,8|0,0:1|3:0,0:0:0:0:
312,200,214274,5,4,3:1:0:0:
56,144,214496,1,8,0:1:0:0:
56,144,214608,1,8,0:1:0:0:
56,144,214719,1,8,0:1:0:0:
364,128,214942,5,4,3:1:0:0:
100,256,215159,1,8,0:1:0:0:
100,256,215268,1,8,0:1:0:0:
100,256,215376,1,8,0:1:0:0:
408,56,215594,5,4,3:1:0:0:
224,304,215811,1,8,0:1:0:0:
224,304,215920,1,8,0:1:0:0:
224,304,216028,1,8,0:1:0:0:
224,304,216137,1,8,0:1:0:0:
224,304,216246,1,4,3:1:0:0:
224,304,216355,1,8,0:1:0:0:
224,304,216463,1,8,0:1:0:0:
224,304,216572,1,8,0:1:0:0:
318,371,216681,1,10,0:1:0:0:
318,371,216898,6,0,P|352:329|353:219,1,140.000005340576,4|0,3:1|3:0,0:0:0:0:
248,172,217557,2,0,P|228:122|232:80,1,70.0000026702882,8|0,0:1|0:0,0:0:0:0:
248,172,218001,1,0,3:0:0:0:
416,147,218223,2,0,P|397:177|369:198,1,70.0000026702882,4|0,3:0|0:0,0:0:0:0:
416,148,218667,1,0,3:0:0:0:
319,12,218890,2,0,P|354:12|387:25,1,70.0000026702882,8|0,0:1|0:0,0:0:0:0:
320,12,219334,1,0,3:0:0:0:
424,202,219557,6,0,P|374:221|269:188,1,140.000005340576,4|0,3:1|0:0,0:0:0:0:
328,88,220209,2,0,B|323:132|323:132|303:164,1,70.0000026702882,8|0,0:1|0:0,0:0:0:0:
167,196,220644,1,0,3:0:0:0:
275,357,220861,2,0,B|231:352|231:352|199:332,1,70.0000026702882,4|0,3:0|0:0,0:0:0:0:
167,196,221303,1,0,3:0:0:0:
6,304,221523,2,0,B|11:260|11:260|31:228,1,70.0000026702882,8|0,0:1|0:0,0:0:0:0:
167,196,221846,1,0,0:0:0:0:
167,196,221953,1,0,0:0:0:0:
334,46,222168,6,0,L|349:194,1,140.000005340576,4|0,3:1|0:0,0:0:0:0:
167,196,222830,2,0,L|178:97,1,70.0000026702882,8|0,0:1|0:0,0:0:0:0:
267,348,223272,1,0,3:0:0:0:
349,186,223493,2,0,L|429:245,1,70.0000026702882,4|0,3:0|0:0,0:0:0:0:
167,196,223936,1,0,3:0:0:0:
268,349,224156,2,0,L|176:388,1,70.0000026702882,8|0,0:1|0:0,0:0:0:0:
349,186,224596,1,0,3:0:0:0:
87,360,224815,6,0,B|67:282|67:282|94:222,1,140.000005340576,4|0,3:1|0:0,0:0:0:0:
268,349,225474,2,0,L|356:353|356:353,1,70.0000026702882,8|0,0:1|0:0,0:0:0:0:
91,227,225913,1,0,3:0:0:0:
344,264,226134,2,0,L|368:176|368:176,1,70.0000026702882,4|8,3:0|0:1,0:0:0:0:
344,264,226471,1,0,0:0:0:0:
344,264,226583,1,8,0:1:0:0:
390,72,226808,1,8,0:1:0:0:
390,72,226917,1,0,0:0:0:0:
390,72,227027,1,8,0:1:0:0:
378,116,227137,1,0,0:0:0:0:
370,156,227248,1,8,0:1:0:0:
362,196,227358,1,8,0:1:0:0:
344,264,227467,6,0,P|312:319|236:349,1,140.000005340576,4|0,3:1|0:0,0:0:0:0:
360,4,228126,2,0,L|434:48,1,70.0000026702882,8|0,0:1|0:0,0:0:0:0:
278,156,228566,1,0,3:0:0:0:
486,280,228786,2,0,L|412:236,1,70.0000026702882,4|0,3:0|0:0,0:0:0:0:
278,156,229212,1,0,3:0:0:0:
425,244,229427,2,0,L|499:288,1,70.0000026702882,8|0,0:1|0:0,0:0:0:0:
278,156,229856,1,0,3:0:0:0:
125,377,230069,6,0,P|99:318|120:240,1,140.000005340576,4|0,3:1|0:0,0:0:0:0:
320,284,230745,2,0,P|332:244|328:204,1,70.0000026702882,8|0,0:1|0:0,0:0:0:0:
258,37,231174,1,0,3:0:0:0:
503,107,231390,2,0,P|462:116|429:140,1,70.0000026702882,4|0,3:0|0:0,0:0:0:0:
320,284,231839,1,0,3:1:0:0:
35,322,232064,2,0,P|58:349|89:366,1,70.0000026702882,8|0,0:1|0:0,0:0:0:0:
160,380,232384,1,0,3:0:0:0:
232,380,232493,1,8,0:1:0:0:
296,348,232598,1,8,0:1:0:0:
320,284,232705,6,0,P|266:282|186:342,1,140.000005340576,4|0,3:1|0:0,0:0:0:0:
456,320,233364,2,0,B|469:236|469:236,1,70.0000026702882,8|0,0:1|0:0,0:0:0:0:
266,309,233803,1,0,3:0:0:0:
60,192,234023,2,0,B|47:108|47:108,1,70.0000026702882,4|0,3:0|0:0,0:0:0:0:
256,216,234462,1,0,3:0:0:0:
440,92,234683,2,0,B|453:8|453:8,1,70.0000026702882,8|0,0:1|0:0,0:0:0:0:
248,112,235130,1,8,0:1:0:0:
208,328,235353,1,12,0:1:0:0:
248,112,235571,5,8,0:1:0:0:
240,152,235680,1,8,0:1:0:0:
232,200,235790,1,8,0:1:0:0:
224,248,235899,1,8,0:1:0:0:
208,328,236008,1,4,3:1:0:0:
112,368,236227,5,8,0:1:0:0:
104,328,236336,1,8,0:1:0:0:
96,280,236446,1,8,0:1:0:0:
88,232,236555,1,8,0:1:0:0:
72,152,236664,1,4,3:1:0:0:
112,368,236881,5,12,0:1:0:0:
472,336,237098,1,8,0:1:0:0:
272,304,237316,5,12,0:1:0:0:
272,304,237428,1,8,0:1:0:0:
272,304,237540,1,8,0:1:0:0:
320,312,237653,1,8,0:1:0:0:
368,320,237765,1,8,0:1:0:0:
416,328,237877,1,8,0:1:0:0:
472,336,237990,6,0,B|498:267|498:267|480:192,1,140.000005340576,4|0,3:1|3:0,0:0:0:0:
113,149,238642,2,0,B|97:115|97:115|101:79,1,70.0000026702882,8|0,0:1|3:0,0:0:0:0:
113,149,238968,1,0,0:0:0:0:
113,149,239077,1,0,0:0:0:0:
245,318,239294,2,0,B|238:224,1,70.0000026702882,4|0,3:0|0:0,0:0:0:0:
245,318,239635,1,0,0:0:0:0:
245,318,239749,1,0,0:0:0:0:
319,132,239975,2,0,B|322:93|322:93|303:62,1,70.0000026702882,8|0,0:1|3:0,0:0:0:0:
319,132,240305,1,0,0:0:0:0:
319,132,240415,1,0,0:0:0:0:
319,132,240634,5,4,3:1:0:0:
395,83,240858,1,0,3:0:0:0:
485,90,241083,1,0,0:0:0:0:
485,90,241195,1,0,0:0:0:0:
485,90,241308,1,8,0:1:0:0:
440,169,241527,5,4,3:1:0:0:
356,204,241747,1,4,3:1:0:0:
269,176,241967,1,0,0:0:0:0:
269,176,242077,1,0,0:0:0:0:
269,176,242187,1,4,3:1:0:0:
227,95,242406,5,8,0:1:0:0:
240,261,242626,1,8,0:1:0:0:
86,324,242841,1,0,3:0:0:0:
86,324,242948,1,0,0:0:0:0:
86,324,243056,1,8,0:1:0:0:
168,32,243271,6,0,L|186:113,1,70.0000026702882,4|0,3:1|3:0,0:0:0:0:
168,32,243608,1,0,0:0:0:0:
168,32,243720,1,0,0:0:0:0:
352,136,243945,2,0,L|334:230,1,70.0000026702882,8|0,0:1|0:0,0:0:0:0:
352,136,244271,1,0,0:0:0:0:
352,136,244379,1,0,0:0:0:0:
156,236,244597,2,0,L|165:328,1,70.0000026702882,4|0,3:0|3:0,0:0:0:0:
156,236,244923,1,0,0:0:0:0:
156,236,245031,1,0,0:0:0:0:
394,314,245249,2,0,L|384:404,1,70.0000026702882,8|0,0:1|3:0,0:0:0:0:
394,314,245581,1,0,0:0:0:0:
394,314,245692,1,0,0:0:0:0:
168,32,245913,5,4,3:1:0:0:
352,136,246135,1,8,0:1:0:0:
156,236,246356,1,8,0:1:0:0:
394,314,246578,1,4,3:1:0:0:
102,56,246797,5,8,0:1:0:0:
136,60,246906,1,8,0:1:0:0:
171,64,247016,1,8,0:1:0:0:
206,68,247125,1,8,0:1:0:0:
241,72,247235,1,4,3:1:0:0:
80,154,247445,5,8,0:1:0:0:
139,160,247551,1,8,0:1:0:0:
199,167,247656,1,8,0:1:0:0:
259,173,247757,1,8,0:1:0:0:
319,180,247866,1,4,3:1:0:0:
58,252,248084,5,8,0:1:0:0:
140,260,248193,1,8,0:1:0:0:
223,269,248303,1,8,0:1:0:0:
307,278,248412,1,8,0:1:0:0:
390,287,248521,6,0,P|408:217|381:146,1,140.000005340576,4|0,3:1|0:0,0:0:0:0:
267,292,249195,2,0,L|179:308,1,70.0000026702882,8|0,0:1|3:0,0:0:0:0:
267,292,249532,1,0,0:0:0:0:
267,292,249644,1,0,0:0:0:0:
313,79,249869,2,0,L|225:95,1,70.0000026702882,4|0,3:0|3:0,0:0:0:0:
313,79,250206,1,0,0:0:0:0:
313,79,250318,1,0,0:0:0:0:
267,292,250543,2,0,L|187:308,1,70.0000026702882,8|0,1:0|0:0,0:0:0:0:
267,292,250880,1,0,0:0:0:0:
267,292,250992,1,0,0:0:0:0:
56,56,251217,6,0,P|74:86|53:200,1,140.000005340576,4|0,3:1|3:0,0:0:0:0:
245,92,251865,2,0,L|333:76,1,70.0000026702882,8|0,0:1|3:0,0:0:0:0:
245,92,252189,1,0,0:0:0:0:
245,92,252297,1,0,0:0:0:0:
198,305,252514,1,4,3:0:0:0:
245,92,252730,1,0,0:0:0:0:
245,92,252838,1,8,0:1:0:0:
245,92,252946,1,0,3:0:0:0:
198,305,253162,1,8,0:1:0:0:
245,92,253379,1,0,0:0:0:0:
245,92,253487,1,8,0:1:0:0:
245,92,253595,1,0,3:0:0:0:
80,304,253811,6,0,P|83:236|127:182,1,140.000005340576,4|0,3:1|3:0,0:0:0:0:
491,122,254475,2,0,L|419:138,1,70.0000026702882,8|0,0:1|0:0,0:0:0:0:
491,122,254808,1,0,0:0:0:0:
491,122,254919,1,0,3:0:0:0:
307,162,255140,1,4,3:1:0:0:
491,122,255362,1,0,0:0:0:0:
491,122,255583,1,0,0:0:0:0:
307,162,255804,2,0,L|235:178,1,70.0000026702882,4|0,3:1|0:0,0:0:0:0:
307,162,256134,1,0,0:0:0:0:
307,162,256244,1,0,3:0:0:0:
307,162,256464,5,4,3:1:0:0:
123,202,256680,1,8,0:1:0:0:
123,202,256788,1,0,0:0:0:0:
123,202,256896,1,0,0:0:0:0:
123,202,257004,1,8,0:1:0:0:
123,202,257112,1,4,3:1:0:0:
307,162,257328,1,2,3:0:0:0:
307,162,257436,1,0,0:0:0:0:
307,162,257545,1,4,3:0:0:0:
123,202,257761,1,4,3:1:0:0:
307,162,257977,1,8,0:1:0:0:
261,170,258085,1,8,0:1:0:0:
216,179,258193,1,8,0:1:0:0:
171,190,258301,1,8,0:1:0:0:
123,202,258409,1,4,3:1:0:0:
171,190,258519,1,8,0:1:0:0:
216,179,258630,1,8,0:1:0:0:
261,170,258740,1,8,0:1:0:0:
307,162,258851,1,4,3:1:0:0:
307,162,258961,1,8,0:1:0:0:
307,162,259071,6,0,L|317:314,1,140.000005340576,4|0,3:1|3:0,0:0:0:0:
62,299,259734,2,0,L|57:388,1,70.0000026702882,8|0,0:1|3:0,0:0:0:0:
62,299,260066,1,0,0:0:0:0:
62,299,260177,1,0,3:0:0:0:
218,152,260397,2,0,L|224:242,1,70.0000026702882,4|0,3:0|3:0,0:0:0:0:
218,152,260729,1,0,0:0:0:0:
218,152,260840,1,0,0:0:0:0:
62,299,261060,2,0,L|57:388,1,70.0000026702882,8|0,0:1|3:0,0:0:0:0:
62,299,261397,1,0,0:0:0:0:
62,299,261509,1,0,0:0:0:0:
218,152,261734,2,0,L|222:82,1,70.0000026702882,4|0,3:0|3:0,0:0:0:0:
218,152,262071,1,0,0:0:0:0:
218,152,262183,1,0,0:0:0:0:
62,299,262407,2,0,L|56:209,1,70.0000026702882,8|0,0:1|3:0,0:0:0:0:
62,299,262739,1,0,0:0:0:0:
62,299,262849,1,0,0:0:0:0:
218,152,263066,2,0,L|223:63,1,70.0000026702882,4|0,3:0|3:0,0:0:0:0:
218,152,263396,1,0,0:0:0:0:
218,152,263506,1,0,0:0:0:0:
62,299,263726,1,8,0:1:0:0:
0,62,263946,1,8,0:1:0:0:
0,62,264166,1,8,0:1:0:0:
0,62,264276,1,8,0:1:0:0:
0,62,264386,6,0,B|75:57|148:101,1,140.000005340576,4|0,3:0|3:0,0:0:0:0:
365,196,265038,2,0,B|391:162|391:162|381:108,1,70.0000026702882,8|0,0:1|0:0,0:0:0:0:
365,196,265364,1,0,0:0:0:0:
365,196,265473,1,0,0:0:0:0:
146,281,265691,2,0,B|135:327|135:327|152:371,1,70.0000026702882,4|0,3:0|3:0,0:0:0:0:
146,281,266017,1,0,0:0:0:0:
146,281,266125,1,0,0:0:0:0:
260,83,266343,2,0,B|226:57|226:57|172:67,1,70.0000026702882,8|0,0:1|0:0,0:0:0:0:
260,83,266669,1,0,0:0:0:0:
260,83,266778,1,0,0:0:0:0:
345,302,266994,2,0,B|391:313|391:313|435:296,1,70.0000026702882,4|0,3:0|3:0,0:0:0:0:
345,302,267326,1,0,0:0:0:0:
345,302,267439,1,0,0:0:0:0:
355,164,267668,1,4,3:1:0:0:
345,302,267885,5,8,0:1:0:0:
346,266,267993,1,8,0:1:0:0:
349,233,268102,1,8,0:1:0:0:
353,199,268210,1,8,0:1:0:0:
355,164,268319,1,4,3:1:0:0:
345,302,268537,5,4,3:0:0:0:
345,302,268646,1,0,0:0:0:0:
345,302,268754,1,2,3:0:0:0:
355,164,268971,5,4,3:1:0:0:
353,199,269084,1,8,0:1:0:0:
349,233,269197,1,0,0:0:0:0:
346,266,269309,1,8,0:1:0:0:
345,302,269421,1,4,3:0:0:0:
345,302,269534,1,8,0:1:0:0:
345,302,269646,6,0,P|297:312|205:282,1,140.000005340576,4|0,3:1|3:0,0:0:0:0:
128,136,270306,2,0,P|139:96|177:61,1,70.0000026702882,8|0,0:1|0:0,0:0:0:0:
128,136,270745,1,0,3:0:0:0:
272,330,270964,2,0,P|240:338|200:326,1,70.0000026702882,4|0,3:0|0:0,0:0:0:0:
272,330,271403,1,0,0:0:0:0:
367,107,271624,2,0,P|390:132|400:172,1,70.0000026702882,8|0,0:1|0:0,0:0:0:0:
367,107,272063,1,0,0:0:0:0:
128,136,272284,2,0,P|136:104|167:76,1,70.0000026702882,8|0,0:1|0:0,0:0:0:0:
128,136,272613,1,0,0:0:0:0:
128,136,272723,1,0,0:0:0:0:
272,330,272943,2,0,P|240:338|200:326,1,70.0000026702882,8|0,0:1|0:0,0:0:0:0:
272,330,273273,1,0,0:0:0:0:
272,330,273383,1,0,0:0:0:0:
367,107,273602,2,0,P|390:132|400:172,1,70.0000026702882,8|0,0:1|0:0,0:0:0:0:
367,107,273942,1,0,0:0:0:0:
367,107,274057,1,0,0:0:0:0:
272,330,274283,1,8,0:1:0:0:
367,107,274500,1,8,0:1:0:0:
128,136,274717,1,0,0:0:0:0:
128,136,274826,1,8,0:1:0:0:
128,136,274935,6,0,P|127:202|183:281,1,140.000005340576,6|0,3:0|0:0,0:0:0:0:
367,107,275587,2,0,P|355:67|318:32,1,70.0000026702882,8|0,0:1|0:0,0:0:0:0:
367,107,276036,1,0,0:0:0:0:
272,330,276261,2,0,P|312:340|362:325,1,70.0000026702882,4|0,3:0|0:0,0:0:0:0:
272,330,276696,1,0,0:0:0:0:
128,136,276913,2,0,P|99:166|87:216,1,70.0000026702882,8|0,0:1|0:0,0:0:0:0:
128,136,277366,1,8,0:1:0:0:
235,365,277593,5,4,3:0:0:0:
117,87,277819,1,8,0:1:0:0:
416,123,278046,1,8,0:1:0:0:
277,365,278272,5,4,3:0:0:0:
395,87,278485,1,8,0:1:0:0:
96,123,278697,1,8,0:1:0:0:
243,295,278943,5,4,3:0:0:0:
172,129,279183,1,8,0:1:0:0:
352,150,279422,1,8,0:1:0:0:
266,278,279661,5,4,3:0:0:0:
325,139,279899,1,8,0:1:0:0:
176,157,280137,1,8,0:1:0:0:
259,195,280500,5,4,3:1:0:0:
