osu file format v14

[General]
AudioFilename: audio.mp3
AudioLeadIn: 0
PreviewTime: 172557
Countdown: 0
SampleSet: Soft
StackLeniency: 0.7
Mode: 0
LetterboxInBreaks: 0
WidescreenStoryboard: 0

[Editor]
DistanceSpacing: 0.4
BeatDivisor: 4
GridSize: 32
TimelineZoom: 2.800004

[Metadata]
Title:The Real Folk Blues
TitleUnicode:The Real Folk Blues
Artist:Mason Lieberman
ArtistUnicode:Mason Lieberman
Creator:anfeargorm
Version:Extra
Source:
Tags:ABSOLUTE EPIC 4 ABSOLUTE_EPIC_4 Japanese English Jazz Rap Folk Anime Yoko Kanno Shihori Uyanga ƚyanga Bold Raj Ramayya Substantial Mega Ran Red Rapper Cowboy Bebop Sunrise Funimation
BeatmapID:3452905
BeatmapSetID:1689627

[Difficulty]
HPDrainRate:5
CircleSize:4
OverallDifficulty:8.6
ApproachRate:9.2
SliderMultiplier:1.8
SliderTickRate:1

[Events]
//Background and Video events
0,0,"space cowboy.jpg",0,0
//Break Periods
2,51103,54510
2,140053,148876
//Storyboard Layer 0 (Background)
//Storyboard Layer 1 (Fail)
//Storyboard Layer 2 (Pass)
//Storyboard Layer 3 (Foreground)
//Storyboard Layer 4 (Overlay)
//Storyboard Sound Samples

[TimingPoints]
329,348.837209302326,4,2,0,80,1,0
3476,357.142857142858,4,2,0,80,1,0
4190,337.078651685394,4,2,0,80,1,0
4527,324.324324324325,4,2,0,80,1,0
4851,342.857142857144,4,2,0,80,1,0
5193,355.029585798818,4,2,0,80,1,0
5910,348.837209302326,4,2,0,80,1,0
6084,-200,4,2,0,80,0,0
6607,-100,4,2,0,80,0,0
17051,365.853658536586,4,2,0,80,1,0
17416,335.195530726258,4,2,0,80,1,0
17773,348.837209302326,4,2,0,80,1,0
28238,-100,4,2,0,40,0,0
28412,-133.333333333333,4,2,0,40,0,0
39400,-133.333333333333,4,2,0,50,0,0
50563,341.880341880342,4,2,0,80,1,0
50733,-133.333333333333,4,2,0,80,0,0
52616,348.837209302326,4,2,0,80,1,0
54060,348.837209302326,4,2,0,80,1,0
55080,370.370370370371,4,2,0,60,1,0
55450,357.142857142858,4,2,0,80,1,0
56142,348.837209302326,4,2,0,80,1,0
56316,-100,4,2,0,80,0,0
56839,-117.647058823529,4,2,0,80,0,0
77769,342.857142857143,4,2,0,80,1,0
78454,342.857142857143,4,2,0,80,1,0
78817,348.837209302326,4,2,0,40,1,0
79165,-250,4,2,0,40,0,0
79863,348.837209302326,4,2,0,80,1,0
80560,-250,4,2,0,80,0,0
82653,-133.333333333333,4,2,0,80,0,0
84397,-133.333333333333,4,2,0,50,0,0
84746,-100,4,2,0,70,0,0
86839,-100,4,2,0,80,0,0
87188,-90.9090909090909,4,2,0,80,0,0
88235,-76.9230769230769,4,2,0,80,0,0
88932,-76.9230769230769,4,2,0,90,0,0
92072,-250,4,2,0,40,0,0
94160,348.837209302326,4,2,0,70,1,0
95206,348.837209302326,4,2,0,80,1,0
95206,-83.3333333333333,4,2,0,80,0,0
100787,-66.6666666666667,4,2,0,80,0,0
101833,-83.3333333333333,4,2,0,80,0,0
117695,348.837209302326,4,2,0,80,1,0
118226,348.837209302326,4,2,0,80,1,0
118226,-250,4,2,0,80,0,0
118574,-90.9090909090909,4,2,0,80,0,0
118923,348.837209302326,4,2,0,80,1,0
119446,-90.9090909090909,4,2,0,80,0,0
122095,348.837209302326,4,2,0,80,1,0
122237,348.837209302326,4,2,0,80,1,0
123109,348.837209302326,4,2,0,80,1,0
123109,-90.9090909090909,4,2,0,80,0,0
135680,348.837209302326,4,2,0,80,1,0
136191,348.837209302326,4,2,0,80,1,0
136191,-90.9090909090909,4,2,0,80,0,0
137063,348.837209302326,4,2,0,80,1,0
137760,-90.9090909090909,4,2,0,80,0,0
149446,-90.9090909090909,4,2,0,50,0,0
149468,335.195530726257,4,2,0,50,1,0
149635,-100,4,2,0,80,0,0
149978,348.837209302326,4,2,0,80,1,0
149978,-222.222222222222,4,2,0,80,0,0
151024,348.837209302326,4,2,0,60,1,0
151198,-117.647058823529,4,2,0,60,0,0
162535,-117.647058823529,4,2,0,40,0,0
162884,-250,4,2,0,40,0,0
166372,-133.333333333333,4,2,0,40,0,0
168117,-100,4,2,0,50,0,0
168465,-100,4,2,0,70,0,0
170558,-90.9090909090909,4,2,0,80,0,0
171954,-66.6666666666667,4,2,0,80,0,0
172651,-66.6666666666667,4,2,0,90,0,0
175093,-500,4,2,0,30,0,0
176837,-100,4,2,0,50,0,0
177892,348.837209302326,4,2,0,80,1,0
178246,394.736842105263,4,2,0,80,1,0
178344,-100,4,2,0,45,0,0
178377,-100,4,2,0,45,0,0
178443,-100,4,2,0,45,0,0
178497,-100,4,2,0,45,0,0
178509,-100,4,2,0,55,0,0
178574,-100,4,2,0,65,0,0
178629,303.79746835443,4,2,0,65,1,0
178679,-100,4,2,0,70,0,0
178704,-100,4,2,0,70,0,0
178929,348.837209302326,4,2,0,80,1,1
189583,348.837209302326,4,2,0,80,1,1
190106,348.837209302326,4,2,0,80,1,1
190797,348.837209302326,4,2,0,80,1,1
191494,348.837209302326,4,2,0,80,1,1
196259,348.837209302326,4,2,0,70,1,1
196368,348.837209302326,4,2,0,70,1,1
196507,270.270270270271,4,2,0,70,1,1
196753,300,4,2,0,70,1,1
197009,416.666666666667,4,2,0,70,1,1
197247,348.837209302326,4,2,0,70,1,1
197421,348.837209302326,4,2,0,70,1,1
198466,348.837209302326,4,2,0,70,1,1
201247,348.837209302326,4,2,0,80,1,1
202816,-76.9230769230769,4,2,0,80,0,1
203165,-100,4,2,0,80,0,1
203524,348.837209302326,4,2,0,70,1,1
204039,348.837209302326,4,2,0,70,1,1
204039,-76.9230769230769,4,2,0,70,0,1
204401,348.837209302326,4,2,0,70,1,1
204749,-76.9230769230769,4,2,0,70,0,1
205447,348.837209302326,4,2,0,70,1,1
205795,-76.9230769230769,4,2,0,70,0,1
206144,-100,4,2,0,70,0,1
206842,-90.9090909090909,4,2,0,70,0,1
207540,-100,4,2,0,70,0,1
217821,348.837209302326,4,2,0,70,1,1
217995,348.837209302326,4,2,0,70,1,1
223576,-100,4,2,0,70,0,0
223925,-100,4,2,0,50,0,0
224638,348.837209302326,4,2,0,50,1,0
224638,-133.333333333333,4,2,0,50,0,0
224812,-133.333333333333,4,2,0,70,0,0
224986,348.837209302326,4,2,0,70,1,0
224986,-133.333333333333,4,2,0,70,0,0
245916,-153.846153846153,4,2,0,40,0,0
260559,365.853658536585,4,2,0,40,1,0
260559,-153.846153846153,4,2,0,40,0,0
261290,348.837209302326,4,2,0,40,1,0
261290,-153.846153846153,4,2,0,40,0,0
261976,303.79746835443,4,2,0,40,1,0
262477,348.837209302326,4,2,0,40,1,0
262651,348.837209302326,4,2,0,40,1,0
263348,348.837209302326,4,2,0,40,1,0
263871,-153.846153846153,4,2,0,40,0,0
264045,348.837209302326,4,2,0,40,1,0
265440,-153.846153846153,4,2,0,40,0,0
267727,348.837209302326,4,2,0,40,1,0
268757,348.837209302326,4,2,0,40,1,0
268931,348.837209302326,4,2,0,40,1,0
268931,-133.333333333333,4,2,0,40,0,0
269628,348.837209302326,4,2,0,40,1,0
269976,-133.333333333333,4,2,0,40,0,0
289860,-133.333333333333,4,2,0,60,0,0
291255,-111.111111111111,4,2,0,60,0,0
291476,348.837209302326,4,2,0,50,1,0
292303,348.837209302326,4,2,0,50,1,0
292651,348.837209302326,4,2,0,50,1,0
293348,348.837209302326,4,2,0,50,1,0
294050,348.837209302326,4,2,0,50,1,0
294747,348.837209302326,4,2,0,50,1,0
313294,348.837209302326,4,2,0,50,1,0
313582,288.461538461539,4,2,0,50,1,0
313643,348.837209302326,4,2,0,50,1,0
314616,363.636363636364,4,2,0,50,1,0
314980,348.837209302326,4,2,0,50,1,0
315677,348.837209302326,4,2,0,50,1,0
332595,-100,4,2,0,70,0,0
335719,372.670807453417,4,2,0,50,1,0
335905,-100,4,2,0,75,0,0
336278,348.837209302326,4,2,0,75,1,0
336460,416.666666666668,4,2,0,50,1,0
336460,-83.3333333333333,4,2,0,50,0,0
336792,348.837209302326,4,2,0,50,1,0
336966,-83.3333333333333,4,2,0,50,0,0
337315,348.837209302326,4,2,0,50,1,0
337489,-83.3333333333333,4,2,0,50,0,0
338012,348.837209302326,4,2,0,50,1,0
338709,-83.3333333333333,4,2,0,50,0,0
347081,348.837209302326,4,2,0,50,1,0
347604,-76.9230769230769,4,2,0,50,0,0
356150,-76.9230769230769,4,2,0,85,0,0
356848,-76.9230769230769,4,2,0,85,0,1
356935,-76.9230769230769,4,2,0,85,0,0
357197,-76.9230769230769,4,2,0,85,0,1
357284,-76.9230769230769,4,2,0,85,0,0
357546,-76.9230769230769,4,2,0,75,0,0
357882,348.837209302326,4,2,0,50,1,0
358230,348.837209302326,4,2,0,85,1,1
358230,-71.4285714285714,4,2,0,85,0,1
369205,348.837209302326,4,2,0,50,1,0
369379,-100,4,2,0,50,0,1
369399,348.837209302326,4,2,0,50,1,0
369747,-66.6666666666667,4,2,0,50,0,1
377247,-66.6666666666667,4,2,0,85,0,1
377771,-71.4285714285714,4,2,0,85,0,1
378804,355.029585798817,4,2,0,50,1,1
379691,-100,4,2,0,50,0,0
380560,348.837209302326,4,2,0,40,1,1
380560,-1000,4,2,0,40,0,1
382653,-1000,4,2,0,40,0,0

[Colours]
Combo1 : 255,187,187
Combo2 : 255,128,128
Combo3 : 152,78,78

[HitObjects]
256,192,3476,12,8,5910,2:0:0:0:
262,191,6084,6,0,L|253:138,1,45,0|0,3:2|3:2,0:0:0:0:
439,294,6607,6,0,P|374:288|239:278,1,180,12|2,2:0|2:0,0:0:0:0:
159,357,7130,1,2,2:0:0:0:
162,178,7305,2,0,P|168:231|172:283,1,90,10|2,2:0|3:2,0:0:0:0:
79,232,7654,1,0,3:2:0:0:
255,183,7828,2,0,P|306:184|356:188,2,90,2|10|2,2:0|2:0|3:2,0:0:0:0:
68,141,8351,6,0,P|24:99|55:26,1,135,2|0,3:2|0:0,0:0:0:0:
62,27,8700,5,0,3:2:0:0:
182,107,9049,2,0,P|237:102|290:99,1,90,0|0,3:2|3:2,0:0:0:0:
486,237,9398,6,0,P|385:219|191:199,1,270,8|0,2:0|0:0,0:0:0:0:
148,282,10096,6,0,P|96:289|39:299,2,90,2|2|2,3:2|2:0|3:2,0:0:0:0:
160,290,10793,5,10,2:0:0:0:
72,95,10968,1,0,3:2:0:0:
20,207,11142,2,0,P|64:199|109:193,1,90,2|0,3:2|3:2,0:0:0:0:
340,18,11491,6,0,P|331:75|316:223,2,180,0|0|8,3:2|3:2|2:0,0:0:0:0:
403,384,12537,5,2,2:0:0:0:
503,230,12712,1,2,3:2:0:0:
335,290,12886,2,0,P|392:282|458:277,1,90,2|2,2:0|3:2,0:0:0:0:
494,334,13235,1,2,3:2:0:0:
282,366,13410,2,0,P|225:358|159:353,2,90,2|10|2,2:0|2:0|3:2,0:0:0:0:
229,178,13933,2,0,P|238:223|247:267,1,90,0|0,3:2|3:2,0:0:0:0:
325,205,14282,5,0,3:2:0:0:
73,61,14630,1,0,3:2:0:0:
419,164,14979,2,0,P|481:131|463:20,1,180,8|0,2:0|3:2,0:0:0:0:
382,89,15503,1,8,2:0:0:0:
253,34,15677,6,0,P|318:23|362:17,1,90,0|8,3:2|2:0,0:0:0:0:
130,330,16026,2,0,P|114:255|84:120,1,180,4|10,3:2|2:0,0:0:0:0:
25,334,16549,1,6,3:2:0:0:
203,214,16723,2,0,P|258:224|307:229,1,90,2|2,2:0|3:2,0:0:0:0:
434,94,17051,5,8,2:0:0:0:
278,61,17233,1,0,3:2:0:0:
305,210,17416,1,0,3:2:0:0:
346,132,17583,1,0,3:2:0:0:
432,371,17773,6,0,P|424:318|416:270,1,90,12|2,2:0|2:0,0:0:0:0:
459,180,18121,1,2,2:0:0:0:
333,363,18296,1,2,2:0:0:0:
280,218,18470,2,0,P|272:262|266:306,1,90,2|10,2:0|3:2,0:0:0:0:
368,201,18819,1,2,3:2:0:0:
180,256,18993,2,0,P|135:263|91:269,2,90,2|10|2,2:0|2:0|3:2,0:0:0:0:
133,28,19517,2,0,P|61:32|28:104,1,135,2|0,2:0|0:0,0:0:0:0:
42,97,19866,5,0,3:2:0:0:
266,206,20214,1,0,3:2:0:0:
490,23,20563,2,0,P|485:73|474:222,1,180,10|2,2:0|2:0,0:0:0:0:
384,31,21086,1,0,3:2:0:0:
384,31,21261,2,0,P|388:82|392:126,1,90,2|2,2:0|2:0,0:0:0:0:
399,134,21523,1,2,2:0:0:0:
399,134,21610,1,2,3:2:0:0:
296,74,21784,1,2,2:0:0:0:
174,188,21959,5,10,2:0:0:0:
253,244,22133,1,2,3:2:0:0:
158,187,22307,2,0,P|100:193|53:197,1,90,2|2,3:2|3:2,0:0:0:0:
158,290,22656,5,0,3:2:0:0:
418,285,23005,2,0,P|482:291|533:298,1,90,2|2,3:2|3:2,0:0:0:0:
263,44,23354,2,0,P|270:92|290:254,1,180,8|2,2:0|2:0,0:0:0:0:
379,91,23877,1,2,2:0:0:0:
150,125,24052,2,0,P|162:72|175:19,1,90,2|10,3:2|2:0,0:0:0:0:
72,72,24400,1,2,3:2:0:0:
175,218,24575,2,0,P|224:210|276:205,2,90,2|10|2,2:0|2:0|3:2,0:0:0:0:
178,312,25098,1,0,0:0:0:0:
178,312,25447,6,0,P|109:302|-8:289,1,180,0|0,3:2|3:2,0:0:0:0:
36,380,26145,1,8,2:0:0:0:
90,211,26493,2,0,P|85:161|76:102,1,90,0|0,0:0|3:2,0:0:0:0:
239,62,26842,5,2,2:0:0:0:
185,169,27017,1,8,2:0:0:0:
392,57,27191,1,6,3:2:0:0:
237,301,27540,5,10,2:0:0:0:
246,74,27714,2,0,P|227:22|100:18,1,180,4|0,3:2|3:2,0:0:0:0:
16,111,28238,5,2,3:2:0:0:
16,111,28412,2,0,P|85:100|150:94,1,135,2|2,2:0|2:0,0:0:0:0:
154,184,28935,2,0,P|187:188|220:194,1,67.5000000000002,10|0,2:0|0:0,0:0:0:0:
260,277,29284,1,2,2:0:0:0:
260,277,29459,1,2,2:0:0:0:
260,277,29982,6,0,P|225:296|224:390,1,135,0|8,3:2|2:0,0:0:0:0:
359,312,30505,2,0,P|353:265|344:177,1,135,2|2,3:2|2:0,0:0:0:0:
439,101,31028,6,0,P|436:137|432:172,1,67.5000000000002,2|0,3:2|0:0,0:0:0:0:
356,31,31377,2,0,P|353:67|349:102,1,67.5000000000002,0|0,3:2|0:0,0:0:0:0:
154,217,31726,2,0,P|166:172|265:165,1,135,8|2,2:0|2:0,0:0:0:0:
240,244,32249,1,2,2:0:0:0:
240,244,32424,6,0,P|232:281|226:316,2,67.5000000000002,0|0|0,0:0|0:0|3:2,0:0:0:0:
328,68,33121,1,8,2:0:0:0:
328,68,33470,2,0,P|285:62|244:58,1,67.5000000000002,2|2,2:0|3:2,0:0:0:0:
84,97,33819,6,0,P|76:52|66:4,1,67.5000000000002,2|2,3:2|2:0,0:0:0:0:
183,133,34168,2,0,P|175:88|165:40,1,67.5000000000002,2|2,3:2|2:0,0:0:0:0:
34,185,34517,5,10,2:0:0:0:
34,185,34691,1,2,2:0:0:0:
34,185,34866,1,2,2:0:0:0:
260,364,35214,6,0,P|304:349|329:266,1,135,0|0,3:2|3:2,0:0:0:0:
315,268,35912,2,0,P|322:221|338:124,1,135,10|2,2:0|2:0,0:0:0:0:
405,212,36435,1,2,2:0:0:0:
240,182,36610,6,0,P|205:187|158:193,1,67.5000000000002,0|2,3:2|2:0,0:0:0:0:
256,96,36959,2,0,P|221:101|174:107,1,67.5000000000002,2|0,3:2|0:0,0:0:0:0:
91,334,37307,5,8,2:0:0:0:
91,334,37656,1,0,0:0:0:0:
91,334,38005,2,0,P|86:293|81:260,1,67.5000000000002
95,48,38354,6,0,P|79:111|22:145,1,135,0|8,3:2|2:0,0:0:0:0:
6,51,38877,1,0,3:2:0:0:
131,183,39052,1,2,2:3:0:0:
131,183,39400,5,2,3:2:0:0:
208,120,39575,2,0,P|213:162|223:283,1,135,2|2,2:0|2:0,0:0:0:0:
299,144,40098,2,0,P|303:105|308:71,1,67.5000000000002,10|0,2:0|0:0,0:0:0:0:
366,197,40447,1,2,2:0:0:0:
512,80,40621,6,0,P|477:69|397:125,1,135,2|0,2:0|0:0,0:0:0:0:
444,258,41145,1,0,3:2:0:0:
444,258,41493,5,8,2:0:0:0:
323,309,41668,2,0,P|363:315|421:325,1,67.5000000000002,2|0,3:2|0:0,0:0:0:0:
272,374,42017,1,2,2:0:0:0:
216,152,42191,6,0,P|226:207|243:314,1,135,2|0,3:2|3:2,0:0:0:0:
83,374,42889,1,8,2:0:0:0:
142,219,43238,5,2,2:0:0:0:
142,219,43412,2,0,P|132:253|40:286,1,135,2|0,2:0|0:0,0:0:0:0:
75,164,43935,2,0,P|68:121|63:86,1,67.5000000000002,0|0,3:2|0:0,0:0:0:0:
11,211,44284,1,8,2:0:0:0:
11,211,44459,1,0,0:0:0:0:
157,102,44633,2,0,P|213:110|238:114,1,67.5000000000002,2|0,2:0|3:2,0:0:0:0:
279,208,44982,5,2,3:2:0:0:
408,286,45156,1,2,2:0:0:0:
452,193,45331,2,0,P|407:199|363:207,1,67.5000000000002,2|2,3:2|2:0,0:0:0:0:
320,303,45679,1,10,2:0:0:0:
308,81,45854,2,0,P|301:154|293:220,1,135,2|2,2:0|2:0,0:0:0:0:
397,111,46377,5,0,3:2:0:0:
210,173,46726,1,0,3:2:0:0:
210,173,47075,2,0,P|188:135|92:128,1,135,10|0,2:0|0:0,0:0:0:0:
136,219,47598,1,2,2:0:0:0:
136,219,47773,6,0,P|125:277|110:367,1,135,0|0,3:2|3:2,0:0:0:0:
120,367,48470,1,8,2:0:0:0:
199,321,48819,6,0,P|243:313|280:312,1,67.5000000000002
344,372,49168,1,0,3:2:0:0:
338,98,49517,5,0,3:2:0:0:
332,109,49691,1,8,3:0:0:0:
453,223,49866,1,8,2:0:0:0:
141,200,50040,2,0,P|169:164|258:160,1,135,4|0,3:2|0:0,0:0:0:0:
430,350,50563,5,6,2:0:0:0:
221,250,50733,2,0,P|214:300|208:333,1,67.5000025749208,2|2,2:0|2:0,0:0:0:0:
134,348,55080,5,8,2:0:0:0:
134,348,55450,5,8,2:0:0:0:
208,113,55628,1,0,3:2:0:0:
293,199,55807,1,0,3:2:0:0:
200,271,55985,1,0,3:2:0:0:
448,90,56142,5,14,3:2:0:0:
448,90,56316,2,0,P|442:132|427:246,1,135,2|0,2:0|0:0,0:0:0:0:
441,234,56665,1,2,2:0:0:0:
348,112,56839,2,0,P|333:56|223:20,1,153.000000000001,10|2,2:0|2:0,0:0:0:0:
150,158,57362,1,2,2:0:0:0:
232,107,57537,6,0,P|240:146|245:201,2,76.5000000000003,0|0|0,0:0|0:0|3:2,0:0:0:0:
330,192,58060,1,0,0:0:0:0:
151,66,58235,1,8,2:0:0:0:
151,66,58409,2,0,P|68:75|-11:87,1,153.000000000001,2|2,3:2|2:0,0:0:0:0:
41,300,58932,6,0,P|45:243|98:198,1,114.75,2|0,3:2|0:0,0:0:0:0:
77,187,59281,2,0,P|115:169|165:185,1,76.5000000000003,0|0,3:2|0:0,0:0:0:0:
236,380,59630,2,0,P|229:330|212:201,1,153.000000000001,8|2,2:0|3:2,0:0:0:0:
137,283,60153,1,2,3:2:0:0:
319,291,60328,6,0,P|372:303|407:311,2,76.5000000000003,0|0|0,3:2|0:0|3:2,0:0:0:0:
484,40,61025,1,8,2:0:0:0:
339,202,61374,1,2,2:0:0:0:
339,202,61548,2,0,P|392:214|427:222,1,76.5000000000003,2|0,2:0|3:2,0:0:0:0:
484,169,61897,1,2,2:0:0:0:
488,294,62072,2,0,P|435:306|400:314,1,76.5000000000003,2|2,3:2|2:0,0:0:0:0:
399,115,62421,2,0,P|383:71|277:50,1,153.000000000001,10|2,2:0|2:0,0:0:0:0:
246,130,62944,1,2,2:0:0:0:
15,101,63118,6,0,P|73:94|149:85,1,114.75,0|0,3:2|0:0,0:0:0:0:
121,65,63467,2,0,P|163:59|199:55,1,76.5000000000003,0|0,3:2|0:0,0:0:0:0:
118,273,63816,6,0,P|111:316|103:359,1,76.5000000000003,10|0,2:0|3:2,0:0:0:0:
54,221,64165,1,2,3:2:0:0:
195,338,64339,1,2,3:2:0:0:
195,338,64514,6,0,P|239:333|279:328,1,76.5000000000003,0|2,3:2|3:2,0:0:0:0:
324,134,64862,2,0,P|258:143|230:234,1,153.000000000001,2|8,3:2|2:0,0:0:0:0:
349,50,65560,2,0,P|396:44|431:39,1,76.5000000000003
272,9,65909,5,0,0:0:0:0:
272,9,66083,1,0,0:0:0:0:
392,281,66258,2,0,P|400:237|425:120,1,153.000000000001,0|8,3:2|2:0,0:0:0:0:
480,321,66781,1,0,3:2:0:0:
325,146,66955,2,0,P|267:154|230:157,1,76.5000000000003,0|8,3:2|2:0,0:0:0:0:
58,348,67304,5,6,3:2:0:0:
58,348,67479,2,0,P|69:300|85:211,1,114.75,2|0,2:0|0:0,0:0:0:0:
68,222,67828,1,2,2:0:0:0:
173,363,68002,2,0,P|222:363|280:283,1,153.000000000001,10|2,2:0|2:0,0:0:0:0:
171,184,68525,2,0,P|183:237|190:283,1,76.5000000000003,2|0,3:2|3:2,0:0:0:0:
241,136,68874,5,0,3:2:0:0:
241,136,69048,2,0,P|252:64|272:-20,1,153.000000000001,0|8,3:2|2:0,0:0:0:0:
166,79,69572,1,2,3:2:0:0:
166,79,69746,2,0,P|110:67|66:62,1,76.5000000000003,2|0,2:0|3:2,0:0:0:0:
224,204,70095,6,0,P|262:139|334:120,1,153.000000000001,2|0,3:2|3:2,0:0:0:0:
438,208,70618,1,0,0:0:0:0:
382,361,70793,2,0,P|369:298|351:188,1,153.000000000001,8|2,2:0|3:2,0:0:0:0:
433,125,71316,1,2,3:2:0:0:
337,294,71490,6,0,P|293:285|248:277,1,76.5000000000003,0|0,3:2|0:0,0:0:0:0:
117,194,71839,2,0,P|173:187|255:179,1,114.75,2|0,3:2|0:0,0:0:0:0:
241,190,72188,5,8,2:0:0:0:
185,279,72362,1,0,0:0:0:0:
141,98,72537,2,0,P|110:62|71:62,1,76.5000000000003,2|2,3:2|3:2,0:0:0:0:
318,121,72886,5,0,3:2:0:0:
407,173,73060,1,2,2:0:0:0:
248,193,73235,1,2,3:2:0:0:
248,193,73409,1,2,2:0:0:0:
509,197,73583,2,0,P|498:124|433:90,1,153.000000000001,10|2,2:0|2:0,0:0:0:0:
360,272,74107,1,2,2:0:0:0:
360,272,74281,6,0,P|405:265|442:261,1,76.5000000000003,0|0,3:2|0:0,0:0:0:0:
413,356,74630,2,0,P|458:349|495:345,1,76.5000000000003,0|0,3:2|0:0,0:0:0:0:
235,330,74979,2,0,P|189:321|70:307,1,153.000000000001,10|2,2:0|2:0,0:0:0:0:
340,255,75502,1,2,3:2:0:0:
340,255,75676,6,0,P|330:300|322:338,1,76.5000000000003,0|2,3:2|2:0,0:0:0:0:
241,226,76025,2,0,P|227:180|170:171,1,76.5000000000003,2|0,3:2|0:0,0:0:0:0:
474,120,76374,6,0,P|418:129|292:155,1,153.000000000001,8|0,2:0|0:0,0:0:0:0:
480,210,76897,1,8,2:0:0:0:
251,94,77072,6,0,P|260:44|273:1,1,76.5000000000003,0|0,3:2|0:0,0:0:0:0:
96,205,77421,2,0,P|105:241|111:279,1,76.5000000000003,0|0,3:2|0:0,0:0:0:0:
23,132,77769,5,8,2:0:0:0:
149,106,77940,1,0,3:2:0:0:
249,259,78111,5,8,2:0:0:0:
95,26,78283,1,8,2:0:0:0:
427,149,78454,5,4,3:2:0:0:
427,149,78796,1,0,0:0:0:0:
427,149,79165,2,0,P|422:185|413:267,1,108,10|2,2:0|2:0,0:0:0:0:
276,126,79863,5,2,3:2:0:0:
276,126,80211,1,2,3:2:0:0:
276,126,80560,2,0,P|271:162|262:244,1,108,10|2,2:0|2:0,0:0:0:0:
117,102,81258,5,2,3:2:0:0:
117,102,81607,1,2,3:2:0:0:
117,102,81956,2,0,P|112:138|103:220,1,108,10|2,2:0|2:0,0:0:0:0:
372,77,82653,6,0,P|330:68|287:60,1,67.5000000000002,0|0,3:2|0:0,0:0:0:0:
418,174,83002,2,0,P|460:165|503:157,1,67.5000000000002,6|0,3:2|0:0,0:0:0:0:
353,369,83351,2,0,P|345:327|311:150,1,202.5,8|2,2:0|3:2,0:0:0:0:
437,361,84049,5,14,2:0:0:0:
437,361,84397,1,0,3:1:0:0:
194,138,84746,6,0,P|202:199|210:295,1,135,4|0,3:2|0:0,0:0:0:0:
291,165,85095,2,0,P|296:113|303:65,1,90,0|0,3:2|0:0,0:0:0:0:
134,369,85444,6,0,P|70:374|-44:385,1,135,0|0,3:2|0:0,0:0:0:0:
110,264,85793,2,0,P|170:273|213:281,1,90,0|0,3:2|0:0,0:0:0:0:
0,54,86142,6,0,P|8:102|26:213,1,135,0|0,3:2|0:0,0:0:0:0:
144,89,86490,2,0,P|148:41|156:-5,1,90,0|0,3:2|0:0,0:0:0:0:
394,151,86839,6,0,P|333:157|237:174,1,135,8|0,3:2|0:0,0:0:0:0:
504,359,87188,2,0,P|494:305|482:249,1,99,8|0,3:2|0:0,0:0:0:0:
113,345,87537,6,0,P|171:335|270:322,1,148.5,8|0,3:2|0:0,0:0:0:0:
25,118,87886,2,0,P|35:172|47:228,1,99,8|0,3:2|0:0,0:0:0:0:
495,84,88235,6,0,P|461:22|347:6,1,175.5,8|0,3:2|0:0,0:0:0:0:
267,168,88583,2,0,P|301:230|415:246,1,175.5,8|0,3:2|0:0,0:0:0:0:
425,172,88932,5,0,3:0:0:0:
87,311,89107,1,8,3:2:0:0:
210,19,89281,5,8,3:2:0:0:
146,203,89456,1,0,3:0:0:0:
488,21,89630,5,4,3:0:0:0:
488,21,89979,1,4,3:0:0:0:
488,21,92072,6,0,L|484:60,1,36,2|2,2:0|2:0,0:0:0:0:
488,21,92769,2,0,L|484:60,1,36,2|2,2:0|2:0,0:0:0:0:
488,21,93467,2,0,L|484:60,1,36,2|2,2:0|2:0,0:0:0:0:
44,381,94160,6,0,P|35:312|19:187,1,180,12|8,2:0|2:0,0:0:0:0:
102,108,94683,1,0,3:0:0:0:
198,153,94857,1,0,3:0:0:0:
164,230,95032,1,0,3:0:0:0:
456,88,95206,6,0,P|426:34|296:17,1,162,4|0,3:2|0:0,0:0:0:0:
278,69,95554,2,0,P|289:132|295:188,1,108,0|0,3:2|0:0,0:0:0:0:
25,87,95903,6,0,P|35:171|172:217,1,216,10|2,2:0|3:2,0:0:0:0:
117,91,96426,1,0,3:2:0:0:
0,268,96601,6,0,P|9:328|15:375,1,108,2|8,3:2|2:0,0:0:0:0:
93,286,96950,2,0,P|129:227|183:227,1,108,2|0,3:2|0:0,0:0:0:0:
410,362,97299,2,0,P|345:350|162:331,1,216,10|2,2:0|3:2,0:0:0:0:
115,373,97822,1,0,0:0:0:0:
262,83,97996,6,0,P|274:145|290:255,1,162,2|0,3:2|0:0,0:0:0:0:
304,257,98345,2,0,P|343:257|378:193,1,108,0|2,3:2|2:0,0:0:0:0:
190,309,98694,1,10,2:0:0:0:
166,73,98868,2,0,P|225:82|284:94,1,108,2|0,3:2|3:2,0:0:0:0:
203,175,99217,1,2,3:2:0:0:
31,15,99392,5,0,3:2:0:0:
73,240,99566,1,8,2:0:0:0:
106,146,99740,2,0,P|47:155|-12:167,1,108,0|0,3:2|0:0,0:0:0:0:
162,317,100089,5,10,2:0:0:0:
270,81,100264,2,0,P|331:102|335:152,1,108,0|0,2:0|3:2,0:0:0:0:
203,158,100612,1,2,3:2:0:0:
454,315,100787,6,0,P|461:234|487:0,2,270,6|0|8,3:2|3:2|2:0,0:0:0:0:
195,116,101833,2,0,P|172:63|114:55,1,108,2|2,3:2|2:0,0:0:0:0:
112,161,102182,5,0,3:2:0:0:
287,71,102357,1,8,2:0:0:0:
106,146,102531,2,0,P|38:133|-17:126,1,108,0|0,3:2|0:0,0:0:0:0:
113,338,102880,2,0,P|125:283|241:249,1,162,8|0,2:0|0:0,0:0:0:0:
272,301,103229,2,0,P|326:293|407:283,1,108,2|0,3:2|0:0,0:0:0:0:
206,19,103578,6,0,P|242:93|370:123,1,216,2|0,3:2|3:2,0:0:0:0:
329,38,104101,1,0,0:0:0:0:
144,135,104275,2,0,P|156:196|162:272,1,108,8|0,2:0|0:0,0:0:0:0:
101,316,104624,1,0,3:2:0:0:
101,316,104799,1,0,3:2:0:0:
266,243,104973,5,2,3:2:0:0:
54,105,105147,1,8,2:0:0:0:
232,137,105322,2,0,P|231:78|135:23,1,162,0|0,3:2|0:0,0:0:0:0:
138,36,105671,1,8,2:0:0:0:
337,143,105845,2,0,P|403:131|459:124,1,108,0|0,3:2|3:2,0:0:0:0:
318,51,106194,1,8,2:0:0:0:
349,362,106368,6,0,P|259:347|98:327,1,216,4|0,3:2|3:2,0:0:0:0:
344,202,107066,2,0,P|363:260|427:273,1,108,10|0,2:0|0:0,0:0:0:0:
441,202,107415,1,2,3:2:0:0:
441,202,107589,1,0,0:0:0:0:
243,245,107764,6,0,P|253:187|263:134,1,108,2|8,3:2|2:0,0:0:0:0:
333,2,108112,2,0,P|342:55|352:108,1,108,2|0,3:2|0:0,0:0:0:0:
154,159,108461,6,0,P|134:59|27:16,1,216,10|2,2:0|3:2,0:0:0:0:
209,13,108985,1,0,3:2:0:0:
43,116,109159,6,0,P|54:199|72:371,1,216,2|0,3:2|3:2,0:0:0:0:
0,384,109682,1,2,2:0:0:0:
158,221,109857,1,10,2:0:0:0:
158,221,110031,2,0,P|233:237|266:361,1,216,2|2,2:0|2:0,0:0:0:0:
184,323,110554,5,0,3:2:0:0:
393,238,110729,1,8,2:0:0:0:
333,157,110903,2,0,P|267:147|212:143,1,108,0|0,3:2|0:0,0:0:0:0:
386,253,111252,1,10,2:0:0:0:
332,65,111426,2,0,P|371:17|438:24,1,108,2|0,2:0|3:2,0:0:0:0:
415,106,111775,1,8,2:0:0:0:
229,37,111950,6,0,P|121:47|14:62,1,216,6|2,3:2|3:2,0:0:0:0:
117,143,112473,1,2,2:0:0:0:
117,143,112647,2,0,P|108:204|103:254,1,108,8|0,2:0|0:0,0:0:0:0:
31,150,112996,1,0,3:2:0:0:
31,150,113171,1,0,0:0:0:0:
202,197,113345,6,0,P|260:204|334:213,2,108,0|8|0,3:2|2:0|3:2,0:0:0:0:
194,326,114043,6,0,P|196:255|323:205,1,216,8|0,2:0|3:2,0:0:0:0:
299,296,114566,1,8,2:0:0:0:
437,58,114740,6,0,P|372:63|240:71,1,162,4|0,3:2|0:0,0:0:0:0:
205,24,115089,2,0,P|141:14|77:7,1,108,0|0,3:2|0:0,0:0:0:0:
38,243,115438,2,0,P|45:164|180:116,1,216,8|0,2:0|3:2,0:0:0:0:
63,331,115961,1,10,2:0:0:0:
135,210,116136,6,0,P|146:277|154:326,1,108,0|0,3:2|0:0,0:0:0:0:
224,168,116485,2,0,P|235:235|243:284,1,108,0|2,3:2|2:0,0:0:0:0:
403,359,116833,6,0,P|411:249|424:133,1,216,8|2,2:0|3:2,0:0:0:0:
490,44,117357,1,8,2:0:0:0:
490,44,117444,1,8,2:0:0:0:
490,44,117531,5,8,2:0:0:0:
331,131,117695,1,0,3:2:0:0:
226,59,117869,1,0,3:2:0:0:
369,23,118043,1,0,3:2:0:0:
66,372,118226,6,0,P|63:336|61:321,1,36,12|0,1:2|0:0,0:0:0:0:
199,154,118574,6,0,P|117:139|66:130,1,99,2|2,2:0|2:0,0:0:0:0:
215,253,118923,1,10,1:2:0:0:
311,221,119097,1,2,3:2:0:0:
410,190,119271,1,0,3:2:0:0:
279,36,119446,2,0,P|290:92|301:143,1,99,2|10,2:0|1:2,0:0:0:0:
458,350,119795,1,2,3:2:0:0:
391,98,119969,6,0,P|408:33|507:17,1,148.5,2|0,3:2|0:0,0:0:0:0:
487,25,120318,5,0,1:2:0:0:
487,130,120492,1,0,0:0:0:0:
280,22,120667,2,0,P|220:27|90:42,1,148.5,0|0,3:2|0:0,0:0:0:0:
43,69,121016,6,0,P|108:63|155:145,1,148.5,8|0,1:2|0:0,0:0:0:0:
144,141,121364,2,0,P|138:190|131:239,1,99,0|0,3:2|0:0,0:0:0:0:
492,374,121713,6,0,P|499:319|506:258,1,99,2|2,1:2|2:0,0:0:0:0:
432,143,122062,1,2,3:2:0:0:
409,115,122237,1,2,2:0:0:0:
341,108,122411,1,10,1:2:0:0:
267,150,122585,1,2,3:2:0:0:
197,228,122760,1,0,3:2:0:0:
91,243,122934,1,2,3:2:0:0:
22,62,123109,6,0,P|84:51|197:37,1,148.5,2|0,1:2|0:0,0:0:0:0:
174,15,123457,2,0,P|227:23|284:32,1,99,2|0,3:2|0:0,0:0:0:0:
94,298,123806,6,0,P|119:224|198:203,1,148.5,8|0,1:2|0:0,0:0:0:0:
197,211,124155,2,0,P|187:277|180:330,1,99,2|2,2:0|3:2,0:0:0:0:
321,243,124504,5,2,1:2:0:0:
291,148,124678,1,2,3:2:0:0:
261,41,124853,1,2,3:2:0:0:
475,132,125027,2,0,P|422:121|356:109,1,99,2|10,2:0|1:2,0:0:0:0:
431,224,125376,1,2,3:2:0:0:
431,224,125550,2,0,P|421:277|412:329,1,99,0|0,3:2|3:2,0:0:0:0:
318,357,125899,5,0,1:2:0:0:
318,357,126074,1,0,0:0:0:0:
512,296,126248,1,0,3:2:0:0:
171,35,126597,6,0,P|119:42|45:171,1,198,8|0,1:2|3:2,0:0:0:0:
175,246,127120,1,8,2:0:0:0:
162,139,127295,5,0,1:2:0:0:
162,139,127469,1,8,2:0:0:0:
255,371,127643,6,0,P|260:313|283:181,1,148.5,4|0,3:2|0:0,0:0:0:0:
295,209,127992,5,10,1:2:0:0:
452,120,128167,1,6,3:2:0:0:
512,217,128341,1,2,2:0:0:0:
280,96,128515,1,2,3:2:0:0:
280,96,128603,1,0,0:0:0:0:
280,96,128690,5,8,2:0:0:0:
210,169,128864,1,0,3:2:0:0:
124,135,129039,1,0,3:2:0:0:
125,106,129213,1,0,3:2:0:0:
12,370,129388,5,12,1:2:0:0:
12,370,129736,6,0,P|22:303|33:254,1,99,2|2,2:0|2:0,0:0:0:0:
104,65,130085,1,10,1:2:0:0:
128,175,130260,1,2,3:2:0:0:
156,286,130434,1,2,3:2:0:0:
305,125,130609,2,0,P|252:118|197:113,1,99,2|10,2:0|1:2,0:0:0:0:
32,171,130957,1,2,3:2:0:0:
297,34,131132,6,0,P|353:21|463:6,1,148.5,2|0,2:0|0:0,0:0:0:0:
455,17,131481,1,2,1:2:0:0:
402,100,131655,1,2,2:0:0:0:
512,190,131829,1,2,3:2:0:0:
488,105,132004,1,2,2:0:0:0:
213,121,132178,1,8,1:2:0:0:
206,216,132353,2,0,P|143:203|89:196,1,99,2|0,2:0|2:0,0:0:0:0:
141,284,132702,1,0,3:2:0:0:
205,103,132876,6,0,P|230:48|335:38,1,148.5,2|2,1:2|2:0,0:0:0:0:
319,40,133225,2,0,P|325:95|331:162,1,99,2|0,3:2|2:0,0:0:0:0:
269,195,133486,1,2,2:0:0:0:
269,195,133574,2,0,P|263:250|257:317,1,99,10|2,3:2|3:2,0:0:0:0:
410,373,133922,1,2,3:2:0:0:
470,284,134097,1,2,3:2:0:0:
233,384,134271,6,0,P|181:368|149:226,1,198,0|2,1:2|3:2,0:0:0:0:
185,157,134795,1,2,3:2:0:0:
21,133,134969,2,0,P|34:194|47:259,1,99,8|2,1:2|2:0,0:0:0:0:
286,52,135318,6,0,P|225:39|160:26,1,99,2|2,2:0|2:0,0:0:0:0:
290,190,135680,1,2,1:2:0:0:
402,156,135854,1,10,2:0:0:0:
506,126,136028,1,2,3:2:0:0:
355,342,136191,2,0,P|363:272|368:221,1,99,2|10,2:0|1:2,0:0:0:0:
448,301,136539,1,2,3:2:0:0:
448,301,136714,1,0,0:0:0:0:
173,85,137063,5,2,1:2:0:0:
102,142,137237,1,2,2:0:0:0:
243,166,137411,1,2,3:2:0:0:
273,21,137586,1,2,2:0:0:0:
154,252,137760,6,0,P|168:309|174:367,1,99,10|0,1:2|0:0,0:0:0:0:
0,158,138109,2,0,P|6:108|18:61,1,99,2|0,3:2|0:0,0:0:0:0:
261,273,138458,5,2,1:2:0:0:
104,164,138632,2,0,P|110:114|122:67,1,99,2|6,2:0|3:2,0:0:0:0:
200,139,138981,1,0,0:0:0:0:
263,371,139156,6,0,P|269:321|301:162,2,198,2|2|4,1:2|2:0|3:2,0:0:0:0:
237,142,149446,5,0,0:0:0:0:
264,221,149635,1,0,3:2:0:0:
130,123,149978,6,0,P|133:84|141:-8,1,121.5,12|0,2:0|3:2,0:0:0:0:
235,41,150675,1,8,2:0:0:0:
33,131,150850,1,8,2:0:0:0:
105,194,151024,5,2,1:2:0:0:
48,372,151198,2,0,P|41:325|18:214,1,153.000000000001,2|2,2:0|2:0,0:0:0:0:
174,259,151721,2,0,P|140:279|134:320,1,76.5000000000003,8|0,1:2|0:0,0:0:0:0:
194,368,152070,1,2,3:2:0:0:
194,368,152244,1,2,3:2:0:0:
280,250,152419,5,0,1:2:0:0:
238,156,152593,1,8,2:0:0:0:
285,260,152768,2,0,P|339:253|453:245,1,153.000000000001,0|8,3:2|1:2,0:0:0:0:
496,309,153291,1,2,2:0:0:0:
496,309,153465,2,0,P|487:350|481:390,1,76.5000000000003,0|2,0:0|3:2,0:0:0:0:
401,163,153814,6,0,P|390:119|355:-14,1,153.000000000001,2|0,1:2|3:2,0:0:0:0:
463,44,154337,1,0,0:0:0:0:
295,106,154512,2,0,P|252:100|211:96,1,76.5000000000003,8|0,1:2|0:0,0:0:0:0:
248,182,154861,1,2,3:2:0:0:
117,19,155035,1,2,3:2:0:0:
117,19,155210,6,0,P|160:13|201:9,1,76.5000000000003,0|8,1:2|2:0,0:0:0:0:
155,197,155558,2,0,P|143:141|53:101,1,153.000000000001,0|8,3:2|1:2,0:0:0:0:
55,108,156256,6,0,P|48:148|42:187,1,76.5000000000003,2|2,3:2|3:2,0:0:0:0:
210,368,156605,2,0,P|204:330|197:292,1,76.5000000000003,6|2,3:2|2:0,0:0:0:0:
112,342,156954,2,0,P|106:304|99:266,1,76.5000000000003,2|2,3:2|2:0,0:0:0:0:
346,200,157303,6,0,P|297:193|253:184,1,76.5000000000003,10|2,1:2|2:0,0:0:0:0:
381,280,157651,1,2,3:2:0:0:
426,84,157826,2,0,P|420:42|415:3,2,76.5000000000003,2|0|0,1:2|3:2|0:0,0:0:0:0:
504,27,158349,1,0,3:2:0:0:
257,65,158698,6,0,P|202:75|155:83,1,76.5000000000003,10|2,1:2|2:0,0:0:0:0:
323,3,159047,1,2,3:2:0:0:
287,178,159221,2,0,P|281:215|275:253,2,76.5000000000003,10|2|2,1:2|3:2|2:0,0:0:0:0:
346,326,159744,1,0,3:2:0:0:
173,256,160093,6,0,P|129:250|6:238,1,153.000000000001,8|0,1:2|3:2,0:0:0:0:
178,364,160617,1,8,1:2:0:0:
178,364,160791,6,0,P|221:355|262:350,1,76.5000000000003,0|0,3:2|0:0,0:0:0:0:
318,277,161140,2,0,P|361:281|402:289,1,76.5000000000003,0|0,3:2|0:0,0:0:0:0:
476,192,161489,1,8,2:0:0:0:
422,101,161663,1,0,3:2:0:0:
295,179,161837,5,8,2:0:0:0:
503,282,162012,1,8,2:0:0:0:
309,78,162186,5,4,3:2:0:0:
309,78,162535,1,2,3:2:0:0:
309,78,162884,2,0,P|357:81|433:89,1,108,10|2,2:0|2:0,0:0:0:0:
169,166,163582,5,2,3:2:0:0:
169,166,163930,1,2,3:2:0:0:
169,166,164279,2,0,P|217:169|293:177,1,108,10|2,2:0|2:0,0:0:0:0:
23,283,164977,5,2,3:2:0:0:
23,283,165326,1,2,3:2:0:0:
23,283,165675,2,0,P|71:286|147:294,1,108,10|2,2:0|2:0,0:0:0:0:
292,85,166372,6,0,P|270:46|228:40,1,67.5000000000002,0|0,3:2|0:0,0:0:0:0:
174,177,166721,2,0,P|203:161|215:130,1,67.5000000000002,0|0,3:2|3:2,0:0:0:0:
146,0,167070,2,0,P|152:36|167:224,1,202.5,8|2,2:0|3:2,0:0:0:0:
15,380,167768,5,14,2:0:0:0:
258,31,168117,2,0,P|312:39|371:49,1,90,0|0,3:1|3:2,0:0:0:0:
401,265,168465,6,0,P|394:207|384:154,1,90,4|0,3:2|0:0,0:0:0:0:
488,283,168814,2,0,P|481:225|471:172,1,90,0|0,3:2|0:0,0:0:0:0:
215,325,169163,6,0,P|208:267|198:214,1,90,0|0,3:2|0:0,0:0:0:0:
302,343,169512,2,0,P|295:285|285:232,1,90,0|0,3:2|0:0,0:0:0:0:
15,223,169861,6,0,P|8:165|-2:112,1,90,0|0,3:2|0:0,0:0:0:0:
102,241,170210,2,0,P|95:183|85:130,1,90,0|0,3:2|0:0,0:0:0:0:
486,63,170558,6,0,P|476:131|462:240,1,148.5,8|0,3:2|0:0,0:0:0:0:
400,27,170907,2,0,P|390:95|376:204,1,148.5,8|0,3:2|0:0,0:0:0:0:
291,342,171256,6,0,P|281:274|267:165,1,148.5,8|0,3:2|0:0,0:0:0:0:
205,378,171605,2,0,P|195:310|181:201,1,148.5,8|0,3:2|0:0,0:0:0:0:
130,0,171954,6,0,P|39:24|12:160,1,202.5,8|0,3:2|0:0,0:0:0:0:
104,214,172303,2,0,P|195:190|222:54,1,202.5,8|0,3:2|0:0,0:0:0:0:
130,88,172651,5,0,3:0:0:0:
374,331,172826,1,8,3:2:0:0:
172,325,173000,5,8,3:2:0:0:
326,235,173175,1,0,3:0:0:0:
0,269,173349,5,4,3:0:0:0:
0,269,173698,1,4,3:0:0:0:
122,286,175093,6,2,P|85:232|11:245,1,144,2|0,2:0|2:0,2:0:0:0:
0,269,176837,6,2,B|150:238|150:238|167:252|167:252|263:269|263:269|366:220|366:220|465:219,1,450,0|0,2:0|2:0,1:0:0:0:
245,174,177892,1,6,2:0:0:0:
245,174,177979,1,2,2:0:0:0:
245,174,178066,1,2,2:0:0:0:
399,308,178246,1,10,3:2:0:0:
421,312,178344,1,8,3:2:0:0:
443,317,178443,2,0,L|455:372,1,45,8|10,3:2|3:2,0:0:0:0:
451,231,178629,5,8,3:2:0:0:
457,186,178704,1,10,3:2:0:0:
463,141,178780,1,8,3:2:0:0:
469,97,178856,1,10,3:2:0:0:
451,52,178929,6,0,L|520:38,2,60,14|2|2,3:2|2:0|2:0,0:0:0:0:
375,89,179277,6,0,P|308:80|257:75,1,90,2|2,3:2|2:0,0:0:0:0:
36,285,179626,2,0,P|68:215|186:194,1,180,10|2,2:0|3:2,0:0:0:0:
32,135,180149,1,2,2:0:0:0:
124,283,180324,6,0,P|174:275|233:270,1,90,0|8,3:2|2:0,0:0:0:0:
87,362,180673,1,2,3:2:0:0:
384,52,181022,2,0,P|374:98|354:259,1,180,8|0,2:0|0:0,0:0:0:0:
404,304,181545,1,2,3:2:0:0:
404,304,181632,1,2,2:0:0:0:
404,304,181719,5,2,3:2:0:0:
479,151,181894,1,2,2:0:0:0:
283,75,182068,1,2,3:2:0:0:
336,166,182242,1,2,2:0:0:0:
91,147,182417,1,10,2:0:0:0:
190,109,182591,1,2,2:0:0:0:
240,179,182766,1,2,2:0:0:0:
221,207,182940,1,2,2:0:0:0:
386,111,183115,6,0,P|433:118|484:126,2,90,2|10|2,3:2|2:0|3:2,0:0:0:0:
221,207,183638,1,2,2:0:0:0:
371,316,183812,1,10,2:0:0:0:
364,227,183987,1,2,2:0:0:0:
243,355,184161,1,2,3:2:0:0:
83,310,184335,1,2,2:0:0:0:
171,67,184510,6,0,P|180:116|199:259,1,180,6|2,3:2|3:2,0:0:0:0:
94,292,185033,1,2,2:0:0:0:
284,105,185208,1,10,2:0:0:0:
284,105,185295,1,2,2:0:0:0:
284,105,185382,1,2,2:0:0:0:
343,166,185556,1,2,3:2:0:0:
493,113,185731,1,2,2:0:0:0:
451,301,185905,6,0,P|442:255|432:198,1,90,2|8,3:2|2:0,0:0:0:0:
351,328,186254,1,2,3:2:0:0:
287,281,186429,1,2,2:0:0:0:
73,384,186603,2,0,P|122:373|262:355,1,180,8|0,2:0|0:0,0:0:0:0:
101,281,187126,2,0,P|50:269|-11:258,1,90,0|0,0:0|3:2,0:0:0:0:
153,53,187475,6,0,P|162:106|180:232,1,180,2|2,2:0|2:0,0:0:0:0:
410,69,187998,1,10,2:0:0:0:
297,16,188173,1,2,2:0:0:0:
334,130,188347,1,2,3:2:0:0:
284,199,188522,1,2,2:0:0:0:
128,44,188696,6,0,P|69:49|33:57,2,90,2|8|2,3:2|2:0|3:2,0:0:0:0:
277,212,189219,1,2,2:0:0:0:
286,368,189394,1,10,2:0:0:0:
441,207,189583,1,2,3:2:0:0:
246,82,189757,1,2,3:2:0:0:
209,160,189931,1,10,2:0:0:0:
0,244,190106,6,0,P|52:234|153:224,1,135,6|0,3:2|0:0,0:0:0:0:
201,172,190454,2,0,P|271:184|311:193,1,90,2|0,3:2|0:0,0:0:0:0:
196,285,190797,1,8,2:0:0:0:
150,68,190971,2,0,P|126:23|57:15,1,90,2|0,2:0|0:0,0:0:0:0:
80,123,191320,1,2,2:0:0:0:
296,27,191494,6,0,P|348:16|401:15,2,90,0|8|2,3:2|2:0|3:2,0:0:0:0:
238,94,192017,1,2,2:0:0:0:
506,42,192191,2,0,P|489:97|464:229,1,180,8|2,2:0|3:2,0:0:0:0:
493,304,192714,1,2,3:2:0:0:
253,161,192889,6,0,P|191:170|68:186,2,180,0|0|8,3:2|3:2|2:0,0:0:0:0:
291,85,193761,1,2,2:0:0:0:
144,204,193935,2,0,P|156:259|162:309,1,90,2|2,2:0|2:0,0:0:0:0:
0,245,194284,5,2,3:2:0:0:
45,34,194459,1,8,2:0:0:0:
45,34,194546,1,2,2:0:0:0:
45,34,194633,1,2,3:2:0:0:
151,186,194807,1,2,2:0:0:0:
12,115,194982,2,0,P|66:123|113:130,1,90,8|0,2:0|0:0,0:0:0:0:
281,65,195331,1,2,3:2:0:0:
421,114,195505,1,2,3:2:0:0:
314,294,195680,5,6,3:2:0:0:
238,333,195854,1,2,2:0:0:0:
119,275,196028,5,2,3:2:0:0:
121,113,196259,5,2,2:0:0:0:
287,43,196507,5,2,2:0:0:0:
450,296,196753,5,2,2:0:0:0:
106,384,197009,5,2,2:0:0:0:
364,73,197247,6,0,P|381:122|393:173,1,90,10|2,2:0|3:2,0:0:0:0:
334,240,197595,1,2,2:0:0:0:
163,51,197769,1,10,2:0:0:0:
163,51,197857,1,2,2:0:0:0:
163,51,197944,1,2,2:0:0:0:
99,119,198118,1,2,2:0:0:0:
245,85,198293,1,2,2:0:0:0:
112,240,198466,5,2,3:2:0:0:
112,240,198553,1,2,2:0:0:0:
112,240,198640,1,2,2:0:0:0:
188,290,198814,1,2,3:2:0:0:
166,365,198989,1,2,2:0:0:0:
315,269,199163,1,10,2:0:0:0:
255,89,199338,1,2,2:0:0:0:
196,163,199512,1,2,3:2:0:0:
280,197,199686,1,2,2:0:0:0:
471,27,199861,5,8,2:0:0:0:
471,27,200210,2,0,P|460:78|452:122,1,90,0|0,3:2|0:0,0:0:0:0:
403,338,200559,5,8,2:0:0:0:
362,157,200733,1,10,2:0:0:0:
248,346,200907,5,10,2:0:0:0:
282,87,201082,1,10,2:0:0:0:
67,330,201247,5,4,1:2:0:0:
67,330,201421,6,0,P|125:317|168:312,1,90,2|2,3:2|3:2,0:0:0:0:
377,206,201770,2,0,P|332:199|288:189,1,90,2|4,2:0|1:2,0:0:0:0:
187,109,202119,1,2,3:2:0:0:
254,27,202293,1,2,2:0:0:0:
370,300,202467,2,0,P|356:349|347:398,1,90,10|0,2:0|1:2,0:0:0:0:
495,109,202816,6,0,P|483:32|371:17,1,175.499991966248,2|0,2:0|0:0,0:0:0:0:
340,70,203165,2,0,P|295:77|251:85,1,90,2|0,2:0|1:2,0:0:0:0:
180,164,203524,1,2,3:2:0:0:
180,164,203698,1,0,0:0:0:0:
32,90,203872,1,10,2:0:0:0:
331,127,204039,6,0,P|321:209|316:254,1,116.999994644165,0|0,1:2|0:0,0:0:0:0:
397,321,204401,1,2,3:2:0:0:
397,321,204488,1,2,2:0:0:0:
397,321,204575,1,2,2:0:0:0:
0,278,204749,6,0,P|48:290|145:310,1,116.999994644165,2|0,1:2|0:0,0:0:0:0:
185,384,205098,1,2,3:2:0:0:
185,384,205185,1,2,2:0:0:0:
185,384,205273,1,10,2:0:0:0:
338,276,205447,5,0,1:2:0:0:
216,135,205621,1,8,2:0:0:0:
340,360,205795,2,0,P|395:362|424:238,1,175.499991966248,2|0,3:2|0:0,0:0:0:0:
422,261,206144,2,0,P|416:211|408:142,1,90,0|2,1:2|2:0,0:0:0:0:
505,99,206493,1,2,3:2:0:0:
446,13,206667,1,10,2:0:0:0:
214,160,206842,6,0,P|147:149|12:132,1,198.000006042481,6|2,1:2|3:2,0:0:0:0:
221,282,207365,1,2,2:0:0:0:
221,282,207540,2,0,P|295:270|330:268,1,90,0|0,1:2|0:0,0:0:0:0:
39,380,207888,2,0,P|93:356|110:253,1,135,2|0,3:2|0:0,0:0:0:0:
112,269,208237,5,0,1:2:0:0:
330,362,208412,1,8,2:0:0:0:
330,362,208586,2,0,P|385:351|426:347,1,90,0|0,3:2|0:0,0:0:0:0:
489,134,208935,1,0,1:2:0:0:
277,150,209109,1,2,2:0:0:0:
351,204,209284,1,2,2:0:0:0:
400,114,209458,1,2,3:2:0:0:
400,114,209545,1,10,2:0:0:0:
400,114,209633,5,2,1:2:0:0:
436,274,209807,1,2,2:0:0:0:
273,68,209981,1,2,3:2:0:0:
165,117,210156,1,2,2:0:0:0:
267,279,210330,5,2,1:2:0:0:
67,179,210505,1,2,2:0:0:0:
282,165,210679,5,2,3:2:0:0:
177,220,210853,1,2,2:0:0:0:
61,38,211028,5,6,1:2:0:0:
180,131,211202,1,2,3:2:0:0:
287,11,211377,5,10,2:0:0:0:
111,266,211551,1,10,2:0:0:0:
406,77,211726,6,0,P|471:104|483:212,1,180,2|14,1:2|2:0,0:0:0:0:
224,376,212249,1,2,3:2:0:0:
330,384,212423,6,0,P|322:327|313:277,1,90,4|0,1:2|0:0,0:0:0:0:
178,158,212772,1,2,3:2:0:0:
237,68,212947,1,2,2:0:0:0:
221,287,213121,2,0,P|165:279|21:262,1,180,2|0,1:2|3:2,0:0:0:0:
99,369,213644,1,2,2:0:0:0:
99,369,213731,1,2,2:0:0:0:
99,369,213819,5,2,1:2:0:0:
29,128,213993,1,10,2:0:0:0:
193,68,214167,1,2,3:2:0:0:
142,172,214342,1,2,2:0:0:0:
425,108,214516,6,0,P|388:43|278:21,1,180,2|0,1:2|3:2,0:0:0:0:
139,188,215040,2,0,P|127:232|117:278,1,90,2|0,2:0|1:2,0:0:0:0:
341,206,215388,2,0,P|331:162|319:118,1,90,2|0,2:0|3:2,0:0:0:0:
220,338,215737,1,2,2:0:0:0:
220,338,215824,1,0,0:0:0:0:
220,338,215912,1,0,1:2:0:0:
365,300,216086,1,2,2:0:0:0:
500,146,216260,2,0,P|456:156|424:254,1,135,2|0,3:2|0:0,0:0:0:0:
431,250,216609,5,2,1:2:0:0:
462,13,216784,1,8,2:0:0:0:
315,132,216958,1,2,3:2:0:0:
229,80,217133,1,0,3:2:0:0:
148,263,217307,2,0,P|103:268|59:277,1,90,0|0,1:2|3:2,0:0:0:0:
333,27,217656,5,2,3:2:0:0:
273,278,217821,1,8,2:0:0:0:
138,31,217995,6,0,P|76:34|23:159,2,180,4|2|2,1:2|3:2|1:2,0:0:0:0:
159,314,218867,2,0,P|140:233|127:177,1,135,2|0,2:0|0:0,0:0:0:0:
114,176,219215,5,2,3:2:0:0:
24,344,219390,1,0,1:2:0:0:
217,153,219564,1,8,2:0:0:0:
300,275,219739,2,0,P|286:330|279:374,1,90,2|0,3:2|0:0,0:0:0:0:
431,184,220088,2,0,P|416:110|392:-20,1,180,0|2,1:2|3:2,0:0:0:0:
502,77,220611,1,2,2:0:0:0:
137,64,220785,5,4,1:2:0:0:
137,64,221134,2,0,P|183:88|197:144,1,90,0|0,3:2|0:0,0:0:0:0:
119,337,221483,2,0,P|118:284|100:134,1,180,0|0,1:2|3:2,0:0:0:0:
31,363,222006,1,8,2:0:0:0:
244,245,222181,5,2,1:2:0:0:
36,57,222355,1,8,2:0:0:0:
259,107,222529,5,2,3:2:0:0:
143,230,222704,1,0,3:2:0:0:
344,353,222878,5,2,1:2:0:0:
162,82,223053,1,8,2:0:0:0:
128,365,223227,1,10,2:0:0:0:
387,205,223401,1,10,2:0:0:0:
7,183,223576,5,4,3:2:0:0:
7,183,223925,6,0,P|68:174|126:170,2,90,2|2|10,2:0|3:2|2:0,0:0:0:0:
103,158,224638,6,0,P|158:168|187:175,1,67.5000000000002,2|2,2:0|3:2,0:0:0:0:
276,86,224986,2,0,P|240:88|200:91,1,67.5000000000002,2|10,3:2|2:0,0:0:0:0:
312,178,225334,1,2,3:2:0:0:
365,71,225509,2,0,P|357:32|349:-6,2,67.5000000000002,2|10|2,2:0|2:0|3:2,0:0:0:0:
430,147,226032,2,0,P|421:197|408:290,1,135,2|0,2:0|3:2,0:0:0:0:
447,370,226555,1,8,2:0:0:0:
447,370,226730,2,0,P|491:361|515:355,1,67.5000000000002,0|0,3:2|3:2,0:0:0:0:
326,315,227079,2,0,P|271:308|177:301,1,135,8|0,2:0|0:0,0:0:0:0:
111,358,227602,1,0,3:2:0:0:
111,358,227776,6,0,P|104:314|95:269,1,67.5000000000002,2|10,3:2|2:0,0:0:0:0:
155,217,228125,2,0,P|162:173|171:128,1,67.5000000000002,2|2,3:2|2:0,0:0:0:0:
62,33,228474,1,10,2:0:0:0:
62,33,228648,2,0,P|70:76|76:111,2,67.5000000000002,2|2|10,3:2|3:2|2:0,0:0:0:0:
64,195,229172,5,0,3:2:0:0:
64,195,229346,1,8,2:0:0:0:
64,195,229520,1,0,3:2:0:0:
180,48,229869,2,0,P|225:52|315:65,1,135,8|0,2:0|0:0,0:0:0:0:
365,140,230392,1,0,3:2:0:0:
365,140,230567,2,0,P|411:132|436:129,1,67.5000000000002,0|8,3:2|2:0,0:0:0:0:
341,220,230916,1,0,3:2:0:0:
341,220,231265,2,0,P|352:258|362:295,2,67.5000000000002,8|0|0,2:0|3:2|3:2,0:0:0:0:
247,271,231788,1,2,2:0:0:0:
247,271,231875,1,2,2:0:0:0:
247,271,231962,6,0,P|202:283|180:377,1,135,2|0,3:2|3:2,0:0:0:0:
94,243,232660,2,0,P|85:194|71:95,1,135,8|0,2:0|0:0,0:0:0:0:
7,44,233183,1,0,3:2:0:0:
158,109,233358,6,0,P|209:99|246:93,2,67.5000000000002,0|8|0,3:2|2:0|3:2,0:0:0:0:
213,187,233881,1,0,3:2:0:0:
296,24,234055,1,8,2:0:0:0:
296,24,234230,1,0,3:2:0:0:
320,120,234404,1,0,3:2:0:0:
317,136,234491,1,0,0:0:0:0:
314,153,234579,1,8,2:0:0:0:
311,169,234666,1,8,2:0:0:0:
309,186,234753,5,0,3:2:0:0:
342,269,234927,1,0,3:2:0:0:
342,269,235276,5,0,3:2:0:0:
41,274,235451,2,0,P|87:267|263:247,1,202.5,14|0,2:0|3:2,0:0:0:0:
96,143,236148,6,0,P|147:149|243:163,2,135,0|0|8,3:2|3:2|2:0,0:0:0:0:
10,189,237020,2,0,P|3:142|-5:102,1,67.5000000000002,0|0,3:2|3:2,0:0:0:0:
64,50,237369,1,8,2:0:0:0:
64,50,237544,6,0,P|111:42|136:38,1,67.5000000000002,0|0,3:2|3:2,0:0:0:0:
161,133,237892,2,0,P|169:173|268:201,1,135,0|8,3:2|2:0,0:0:0:0:
255,117,238416,2,0,P|261:84|268:50,1,67.5000000000002,0|0,3:2|0:0,0:0:0:0:
346,114,238765,1,0,3:2:0:0:
346,114,238939,6,0,P|356:163|363:195,1,67.5000000000002,2|2,3:2|2:0,0:0:0:0:
446,104,239288,2,0,P|453:70|459:37,1,67.5000000000002,2|2,3:2|2:0,0:0:0:0:
497,186,239637,5,10,2:0:0:0:
497,186,239811,1,2,3:2:0:0:
366,271,239986,1,2,3:2:0:0:
366,271,240160,1,2,3:2:0:0:
457,272,240334,6,0,P|452:310|447:351,2,67.5000000000002,0|0|0,3:2|3:2|3:2,0:0:0:0:
361,363,240858,1,0,3:2:0:0:
270,306,241032,6,0,L|196:319,1,67.5000000000002,8|0,2:0|3:2,0:0:0:0:
154,381,241381,1,0,0:0:0:0:
154,381,241555,6,0,P|110:373|69:366,2,67.5000000000002,0|0|0,3:2|3:2|3:2,0:0:0:0:
124,287,242079,2,0,P|130:247|134:211,1,67.5000000000002,0|0,3:2|3:2,0:0:0:0:
30,98,242427,1,8,2:0:0:0:
30,98,242602,1,0,3:2:0:0:
47,191,242776,1,0,3:2:0:0:
122,72,242951,1,2,2:0:0:0:
122,72,243038,1,2,2:0:0:0:
122,72,243125,6,0,P|172:64|268:52,2,135,2|0|8,3:2|3:2|2:0,0:0:0:0:
213,147,243997,1,0,3:2:0:0:
213,147,244172,2,0,P|205:187|201:220,1,67.5000000000002,0|0,0:0|3:2,0:0:0:0:
298,145,244520,5,0,3:2:0:0:
269,51,244695,1,8,2:0:0:0:
412,181,244869,1,4,3:2:0:0:
412,181,245218,5,8,2:0:0:0:
447,50,245392,1,0,3:2:0:0:
500,261,245567,1,0,3:2:0:0:
312,134,245741,1,2,2:3:0:0:
227,305,245916,6,0,P|245:256|315:240,2,117.000000000001,6|2|10,3:2|3:2|2:0,0:0:0:0:
238,314,246962,1,2,2:0:0:0:
149,262,247137,2,0,P|103:268|68:278,1,58.5000000000003,2|2,2:0|2:0,0:0:0:0:
91,357,247486,5,2,2:0:0:0:
5,239,247660,1,2,3:2:0:0:
5,239,247834,1,2,2:0:0:0:
106,82,248009,5,10,2:0:0:0:
75,187,248183,1,2,3:2:0:0:
196,49,248532,5,2,2:0:0:0:
196,49,248706,2,0,P|234:45|264:41,2,58.5000000000003,2|2|2,3:2|2:0|3:2,0:0:0:0:
117,89,249404,2,0,P|81:85|-2:75,1,117.000000000001,10|2,2:0|2:0,0:0:0:0:
160,168,249927,6,0,P|201:161|237:156,1,58.5000000000003,2|2,2:0|2:0,0:0:0:0:
275,217,250276,1,2,2:0:0:0:
275,217,250451,2,0,P|314:224|354:234,1,58.5000000000003,2|2,3:2|2:0,0:0:0:0:
327,141,250799,5,10,2:0:0:0:
194,246,250974,1,2,3:2:0:0:
194,246,251323,5,2,2:0:0:0:
116,342,251497,2,0,P|114:299|110:263,1,58.5000000000003,2|2,3:2|2:0,0:0:0:0:
44,231,251846,2,0,P|53:187|62:110,2,117.000000000001,2|10|0,3:2|2:0|0:0,0:0:0:0:
141,195,252718,1,2,2:0:0:0:
141,195,252892,6,0,P|183:188|207:186,1,58.5000000000003,2|2,2:0|2:0,0:0:0:0:
236,113,253241,2,0,P|268:117|307:124,1,58.5000000000003,2|2,3:2|2:0,0:0:0:0:
301,206,253590,5,10,2:0:0:0:
180,44,253765,1,2,3:2:0:0:
180,44,254113,5,2,2:0:0:0:
98,88,254288,2,0,P|109:133|113:163,1,58.5000000000003,2|2,3:2|2:0,0:0:0:0:
12,56,254637,2,0,P|17:27|24:0,1,58.5000000000003,2|2,3:2|2:0,0:0:0:0:
204,133,254986,1,10,2:0:0:0:
204,133,255334,5,2,2:0:0:0:
275,69,255509,2,0,P|328:72|413:84,1,117.000000000001,2|2,2:0|2:0,0:0:0:0:
465,163,256032,2,0,P|429:170|385:177,1,58.5000000000003,2|2,3:2|2:0,0:0:0:0:
483,80,256381,5,10,2:0:0:0:
374,259,256555,1,2,3:2:0:0:
374,259,256904,5,2,2:0:0:0:
303,334,257079,2,0,P|300:302|222:252,1,117.000000000001,0|2,3:2|3:2,0:0:0:0:
297,190,257602,1,2,2:0:0:0:
211,325,257776,5,10,2:0:0:0:
270,118,257951,1,2,2:0:0:0:
270,118,258299,5,2,2:0:0:0:
177,102,258474,2,0,P|131:94|94:91,1,58.5000000000003,0|2,0:0|2:0,0:0:0:0:
51,151,258823,1,2,3:2:0:0:
51,151,258997,1,2,2:0:0:0:
46,59,259172,5,10,2:0:0:0:
110,224,259346,1,2,3:2:0:0:
110,224,259695,5,2,2:0:0:0:
18,277,259869,2,0,P|65:297|84:370,1,117.000000000001,0|2,3:2|3:2,0:0:0:0:
1,373,260392,1,2,2:0:0:0:
193,216,260559,2,0,P|224:223|257:229,1,58.5000000000003,10|2,2:0|2:0,0:0:0:0:
204,308,260924,5,2,2:0:0:0:
204,308,261107,1,2,2:0:0:0:
328,162,261290,6,0,P|337:197|343:233,1,58.5000000000003,2|2,2:0|2:0,0:0:0:0:
388,96,261638,5,2,3:2:0:0:
388,96,261813,1,2,2:0:0:0:
240,120,261976,5,10,2:0:0:0:
434,187,262127,1,2,3:2:0:0:
434,187,262477,5,2,2:0:0:0:
434,187,262564,1,2,2:3:0:0:
434,187,262651,5,2,3:0:0:0:
420,266,262825,1,2,2:0:0:0:
295,366,262999,5,6,3:2:0:0:
330,286,263174,1,2,2:0:0:0:
391,384,263348,5,10,2:0:0:0:
213,364,263522,1,2,2:0:0:0:
213,364,263871,6,0,P|208:322|197:238,1,117.000000000001,2|2,2:0|2:0,0:0:0:0:
98,326,264393,5,2,3:2:0:0:
98,326,264568,1,2,2:0:0:0:
236,177,264742,5,10,2:0:0:0:
79,231,264917,1,2,3:2:0:0:
79,231,265265,5,2,2:0:0:0:
147,125,265440,2,0,P|110:131|81:136,1,58.5000000000003,2|2,3:2|2:0,0:0:0:0:
8,34,265789,2,0,P|45:40|74:45,1,58.5000000000003,2|2,3:2|2:0,0:0:0:0:
190,209,266138,5,10,2:0:0:0:
304,142,266312,2,0,P|294:107|289:79,1,58.5000000000003,2|2,2:0|2:0,0:0:0:0:
358,219,266661,6,0,P|349:258|336:348,1,117.000000000001,2|2,2:0|2:0,0:0:0:0:
432,277,267184,1,2,3:2:0:0:
432,277,267358,1,2,2:0:0:0:
251,306,267533,5,10,2:0:0:0:
455,185,267727,1,2,3:2:0:0:
339,135,267901,5,2,2:0:0:0:
369,218,268075,1,2,2:0:0:0:
420,84,268250,5,0,3:2:0:0:
436,2,268424,1,2,3:2:0:0:
436,2,268757,5,2,3:2:0:0:
242,73,268931,2,0,P|202:68|151:63,2,67.5000000000002,10|2|2,2:0|2:0|2:0,0:0:0:0:
96,147,269454,2,0,P|89:100|69:5,1,135,2|2,2:0|2:0,0:0:0:0:
68,232,269976,2,0,P|28:224|-13:218,1,67.5000000000002,2|0,3:2|0:0,0:0:0:0:
181,194,270325,1,8,2:0:0:0:
181,194,270500,2,0,P|174:234|167:273,1,67.5000000000002,2|0,3:2|0:0,0:0:0:0:
264,159,270848,1,2,2:0:0:0:
264,159,270936,1,0,0:0:0:0:
264,159,271023,6,0,P|316:146|340:67,2,135,0|2|10,3:2|3:2|2:0,0:0:0:0:
261,65,271895,1,2,2:0:0:0:
261,65,272069,1,2,2:0:0:0:
465,5,272244,2,0,P|456:48|451:83,1,67.5000000000002,2|0,2:0|0:0,0:0:0:0:
507,144,272593,1,2,2:0:0:0:
390,141,272767,2,0,P|399:184|404:219,1,67.5000000000002,2|0,3:2|0:0,0:0:0:0:
502,241,273116,1,8,2:0:0:0:
502,241,273290,2,0,P|489:304|477:374,1,135,2|2,3:2|2:0,0:0:0:0:
397,290,273814,5,0,3:2:0:0:
328,359,273988,1,2,2:0:0:0:
190,242,274162,2,0,P|231:248|293:266,1,101.25,2|0,3:2|0:0,0:0:0:0:
344,211,274511,2,0,P|325:245|288:247,1,67.5000000000002,10|0,2:0|0:0,0:0:0:0:
244,160,274860,5,2,2:0:0:0:
244,160,275034,1,2,2:0:0:0:
130,191,275209,2,0,P|93:196|51:203,1,67.5000000000002,2|0,2:0|0:0,0:0:0:0:
157,0,275558,2,0,P|164:48|176:107,1,101.25,2|0,3:2|0:0,0:0:0:0:
180,110,275907,1,10,2:0:0:0:
0,0,276081,1,2,3:2:0:0:
276,77,276604,6,0,P|317:68|349:63,1,67.5000000000002,2|2,3:2|2:0,0:0:0:0:
479,185,276953,2,0,P|435:175|342:161,1,135,2|10,3:2|2:0,0:0:0:0:
403,268,277476,1,2,2:0:0:0:
403,268,277651,1,2,2:0:0:0:
238,254,277825,2,0,P|295:245|336:240,1,67.5000000000002,2|2,2:0|2:0,0:0:0:0:
287,330,278174,1,2,2:0:0:0:
161,156,278348,5,2,3:2:0:0:
82,174,278523,1,2,2:0:0:0:
90,268,278697,5,10,2:0:0:0:
251,93,278872,1,2,3:2:0:0:
251,93,279221,1,2,2:0:0:0:
184,32,279395,2,0,P|148:35|110:37,2,67.5000000000002,2|2|2,3:2|3:2|2:0,0:0:0:0:
57,98,279918,1,2,3:2:0:0:
30,17,280093,5,10,2:0:0:0:
173,198,280267,1,2,2:0:0:0:
173,198,280616,5,2,2:0:0:0:
112,254,280790,2,0,P|123:291|131:326,1,67.5000000000002,2|2,3:2|2:0,0:0:0:0:
254,173,281139,2,0,P|261:140|271:107,1,67.5000000000002,2|2,3:2|2:0,0:0:0:0:
90,172,281488,5,10,2:0:0:0:
313,247,281662,1,2,3:2:0:0:
248,312,281837,1,2,2:0:0:0:
318,368,282011,1,2,2:0:0:0:
318,368,282098,1,2,2:0:0:0:
318,368,282186,6,0,P|361:362|395:288,1,101.25,2|0,3:2|0:0,0:0:0:0:
387,306,282534,1,2,3:2:0:0:
450,210,282709,1,2,2:0:0:0:
450,210,282796,1,2,2:0:0:0:
450,210,282883,1,10,2:0:0:0:
406,21,283232,5,2,2:0:0:0:
370,155,283407,1,2,2:0:0:0:
264,84,283581,2,0,P|297:77|334:73,1,67.5000000000002,2|2,2:0|2:0,0:0:0:0:
208,20,283930,1,2,3:2:0:0:
208,20,284104,1,2,2:0:0:0:
226,167,284279,5,10,2:0:0:0:
88,44,284453,1,2,3:2:0:0:
78,149,284628,1,2,2:0:0:0:
160,105,284802,1,2,2:0:0:0:
92,246,284976,6,0,P|102:282|120:381,1,135,2|6,3:2|3:2,0:0:0:0:
32,333,285500,1,2,2:0:0:0:
183,266,285674,2,0,P|231:270|263:277,1,67.5000000000002,10|2,2:0|2:0,0:0:0:0:
308,171,286023,2,0,P|260:175|228:182,1,67.5000000000002,0|2,0:0|2:0,0:0:0:0:
342,258,286372,5,2,3:2:0:0:
342,258,286546,1,2,2:0:0:0:
418,160,286721,1,2,3:2:0:0:
490,203,286895,1,2,2:0:0:0:
331,40,287069,1,10,2:0:0:0:
253,87,287244,1,0,3:2:0:0:
190,43,287418,1,2,2:0:0:0:
80,116,287593,1,2,2:0:0:0:
80,116,287680,1,2,2:0:0:0:
80,116,287767,6,0,P|94:161|108:235,1,101.25,2|0,3:2|0:0,0:0:0:0:
90,223,288116,2,0,P|58:243|46:273,1,67.5000000000002,2|2,3:2|2:0,0:0:0:0:
280,337,288465,1,10,2:0:0:0:
353,256,288639,1,2,2:0:0:0:
374,339,288814,1,2,2:0:0:0:
258,221,288988,1,2,2:0:0:0:
206,285,289162,5,2,2:0:0:0:
206,285,289337,1,2,2:0:0:0:
183,113,289511,1,2,3:2:0:0:
269,134,289686,1,2,2:0:0:0:
436,28,289860,5,10,2:0:0:0:
352,100,290034,1,2,3:2:0:0:
136,22,290209,5,2,2:0:0:0:
310,5,290383,1,8,3:0:0:0:
310,5,290471,1,8,3:0:0:0:
310,5,290558,5,8,2:0:0:0:
210,113,290732,1,8,3:0:0:0:
290,182,290907,1,8,3:0:0:0:
247,249,291081,1,8,3:0:0:0:
78,77,291255,6,0,P|89:128|101:187,1,102.643203862381,14|2,3:2|3:2,0:0:0:0:
41,260,291650,1,2,3:2:0:0:
108,324,291824,5,2,2:0:0:0:
118,190,291999,2,0,P|165:207|179:260,1,90,2|2,3:2|3:2,0:0:0:0:
331,49,292303,2,0,P|282:59|240:145,1,135,2|0,3:2|0:0,0:0:0:0:
245,143,292651,2,0,P|253:194|264:240,2,90,10|0|2,2:0|3:2|2:0,0:0:0:0:
346,178,293174,1,2,2:0:0:0:
346,178,293261,1,0,0:0:0:0:
346,178,293348,2,0,P|399:192|489:93,1,180,2|2,3:2|3:2,0:0:0:0:
364,94,293871,1,2,2:0:0:0:
412,292,294050,6,0,P|421:341|424:385,1,90,10|2,2:0|3:2,0:0:0:0:
253,297,294398,1,2,3:2:0:0:
253,297,294573,2,0,P|281:263|324:257,2,90,2|2|2,2:0|3:2|3:2,0:0:0:0:
294,375,295095,5,2,3:2:0:0:
120,183,295270,2,0,P|94:227|41:232,1,90,0|10,3:2|2:0,0:0:0:0:
30,342,295619,1,0,3:2:0:0:
30,342,295793,2,0,P|88:329|141:324,1,90,2|2,3:2|2:0,0:0:0:0:
288,266,296142,6,0,P|230:253|177:248,1,90,0|2,3:2|2:0,0:0:0:0:
285,158,296491,2,0,P|343:145|396:140,1,90,2|2,3:2|2:0,0:0:0:0:
211,103,296840,2,0,P|188:53|57:51,1,180,10|2,2:0|3:2,0:0:0:0:
127,127,297363,1,2,3:2:0:0:
28,203,297537,6,0,P|20:139|7:86,1,90,2|2,3:2|3:2,0:0:0:0:
116,236,297886,1,2,3:2:0:0:
116,236,298060,1,2,3:2:0:0:
56,305,298235,5,10,2:0:0:0:
263,235,298409,1,2,3:2:0:0:
263,235,298933,6,0,P|268:190|276:146,1,90,2|2,3:2|2:0,0:0:0:0:
374,162,299281,1,2,3:2:0:0:
398,252,299456,1,2,2:0:0:0:
310,65,299630,5,10,2:0:0:0:
508,179,299805,1,2,3:2:0:0:
446,91,299979,1,2,3:2:0:0:
386,144,300153,1,2,2:0:0:0:
200,88,300328,6,0,P|194:43|186:-1,1,90,2|2,3:2|3:2,0:0:0:0:
102,134,300677,1,2,3:2:0:0:
243,162,300851,1,2,3:2:0:0:
8,26,301026,5,10,2:0:0:0:
77,244,301200,1,2,3:2:0:0:
180,218,301374,5,2,3:2:0:0:
104,151,301549,1,2,2:0:0:0:
144,360,301723,5,2,3:2:0:0:
305,237,301898,1,2,3:2:0:0:
305,237,302247,5,0,0:0:0:0:
503,381,302421,2,0,P|450:370|302:355,1,180,14|2,2:0|3:2,0:0:0:0:
439,249,303119,1,2,3:2:0:0:
453,264,303206,6,0,P|490:235|486:184,1,90,2|0,2:0|0:0,0:0:0:0:
341,51,303467,2,0,P|350:79|376:190,1,135,2|0,3:2|0:0,0:0:0:0:
368,199,303816,1,10,2:0:0:0:
439,65,303991,1,0,3:2:0:0:
283,176,304165,1,2,2:0:0:0:
283,176,304514,6,0,P|226:168|164:161,1,90,0|2,3:2|2:0,0:0:0:0:
145,86,304863,2,0,P|88:78|26:71,1,90,2|0,3:2|0:0,0:0:0:0:
248,83,305212,5,8,2:0:0:0:
96,182,305386,1,0,3:2:0:0:
96,182,305560,2,0,P|108:237|143:253,1,90,0|0,3:2|0:0,0:0:0:0:
176,175,305909,5,0,3:2:0:0:
46,291,306084,1,0,3:2:0:0:
46,291,306258,2,0,P|55:343|61:383,1,90,0|0,3:2|3:2,0:0:0:0:
188,167,306607,5,8,2:0:0:0:
310,271,306781,1,0,3:2:0:0:
310,271,306956,2,0,P|280:315|222:317,1,90,0|0,3:2|0:0,0:0:0:0:
219,49,307305,5,0,3:2:0:0:
389,86,307479,1,0,3:2:0:0:
389,86,307828,5,0,3:2:0:0:
211,344,308002,2,0,P|228:285|356:242,1,180,8|0,2:0|3:2,0:0:0:0:
465,363,308526,1,0,0:0:0:0:
295,345,308700,6,0,P|347:336|396:332,1,90,0|0,3:2|3:2,0:0:0:0:
224,247,309049,1,0,3:2:0:0:
224,247,309223,2,0,P|172:238|123:234,1,90,0|8,3:2|2:0,0:0:0:0:
75,317,309572,1,0,3:2:0:0:
21,140,309747,2,0,P|35:202|42:241,1,90
104,95,310095,6,0,P|128:50|258:33,1,180,0|0,3:2|3:2,0:0:0:0:
289,107,310619,1,0,0:0:0:0:
186,127,310793,5,8,2:0:0:0:
379,192,310967,1,0,3:2:0:0:
287,278,311142,2,0,P|274:221|267:176,1,90,0|0,3:2|0:0,0:0:0:0:
481,22,311491,5,0,3:2:0:0:
457,103,311665,1,8,2:0:0:0:
512,193,311840,1,0,3:2:0:0:
376,29,312014,1,0,3:2:0:0:
397,206,312188,6,0,P|386:257|379:300,1,90,8|0,2:0|3:2,0:0:0:0:
453,355,312537,1,0,3:2:0:0:
453,355,312712,1,0,0:0:0:0:
213,301,312886,6,0,P|164:314|99:333,1,90,0|8,3:2|2:0,0:0:0:0:
297,359,313235,1,0,3:2:0:0:
207,157,313643,5,2,2:0:0:0:
120,34,313817,1,2,2:0:0:0:
24,112,313991,1,2,2:0:0:0:
91,175,314166,1,2,2:0:0:0:
205,60,314340,1,2,2:0:0:0:
339,147,314515,5,2,2:0:0:0:
143,238,314706,1,2,2:0:0:0:
368,19,314980,2,0,P|431:29|491:124,1,180,10|0,2:0|0:0,0:0:0:0:
340,105,315503,1,2,2:3:0:0:
340,105,315590,1,2,2:3:0:0:
340,105,315677,6,0,P|273:118|215:130,1,90,0|2,3:2|3:2,0:0:0:0:
172,247,316025,1,2,3:2:0:0:
172,247,316200,1,2,2:0:0:0:
150,103,316374,2,0,P|115:41|8:32,1,180,10|2,2:0|3:2,0:0:0:0:
0,227,317072,5,2,3:2:0:0:
16,213,317159,2,0,P|80:204|135:200,1,90,2|2,2:0|2:0,0:0:0:0:
127,272,317421,2,0,P|180:281|270:304,1,135,2|0,3:2|0:0,0:0:0:0:
266,320,317770,5,10,2:0:0:0:
172,380,317944,1,0,3:2:0:0:
311,227,318118,1,2,2:0:0:0:
311,227,318467,6,0,P|367:217|413:214,1,90,0|2,3:2|2:0,0:0:0:0:
480,339,318816,2,0,P|424:329|378:326,1,90,2|2,3:2|2:0,0:0:0:0:
192,44,319165,2,0,P|251:31|324:113,1,180,10|2,2:0|3:2,0:0:0:0:
232,125,319688,1,2,3:2:0:0:
394,36,319863,6,0,P|446:42|491:50,1,90,2|0,3:2|0:0,0:0:0:0:
422,124,320211,1,2,3:2:0:0:
422,124,320386,1,2,2:0:0:0:
474,198,320560,5,10,2:0:0:0:
230,260,320735,1,0,3:2:0:0:
297,202,320909,2,0,P|354:211|403:217,1,90,2|0,2:0|0:0,0:0:0:0:
166,357,321258,6,0,P|143:300|34:269,1,180,0|2,3:2|3:2,0:0:0:0:
65,362,321781,1,2,2:0:0:0:
175,203,321956,2,0,P|165:155|143:21,1,180,10|2,2:0|3:2,0:0:0:0:
81,158,322479,1,2,3:2:0:0:
258,95,322653,5,2,3:2:0:0:
157,42,322828,1,10,2:0:0:0:
263,201,323002,1,2,3:2:0:0:
263,201,323089,1,0,0:0:0:0:
263,201,323177,1,2,3:2:0:0:
471,94,323351,1,10,2:0:0:0:
467,251,323525,1,0,3:2:0:0:
390,212,323700,1,2,2:0:0:0:
320,269,323874,1,0,3:2:0:0:
509,6,324049,5,8,2:0:0:0:
509,6,324397,6,0,P|451:18|406:25,1,90,2|2,3:2|3:2,0:0:0:0:
86,81,324746,6,0,P|151:83|187:137,1,135,14|0,2:0|0:0,0:0:0:0:
133,196,325095,2,0,P|87:188|61:154,1,90,2|0,3:2|0:0,0:0:0:0:
389,120,325444,5,10,2:0:0:0:
311,218,325618,1,0,0:0:0:0:
403,109,325793,2,0,P|455:115|529:125,1,90,0|2,3:2|2:0,0:0:0:0:
345,321,326142,2,0,P|335:267|322:198,1,90,8|0,2:0|3:2,0:0:0:0:
415,261,326490,1,0,0:0:0:0:
266,349,326665,1,2,2:3:0:0:
266,349,326752,1,2,2:3:0:0:
266,349,326839,6,0,P|205:360|142:261,1,180,0|2,3:2|3:2,0:0:0:0:
242,265,327363,1,2,2:0:0:0:
34,380,327537,2,0,P|43:322|50:269,1,90,10|0,2:0|0:0,0:0:0:0:
84,202,327886,1,2,3:2:0:0:
84,202,328060,2,0,P|75:144|56:50,1,135,2|2,3:2|2:0,0:0:0:0:
38,51,328409,2,0,P|75:8|129:21,1,90,0|2,0:0|3:2,0:0:0:0:
195,245,328758,2,0,P|202:195|210:121,1,90,2|8,3:2|2:0,0:0:0:0:
289,373,329107,1,0,3:2:0:0:
289,373,329281,2,0,P|339:366|413:358,1,90,2|2,2:0|2:0,0:0:0:0:
228,227,329630,5,2,3:2:0:0:
335,286,329804,1,2,3:2:0:0:
308,124,329979,1,6,3:2:0:0:
127,246,330153,1,2,2:0:0:0:
453,375,330328,6,0,P|441:308|418:220,1,135,10|2,2:0|2:0,0:0:0:0:
408,231,330677,1,0,3:2:0:0:
495,194,330851,2,0,P|507:127|519:77,1,90,2|0,2:0|3:2,0:0:0:0:
415,135,331200,1,0,0:0:0:0:
300,101,331374,5,2,3:2:0:0:
373,39,331549,1,2,2:0:0:0:
150,125,331723,6,0,P|87:117|49:111,1,90,10|0,2:0|3:2,0:0:0:0:
87,214,332072,1,2,2:3:0:0:
248,153,332246,5,2,2:3:0:0:
259,13,332421,1,2,3:0:0:0:
188,243,332595,1,2,2:3:0:0:
188,243,332682,1,2,2:3:0:0:
188,243,332770,1,8,3:2:0:0:
292,307,332944,1,2,2:3:0:0:
292,307,333031,1,2,2:3:0:0:
292,307,333118,1,8,2:0:0:0:
395,110,333467,5,2,3:2:0:0:
440,182,333642,1,2,3:2:0:0:
273,66,333816,5,2,3:2:0:0:
123,85,333990,1,0,3:2:0:0:
187,203,334165,1,2,3:2:0:0:
268,161,334339,1,0,3:2:0:0:
268,161,334427,1,0,3:2:0:0:
268,161,334514,1,8,2:0:0:0:
126,100,334688,1,0,3:2:0:0:
29,173,334863,5,0,3:2:0:0:
31,195,334950,1,0,3:2:0:0:
33,217,335037,1,0,3:2:0:0:
36,240,335124,1,0,0:0:0:0:
38,262,335211,5,8,3:0:0:0:
94,322,335386,1,8,3:0:0:0:
226,236,335560,1,8,3:0:0:0:
305,276,335719,1,8,3:0:0:0:
497,132,335905,5,14,2:0:0:0:
497,132,336278,5,2,2:0:0:0:
381,77,336460,2,0,P|318:68|257:57,1,108,10|0,2:0|0:0,0:0:0:0:
410,182,336792,1,2,2:0:0:0:
208,140,336966,2,0,P|145:131|84:120,1,108,2|2,3:2|2:0,0:0:0:0:
169,47,337315,5,10,2:0:0:0:
303,216,337489,2,0,P|316:292|324:341,2,108,2|2|2,2:0|2:0|2:0,0:0:0:0:
428,288,338012,5,2,3:2:0:0:
215,358,338186,1,2,3:2:0:0:
151,290,338360,1,2,3:2:0:0:
313,118,338535,5,2,2:0:0:0:
169,202,338709,2,0,P|109:194|39:184,1,108,10|2,2:0|2:0,0:0:0:0:
38,281,339058,1,2,3:2:0:0:
222,115,339232,2,0,P|162:107|92:97,1,108,2|2,3:2|3:2,0:0:0:0:
274,223,339581,5,2,2:0:0:0:
439,272,339756,1,2,3:2:0:0:
500,154,339930,1,2,2:0:0:0:
324,132,340105,5,10,2:0:0:0:
214,362,340279,1,2,2:0:0:0:
297,324,340453,1,2,2:0:0:0:
157,246,340628,6,0,P|166:181|176:120,2,108,2|2|2,2:0|3:2|3:0,0:0:0:0:
167,258,341064,1,2,3:0:0:0:
167,258,341151,1,2,3:0:0:0:
24,0,341325,1,2,3:2:0:0:
9,117,341500,1,10,2:0:0:0:
313,83,341674,5,2,3:2:0:0:
209,50,341849,1,2,2:0:0:0:
238,128,342023,1,2,3:2:0:0:
375,22,342198,5,2,2:0:0:0:
238,226,342372,1,2,2:0:0:0:
370,272,342546,1,2,3:2:0:0:
230,243,342721,6,0,P|152:232|96:222,1,108,2|14,2:0|2:0,0:0:0:0:
315,193,343070,1,2,3:2:0:0:
386,259,343244,5,2,2:0:0:0:
281,31,343418,1,2,3:2:0:0:
396,48,343593,1,2,3:2:0:0:
396,48,343767,6,0,P|456:39|507:32,1,108,2|6,3:2|3:2,0:0:0:0:
267,145,344116,1,2,3:2:0:0:
370,169,344291,5,10,2:0:0:0:
186,11,344465,1,2,3:2:0:0:
157,142,344639,1,2,3:2:0:0:
278,63,344814,1,2,3:2:0:0:
375,149,344988,1,2,3:2:0:0:
449,96,345163,1,2,3:2:0:0:
319,274,345337,5,2,3:2:0:0:
198,21,345512,1,2,3:2:0:0:
76,131,345686,2,0,P|137:122|201:117,1,108,10|2,2:0|3:2,0:0:0:0:
49,228,346035,1,2,3:2:0:0:
97,41,346209,1,2,3:0:0:0:
97,41,346296,1,2,3:0:0:0:
97,41,346384,5,2,3:0:0:0:
197,251,346558,1,2,3:0:0:0:
197,251,346645,1,2,3:0:0:0:
197,251,346732,1,2,3:0:0:0:
286,279,346907,1,0,3:0:0:0:
1,348,347081,5,14,2:0:0:0:
474,112,347429,1,2,3:2:0:0:
355,172,347604,2,0,P|278:162|195:154,1,117,10|2,2:0|2:0,0:0:0:0:
329,262,347953,1,2,3:2:0:0:
385,95,348127,1,2,3:2:0:0:
385,95,348214,1,2,2:0:0:0:
385,95,348301,1,2,2:0:0:0:
77,145,348476,1,10,2:0:0:0:
112,25,348650,2,0,P|171:42|222:148,1,175.5,2|0,3:0|0:0,0:0:0:0:
204,154,348999,1,2,3:0:0:0:
130,348,349174,6,0,P|119:288|106:216,1,117,2|2,3:0|3:2,0:0:0:0:
312,373,349522,1,2,3:2:0:0:
421,337,349697,1,2,3:2:0:0:
204,154,349871,2,0,P|214:211|224:269,1,117,10|2,2:0|3:2,0:0:0:0:
295,95,350220,1,2,3:2:0:0:
185,24,350394,1,2,3:0:0:0:
185,24,350482,1,2,3:0:0:0:
185,24,350569,5,2,3:0:0:0:
189,161,350743,1,2,3:2:0:0:
311,90,350918,1,2,3:0:0:0:
311,90,351005,1,2,3:0:0:0:
311,90,351092,1,2,3:0:0:0:
381,329,351267,1,14,2:0:0:0:
435,81,351441,1,2,3:2:0:0:
380,167,351615,1,2,3:2:0:0:
328,99,351790,1,0,3:2:0:0:
499,314,351964,5,2,3:0:0:0:
499,314,352051,1,2,3:0:0:0:
499,314,352139,1,2,3:0:0:0:
402,244,352313,2,0,P|332:251|245:263,1,117,2|2,3:2|3:2,0:0:0:0:
458,28,352662,1,10,2:0:0:0:
502,101,352836,1,2,3:2:0:0:
422,234,353011,1,2,3:2:0:0:
269,64,353185,1,2,3:2:0:0:
107,166,353360,5,2,3:2:0:0:
283,53,353534,2,0,P|339:63|363:117,1,117,2|2,3:2|3:2,0:0:0:0:
188,100,353883,1,2,3:2:0:0:
238,384,354057,2,0,P|255:268|272:152,1,234,10|2,2:0|2:0,0:0:0:0:
176,80,354581,1,0,0:0:0:0:
45,292,354755,6,0,P|126:278|167:272,1,117,2|2,3:2|3:2,0:0:0:0:
124,376,355104,1,2,3:2:0:0:
26,142,355278,1,2,3:2:0:0:
299,197,355453,6,0,P|356:205|414:216,1,117,10|2,2:0|2:0,0:0:0:0:
355,96,355801,1,2,3:2:0:0:
283,293,355976,1,2,3:2:0:0:
174,10,356150,5,2,2:1:0:0:
402,201,356325,1,2,3:1:0:0:
158,367,356499,1,2,3:1:0:0:
74,148,356674,1,2,2:1:0:0:
69,134,357546,5,6,2:0:0:0:
244,91,357720,1,6,2:0:0:0:
161,147,357882,1,10,3:0:0:0:
217,213,358056,1,10,3:0:0:0:
491,19,358230,6,0,P|465:111|424:322,1,252,14|2,2:0|2:1,0:0:0:0:
491,355,358753,1,2,3:1:0:0:
231,76,358927,6,0,P|293:65|356:56,1,126,2|10,2:1|2:1,0:0:0:0:
342,215,359276,1,2,3:1:0:0:
182,184,359450,1,2,2:1:0:0:
38,154,359625,1,10,2:1:0:0:
281,384,359799,2,0,P|267:313|255:250,1,126,2|2,3:1|3:1,0:0:0:0:
123,93,360148,1,2,3:2:0:0:
51,268,360323,5,2,3:2:0:0:
236,120,360497,1,10,2:0:0:0:
326,168,360671,1,2,3:2:0:0:
359,269,360846,1,2,2:0:0:0:
396,7,361020,1,10,2:0:0:0:
449,93,361195,1,2,3:2:0:0:
428,197,361369,1,2,3:2:0:0:
183,102,361543,5,2,3:2:0:0:
278,157,361718,1,2,3:2:0:0:
47,283,361892,1,8,2:0:0:0:
66,188,362067,1,8,2:0:0:0:
190,373,362241,1,2,3:2:0:0:
129,29,362416,2,0,P|59:41|-6:54,1,126,10|2,2:0|3:2,0:0:0:0:
191,127,362764,1,2,3:2:0:0:
512,25,362939,5,2,3:0:0:0:
376,44,363113,1,2,3:0:0:0:
323,174,363288,1,2,3:0:0:0:
127,318,363462,2,0,P|70:309|-3:297,1,126,0|0,3:0|3:2,0:0:0:0:
483,253,363811,1,14,2:0:0:0:
483,253,364160,6,0,P|496:315|508:376,1,126,2|2,3:1|3:1,0:0:0:0:
363,317,364509,1,2,3:1:0:0:
391,182,364683,1,2,3:1:0:0:
422,37,364857,1,2,3:1:0:0:
166,270,365032,2,0,P|248:253|303:245,1,126,2|2,3:1|2:1,0:0:0:0:
512,117,365381,1,2,3:1:0:0:
337,77,365555,5,10,2:1:0:0:
337,77,365642,1,8,2:0:0:0:
337,77,365730,1,2,3:0:0:0:
265,141,365904,1,8,2:0:0:0:
265,141,365991,1,8,2:0:0:0:
265,141,366078,1,2,3:0:0:0:
36,43,366253,1,2,3:2:0:0:
77,150,366427,1,2,3:2:0:0:
216,32,366602,5,10,2:0:0:0:
148,285,366776,1,2,3:2:0:0:
276,160,366950,5,2,2:0:0:0:
321,373,367125,1,10,2:0:0:0:
449,126,367299,5,10,2:0:0:0:
156,91,367474,1,2,3:2:0:0:
191,166,367648,1,2,3:2:0:0:
296,76,367823,1,2,3:0:0:0:
296,76,367910,1,2,3:0:0:0:
296,76,367997,1,10,2:0:0:0:
481,242,368171,1,2,3:0:0:0:
481,242,368259,1,2,3:0:0:0:
481,242,368346,5,10,2:0:0:0:
234,366,368520,1,10,2:0:0:0:
0,261,368695,5,10,2:0:0:0:
41,56,368869,1,10,3:0:0:0:
41,56,368956,1,10,3:0:0:0:
41,56,369043,1,10,3:0:0:0:
145,12,369205,1,10,3:0:0:0:
456,0,369399,5,14,2:0:0:0:
456,0,369747,6,0,P|386:9|306:19,1,135,2|2,3:1|3:1,0:0:0:0:
209,119,370096,1,2,3:1:0:0:
361,148,370271,1,2,2:1:0:0:
508,176,370445,1,2,3:1:0:0:
298,339,370619,2,0,P|282:257|264:186,1,135,2|10,2:1|2:1,0:0:0:0:
455,93,370968,1,2,3:1:0:0:
156,236,371143,5,2,3:1:0:0:
386,251,371317,1,2,2:0:0:0:
134,376,371492,6,0,P|61:360|-19:346,1,135,2|2,3:0|3:0,0:0:0:0:
98,102,371840,1,2,3:0:0:0:
232,293,372015,1,10,2:0:0:0:
232,293,372102,1,8,2:0:0:0:
232,293,372189,1,10,2:0:0:0:
204,206,372364,5,2,3:0:0:0:
470,43,372538,1,2,3:0:0:0:
432,152,372712,1,10,2:0:0:0:
432,152,372800,1,8,2:0:0:0:
432,152,372887,5,10,2:0:0:0:
152,60,373061,1,10,2:0:0:0:
104,245,373236,5,2,3:0:0:0:
273,42,373410,1,2,2:0:0:0:
167,353,373585,5,10,2:0:0:0:
206,234,373759,1,2,3:0:0:0:
140,146,373933,1,2,3:0:0:0:
325,278,374108,1,2,3:0:0:0:
337,120,374282,5,2,3:0:0:0:
266,363,374457,1,2,3:0:0:0:
85,298,374631,5,2,3:0:0:0:
207,198,374805,1,2,2:0:0:0:
512,368,374980,1,14,2:0:0:0:
458,283,375154,1,2,2:0:0:0:
202,325,375329,6,0,P|122:314|43:308,1,135,2|2,3:1|3:1,0:0:0:0:
193,222,375678,1,2,3:1:0:0:
336,186,375852,1,10,2:1:0:0:
485,145,376026,1,2,3:1:0:0:
271,0,376201,2,0,P|260:69|249:152,1,135,2|10,2:1|2:1,0:0:0:0:
457,310,376550,1,2,3:1:0:0:
355,85,376724,1,2,3:1:0:0:
142,167,376899,2,0,P|69:149|-9:133,1,135,10|0,2:0|3:0,0:0:0:0:
292,291,377247,5,10,2:0:0:0:
334,216,377422,1,2,3:0:0:0:
435,225,377596,1,2,3:0:0:0:
172,261,377771,2,0,P|189:335|199:386,1,126,10|2,2:0|3:0,0:0:0:0:
41,252,378119,5,2,3:0:0:0:
288,120,378294,1,10,2:0:0:0:
376,360,378468,5,2,3:0:0:0:
346,217,378643,1,2,3:0:0:0:
189,241,378804,1,2,3:0:0:0:
263,342,378981,1,2,3:0:0:0:
153,135,379159,5,8,3:0:0:0:
111,339,379336,1,8,3:0:0:0:
420,260,379514,1,8,2:0:0:0:
238,27,379691,1,8,2:0:0:0:
427,273,380560,6,0,P|395:276|319:286,1,108,2|0,2:0|0:0,0:0:0:0:
