osu file format v14

[General]
AudioFilename: audio.mp3
AudioLeadIn: 0
PreviewTime:5794
Countdown: 0
SampleSet: Soft
StackLeniency: 0.3
Mode: 0
LetterboxInBreaks: 0
WidescreenStoryboard: 1

[Editor]
Bookmarks: 17594,41194
DistanceSpacing: 1
BeatDivisor: 4
GridSize: 4
TimelineZoom: 2

[Metadata]
Title:Astronaut In The Ocean
TitleUnicode:Astronaut In The Ocean
Artist:Masked Wolf
ArtistUnicode:Masked Wolf
Creator:Fursum
Version:Normal
Source:
Tags:yuuya_ke jamesjan3 hip hop rap english tiktok amogus among us sus what you know about
BeatmapID:3049100
BeatmapSetID:1484419

[Difficulty]
HPDrainRate:3
CircleSize:3
OverallDifficulty:3
ApproachRate:5
SliderMultiplier:0.999999999999999
SliderTickRate:1

[Events]
//Background and Video events
0,0,"amogus.jpg",0,0
//Break Periods
2,14594,16394
2,52994,64394
2,104194,105994
//Storyboard Layer 0 (Background)
//Storyboard Layer 1 (Fail)
//Storyboard Layer 2 (Pass)
//Storyboard Layer 3 (Foreground)
//Storyboard Layer 4 (Overlay)
//Storyboard Sound Samples

[TimingPoints]
1594,400,4,2,1,60,1,0
17594,-76.9230769230769,4,2,1,60,0,0
65594,-80,4,2,1,60,0,0
107194,-74.0740740740741,4,2,1,60,0,0
129794,-74.0740740740741,4,2,1,30,0,0

[Colours]
Combo1 : 176,89,91
Combo2 : 220,209,209
Combo3 : 124,124,124

[HitObjects]
256,192,11194,12,0,14394,0:0:0:0:
120,273,17594,6,0,P|187:208|301:242,1,194.999991073609,4|4,1:3|1:3,0:0:0:0:
289,235,18394,1,8,2:0:0:0:
414,323,18794,1,4,1:3:0:0:
484,186,19194,6,0,B|492:144|492:144|497:138|497:138|514:51,2,129.999994049072,0|4|10,3:0|1:3|2:0,0:0:0:0:
467,196,20194,1,6,1:3:0:0:
452,205,20394,2,0,B|384:173,1,64.9999970245362,2|2,3:0|3:0,0:0:0:0:
374,170,20794,6,0,B|299:168|292:210|287:249|196:243,1,194.999991073609,4|4,1:3|1:3,0:0:0:0:
188,236,21594,1,8,2:0:0:0:
98,108,21994,1,4,1:3:0:0:
235,20,22394,6,0,P|218:112|209:170,2,129.999994049072,0|4|10,3:0|1:3|2:0,0:0:0:0:
248,12,23394,2,0,P|308:22|331:99,1,129.999994049072,6|0,1:3|3:0,0:0:0:0:
341,96,23994,6,0,L|327:170,2,64.9999970245362,4|0|0,1:3|3:0|3:0,0:0:0:0:
486,49,24794,1,8,2:0:0:0:
463,200,25194,1,4,1:3:0:0:
331,282,25594,1,0,3:0:0:0:
181,223,25994,6,0,P|165:168|150:136,1,64.9999970245362,4|0,1:3|3:0,0:0:0:0:
149,152,26394,1,10,2:0:0:0:
136,147,26594,2,0,P|250:156|262:90,1,194.999991073609,6|4,1:3|1:3,0:0:0:0:
397,38,27594,6,0,P|377:99|373:122,1,64.9999970245362,0|4,3:0|1:3,0:0:0:0:
387,114,27994,2,0,P|422:179|435:245,2,129.999994049072,8|4|0,2:0|1:3|3:0,0:0:0:0:
254,34,29194,1,4,1:3:0:0:
99,84,29594,1,10,2:0:0:0:
110,96,29794,2,0,B|188:99|149:153|234:154,1,129.999994049072,6|0,1:3|3:0,0:0:0:0:
232,166,30394,6,0,L|436:127,1,194.999991073609,4|4,1:3|1:3,0:0:0:0:
436,140,31194,1,8,2:0:0:0:
309,246,31594,1,4,1:3:0:0:
145,228,31994,6,0,B|124:198|124:198|152:100,2,129.999994049072,0|4|10,3:0|1:3|2:0,0:0:0:0:
157,241,32994,1,6,1:3:0:0:
167,253,33194,2,0,L|147:317,1,64.9999970245362,2|2,3:0|3:0,0:0:0:0:
134,326,33594,6,0,P|235:293|300:357,1,194.999991073609,4|4,1:3|1:3,0:0:0:0:
311,343,34394,2,0,P|352:353|402:293,1,129.999994049072,8|4,2:0|1:3,0:0:0:0:
348,142,35194,1,0,3:0:0:0:
432,10,35594,6,0,P|485:24|499:49,1,64.9999970245362,4|0,1:3|3:0,0:0:0:0:
499,47,35994,2,0,L|482:125,2,64.9999970245362,10|6|2,2:0|1:3|3:0,0:0:0:0:
333,47,36794,6,0,B|281:59|281:59|272:68|272:68|196:87,1,129.999994049072,4|0,1:3|3:0,0:0:0:0:
197,98,37394,1,4,1:3:0:0:
186,112,37594,2,0,L|42:81,1,129.999994049072,8|4,2:0|1:3,0:0:0:0:
149,247,38394,2,0,L|276:274,1,129.999994049072,0|4,3:0|1:3,0:0:0:0:
285,290,38994,1,0,3:0:0:0:
294,305,39194,6,0,P|338:272|418:318,1,129.999994049072,10|2,2:0|3:0,0:0:0:0:
419,285,39794,2,0,P|448:317|448:348,1,64.9999970245362,2|0,3:0|0:0,0:0:0:0:
141,264,41194,6,0,P|156:222|178:126,2,129.999994049072,4|0|4,1:3|3:0|1:3,0:0:0:0:
127,278,42194,1,0,3:0:0:0:
110,285,42394,2,0,P|71:270|30:271,2,64.9999970245362,8|4|0,2:0|1:3|3:0,0:0:0:0:
246,365,43194,6,0,B|330:370|334:328|338:275|430:295,1,194.999991073609,4|4,1:3|1:3,0:0:0:0:
430,301,43994,1,8,2:0:0:0:
438,160,44394,2,0,P|451:88|453:80,2,64.9999970245362,4|0|0,1:3|3:0|3:0,0:0:0:0:
302,202,45194,6,0,P|293:140|266:53,1,129.999994049072,4|8,1:3|2:0,0:0:0:0:
287,63,45794,2,0,P|224:27|170:79,1,129.999994049072,4|0,1:3|3:0,0:0:0:0:
172,68,46394,1,4,1:3:0:0:
49,179,46794,6,0,P|59:226|67:261,1,64.9999970245362,2|6,3:2|1:3,0:0:0:0:
81,253,47194,2,0,P|73:284|67:316,1,64.9999970245362,10|2,2:0|3:0,0:0:0:0:
63,334,47594,1,6,1:3:0:0:
209,277,47994,1,0,3:0:0:0:
348,352,48394,6,0,P|384:367|417:352,1,64.9999970245362,6|2,1:3|3:0,0:0:0:0:
429,360,48794,2,0,P|448:326|440:296,1,64.9999970245362,10|6,2:0|1:3,0:0:0:0:
436,284,49194,1,2,3:0:0:0:
487,127,49594,6,0,B|443:139|443:139|417:128|417:128|344:143,1,129.999994049072,4|2,1:3|3:0,0:0:0:0:
348,153,50194,2,0,L|376:16,1,129.999994049072,6|2,1:3|3:0,0:0:0:0:
389,15,50794,1,6,1:3:0:0:
229,47,51194,1,2,3:0:0:0:
207,189,51594,6,0,P|245:235|269:321,1,129.999994049072,6|10,1:3|2:0,0:0:0:0:
252,309,52194,2,0,P|272:224|367:160,1,194.999991073609,6|2,1:3|0:3,0:0:0:0:
416,93,65594,6,0,B|446:110|446:110|475:282,2,187.5,4|4|4,1:3|1:3|1:3,0:0:0:0:
244,324,67594,2,0,P|169:278|118:293,1,125,4|8,1:3|2:0,0:0:0:0:
121,296,68194,2,0,L|136:356,1,62.4999999999999,4|0,1:3|3:0,0:0:0:0:
216,231,68794,6,0,L|245:40,1,187.5,4|4,1:3|1:3,0:0:0:0:
247,27,69594,2,0,P|204:14|172:31,2,62.4999999999999,8|0|4,2:0|3:0|1:3,0:0:0:0:
292,150,70394,1,0,3:0:0:0:
404,63,70794,6,0,L|376:264,1,187.5,4|4,1:3|1:3,0:0:0:0:
362,254,71594,2,0,P|366:304|379:337,1,62.4999999999999,0|0,3:0|3:0,0:0:0:0:
382,330,71994,5,4,1:3:0:0:
245,291,72394,1,0,3:0:0:0:
109,339,72794,2,0,P|81:324|77:230,1,125,8|4,2:0|1:3,0:0:0:0:
38,112,73594,2,0,B|142:148|97:75|224:122,1,187.5,0|0,3:0|3:0,0:0:0:0:
230,135,74394,2,0,P|266:136|290:121,1,62.4999999999999,8|4,2:0|1:3,0:0:0:0:
296,108,74794,6,0,L|318:259,1,125,0|4,3:0|1:3,0:0:0:0:
431,326,75594,1,0,3:0:0:0:
457,179,75994,1,8,2:0:0:0:
305,238,76394,2,0,L|238:228,1,62.4999999999999,4|0,1:3|3:0,0:0:0:0:
229,237,76794,6,0,B|253:274|253:274|277:109,1,187.5,0|0,3:0|3:0,0:0:0:0:
279,116,77594,2,0,L|212:106,1,62.4999999999999,8|4,2:0|1:3,0:0:0:0:
201,104,77994,1,0,3:0:0:0:
86,22,78394,6,0,P|55:58|52:88,1,62.4999999999999,6|2,1:3|3:0,0:0:0:0:
58,91,78794,1,2,3:0:0:0:
8,237,79194,2,0,P|53:211|135:203,1,125,8|6,2:0|1:3,0:0:0:0:
141,210,79794,1,2,3:0:0:0:
153,223,79994,1,2,3:0:0:0:
255,337,80394,6,0,P|306:358|379:320,1,125,6|8,1:3|2:0,0:0:0:0:
384,342,80994,2,0,L|364:204,1,125,6|2,1:3|3:3,0:0:0:0:
363,201,81594,1,6,1:3:0:0:
446,63,81994,6,0,P|482:72|518:98,2,62.4999999999999,2|6|10,3:3|1:3|2:0,0:0:0:0:
289,23,82794,2,0,B|224:30|224:30|249:215,1,250,6|6,1:3|1:3,0:0:0:0:
251,232,83794,6,2,L|186:242,2,62.4999999999999,2|10|6,3:2|2:0|1:3,0:1:0:0:
255,248,84394,6,2,L|320:258,2,62.4999999999999,2|4|6,3:2|1:3|1:3,0:1:0:0:
22,27,85594,5,10,2:0:0:0:
90,134,85994,2,0,B|129:116|129:116|140:14,2,125,6|2|6,1:3|3:2|1:3,0:0:0:0:
282,347,87594,5,2,3:0:0:0:
169,260,87994,2,0,B|119:251|119:251|107:238|107:238|36:224,2,125,6|2|10,1:3|3:0|2:2,0:0:0:0:
308,252,89194,2,0,L|376:235,1,62.4999999999999,6|2,1:3|3:0,0:0:0:0:
384,232,89594,6,0,P|367:293|360:362,1,125,2|6,3:0|1:3,0:0:0:0:
373,362,90194,1,2,3:0:0:0:
386,368,90394,2,0,L|455:346,2,62.4999999999999,10|4|2,2:0|1:3|3:0,0:0:0:0:
252,312,91194,6,0,B|231:306|231:306|195:240|195:240|155:231,1,125,6|2,1:3|3:3,0:0:0:0:
149,233,91794,2,0,B|170:227|170:227|206:161|206:161|246:152,1,125,6|2,1:3|3:3,0:0:0:0:
250,154,92394,2,0,L|275:26,2,125,6|2|6,1:3|3:3|1:3,0:0:0:0:
404,195,93594,2,0,L|475:182,1,62.4999999999999,10|4,2:0|1:3,0:0:0:0:
212,384,94394,6,0,P|166:349|85:385,1,125,6|0,1:3|3:0,0:0:0:0:
89,370,94994,2,0,P|31:343|43:286,1,125,6|0,1:3|3:0,0:0:0:0:
53,282,95594,2,0,P|68:176|54:167,1,125,6|0,1:3|0:0,0:0:0:0:
17,42,96394,2,0,P|44:12|82:15,1,62.4999999999999,6|2,1:3|3:3,0:0:0:0:
83,15,96794,1,10,2:0:0:0:
98,24,96994,2,0,L|227:-2,1,125,6|2,1:3|3:3,0:0:0:0:
237,5,97594,5,6,1:3:0:0:
212,141,97994,1,0,3:0:0:0:
186,281,98394,1,10,2:0:0:0:
196,288,99594,5,6,1:3:0:0:
227,140,99994,1,10,2:0:0:0:
235,133,100794,5,6,1:3:0:0:
332,235,101194,1,2,3:3:0:0:
436,133,101594,2,0,P|449:72|466:0,2,125,10|6|2,2:0|1:3|3:2,0:0:0:0:
482,269,102794,1,6,1:3:0:0:
364,359,103194,6,0,P|314:362|285:338,1,62.4999999999999,10|6,2:0|1:3,0:0:0:0:
286,359,103594,2,0,P|258:317|273:283,2,62.4999999999999,2|0|0,3:0|3:0|0:0,0:0:0:0:
328,265,107194,6,0,B|323:155|392:195|383:62,1,202.500000772476,4|4,1:3|1:3,0:0:0:0:
379,61,107994,1,8,2:0:0:0:
227,132,108394,1,4,1:3:0:0:
83,203,108794,6,0,B|78:137|78:137|69:125|69:125|64:71,2,135.000000514984,0|4|10,3:0|1:3|2:0,0:0:0:0:
91,216,109794,1,6,1:3:0:0:
100,227,109994,2,0,L|168:218,1,67.500000257492,2|2,3:0|3:0,0:0:0:0:
184,217,110394,6,0,B|297:217|255:300|379:298,1,202.500000772476,4|4,1:3|1:3,0:0:0:0:
376,291,111194,1,8,2:0:0:0:
459,145,111594,1,4,1:3:0:0:
317,63,111994,6,0,P|340:115|360:201,2,135.000000514984,0|4|10,3:0|1:3|2:0,0:0:0:0:
304,74,112994,2,0,P|260:104|176:83,1,135.000000514984,6|0,1:3|3:0,0:0:0:0:
171,78,113594,2,0,P|181:33|196:6,2,67.500000257492,4|0|0,1:3|3:0|3:0,0:0:0:0:
55,227,114394,5,8,2:0:0:0:
180,349,114794,1,4,1:3:0:0:
350,322,115194,1,0,3:0:0:0:
429,170,115594,2,0,P|405:124|392:91,1,67.500000257492,4|0,1:3|3:0,0:0:0:0:
413,97,115994,1,10,2:0:0:0:
432,90,116194,6,0,P|344:165|293:239,1,202.500000772476,6|4,1:3|1:3,0:0:0:0:
127,257,117194,2,0,P|140:298|166:322,1,67.500000257492,0|4,3:0|1:3,0:0:0:0:
173,321,117594,6,0,P|168:256|190:164,2,135.000000514984,8|4|0,2:0|1:3|3:0,0:0:0:0:
332,358,118794,1,4,1:3:0:0:
467,255,119194,1,10,2:0:0:0:
456,265,119394,2,0,B|399:257|399:257|386:244|386:244|308:234,1,135.000000514984,6|0,1:3|3:0,0:0:0:0:
315,245,119994,5,4,1:3:0:0:
421,126,120394,2,0,P|435:78|447:42,1,67.500000257492,0|4,3:0|1:3,0:0:0:0:
454,52,120794,1,8,2:0:0:0:
290,106,121194,1,4,1:3:0:0:
135,61,121594,6,0,B|106:83|106:83|134:180,1,135.000000514984,0|4,3:0|1:3,0:0:0:0:
140,193,122194,1,0,3:0:0:0:
146,208,122394,2,0,L|235:238,2,67.500000257492,10|6|2,2:0|1:3|3:0,0:0:0:0:
64,354,123194,6,0,P|107:309|186:324,1,135.000000514984,4|0,1:3|3:0,0:0:0:0:
189,326,123794,1,4,1:3:0:0:
203,339,123994,2,0,P|242:343|270:323,1,67.500000257492,8|0,2:0|3:0,0:0:0:0:
281,329,124394,2,0,L|304:191,1,135.000000514984,4|0,1:3|3:0,0:0:0:0:
336,24,125194,5,4,1:3:0:0:
491,96,125594,1,10,2:0:0:0:
492,117,125794,2,0,B|495:156|495:156|386:189,1,135.000000514984,6|0,1:3|0:0,0:0:0:0:
390,191,126394,2,0,L|402:271,2,67.500000257492,4|0|0,1:3|0:0|3:0,0:0:0:0:
247,62,127194,6,0,P|184:74|174:144,2,135.000000514984,8|4|0,2:0|1:3|3:0,0:0:0:0:
259,75,128194,1,0,3:0:0:0:
270,89,128394,2,0,P|315:110|342:95,2,67.500000257492,4|0|10,1:3|3:0|2:0,0:0:0:0:
133,0,129194,5,2,3:0:0:0:
111,9,129394,1,2,3:0:0:0:
97,25,129594,1,0,0:0:0:0:
