osu file format v14

[General]
AudioFilename: audio.mp3
AudioLeadIn: 0
PreviewTime:5794
Countdown: 0
SampleSet: Soft
StackLeniency: 0.3
Mode: 0
LetterboxInBreaks: 0
WidescreenStoryboard: 1

[Editor]
Bookmarks: 17594,41194
DistanceSpacing: 1
BeatDivisor: 4
GridSize: 4
TimelineZoom: 2

[Metadata]
Title:Astronaut In The Ocean
TitleUnicode:Astronaut In The Ocean
Artist:Masked Wolf
ArtistUnicode:Masked Wolf
Creator:Fursum
Version:Advanced
Source:
Tags:yuuya_ke jamesjan3 hip hop rap english tiktok amogus among us sus what you know about
BeatmapID:3046303
BeatmapSetID:1484419

[Difficulty]
HPDrainRate:4
CircleSize:3
OverallDifficulty:4
ApproachRate:6
SliderMultiplier:0.999999999999999
SliderTickRate:1

[Events]
//Background and Video events
0,0,"amogus.jpg",0,0
//Break Periods
2,14594,16394
2,52993,64394
2,103994,106144
//Storyboard Layer 0 (Background)
//Storyboard Layer 1 (Fail)
//Storyboard Layer 2 (Pass)
//Storyboard Layer 3 (Foreground)
//Storyboard Layer 4 (Overlay)
//Storyboard Sound Samples

[TimingPoints]
1594,400,4,2,1,60,1,0
17594,-76.9230769230769,4,2,1,60,0,0
53194,-100,4,2,1,60,0,0
65594,-80,4,2,1,60,0,0
107194,-74.0740740740741,4,2,1,60,0,0
129794,-74.0740740740741,4,2,1,30,0,0

[Colours]
Combo1 : 176,89,91
Combo2 : 220,209,209
Combo3 : 124,124,124

[HitObjects]
256,192,11194,12,0,14394,0:0:0:0:
171,161,17594,6,0,B|103:161|145:94|36:97,1,129.999994049072,4|0,1:3|3:0,0:0:0:0:
2,173,18194,1,4,1:3:0:0:
54,251,18394,1,8,2:0:0:0:
229,90,18794,6,0,P|330:58|373:39,2,129.999994049072,4|0|4,1:3|3:0|1:3,0:0:0:0:
147,31,19794,1,0,3:0:0:0:
74,97,19994,2,0,B|60:129|60:129|84:155,1,64.9999970245362,10|6,2:0|1:3,0:0:0:0:
76,243,20394,2,0,B|96:271|96:271|131:263,1,64.9999970245362,2|2,3:0|3:0,0:0:0:0:
211,220,20794,6,0,P|317:235|352:246,1,129.999994049072,4|0,1:3|3:0,0:0:0:0:
417,293,21394,1,4,1:3:0:0:
472,216,21594,2,0,P|483:178|490:151,1,64.9999970245362,8|0,2:0|3:0,0:0:0:0:
437,81,21994,1,4,1:3:0:0:
437,81,22194,1,0,3:0:0:0:
437,81,22394,1,0,3:0:0:0:
206,147,22794,6,0,L|139:134,1,64.9999970245362,4|0,1:3|3:0,0:0:0:0:
84,57,23194,2,0,L|151:44,1,64.9999970245362,10|6,2:0|1:3,0:0:0:0:
135,142,23594,6,0,B|125:199|125:199|120:204|120:204|108:284,1,129.999994049072,2|4,3:0|1:3,0:0:0:0:
94,356,24194,1,0,3:0:0:0:
18,290,24394,1,0,3:0:0:0:
252,334,24794,6,0,B|304:322|356:306|356:306|351:321|343:340,2,129.999994049072,8|4|0,2:0|1:3|3:0,0:0:0:0:
186,264,25794,1,0,3:0:0:0:
234,178,25994,2,0,B|268:168|268:168|309:204,1,64.9999970245362,4|0,1:3|3:0,0:0:0:0:
387,200,26394,5,10,2:0:0:0:
387,200,26594,1,6,1:3:0:0:
387,200,26794,2,0,L|401:124,1,64.9999970245362,2|2,3:0|3:0,0:0:0:0:
485,120,27194,6,0,B|425:108|462:59|383:39,1,129.999994049072,4|0,1:3|3:0,0:0:0:0:
294,57,27794,1,4,1:3:0:0:
294,57,27994,2,0,P|254:51|236:30,1,64.9999970245362,8|0,2:0|3:0,0:0:0:0:
152,6,28394,6,0,B|123:11|123:11|96:107,2,129.999994049072,4|0|4,1:3|3:0|1:3,0:0:0:0:
238,34,29394,1,0,3:0:0:0:
293,107,29594,2,0,B|263:130|263:130|208:113,1,64.9999970245362,10|6,2:0|1:3,0:0:0:0:
201,210,29994,2,0,B|166:195|166:195|153:139,1,64.9999970245362,2|0,3:0|3:0,0:0:0:0:
95,107,30394,6,0,P|37:121|28:198,1,129.999994049072,4|0,1:3|3:0,0:0:0:0:
9,273,30994,1,4,1:3:0:0:
80,339,31194,1,8,2:0:0:0:
282,228,31594,6,0,B|319:237|319:237|361:277|361:277|410:289,2,129.999994049072,4|0|4,1:3|3:0|1:3,0:0:0:0:
182,214,32594,1,0,3:0:0:0:
247,140,32794,6,0,P|263:99|251:74,1,64.9999970245362,10|6,2:0|1:3,0:0:0:0:
176,33,33194,2,0,P|160:74|172:99,1,64.9999970245362,2|2,3:0|3:0,0:0:0:0:
266,75,33594,6,0,B|327:84|327:84|334:88|334:88|400:98,1,129.999994049072,4|0,1:3|3:0,0:0:0:0:
484,113,34194,1,4,1:3:0:0:
409,186,34394,2,0,B|392:216|392:216|403:252,1,64.9999970245362,8|0,2:0|3:0,0:0:0:0:
478,317,34794,1,4,1:3:0:0:
478,317,34994,1,0,3:0:0:0:
478,317,35194,1,0,3:0:0:0:
484,113,35594,6,0,B|506:142|506:142|495:182,1,64.9999970245362,4|0,1:3|3:0,0:0:0:0:
409,186,35994,1,10,2:0:0:0:
348,111,36194,2,0,B|263:85|263:85|212:132,1,129.999994049072,6|0,1:3|3:0,0:0:0:0:
150,159,36794,6,0,L|124:95,2,64.9999970245362,4|0|0,1:3|3:0|3:0,0:0:0:0:
200,240,37394,1,4,1:3:0:0:
108,269,37594,2,0,B|31:278|86:325|-10:336,2,129.999994049072,8|4|0,2:0|1:3|3:0,0:0:0:0:
208,246,38594,1,0,3:0:0:0:
269,336,38794,6,0,P|306:360|333:350,1,64.9999970245362,4|0,1:3|3:0,0:0:0:0:
428,349,39194,2,0,P|471:313|469:287,1,64.9999970245362,10|6,2:0|1:3,0:0:0:0:
497,221,39594,1,2,3:0:0:0:
497,221,39794,1,2,3:0:0:0:
497,221,39994,6,0,L|506:141,1,64.9999970245362
503,143,41194,6,0,B|453:153|453:153|438:171|438:171|368:186,2,129.999994049072,4|0|4,1:3|3:0|1:3,0:0:0:0:
506,235,42194,1,0,3:0:0:0:
418,280,42394,2,0,B|387:276|387:276|384:273|384:273|335:267,2,64.9999970245362,8|4|0,2:0|1:3|3:0,0:0:0:0:
209,145,43194,6,0,P|215:234|219:298,1,129.999994049072,4|0,1:3|3:0,0:0:0:0:
181,372,43794,2,0,P|115:337|130:286,1,129.999994049072,4|0,1:3|3:0,0:0:0:0:
213,285,44394,2,0,P|247:293|273:328,2,64.9999970245362,4|0|0,1:3|3:0|3:0,0:0:0:0:
47,191,45194,5,4,1:3:0:0:
219,137,45594,1,8,2:0:0:0:
391,86,45994,1,0,3:0:0:0:
463,227,46394,6,0,B|423:247|423:247|332:199,1,129.999994049072,4|2,1:3|3:2,0:0:0:0:
338,214,46994,1,6,1:3:0:0:
329,220,47194,2,0,L|264:260,1,64.9999970245362,10|2,2:0|3:0,0:0:0:0:
191,306,47594,1,6,1:3:0:0:
25,212,47994,6,0,P|0:101|-1:63,1,129.999994049072,0|6,3:0|1:3,0:0:0:0:
7,76,48594,1,2,3:0:0:0:
15,66,48794,2,0,P|33:23|34:-1,2,64.9999970245362,10|6|2,2:0|1:3|3:0,0:0:0:0:
192,144,49594,5,4,1:3:0:0:
361,71,49994,1,2,3:0:0:0:
371,80,50194,1,6,1:3:0:0:
376,91,50394,2,0,P|376:145|354:169,1,64.9999970245362,10|2,2:0|3:0,0:0:0:0:
451,201,50794,6,0,P|388:250|336:240,1,129.999994049072,6|2,1:3|3:0,0:0:0:0:
163,313,51594,2,0,P|136:277|45:274,1,129.999994049072,6|10,1:3|2:0,0:0:0:0:
46,274,52194,1,6,1:3:0:0:
41,284,52394,2,0,P|59:319|67:351,2,64.9999970245362,0|0|2,3:0|3:0|0:3,0:0:0:0:
467,314,65594,5,4,1:3:0:0:
303,362,66194,2,0,B|265:371|265:371|193:297|193:297|120:313,2,187.5,4|4|0,1:3|1:3|0:0,0:0:0:0:
369,295,67594,2,0,P|370:251|395:147,1,125,4|8,1:3|2:0,0:0:0:0:
461,99,68194,1,4,1:3:0:0:
461,99,68394,2,0,P|456:50|433:33,1,62.4999999999999,0|0,3:0|3:0,0:0:0:0:
354,56,68794,6,0,B|308:45|308:45|296:38|296:38|282:40|282:40|210:25,1,125,4|0,1:3|3:0,0:0:0:0:
145,69,69394,2,0,P|69:53|69:53,1,62.4999999999999,4|8,1:3|2:0,0:0:0:0:
259,186,69994,6,0,B|304:175|304:175|319:178|319:178|331:170|331:170|403:155,2,125,4|0|4,1:3|3:0|1:3,0:0:0:0:
183,259,70994,1,0,3:0:0:0:
91,221,71194,2,0,B|85:189|85:189|127:150,1,62.4999999999999,8|4,2:0|1:3,0:0:0:0:
143,81,71594,2,0,P|194:99|210:99,1,62.4999999999999,0|0,3:0|3:0,0:0:0:0:
278,45,71994,5,4,1:3:0:0:
418,178,72394,2,0,B|445:158|445:158|413:53,2,125,0|8|4,3:0|2:0|1:3,0:0:0:0:
251,287,73594,2,0,B|186:265|239:234|153:209,1,125,0|4,3:0|1:3,0:0:0:0:
149,219,74194,1,0,3:0:0:0:
140,228,74394,2,0,P|104:236|79:219,1,62.4999999999999,8|4,2:0|1:3,0:0:0:0:
33,149,74794,6,0,L|67:4,1,125,0|4,3:0|1:3,0:0:0:0:
192,97,75594,1,0,3:0:0:0:
329,38,75994,1,8,2:0:0:0:
487,105,76394,1,4,1:3:0:0:
436,279,76794,5,0,3:0:0:0:
265,190,77194,1,4,1:3:0:0:
118,334,77594,1,8,2:0:0:0:
0,168,77994,1,0,3:0:0:0:
167,37,78394,6,0,B|189:58|189:58|183:92,1,62.4999999999999,6|2,1:3|3:0,0:0:0:0:
249,160,78794,2,0,B|231:185|231:185|184:187,1,62.4999999999999,2|6,3:0|1:3,0:0:0:0:
108,231,79194,1,8,2:0:0:0:
116,222,79394,6,0,P|192:229|245:328,1,187.5,2|2,3:3|3:0,0:0:0:0:
342,361,80194,1,2,3:0:0:0:
354,355,80394,2,0,P|367:309|378:277,1,62.4999999999999,6|2,1:3|3:3,0:0:0:0:
451,230,80794,1,8,2:0:0:0:
388,146,80994,6,0,B|342:133|342:133|328:114|328:114|252:94,1,125,6|2,1:3|3:3,0:0:0:0:
182,79,81594,1,6,1:3:0:0:
172,88,81794,2,0,L|192:157,1,62.4999999999999,2|2,3:3|3:3,0:0:0:0:
212,243,82194,1,6,1:3:0:0:
131,307,82394,6,0,B|97:289|97:289|121:185,1,125,10|6,2:0|1:3,0:0:0:0:
199,145,82994,2,0,B|261:130|261:130|325:154|325:154|394:135,1,187.5,2|4,3:3|1:3,0:0:0:0:
475,101,83794,5,2,3:2:0:0:
476,89,83994,1,10,2:0:0:0:
478,78,84194,1,6,1:3:0:0:
480,67,84394,1,2,3:2:0:0:
482,56,84594,1,6,1:3:0:0:
484,45,84794,1,4,1:3:0:0:
292,305,85594,6,0,B|262:312|262:312|219:269,1,62.4999999999999,10|2,2:0|3:0,0:0:0:0:
189,208,85994,2,0,P|220:171|304:172,2,125,6|2|6,1:3|3:2|1:3,0:0:0:0:
145,295,86994,2,0,P|110:326|32:299,1,125,0|6,3:0|1:3,0:0:0:0:
0,231,87594,1,0,3:0:0:0:
109,78,87994,6,0,P|96:38|85:0,1,62.4999999999999,6|2,1:3|3:0,0:0:0:0:
196,43,88394,2,0,P|149:151|146:172,1,125,2|10,3:0|2:2,0:0:0:0:
353,113,89194,2,0,P|321:147|313:169,1,62.4999999999999,6|2,1:3|3:0,0:0:0:0:
263,239,89594,6,0,P|289:297|300:364,1,125,2|6,3:0|1:3,0:0:0:0:
291,370,90194,1,2,3:0:0:0:
278,378,90394,2,0,P|231:365|228:342,2,62.4999999999999,10|4|2,2:0|1:3|3:0,0:0:0:0:
380,198,91194,6,0,P|434:163|506:135,1,125,6|2,1:3|3:3,0:0:0:0:
449,59,91794,2,0,P|391:83|339:117,1,125,6|2,1:3|3:3,0:0:0:0:
250,97,92394,2,0,P|205:81|194:57,1,62.4999999999999,6|2,1:3|3:3,0:0:0:0:
116,20,92794,1,2,3:3:0:0:
101,20,92994,6,0,P|48:54|47:122,1,125,2|2,3:0|3:0,0:0:0:0:
61,201,93594,2,0,L|70:269,1,62.4999999999999,10|4,2:0|1:3,0:0:0:0:
259,344,94194,5,2,3:3:0:0:
265,332,94394,2,0,P|273:265|289:194,1,125,6|0,1:3|3:0,0:0:0:0:
178,174,94994,2,0,P|179:235|173:311,1,125,6|0,1:3|3:0,0:0:0:0:
92,335,95594,2,0,P|63:323|17:314,1,62.4999999999999,6|2,1:3|3:3,0:0:0:0:
48,130,96194,6,0,P|100:120|126:101,2,62.4999999999999,2|6|2,3:3|1:3|3:3,0:0:0:0:
0,49,96794,2,0,P|42:16|112:24,1,125,10|0,2:0|0:0,0:0:0:0:
208,19,97394,1,2,3:3:0:0:
292,78,97594,6,0,B|318:92|318:92|390:74,2,93.7499999999999,6|2|6,1:3|0:3|1:3,0:0:0:0:
204,123,98394,2,0,B|182:130|182:130|142:225,1,125,10|2,2:0|0:3,0:0:0:0:
333,343,99194,6,0,P|326:307|326:267,1,62.4999999999999,2|2,3:3|3:3,0:0:0:0:
400,221,99594,1,6,1:3:0:0:
400,221,99794,1,2,3:0:0:0:
400,221,99994,2,0,P|453:224|487:214,2,62.4999999999999,10|4|2,2:0|1:3|0:3,0:0:0:0:
232,339,100794,6,0,P|179:326|145:327,1,62.4999999999999,6|2,1:3|3:0,0:0:0:0:
79,316,101194,2,0,P|135:291|158:213,1,125,2|10,3:3|2:0,0:0:0:0:
109,47,101994,2,0,P|169:40|228:96,1,125,6|2,1:3|3:2,0:0:0:0:
258,164,102594,5,2,3:0:0:0:
349,203,102794,2,0,P|386:195|400:169,1,62.4999999999999,6|2,1:3|3:0,0:0:0:0:
474,108,103194,5,10,2:0:0:0:
481,88,103394,1,6,1:3:0:0:
475,56,103594,1,2,3:0:0:0:
442,26,103794,1,0,3:0:0:0:
351,317,107194,6,0,P|284:259|224:274,1,135.000000514984,4|0,1:3|3:0,0:0:0:0:
158,312,107794,1,4,1:3:0:0:
59,284,107994,1,8,2:0:0:0:
258,174,108394,6,0,B|247:144|247:144|198:137|165:197,2,135.000000514984,4|0|4,1:3|3:0|1:3,0:0:0:0:
336,252,109394,1,0,3:0:0:0:
437,244,109594,2,0,P|473:209|470:175,1,67.500000257492,10|6,2:0|1:3,0:0:0:0:
507,109,109994,2,0,P|480:72|438:63,1,67.500000257492,2|2,3:0|3:0,0:0:0:0:
372,106,110394,6,0,B|322:93|322:93|310:73|310:73|229:50,1,135.000000514984,4|0,1:3|3:0,0:0:0:0:
162,90,110994,1,4,1:3:0:0:
77,134,111194,2,0,B|85:169|85:169|119:178,1,67.500000257492,8|0,2:0|3:0,0:0:0:0:
175,245,111594,1,4,1:3:0:0:
185,241,111794,1,0,3:0:0:0:
195,237,111994,1,0,3:0:0:0:
395,354,112394,6,0,B|422:334|422:334|410:282,1,67.500000257492,4|0,1:3|3:0,0:0:0:0:
378,214,112794,1,10,2:0:0:0:
370,114,112994,2,0,P|406:96|457:171,1,135.000000514984,6|0,1:3|3:0,0:0:0:0:
368,217,113594,6,0,P|318:205|296:205,2,67.500000257492,4|0|0,1:3|3:0|3:0,0:0:0:0:
425,300,114194,1,4,1:3:0:0:
342,367,114394,2,0,P|267:340|260:278,1,135.000000514984,8|4,2:0|1:3,0:0:0:0:
149,78,115194,2,0,P|230:104|284:113,1,135.000000514984,0|4,3:0|1:3,0:0:0:0:
378,83,115794,1,0,3:0:0:0:
386,78,115994,6,0,L|369:159,1,67.500000257492,10|6,2:0|1:3,0:0:0:0:
356,241,116394,1,2,3:0:0:0:
356,241,116594,1,2,3:0:0:0:
356,241,116794,6,0,P|421:220|506:219,2,135.000000514984,4|0|8,1:3|3:0|2:0,0:0:0:0:
265,297,117794,1,0,3:0:0:0:
166,298,117994,2,0,P|157:276|204:245,1,67.500000257492,4|0,1:3|0:0,0:0:0:0:
272,305,118394,6,0,P|263:216|233:152,1,135.000000514984,0|4,3:0|1:3,0:0:0:0:
163,111,118994,1,0,3:0:0:0:
86,172,119194,6,0,L|8:154,1,67.500000257492,10|6,2:0|1:3,0:0:0:0:
7,55,119594,2,0,L|85:73,1,67.500000257492,2|0,3:0|3:0,0:0:0:0:
170,107,119994,6,0,B|240:83|193:46|283:21,1,135.000000514984,4|0,1:3|3:0,0:0:0:0:
372,48,120594,1,4,1:3:0:0:
465,8,120794,1,8,2:0:0:0:
354,192,121194,6,0,B|325:216|325:216|277:166|301:99,2,135.000000514984,4|0|4,1:3|3:0|1:3,0:0:0:0:
439,146,122194,1,0,3:0:0:0:
510,223,122394,2,0,P|483:252|440:242,1,67.500000257492,10|6,2:0|1:3,0:0:0:0:
392,330,122794,2,0,P|353:321|340:278,1,67.500000257492,2|2,3:0|3:0,0:0:0:0:
353,193,123194,6,0,B|309:205|309:205|302:214|302:214|213:240,1,135.000000514984,4|0,1:3|3:0,0:0:0:0:
129,271,123794,1,4,1:3:0:0:
48,212,123994,2,0,B|39:196|39:196|64:142,1,67.500000257492,8|0,2:0|3:0,0:0:0:0:
106,66,124394,1,4,1:3:0:0:
100,52,124594,1,0,3:0:0:0:
94,38,124794,1,0,3:0:0:0:
286,74,125194,6,0,P|267:119|260:154,1,67.500000257492,4|0,1:3|3:0,0:0:0:0:
315,227,125594,1,10,2:0:0:0:
315,227,125794,1,6,1:3:0:0:
315,227,125994,2,0,P|402:203|461:193,2,135.000000514984,2|4|0,3:0|1:3|3:0,0:0:0:0:
228,283,126994,1,4,1:3:0:0:
133,258,127194,6,0,B|129:230|129:230|166:205,1,67.500000257492,8|0,2:0|0:0,0:0:0:0:
234,291,127594,2,0,B|297:295|270:359|344:370,1,135.000000514984,4|0,1:3|3:0,0:0:0:0:
431,337,128194,1,0,3:0:0:0:
440,330,128394,2,0,B|444:302|444:302|407:277,1,67.500000257492,4|0,1:3|3:0,0:0:0:0:
347,201,128794,5,10,2:0:0:0:
347,201,128994,1,6,1:3:0:0:
347,201,129194,2,0,L|361:110,2,67.500000257492,2|2|0,3:0|3:0|0:0,0:0:0:0:
