osu file format v14

[General]
AudioFilename: audio.ogg
AudioLeadIn: 0
PreviewTime: 72971
Countdown: 0
SampleSet: Soft
StackLeniency: 0.7
Mode: 0
LetterboxInBreaks: 0
WidescreenStoryboard: 1

[Editor]
DistanceSpacing: 1.3
BeatDivisor: 4
GridSize: 16
TimelineZoom: 1.8

[Metadata]
Title:Platform
TitleUnicode:プラットホーム
Artist:Mashumairesh!!
ArtistUnicode:Mashumairesh!!
Creator:Lancien
Version:Insane
Source:SHOW BY ROCK!!ましゅまいれっしゅ!!
Tags:japanese anime show by rock!! sb69 ruhuyu ルフユ delmin デルミン mashima himeko マシマヒメコ howan ほわん toono hikaru 遠野ひかる natsuyoshi yuuko 夏吉ゆうこ watada misaki 和多田美咲 yamane aya 山根綺 pop insert song エールアンドレスポンス yell and response Stars!!
BeatmapID:4087902
BeatmapSetID:1970218

[Difficulty]
HPDrainRate:5
CircleSize:4
OverallDifficulty:8
ApproachRate:9
SliderMultiplier:1.6
SliderTickRate:1

[Events]
//Background and Video events
0,0,"bg.jpg",0,0
//Break Periods
//Storyboard Layer 0 (Background)
//Storyboard Layer 1 (Fail)
//Storyboard Layer 2 (Pass)
//Storyboard Layer 3 (Foreground)
//Storyboard Layer 4 (Overlay)
//Storyboard Sound Samples

[TimingPoints]
1346,375,4,2,1,50,1,0
1346,-133.333333333333,4,2,1,50,0,0
7346,-100,4,2,1,50,0,0
9408,-100,4,2,1,40,0,0
9596,-133.333333333333,4,2,1,40,0,0
10346,-200,4,2,1,40,0,0
11846,-100,4,2,1,60,0,0
23846,-133.333333333333,4,2,1,50,0,0
29846,-100,4,2,1,65,0,0
30783,-133.333333333333,4,2,1,50,0,0
34533,-100,4,2,1,50,0,0
34908,-133.333333333333,4,2,1,50,0,0
35658,-100,4,2,1,50,0,0
35846,-133.333333333333,4,2,1,50,0,0
40346,-100,4,2,1,50,0,0
40908,-111.111111111111,4,2,1,50,0,0
41846,-125,4,2,1,50,0,0
43346,-100,4,2,1,50,0,0
43908,-133.333333333333,4,2,1,50,0,0
46158,-100,4,2,1,50,0,0
59846,-100,4,2,1,55,0,0
73158,-83.3333333333333,4,2,1,45,0,0
73346,-83.3333333333333,4,2,1,60,0,1
83846,-66.6666666666667,4,2,1,60,0,1
85721,-83.3333333333333,4,2,1,60,0,1
92846,-100,4,2,1,65,0,0
93033,-111.111111111111,4,2,1,65,0,0
94346,-200,4,2,1,65,0,0
95846,-100,4,2,1,50,0,0
96783,-133.333333333333,4,2,1,50,0,0
101846,-100,4,2,1,50,0,0
102596,-133.333333333333,4,2,1,50,0,0
103908,-100,4,2,1,50,0,0
105408,-133.333333333333,4,2,1,50,0,0
107846,-100,4,2,1,50,0,0
116846,-133.333333333333,4,2,1,50,0,0
118158,-100,4,2,1,50,0,0
131846,-100,4,2,1,55,0,0
142346,-200,4,2,1,50,0,0
143846,-100,4,2,1,50,0,0
145346,-83.3333333333333,4,2,1,60,0,1
164846,-83.3333333333333,4,2,1,60,0,0
197096,-100,4,2,1,65,0,0
197658,-100,4,2,1,45,0,0
197846,-133.333333333333,4,2,1,45,0,0
202346,-83.3333333333333,4,2,1,50,0,0
203846,-83.3333333333333,4,2,1,60,0,1
207221,-66.6666666666667,4,2,1,60,0,1
207596,-83.3333333333333,4,2,1,60,0,1
241346,-133.333333333333,4,2,1,50,0,0
244346,-100,4,2,1,50,0,0
253158,-80,4,2,1,50,0,0
256346,-200,4,2,1,50,0,0

[Colours]
Combo1 : 249,254,141
Combo2 : 150,218,254
Combo3 : 196,136,255
Combo4 : 255,170,255

[HitObjects]
35,177,1346,6,0,P|90:102|135:283,1,420.000016021729,6|0,1:2|0:0,0:0:0:0:
131,188,2846,2,0,B|193:148|274:172|228:199|307:235|376:200,1,240.000009155274,6|2,1:2|0:0,0:0:0:0:
357,207,3971,2,0,P|363:155|369:129,1,60.0000022888184,2|0,0:0|0:0,0:0:0:0:
463,45,4346,2,0,P|456:100|453:188,1,120.000004577637,6|2,1:2|0:0,0:0:0:0:
452,164,4908,1,0,0:0:0:0:
360,68,5096,2,0,P|330:78|301:99,1,60.0000022888184,2|0,0:0|0:0,0:0:0:0:
228,149,5471,2,0,P|182:131|162:109,1,60.0000022888184,2|0,0:0|0:0,0:0:0:0:
176,16,5846,6,0,B|173:80|120:105|117:68|64:106|73:164,1,180.000006866455,6|0,1:2|0:0,0:0:0:0:
27,245,6596,1,2,0:0:0:0:
27,245,6783,2,0,P|74:225|105:220,1,60.0000022888184,2|0,0:0|0:0,0:0:0:0:
151,181,7158,1,2,0:0:0:0:
151,181,7252,1,2,0:0:0:0:
151,181,7346,6,0,P|164:208|164:223,3,40,8|8|10|8,0:0|0:0|0:0|0:0,0:0:0:0:
233,254,7721,2,0,P|216:290|203:303,3,40,10|8|10|8,0:0|0:0|0:0|0:0,0:0:0:0:
148,323,8096,1,10,0:0:0:0:
103,320,8189,1,8,0:0:0:0:
60,304,8283,1,10,0:0:0:0:
37,264,8377,1,8,0:0:0:0:
34,218,8471,1,10,0:0:0:0:
56,178,8564,1,8,0:0:0:0:
94,153,8658,1,10,0:0:0:0:
138,148,8752,1,8,0:0:0:0:
177,171,8846,5,6,1:2:0:0:
378,56,9033,2,0,B|359:129|327:90|286:190,1,160,6|2,1:2|0:0,0:0:0:0:
395,248,9596,2,0,P|382:195|371:173,2,60.0000022888184,2|2|2,0:0|0:0|0:0,0:0:0:0:
325,283,10158,1,0,0:0:0:0:
477,242,10346,6,0,P|423:237|226:353,1,280,2|0,0:0|0:0,0:0:0:0:
115,237,11846,6,0,P|96:190|107:155,1,80,6|8,1:2|0:0,0:0:0:0:
102,163,12127,1,8,0:0:0:0:
102,163,12221,1,8,1:2:0:0:
263,190,12408,2,0,B|337:172|311:126|408:98,1,160,2|8,0:0|0:0,0:0:0:0:
442,112,12877,1,8,0:0:0:0:
475,96,12971,1,8,1:2:0:0:
482,57,13064,1,8,0:0:0:0:
453,25,13158,2,0,L|400:12,1,40,10|0,0:0|0:0,0:0:0:0:
283,64,13346,6,0,P|239:45|183:30,1,80,0|8,1:2|0:0,0:0:0:0:
128,53,13627,1,8,0:0:0:0:
128,53,13721,2,0,L|108:103,2,40,8|8|8,1:2|0:0|0:0,0:0:0:0:
27,180,14096,2,0,P|83:174|142:239,1,120,2|0,1:2|0:0,0:0:0:0:
170,219,14471,1,8,1:2:0:0:
205,207,14564,1,8,0:0:0:0:
228,175,14658,1,8,0:0:0:0:
61,253,14846,5,0,1:2:0:0:
218,327,15033,1,2,0:0:0:0:
218,327,15127,1,10,0:0:0:0:
218,327,15221,1,10,1:2:0:0:
152,132,15408,1,2,0:0:0:0:
298,250,15596,1,10,1:2:0:0:
118,318,15783,1,2,0:0:0:0:
296,375,15971,2,0,L|313:333,1,40,10|8,1:2|0:0,0:0:0:0:
228,175,16158,2,0,L|205:234,1,40,10|8,0:0|0:0,0:0:0:0:
298,250,16346,6,0,L|388:228,1,80,0|10,1:2|0:0,0:0:0:0:
437,187,16627,1,8,0:0:0:0:
437,187,16721,2,0,P|447:132|418:87,1,80,10|2,1:2|0:0,0:0:0:0:
299,21,17096,1,8,1:2:0:0:
262,58,17189,1,8,0:0:0:0:
256,107,17283,1,8,0:0:0:0:
284,148,17377,1,8,0:0:0:0:
331,167,17471,2,0,P|354:161|375:146,1,40,8|8,1:2|0:0,0:0:0:0:
493,6,17658,6,0,B|392:27|433:53|341:82,1,160,6|0,1:2|0:0,0:0:0:0:
303,24,18127,1,8,0:0:0:0:
303,24,18221,2,0,P|273:6|263:3,2,40,10|8|8,1:2|0:0|0:0,0:0:0:0:
477,99,18596,2,0,P|461:151|456:191,1,80,8|8,1:2|0:0,0:0:0:0:
457,176,18877,1,8,0:0:0:0:
457,176,18971,1,8,1:2:0:0:
314,346,19158,6,0,P|322:268|407:228,1,160,6|8,1:2|0:0,0:0:0:0:
460,264,19627,1,8,0:0:0:0:
460,264,19721,2,0,L|467:310,2,40,10|8|8,1:2|0:0|0:0,0:0:0:0:
287,264,20096,2,0,P|235:244|197:234,1,80,8|8,1:2|0:0,0:0:0:0:
144,271,20377,1,8,0:0:0:0:
144,271,20471,2,0,L|128:224,1,40,8|0,1:2|0:0,0:0:0:0:
125,162,20658,6,0,P|200:165|287:115,1,160,6|0,1:2|1:2,0:0:0:0:
340,61,21221,2,0,P|284:72|261:102,1,80,10|0,0:0|1:2,0:0:0:0:
166,55,21596,2,0,P|137:98|137:141,1,80,0|0,1:2|1:2,0:0:0:0:
170,208,21971,1,8,0:0:0:0:
91,209,22158,2,0,P|143:219|209:263,1,120,6|0,1:2|0:0,0:0:0:0:
169,325,22533,2,0,P|117:315|51:271,1,120,2|0,1:2|0:0,0:0:0:0:
60,280,22908,1,10,0:0:0:0:
50,71,23096,5,0,1:2:0:0:
207,179,23283,1,10,0:0:0:0:
164,39,23471,1,0,1:2:0:0:
91,209,23658,1,8,0:0:0:0:
244,87,23846,6,0,P|285:119|287:248,1,180.000006866455,6|0,1:2|0:0,0:0:0:0:
203,287,24596,1,2,1:2:0:0:
203,287,24783,2,0,P|246:306|268:340,1,60.0000022888184,2|0,0:0|1:2,0:0:0:0:
351,365,25158,1,2,0:0:0:0:
351,365,25252,1,2,0:0:0:0:
351,365,25346,2,0,P|419:350|458:294,1,120.000004577637,2|0,1:2|1:2,0:0:0:0:
509,257,25908,2,0,P|499:210|497:186,1,60.0000022888184,2|0,0:0|1:2,0:0:0:0:
497,198,26283,1,2,0:0:0:0:
402,167,26471,2,0,P|412:214|414:238,1,60.0000022888184,0|2,1:2|0:0,0:0:0:0:
488,109,26846,6,0,B|395:90|423:56|322:34,1,180.000006866455,2|2,1:2|0:0,0:0:0:0:
221,168,27596,2,0,P|231:126|242:94,1,60.0000022888184,0|2,1:2|0:0,0:0:0:0:
155,20,27971,1,2,1:2:0:0:
155,20,28158,2,0,P|145:62|134:94,1,60.0000022888184,2|0,0:0|1:2,0:0:0:0:
52,134,28533,6,0,P|105:155|120:176,1,60.0000022888184,2|2,0:0|1:2,0:0:0:0:
221,168,28908,2,0,P|233:218|212:305,1,120.000004577637,2|0,0:0|0:0,0:0:0:0:
264,359,29471,2,0,P|228:379|183:390,1,60.0000022888184,0|0,1:2|0:0,0:0:0:0:
130,384,29846,6,0,B|129:298|70:279|52:288|21:256|19:209,1,200,6|0,1:2|0:0,0:0:0:0:
21,227,30408,1,2,0:0:0:0:
183,247,30596,1,2,1:2:0:0:
183,247,30783,2,0,P|144:220|117:209,1,60.0000022888184,2|2,0:0|1:2,0:0:0:0:
170,109,31158,5,2,0:0:0:0:
170,109,31252,1,2,0:0:0:0:
170,109,31346,2,0,B|142:177|124:149|105:222,1,120.000004577637,2|0,1:2|1:2,0:0:0:0:
78,102,31908,2,0,P|58:61|9:28,1,90.0000034332277,2|0,0:0|0:0,0:0:0:0:
23,33,32283,1,2,0:0:0:0:
170,109,32471,1,2,1:2:0:0:
190,225,32658,5,2,0:0:0:0:
190,225,32752,1,2,0:0:0:0:
190,225,32846,2,0,P|242:193|320:176,1,120.000004577637,2|0,1:2|1:2,0:0:0:0:
345,120,33408,1,0,0:0:0:0:
427,256,33596,2,0,P|448:214|451:187,1,60.0000022888184,0|0,1:2|0:0,0:0:0:0:
500,139,33971,2,0,P|486:97|471:78,1,60.0000022888184,0|2,1:2|0:0,0:0:0:0:
477,84,34252,1,2,0:0:0:0:
477,84,34346,5,2,1:2:0:0:
345,120,34533,2,0,P|296:86|221:55,1,120,2|0,0:0|0:0,0:0:0:0:
163,102,34908,2,0,P|183:135|193:172,1,60.0000022888184,2|0,0:0|1:2,0:0:0:0:
258,212,35283,1,2,0:0:0:0:
345,210,35471,1,0,1:2:0:0:
413,259,35658,2,0,P|408:285|397:306,1,40,2|2,0:0|0:0,0:0:0:0:
446,368,35846,6,0,P|386:343|306:346,2,120.000004577637,6|2|2,1:2|1:2|1:2,0:0:0:0:
255,350,36783,2,0,P|259:306|281:289,1,60.0000022888184,2|0,0:0|1:2,0:0:0:0:
320,174,37158,1,2,0:0:0:0:
320,174,37252,1,2,0:0:0:0:
320,174,37346,2,0,B|346:257|375:218|412:322,1,150.000005722046,2|0,1:2|0:0,0:0:0:0:
455,298,37908,2,0,P|481:255|469:226,1,60.0000022888184,2|0,0:0|1:2,0:0:0:0:
472,172,38283,1,2,0:0:0:0:
398,35,38471,2,0,P|386:68|381:103,1,60.0000022888184,0|2,1:2|0:0,0:0:0:0:
275,167,38752,1,2,0:0:0:0:
275,167,38846,6,0,P|297:101|307:37,1,120.000004577637,2|2,1:2|1:2,0:0:0:0:
99,25,39596,2,0,P|117:49|127:80,1,60.0000022888184,2|2,1:2|0:0,0:0:0:0:
126,77,39971,1,2,1:2:0:0:
7,122,40158,1,2,0:0:0:0:
7,122,40252,1,2,0:0:0:0:
7,122,40346,2,0,P|85:118|173:167,1,160,2|2,1:2|1:2,0:0:0:0:
307,59,40908,2,0,B|232:52|193:122|193:122|249:121|258:169,1,215.999993408203,2|0,0:0|1:2,0:0:0:0:
75,374,41846,6,0,P|84:324|107:304,1,64,6|0,1:2|0:0,0:0:0:0:
18,246,42221,2,0,P|56:278|62:308,1,64,2|0,1:2|0:0,0:0:0:0:
157,260,42596,2,0,P|109:277|80:267,1,64,2|0,1:2|0:0,0:0:0:0:
240,315,42971,1,2,1:2:0:0:
318,265,43158,5,2,0:0:0:0:
318,265,43252,1,2,0:0:0:0:
318,265,43346,2,0,B|277:161|246:208|202:128,1,160,2|2,1:2|1:2,0:0:0:0:
380,39,43908,2,0,P|332:58|295:129,1,120.000004577637,2|2,0:0|0:0,0:0:0:0:
358,158,44471,1,0,1:2:0:0:
483,152,44658,5,2,0:0:0:0:
483,152,44752,1,2,0:0:0:0:
483,152,44846,2,0,B|376:173|416:208|312:249,2,180.000006866455,2|2|2,1:2|0:0|1:2,0:0:0:0:
512,306,46158,2,0,P|460:267|357:240,1,160,6|2,1:2|0:3,0:0:0:0:
315,183,46627,1,2,0:3:0:0:
315,183,46721,2,0,P|268:209|245:234,1,80,2|0,1:3|0:0,0:0:0:0:
123,359,47096,1,8,1:2:0:0:
84,368,47189,1,8,0:0:0:0:
49,350,47283,1,10,0:0:0:0:
33,315,47377,1,8,0:0:0:0:
44,277,47471,2,0,L|60:227,1,40,10|8,1:2|0:0,0:0:0:0:
146,156,47658,2,0,L|155:203,1,40,10|8,0:0|0:0,0:0:0:0:
244,220,47846,6,0,B|274:126|312:161|352:34,1,200,6|0,1:2|0:0,0:0:0:0:
346,50,48408,1,10,0:3:0:0:
211,0,48596,2,0,P|241:51|251:92,1,80,10|4,1:3|0:3,0:0:0:0:
247,70,48971,1,4,1:3:0:0:
347,153,49158,1,2,0:0:0:0:
347,153,49346,2,0,P|393:143|423:114,1,80,2|10,1:2|0:0,0:0:0:0:
496,98,49627,1,8,0:0:0:0:
496,98,49721,2,0,L|486:43,1,40,10|0,1:2|0:0,0:0:0:0:
408,0,49908,2,0,L|417:44,1,40,10|0,0:0|0:0,0:0:0:0:
349,77,50096,5,8,1:2:0:0:
380,233,50283,1,10,0:0:0:0:
380,233,50377,1,8,0:0:0:0:
380,233,50471,1,10,1:2:0:0:
307,158,50658,2,0,L|370:149,1,40,10|8,0:0|0:0,0:0:0:0:
484,262,50846,2,0,B|466:202|466:202|435:176|435:176|406:91,1,160,6|2,1:2|1:2,0:0:0:0:
488,58,51408,2,0,L|497:106,2,40,2|2|2,0:3|0:3|1:2,0:0:0:0:
393,250,51783,2,0,P|344:227|253:196,1,120,2|0,0:0|0:0,0:0:0:0:
200,214,52158,2,0,P|229:272|261:271,1,80,2|0,0:0|1:2,0:0:0:0:
282,204,52533,5,10,0:0:0:0:
236,117,52721,1,10,1:2:0:0:
86,259,52908,1,10,0:0:0:0:
86,259,53002,1,10,0:0:0:0:
86,259,53096,1,10,1:2:0:0:
57,44,53283,1,8,0:0:0:0:
159,165,53471,1,8,1:2:0:0:
16,118,53658,5,10,0:0:0:0:
16,118,53752,1,10,0:0:0:0:
16,118,53846,2,0,P|127:58|181:50,1,160,6|0,1:2|1:2,0:0:0:0:
255,15,54408,1,2,0:0:0:0:
255,15,54596,2,0,P|243:67|242:105,1,80,2|0,1:2|0:0,0:0:0:0:
315,189,54971,2,0,P|327:137|328:99,1,80,0|2,1:2|0:0,0:0:0:0:
186,176,55346,6,0,P|260:207|285:295,1,160,2|0,1:2|1:2,0:0:0:0:
120,224,55908,1,2,0:0:0:0:
120,224,56096,2,0,P|134:161|144:76,1,120,2|0,1:2|0:0,0:0:0:0:
141,106,56471,1,0,1:2:0:0:
43,285,56658,1,2,0:0:0:0:
127,330,56846,6,0,B|216:294|173:256|281:228,1,160,2|0,1:2|1:2,0:0:0:0:
343,284,57408,1,2,0:0:0:0:
343,284,57596,2,0,P|352:240|362:196,1,80,2|0,1:2|0:0,0:0:0:0:
330,127,57971,1,0,1:2:0:0:
508,203,58158,6,0,B|473:97|424:134|410:40,1,160,2|2,0:0|0:0,0:0:0:0:
464,7,58721,1,10,1:2:0:0:
330,127,58908,1,8,0:0:0:0:
444,143,59096,1,10,1:2:0:0:
288,39,59283,1,8,0:0:0:0:
290,222,59471,1,10,1:2:0:0:
290,222,59658,1,10,0:0:0:0:
181,76,59846,6,0,P|172:127|166:162,1,80,6|10,1:2|0:0,0:0:0:0:
108,207,60127,1,8,0:0:0:0:
108,207,60221,2,0,P|80:193|67:176,3,40,8|8|10|8,1:2|0:0|0:0|0:0,0:0:0:0:
6,158,60596,2,0,P|-1:123|0:114,3,40,8|8|10|8,1:2|0:0|0:0|0:0,0:0:0:0:
53,40,60971,1,10,1:2:0:0:
87,14,61064,1,8,0:0:0:0:
119,10,61158,1,8,0:0:0:0:
155,15,61252,1,8,0:0:0:0:
187,36,61346,6,0,L|180:81,3,40,8|8|8|8,1:2|0:0|0:0|0:0,0:0:0:0:
256,147,61721,2,0,L|263:102,3,40,8|8|8|8,1:2|0:0|0:0|0:0,0:0:0:0:
176,193,62096,1,8,1:2:0:0:
169,232,62189,1,8,0:0:0:0:
180,270,62283,1,8,0:0:0:0:
210,296,62377,1,8,0:0:0:0:
249,301,62471,2,0,L|307:291,1,40,10|8,1:2|0:0,0:0:0:0:
352,342,62658,2,0,L|410:332,1,40,10|8,0:0|0:0,0:0:0:0:
464,384,62846,6,0,B|478:316|478:316|461:279|461:279|471:210,1,160,6|0,1:2|1:2,0:0:0:0:
333,99,63408,1,10,0:0:0:0:
333,99,63502,1,8,0:0:0:0:
333,99,63596,2,0,P|340:129|348:139,3,40,8|8|10|8,1:2|0:0|0:0|0:0,0:0:0:0:
347,213,63971,2,0,P|379:223|394:221,3,40,8|8|10|8,1:2|0:0|0:0|0:0,0:0:0:0:
464,220,64346,5,8,1:2:0:0:
496,196,64439,1,8,0:0:0:0:
506,157,64533,1,10,0:0:0:0:
499,117,64627,1,8,0:0:0:0:
468,91,64721,1,10,1:2:0:0:
429,83,64814,1,8,0:0:0:0:
391,97,64908,1,8,0:0:0:0:
351,93,65002,1,8,0:0:0:0:
318,69,65096,2,0,L|310:27,1,40,10|8,1:2|0:0,0:0:0:0:
228,127,65283,2,0,L|220:172,1,40,8|8,0:0|0:0,0:0:0:0:
145,71,65471,2,0,L|137:26,1,40,8|8,1:2|0:0,0:0:0:0:
60,125,65658,2,0,L|52:170,1,40,10|8,0:0|0:0,0:0:0:0:
7,242,65846,6,0,B|40:302|78:256|122:393,1,160,6|0,1:2|1:2,0:0:0:0:
160,270,66408,1,2,0:0:0:0:
160,270,66596,2,0,P|177:214|233:121,1,160,2|0,1:2|1:2,0:0:0:0:
315,201,67158,1,2,0:0:0:0:
315,201,67346,2,0,P|384:221|435:143,1,160,2|0,1:2|1:2,0:0:0:0:
419,14,67908,1,2,0:0:0:0:
419,14,68096,2,0,P|409:59|396:180,1,160,2|0,1:2|1:2,0:0:0:0:
489,256,68658,2,0,L|437:281,1,40,2|2,0:0|0:0,0:0:0:0:
386,331,68846,5,6,1:2:0:0:
260,253,69033,2,0,P|287:212|326:200,1,80,2|2,0:0|1:2,0:0:0:0:
396,172,69314,1,2,0:0:0:0:
396,172,69408,2,0,L|413:115,1,40,2|2,0:0|0:0,0:0:0:0:
431,57,69596,1,2,1:2:0:0:
364,9,69783,1,2,0:0:0:0:
287,24,69971,1,2,1:2:0:0:
237,93,70158,1,2,0:0:0:0:
248,186,70346,5,10,1:2:0:0:
135,41,70533,2,0,P|124:82|109:132,1,80,10|0,0:0|1:2,0:0:0:0:
53,296,70908,2,0,B|88:194|145:249|179:153,1,160,10|10,0:0|0:0,0:0:0:0:
163,187,71471,1,0,1:2:0:0:
326,383,71658,2,0,B|288:290|237:329|200:240,1,160,10|10,0:0|0:0,0:0:0:0:
277,225,72221,1,10,1:2:0:0:
183,363,72408,1,10,0:0:0:0:
90,148,72596,5,10,1:2:0:0:
90,148,72971,2,0,L|54:106,1,40,6|2,0:0|0:0,0:0:0:0:
143,67,73158,2,0,L|152:9,1,47.9999985351563,2|2,0:0|0:0,0:0:0:0:
251,46,73346,6,0,L|420:-11,1,143.999995605469,2|0,1:2|0:0,0:0:0:0:
388,0,73721,1,2,1:2:0:0:
251,139,73908,1,8,0:0:0:0:
251,139,74002,1,8,0:0:0:0:
251,139,74096,2,0,L|186:115,1,47.9999985351563,2|8,1:2|0:0,0:0:0:0:
370,201,74283,1,8,0:0:0:0:
310,292,74471,2,0,P|232:301|207:339,1,95.9999970703126,10|8,1:2|0:0,0:0:0:0:
166,368,74752,1,8,0:0:0:0:
166,368,74846,6,0,B|152:290|86:254|86:254|114:223|153:218,1,191.999994140625,2|0,1:2|1:2,0:0:0:0:
205,254,75408,1,8,0:0:0:0:
205,254,75502,1,8,0:0:0:0:
205,254,75596,2,0,P|231:202|216:109,1,143.999995605469,2|0,1:2|0:0,0:0:0:0:
155,86,75971,1,10,1:2:0:0:
315,69,76158,5,8,0:0:0:0:
315,69,76252,1,8,0:0:0:0:
315,69,76346,2,0,B|337:142|337:142|324:189|324:189|347:267,1,191.999994140625,0|2,1:2|1:2,0:0:0:0:
377,334,76908,1,8,0:0:0:0:
377,334,77002,1,8,0:0:0:0:
377,334,77096,2,0,L|393:387,1,47.9999985351563,2|8,1:2|0:0,0:0:0:0:
265,258,77283,1,8,0:0:0:0:
432,271,77471,2,0,P|490:267|527:227,1,95.9999970703126,10|0,1:2|0:0,0:0:0:0:
346,0,77846,6,0,B|322:93|292:28|245:167,1,191.999994140625,0|0,1:2|1:2,0:0:0:0:
492,173,78408,1,8,0:0:0:0:
456,205,78502,1,8,0:0:0:0:
408,211,78596,1,2,1:2:0:0:
364,190,78689,1,8,0:0:0:0:
342,146,78783,1,10,0:0:0:0:
506,94,78971,2,0,L|495:157,1,47.9999985351563,10|8,1:2|0:0,0:0:0:0:
364,190,79158,2,0,L|353:253,1,47.9999985351563,10|8,0:0|0:0,0:0:0:0:
487,324,79346,6,0,B|412:301|412:301|372:317|372:317|291:323,1,191.999994140625,6|2,1:2|1:2,0:0:0:0:
198,373,79908,1,8,0:0:0:0:
198,373,80002,1,8,0:0:0:0:
198,373,80096,2,0,L|183:266,1,95.9999970703126,2|8,1:2|0:0,0:0:0:0:
304,96,80471,2,0,P|252:147|218:146,1,95.9999970703126,10|8,1:2|0:0,0:0:0:0:
171,95,80752,1,8,0:0:0:0:
171,95,80846,6,0,P|112:117|93:253,1,191.999994140625,2|2,1:2|1:2,0:0:0:0:
198,373,81408,1,8,0:0:0:0:
198,373,81502,1,8,0:0:0:0:
198,373,81596,2,0,L|180:252,1,95.9999970703126,2|0,1:2|0:0,0:0:0:0:
24,280,81971,1,10,1:2:0:0:
47,162,82158,5,10,0:0:0:0:
47,162,82252,1,8,0:0:0:0:
47,162,82346,2,0,B|179:116|134:190|262:152,1,191.999994140625,2|0,1:2|1:2,0:0:0:0:
331,207,82908,1,10,0:0:0:0:
331,207,83002,1,8,0:0:0:0:
331,207,83096,2,0,L|360:44,1,143.999995605469,2|0,1:2|0:0,0:0:0:0:
356,65,83471,1,0,1:2:0:0:
451,277,83658,6,0,P|416:296|406:308,1,47.9999985351563,10|8,0:0|0:0,0:0:0:0:
350,380,83846,2,0,B|324:253|265:310|239:198,1,180.000006866455,2|0,1:2|0:0,0:0:0:0:
251,235,84221,1,14,1:2:0:0:
187,344,84408,1,2,0:2:0:0:
16,242,84596,5,10,1:2:0:0:
47,211,84689,1,8,0:0:0:0:
89,206,84783,1,8,0:0:0:0:
130,218,84877,1,8,0:0:0:0:
173,227,84971,1,8,1:2:0:0:
212,210,85064,1,8,0:0:0:0:
237,174,85158,1,8,0:0:0:0:
231,131,85252,1,8,0:0:0:0:
199,101,85346,6,0,P|182:133|148:217,1,120.000004577637,6|0,1:2|0:0,0:0:0:0:
0,87,85721,2,0,P|67:87|94:138,1,95.9999970703126,10|8,1:2|0:0,0:0:0:0:
140,56,86002,1,8,0:0:0:0:
140,56,86096,2,0,L|150:2,2,47.9999985351563,2|8|8,1:2|0:0|0:0,0:0:0:0:
29,158,86471,1,10,1:2:0:0:
220,213,86658,5,8,0:0:0:0:
220,213,86752,1,8,0:0:0:0:
220,213,86846,2,0,P|202:272|192:374,1,143.999995605469,2|0,1:2|0:0,0:0:0:0:
191,353,87221,1,2,1:2:0:0:
66,296,87408,1,8,0:0:0:0:
66,296,87502,1,8,0:0:0:0:
66,296,87596,2,0,P|112:272|162:276,1,95.9999970703126,2|0,1:2|0:0,0:0:0:0:
314,372,87971,1,10,1:2:0:0:
382,248,88158,5,8,0:0:0:0:
382,248,88252,1,8,0:0:0:0:
382,248,88346,2,0,B|366:327|335:285|309:393,1,143.999995605469,0|0,1:2|0:2,0:0:0:0:
314,372,88721,1,10,1:2:0:0:
255,229,88908,2,0,P|291:242|306:262,1,47.9999985351563,10|8,0:0|0:0,0:0:0:0:
409,360,89096,2,0,P|457:356|486:311,1,95.9999970703126,10|0,1:2|0:0,0:0:0:0:
437,141,89471,1,2,1:2:0:0:
181,117,89658,5,8,0:0:0:0:
181,117,89752,1,8,0:0:0:0:
181,117,89846,2,0,B|251:97|251:97|304:125|304:125|396:138,1,191.999994140625,0|0,1:2|1:2,0:0:0:0:
170,206,90408,1,12,0:0:0:0:
328,47,90596,2,0,L|322:-7,2,47.9999985351563,10|8|10,1:2|1:2|0:0,0:0:0:0:
351,208,90971,1,0,1:2:0:0:
418,61,91158,5,10,0:0:0:0:
418,61,91252,1,8,0:0:0:0:
418,61,91346,2,0,P|451:58|488:74,3,47.9999985351563,12|8|10|8,1:2|0:0|0:0|0:0,0:0:0:0:
493,93,91721,1,10,1:2:0:0:
497,134,91814,1,8,0:0:0:0:
469,166,91908,1,10,0:0:0:0:
426,174,92002,1,8,0:0:0:0:
393,202,92096,1,10,1:2:0:0:
374,239,92189,1,8,0:0:0:0:
375,281,92283,1,10,0:0:0:0:
401,314,92377,1,8,0:0:0:0:
442,324,92471,2,0,L|489:314,1,47.9999985351563,10|8,1:2|0:0,0:0:0:0:
507,234,92658,2,0,L|453:245,1,47.9999985351563,10|8,0:0|0:0,0:0:0:0:
293,350,92846,5,14,1:2:0:0:
242,136,93033,2,0,P|288:117|298:179,1,107.999996704102,14|0,1:2|0:0,0:0:0:0:
309,160,93408,1,2,0:0:0:0:
215,215,93596,2,0,B|126:185|126:185|87:206|51:210,1,143.999995605469,2|2,0:0|0:0,0:0:0:0:
45,138,94158,5,2,0:0:0:0:
45,138,94252,1,2,0:0:0:0:
45,138,94346,2,0,B|-15:79|17:6|17:6|51:15|46:66,1,200,6|2,1:2|0:2,0:0:0:0:
0,203,95471,1,2,3:2:0:0:
0,203,95564,1,2,3:2:0:0:
0,203,95658,1,2,3:2:0:0:
0,203,95752,1,2,3:2:0:0:
0,203,95846,6,0,P|61:167|174:154,2,160,6|10|2,1:2|1:2|1:2,0:0:0:0:
199,221,96783,1,10,0:0:0:0:
51,364,96971,2,0,P|29:322|27:297,1,60.0000022888184,0|10,1:2|0:0,0:0:0:0:
79,255,97252,1,8,0:0:0:0:
79,255,97346,2,0,B|147:272|134:294|206:314,1,120.000004577637,0|0,1:2|1:2,0:0:0:0:
270,303,97908,2,0,P|278:255|288:227,1,60.0000022888184,10|0,0:0|1:2,0:0:0:0:
281,244,98283,1,10,0:0:0:0:
210,162,98471,2,0,P|202:210|192:238,1,60.0000022888184,2|10,1:2|0:0,0:0:0:0:
152,94,98752,1,8,0:0:0:0:
152,94,98846,6,0,P|198:135|324:132,1,180.000006866455,0|10,1:2|0:0,0:0:0:0:
401,158,99596,2,0,P|391:111|388:85,1,60.0000022888184,2|10,1:2|0:0,0:0:0:0:
389,99,99971,1,2,1:2:0:0:
299,0,100158,2,0,P|309:47|312:73,1,60.0000022888184,10|0,0:0|1:2,0:0:0:0:
310,58,100533,1,2,0:0:0:0:
497,154,100721,1,10,1:2:0:0:
497,154,100908,2,0,P|446:181|420:251,1,120.000004577637,10|8,0:0|0:0,0:0:0:0:
348,292,101471,2,0,P|299:279|292:250,1,60.0000022888184,0|8,1:2|0:0,0:0:0:0:
233,318,101752,1,8,0:0:0:0:
233,318,101846,6,0,P|246:260|272:155,1,160,6|0,1:2|1:2,0:0:0:0:
346,184,102408,1,10,0:0:0:0:
208,67,102596,1,2,1:2:0:0:
208,67,102783,2,0,P|196:118|189:143,1,60.0000022888184,10|2,0:0|1:2,0:0:0:0:
165,209,103158,1,10,0:0:0:0:
165,209,103252,1,10,0:0:0:0:
165,209,103346,1,10,1:2:0:0:
83,256,103533,6,0,P|71:205|64:180,1,60.0000022888184,2|8,0:0|1:2,0:0:0:0:
3,143,103908,2,0,B|79:121|61:80|138:43,1,160,10|10,0:0|0:0,0:0:0:0:
208,67,104471,1,2,1:2:0:0:
323,23,104658,1,10,0:0:0:0:
323,23,104752,1,10,0:0:0:0:
323,23,104846,2,0,P|292:99|289:195,1,160,6|0,1:2|1:2,0:0:0:0:
435,72,105408,2,0,P|432:122|404:198,1,120.000004577637,8|8,0:0|0:0,0:0:0:0:
339,238,105971,1,0,1:2:0:0:
360,356,106158,5,10,0:0:0:0:
360,356,106252,1,8,0:0:0:0:
360,356,106346,2,0,B|331:190|210:276|180:150,1,270.000010299683,6|0,1:2|0:0,0:0:0:0:
185,169,107283,2,0,P|206:145|211:128,1,30.0000011444092,2|2,0:0|0:0,0:0:0:0:
159,73,107471,2,0,P|125:98|101:150,1,90.0000034332277,2|0,0:0|0:0,0:0:0:0:
21,148,107846,6,0,P|46:227|61:297,1,120,6|0,1:2|0:0,0:0:0:0:
101,327,108221,2,0,P|154:309|166:272,1,80,10|8,1:2|0:0,0:0:0:0:
241,279,108502,1,8,0:0:0:0:
241,279,108596,2,0,L|229:233,2,40,2|8|2,1:2|0:0|0:0,0:0:0:0:
263,369,108971,1,8,1:2:0:0:
387,321,109158,5,2,0:0:0:0:
387,321,109252,1,2,0:0:0:0:
387,321,109346,2,0,B|400:260|400:260|393:223|393:223|411:155,1,160,0|10,1:2|1:2,0:0:0:0:
511,217,109908,1,10,0:0:0:0:
511,217,110002,1,8,0:0:0:0:
511,217,110096,2,0,L|462:226,2,40,0|8|2,1:2|0:0|0:0,0:0:0:0:
357,240,110471,1,8,1:2:0:0:
419,81,110658,5,2,0:0:0:0:
419,81,110752,1,2,0:0:0:0:
419,81,110846,2,0,B|313:103|365:131|261:163,1,160,2|10,1:2|1:2,0:0:0:0:
167,28,111408,2,0,P|229:32|267:95,1,120,2|0,0:0|0:0,0:0:0:0:
263,74,111783,1,10,0:0:0:0:
170,207,111971,2,0,P|159:157|152:118,1,80,10|10,1:2|0:0,0:0:0:0:
86,92,112252,1,8,0:0:0:0:
86,92,112346,6,0,P|41:107|22:141,1,80,0|2,1:2|0:0,0:0:0:0:
53,201,112721,1,10,1:2:0:0:
166,298,112908,2,0,B|170:242|211:230|221:238|267:227|276:176,1,160,2|8,0:0|0:0,0:0:0:0:
310,59,113471,1,8,1:2:0:0:
333,95,113564,1,8,0:0:0:0:
370,117,113658,1,8,0:0:0:0:
413,124,113752,1,8,0:0:0:0:
456,120,113846,6,0,P|440:191|428:258,1,120,2|0,1:2|0:0,0:0:0:0:
431,237,114221,1,10,1:2:0:0:
512,308,114408,1,8,0:0:0:0:
512,308,114502,1,8,0:0:0:0:
512,308,114596,2,0,P|480:321|466:328,2,40,2|8|0,1:2|0:0|0:0,0:0:0:0:
406,378,114971,2,0,P|360:362|333:318,1,80,10|10,1:2|0:0,0:0:0:0:
274,285,115252,1,8,0:0:0:0:
274,285,115346,6,0,P|284:227|289:147,1,120,2|0,1:2|0:0,0:0:0:0:
288,166,115721,1,10,1:2:0:0:
169,247,115908,1,10,0:0:0:0:
169,247,116002,1,8,0:0:0:0:
169,247,116096,2,0,P|191:237|214:235,1,40,0|8,1:2|0:0,0:0:0:0:
366,208,116283,2,0,P|410:199|463:203,1,80,2|8,0:0|1:2,0:0:0:0:
313,92,116658,5,10,0:0:0:0:
313,92,116752,1,8,0:0:0:0:
313,92,116846,2,0,B|241:82|211:155|211:155|192:127|218:99,1,180.000006866455,4|2,1:2|0:3,0:0:0:0:
210,109,117502,1,2,0:3:0:0:
210,109,117596,1,10,1:2:0:0:
128,207,117783,1,0,1:2:0:0:
46,93,117971,1,8,1:2:0:0:
34,248,118158,6,0,P|121:251|203:305,1,160,6|2,1:2|1:2,0:0:0:0:
231,346,118721,1,2,1:2:0:0:
238,211,118908,1,2,1:2:0:0:
126,349,119096,1,8,1:2:0:0:
310,282,119283,1,10,0:0:0:0:
141,207,119471,1,10,1:2:0:0:
253,374,119658,1,10,0:0:0:0:
190,140,119846,6,0,P|112:133|60:224,1,160,6|0,1:2|1:2,0:0:0:0:
80,287,120408,1,10,0:3:0:0:
164,341,120596,1,10,1:3:0:0:
249,336,120783,1,8,0:3:0:0:
314,298,120971,1,4,1:3:0:0:
335,230,121158,1,6,0:3:0:0:
395,357,121346,6,0,P|404:301|410:268,1,80,2|10,1:2|0:0,0:0:0:0:
263,132,121721,2,0,P|254:188|248:221,1,80,6|2,1:3|0:0,0:0:0:0:
335,230,122096,1,0,1:2:0:0:
158,180,122283,1,10,0:0:0:0:
158,180,122377,1,8,0:0:0:0:
158,180,122471,1,2,1:2:0:0:
224,53,122658,5,10,0:0:0:0:
224,53,122752,1,8,0:0:0:0:
224,53,122846,2,0,P|267:47|359:127,1,160,6|2,1:2|1:2,0:0:0:0:
482,44,123408,2,0,P|467:73|464:87,2,40,2|2|2,0:3|0:3|1:3,0:0:0:0:
478,154,123783,1,2,0:0:0:0:
354,113,123971,1,0,1:2:0:0:
263,234,124158,1,2,0:0:0:0:
263,234,124346,6,0,P|248:192|246:144,1,80,2|10,1:2|0:0,0:0:0:0:
432,255,124721,2,0,P|417:307|398:335,1,80,10|10,1:2|0:0,0:0:0:0:
403,328,125002,1,10,0:0:0:0:
403,328,125096,1,2,1:2:0:0:
330,197,125283,1,8,0:0:0:0:
250,331,125471,2,0,P|198:321|170:280,1,80,0|10,1:2|0:0,0:0:0:0:
113,163,125846,5,6,1:2:0:0:
182,219,126033,2,0,B|207:120|255:146|280:70,1,160,0|2,1:2|1:2,0:0:0:0:
136,6,126596,2,0,P|176:38|200:74,1,80,10|0,1:2|0:0,0:0:0:0:
192,60,126971,1,0,1:2:0:0:
65,108,127158,1,10,0:0:0:0:
65,108,127346,2,0,P|89:161|91:189,2,80,2|8|0,1:2|0:0|1:2,0:0:0:0:
5,170,127908,1,2,0:0:0:0:
88,274,128096,2,0,B|179:237|143:199|238:169,1,160,10|0,1:2|1:2,0:0:0:0:
294,234,128658,1,10,0:0:0:0:
287,59,128846,5,6,1:2:0:0:
287,59,129033,2,0,P|267:107|255:221,1,160,0|0,1:2|1:2,0:0:0:0:
339,349,129596,2,0,P|409:307|374:222,1,160,10|0,1:2|1:2,0:0:0:0:
397,239,130158,1,10,0:0:0:0:
503,190,130346,6,0,B|438:159|460:140|385:110,1,120,2|0,1:2|0:0,0:0:0:0:
329,123,130721,1,10,1:2:0:0:
362,37,130908,1,8,0:0:0:0:
266,177,131096,1,10,1:2:0:0:
175,43,131283,1,8,0:0:0:0:
92,213,131471,2,0,P|72:155|69:110,1,80,10|10,1:2|0:0,0:0:0:0:
0,302,131846,6,0,P|68:303|105:328,1,80,6|10,1:2|0:0,0:0:0:0:
131,370,132127,1,8,0:0:0:0:
131,370,132221,2,0,P|154:339|155:324,3,40,10|8|10|8,1:2|0:0|0:0|0:0,0:0:0:0:
231,318,132596,2,0,P|218:273|203:261,3,40,8|8|10|8,1:2|0:0|0:0|0:0,0:0:0:0:
164,217,132971,1,10,1:2:0:0:
138,181,133064,1,8,0:0:0:0:
142,137,133158,1,8,0:0:0:0:
169,102,133252,1,8,0:0:0:0:
213,99,133346,6,0,L|273:113,3,40,8|8|8|8,1:2|0:0|0:0|0:0,0:0:0:0:
298,179,133721,2,0,L|358:193,3,40,8|8|8|8,1:2|0:0|0:0|0:0,0:0:0:0:
398,240,134096,1,8,1:2:0:0:
440,238,134189,1,8,0:0:0:0:
477,214,134283,1,8,0:0:0:0:
495,174,134377,1,8,0:0:0:0:
488,130,134471,2,0,L|478:75,1,40,10|8,1:2|0:0,0:0:0:0:
386,37,134658,2,0,L|395:91,1,40,10|8,0:0|0:0,0:0:0:0:
414,160,134846,5,6,1:2:0:0:
335,284,135033,1,10,0:0:0:0:
335,284,135127,1,8,0:0:0:0:
335,284,135221,2,0,L|308:324,3,40,8|8|10|8,1:2|0:0|0:0|0:0,0:0:0:0:
228,323,135596,1,8,1:2:0:0:
187,318,135689,1,8,0:0:0:0:
152,296,135783,1,10,0:0:0:0:
138,257,135877,1,8,0:0:0:0:
149,218,135971,1,8,1:2:0:0:
181,192,136064,1,8,0:0:0:0:
220,186,136158,1,10,0:0:0:0:
250,158,136252,1,8,0:0:0:0:
254,117,136346,6,0,L|244:71,3,40,8|8|10|8,1:2|0:0|0:0|0:0,0:0:0:0:
151,34,136721,2,0,L|161:84,3,40,10|8|8|8,1:2|0:0|0:0|0:0,0:0:0:0:
68,97,137096,2,0,L|78:141,1,40,10|8,1:2|0:0,0:0:0:0:
0,171,137283,2,0,L|10:215,1,40,8|8,0:0|0:0,0:0:0:0:
131,213,137471,2,0,L|141:257,1,40,8|8,1:2|0:0,0:0:0:0:
22,298,137658,2,0,L|32:342,1,40,10|8,0:0|0:0,0:0:0:0:
155,364,137846,6,0,B|220:343|220:343|246:316|246:316|322:295,1,160,6|0,1:2|1:2,0:0:0:0:
431,333,138408,1,2,0:0:0:0:
431,333,138596,2,0,B|404:288|404:288|434:185,1,160,2|0,1:2|1:2,0:0:0:0:
435,110,139158,1,2,0:0:0:0:
362,149,139346,5,10,1:3:0:0:
505,152,139533,1,8,0:3:0:0:
360,68,139721,1,4,1:3:0:0:
371,231,139908,1,6,0:3:0:0:
440,27,140096,1,10,1:3:0:0:
278,138,140283,1,8,0:3:0:0:
511,70,140471,1,4,1:3:0:0:
276,59,140658,1,2,0:0:0:0:
276,59,140752,1,2,0:0:0:0:
276,59,140846,6,0,P|229:73|204:187,1,160,6|2,1:2|1:2,0:0:0:0:
265,225,141408,1,2,0:3:0:0:
265,225,141502,1,2,0:3:0:0:
265,225,141596,1,2,1:3:0:0:
160,331,141783,2,0,P|130:283|131:238,1,80,2|8,0:0|0:3,0:0:0:0:
43,128,142158,6,0,P|72:139|81:139,1,40,2|0,1:2|1:2,0:0:0:0:
128,261,142346,2,0,B|144:97|271:148|284:15,1,300,6|0,1:2|0:0,0:0:0:0:
206,7,143846,2,0,P|234:54|241:81,1,80,8|8,0:0|0:0,0:0:0:0:
315,146,144127,1,8,0:0:0:0:
315,146,144221,2,0,P|371:133|401:107,1,80,8|8,0:0|0:0,0:0:0:0:
445,38,144502,1,8,0:0:0:0:
445,38,144596,2,0,P|403:62|396:102,1,80,8|8,0:0|0:0,0:0:0:0:
443,216,144877,1,8,0:0:0:0:
443,216,144971,6,0,L|437:170,1,40,10|10,0:0|0:0,0:0:0:0:
315,146,145158,2,0,L|292:112,1,40,10|10,0:0|0:0,0:0:0:0:
183,91,145346,6,0,P|118:90|68:168,1,143.999995605469,2|0,1:2|0:0,0:0:0:0:
70,146,145721,1,2,1:2:0:0:
65,350,145908,1,8,0:0:0:0:
65,350,146002,1,8,0:0:0:0:
65,350,146096,2,0,L|89:240,1,95.9999970703126,2|8,1:2|0:0,0:0:0:0:
227,282,146471,2,0,P|273:297|331:273,1,95.9999970703126,2|8,1:2|0:0,0:0:0:0:
397,275,146752,1,8,0:0:0:0:
397,275,146846,6,0,B|417:198|417:198|400:151|400:151|419:81,1,191.999994140625,2|0,1:2|1:2,0:0:0:0:
332,203,147408,1,8,0:0:0:0:
332,203,147502,1,8,0:0:0:0:
332,203,147596,2,0,L|300:82,1,95.9999970703126,2|8,1:2|0:0,0:0:0:0:
493,104,147971,2,0,P|508:60|478:16,1,95.9999970703126,10|8,1:2|0:0,0:0:0:0:
411,12,148252,1,8,0:0:0:0:
411,12,148346,6,0,B|293:-14|333:58|193:17,1,191.999994140625,0|2,1:2|1:2,0:0:0:0:
42,56,148908,1,8,0:0:0:0:
89,49,149002,1,8,0:0:0:0:
129,75,149096,1,2,1:2:0:0:
153,115,149189,1,8,0:0:0:0:
155,164,149283,1,8,0:0:0:0:
31,281,149471,2,0,L|76:134,1,143.999995605469,10|0,1:2|0:0,0:0:0:0:
74,144,149846,6,0,B|117:93|196:129|196:129|200:171|242:187,1,191.999994140625,8|0,1:2|1:2,0:0:0:0:
318,99,150408,1,8,0:0:0:0:
318,99,150502,1,8,0:0:0:0:
318,99,150596,2,0,P|273:118|262:136,1,47.9999985351563,2|8,1:2|0:0,0:0:0:0:
224,178,150783,1,10,0:0:0:0:
196,300,150971,1,10,1:2:0:0:
240,308,151064,1,8,0:0:0:0:
284,317,151158,1,10,0:0:0:0:
328,325,151252,1,8,0:0:0:0:
372,333,151346,6,0,P|416:293|405:208,1,143.999995605469,6|0,1:2|0:0,0:0:0:0:
409,213,151721,1,2,1:2:0:0:
487,346,151908,1,8,0:0:0:0:
487,346,152002,1,8,0:0:0:0:
487,346,152096,1,2,1:2:0:0:
323,256,152283,1,8,0:0:0:0:
488,172,152471,1,10,1:2:0:0:
372,333,152658,1,0,0:0:0:0:
274,180,152846,6,0,P|196:178|151:251,1,143.999995605469,2|0,1:2|0:0,0:0:0:0:
100,280,153221,2,0,P|33:265|20:222,1,95.9999970703126,2|8,1:2|0:0,0:0:0:0:
29,170,153502,1,8,0:0:0:0:
29,170,153596,2,0,L|97:193,1,47.9999985351563,10|8,1:2|0:0,0:0:0:0:
232,248,153783,1,8,0:0:0:0:
128,120,153971,1,10,1:2:0:0:
315,42,154158,5,10,0:0:0:0:
315,42,154252,1,8,0:0:0:0:
315,42,154346,2,0,P|291:102|271:203,1,143.999995605469,2|0,1:2|0:0,0:0:0:0:
273,179,154721,1,0,1:2:0:0:
216,55,154908,1,10,0:0:0:0:
364,187,155096,2,0,P|421:191|474:81,1,191.999994140625,2|0,1:2|1:2,0:0:0:0:
512,2,155658,5,10,0:0:0:0:
512,2,155752,1,8,0:0:0:0:
512,2,155846,1,2,1:2:0:0:
401,107,156033,1,12,0:0:0:0:
318,52,156221,1,14,1:2:0:0:
467,204,156408,1,2,0:2:0:0:
316,143,156596,5,10,1:2:0:0:
284,184,156689,1,8,0:0:0:0:
278,236,156783,1,8,0:0:0:0:
300,283,156877,1,8,0:0:0:0:
346,308,156971,2,0,L|403:296,1,47.9999985351563,8|8,1:2|0:0,0:0:0:0:
467,204,157158,2,0,L|410:216,1,47.9999985351563,8|8,0:0|0:0,0:0:0:0:
278,236,157346,6,0,B|205:248|205:248|173:282|173:282|76:306,1,191.999994140625,14|2,1:2|1:2,0:0:0:0:
92,180,157908,1,8,0:0:0:0:
92,180,158002,1,8,0:0:0:0:
92,180,158096,2,0,L|138:228,1,47.9999985351563,2|8,1:2|0:0,0:0:0:0:
245,321,158283,1,8,0:0:0:0:
317,156,158471,1,10,1:2:0:0:
190,177,158658,5,8,0:0:0:0:
190,177,158752,1,8,0:0:0:0:
190,177,158846,2,0,B|156:64|78:127|66:12,1,191.999994140625,2|2,1:2|1:2,0:0:0:0:
191,0,159408,1,8,0:0:0:0:
191,0,159502,1,8,0:0:0:0:
191,0,159596,2,0,P|154:19|124:79,1,95.9999970703126,2|0,1:2|0:0,0:0:0:0:
279,105,159971,2,0,P|332:86|434:124,1,143.999995605469,10|8,1:2|0:0,0:0:0:0:
415,108,160346,6,0,B|398:174|355:133|328:222,1,143.999995605469,0|0,1:2|0:0,0:0:0:0:
331,216,160721,1,2,1:2:0:0:
432,274,160908,1,8,0:0:0:0:
432,274,161002,1,8,0:0:0:0:
432,274,161096,2,0,L|407:205,1,47.9999985351563,2|8,1:2|0:0,0:0:0:0:
350,81,161283,1,8,0:0:0:0:
486,181,161471,1,2,1:2:0:0:
339,224,161658,5,8,0:0:0:0:
339,224,161752,1,8,0:0:0:0:
339,224,161846,2,0,B|236:253|290:280|170:322,1,191.999994140625,0|0,1:2|1:2,0:0:0:0:
100,275,162408,1,4,0:0:0:0:
293,352,162596,1,10,1:2:0:0:
215,132,162783,2,0,P|186:189|183:226,1,95.9999970703126,10|0,0:0|1:2,0:0:0:0:
100,275,163158,1,10,0:0:0:0:
90,269,163252,1,8,0:0:0:0:
81,263,163346,5,12,1:2:0:0:
52,231,163439,1,8,0:0:0:0:
54,187,163533,1,10,0:0:0:0:
79,152,163627,1,8,0:0:0:0:
120,140,163721,1,10,1:2:0:0:
161,131,163814,1,8,0:0:0:0:
193,102,163908,1,10,0:0:0:0:
199,59,164002,1,8,0:0:0:0:
174,23,164096,6,0,P|143:48|146:117,1,95.9999970703126,10|8,1:2|0:0,0:0:0:0:
317,131,164471,1,10,1:2:0:0:
291,148,164564,1,8,0:0:0:0:
266,165,164658,1,10,0:0:0:0:
240,182,164752,1,8,0:0:0:0:
214,199,164846,6,0,L|290:233,1,47.9999985351563,14|0,1:2|0:0,0:0:0:0:
401,210,165033,2,0,B|341:237|341:237|321:278|321:278|248:315,1,191.999994140625,14|2,1:2|1:2,0:0:0:0:
178,291,165502,1,0,1:2:0:0:
178,291,165596,1,14,0:0:0:0:
311,383,165783,1,0,1:2:0:0:
213,200,165971,1,14,0:0:0:0:
76,360,166158,1,10,0:0:0:0:
195,111,166346,6,0,P|239:112|304:238,1,191.999994140625,6|8,1:2|0:2,0:0:0:0:
140,251,166908,2,0,P|118:212|195:93,1,191.999994140625,6|8,1:2|0:0,0:0:0:0:
288,228,167471,2,0,P|265:265|123:258,1,191.999994140625,6|8,1:2|0:0,0:0:0:0:
213,200,168033,5,8,0:0:0:0:
213,200,168221,1,8,0:0:0:0:
213,200,168596,1,0,1:2:0:0:
94,147,168783,1,8,0:0:0:0:
84,125,168877,1,8,0:0:0:0:
74,101,168971,1,0,1:2:0:0:
228,14,169158,1,8,0:0:0:0:
218,36,169252,1,8,0:0:0:0:
210,59,169346,6,0,B|317:79|270:112|384:149,1,191.999994140625,6|8,1:2|0:0,0:0:0:0:
512,166,169908,2,0,B|405:186|452:219|338:256,1,191.999994140625,6|8,1:2|0:0,0:0:0:0:
204,270,170471,2,0,B|311:290|264:323|378:360,1,191.999994140625,6|8,1:2|0:0,0:0:0:0:
498,315,171033,5,2,1:2:0:0:
498,315,171127,1,0,1:2:0:0:
498,315,171221,2,0,L|435:335,1,47.9999985351563,10|0,0:0|0:0,0:0:0:0:
371,357,171408,1,2,1:2:0:0:
278,212,171596,5,10,1:2:0:0:
200,377,171783,2,0,P|181:310|189:200,1,143.999995605469,6|0,1:2|0:0,0:0:0:0:
181,236,172158,2,0,P|196:209|195:187,1,47.9999985351563,0|0,1:2|1:2,0:0:0:0:
105,118,172346,6,0,P|70:185|76:269,1,143.999995605469,6|0,1:2|0:0,0:0:0:0:
70,251,172721,1,2,1:2:0:0:
25,99,172908,1,10,0:0:0:0:
25,99,173002,1,8,0:0:0:0:
25,99,173096,2,0,L|5:42,2,47.9999985351563,0|8|2,1:2|0:0|0:0,0:0:0:0:
197,160,173471,2,0,P|246:145|299:132,1,95.9999970703126,8|10,1:2|0:0,0:0:0:0:
356,184,173752,1,8,0:0:0:0:
356,184,173846,6,0,B|392:69|460:117|479:29,1,191.999994140625,0|2,1:2|1:2,0:0:0:0:
362,0,174408,1,8,0:0:0:0:
362,0,174502,1,8,0:0:0:0:
362,0,174596,2,0,P|390:15|403:32,1,47.9999985351563,8|8,1:2|0:0,0:0:0:0:
481,162,174783,1,8,0:0:0:0:
325,68,174971,1,10,1:2:0:0:
414,115,175158,5,8,0:0:0:0:
414,115,175252,1,8,0:0:0:0:
414,115,175346,2,0,B|296:150|363:174|225:231,1,191.999994140625,2|2,1:2|1:2,0:0:0:0:
362,296,175908,2,0,P|351:235|348:190,1,95.9999970703126,10|0,0:0|1:2,0:0:0:0:
159,132,176283,2,0,P|170:193|173:238,1,95.9999970703126,10|0,0:0|1:2,0:0:0:0:
100,288,176658,5,10,0:0:0:0:
100,288,176752,1,8,0:0:0:0:
100,288,176846,2,0,P|179:279|240:380,1,191.999994140625,0|0,1:2|1:2,0:0:0:0:
376,375,177408,1,8,0:0:0:0:
415,357,177502,1,8,0:0:0:0:
443,324,177596,1,0,1:2:0:0:
449,281,177689,1,8,0:0:0:0:
433,240,177783,1,8,0:0:0:0:
290,84,177971,2,0,L|274:136,1,47.9999985351563,10|8,1:2|0:0,0:0:0:0:
335,217,178158,2,0,L|351:165,1,47.9999985351563,8|8,0:0|0:0,0:0:0:0:
320,7,178346,6,0,P|261:7|192:72,1,143.999995605469,6|0,1:2|0:0,0:0:0:0:
133,112,178721,2,0,P|105:39|90:2,1,95.9999970703126,2|8,1:2|0:0,0:0:0:0:
98,22,179002,1,8,0:0:0:0:
98,22,179096,2,0,P|70:47|59:63,1,47.9999985351563,2|8,1:2|0:0,0:0:0:0:
33,124,179283,1,8,0:0:0:0:
239,148,179471,2,0,P|168:194|144:229,1,95.9999970703126,10|8,1:2|0:0,0:0:0:0:
70,202,179752,1,8,0:0:0:0:
70,202,179846,6,0,B|96:260|96:260|140:294|140:294|168:367,1,191.999994140625,0|2,1:2|1:2,0:0:0:0:
39,378,180408,1,8,0:0:0:0:
39,378,180502,1,8,0:0:0:0:
39,378,180596,2,0,L|94:339,1,47.9999985351563,2|8,1:2|0:0,0:0:0:0:
218,259,180783,1,8,0:0:0:0:
24,282,180971,1,10,1:2:0:0:
246,364,181158,5,8,0:0:0:0:
246,364,181252,1,8,0:0:0:0:
246,364,181346,2,0,P|293:324|292:188,1,191.999994140625,6|10,1:2|0:0,0:0:0:0:
143,272,181908,2,0,P|92:232|68:108,1,191.999994140625,6|10,1:2|0:0,0:0:0:0:
300,201,182471,2,0,P|342:159|328:47,1,143.999995605469,6|0,1:2|0:0,0:0:0:0:
301,16,182846,5,2,1:2:0:0:
460,148,183033,1,14,0:0:0:0:
271,106,183221,1,6,1:2:0:0:
479,22,183408,2,0,P|451:83|441:128,1,95.9999970703126,2|8,0:0|1:2,0:0:0:0:
512,248,183783,5,10,0:0:0:0:
512,248,183877,1,8,0:0:0:0:
512,248,183971,2,0,L|465:264,1,47.9999985351563,10|8,1:2|0:0,0:0:0:0:
394,327,184158,2,0,L|339:339,1,47.9999985351563,10|8,0:0|0:0,0:0:0:0:
232,365,184346,6,0,P|253:294|268:208,1,143.999995605469,6|0,1:2|0:0,0:0:0:0:
265,225,184721,1,10,1:2:0:0:
170,301,184908,1,10,0:0:0:0:
170,301,185002,1,8,0:0:0:0:
170,301,185096,2,0,L|115:280,1,47.9999985351563,0|8,1:2|0:0,0:0:0:0:
51,260,185283,1,10,0:0:0:0:
241,152,185471,2,0,P|293:152|335:184,1,95.9999970703126,8|10,1:2|0:0,0:0:0:0:
406,169,185752,1,8,0:0:0:0:
406,169,185846,6,0,P|430:94|450:14,1,143.999995605469,0|0,1:2|0:0,0:0:0:0:
446,30,186221,1,8,1:2:0:0:
348,100,186408,1,8,0:0:0:0:
304,100,186502,1,8,0:0:0:0:
264,83,186596,1,0,1:2:0:0:
233,53,186689,1,8,0:0:0:0:
212,10,186783,2,0,L|197:65,1,47.9999985351563,10|8,0:0|0:0,0:0:0:0:
170,132,186971,1,2,1:2:0:0:
38,59,187158,5,10,0:0:0:0:
38,59,187252,1,8,0:0:0:0:
38,59,187346,2,0,B|67:137|129:86|163:241,1,191.999994140625,2|2,1:2|1:2,0:0:0:0:
25,282,187908,2,0,P|35:221|77:199,1,95.9999970703126,10|0,0:0|1:2,0:0:0:0:
170,132,188283,2,0,P|236:165|247:200,1,95.9999970703126,2|8,0:0|1:2,0:0:0:0:
349,290,188658,5,10,0:0:0:0:
349,290,188752,1,8,0:0:0:0:
349,290,188846,2,0,B|218:256|218:256|189:286|137:296,1,191.999994140625,0|0,1:2|1:2,0:0:0:0:
257,384,189408,1,8,0:0:0:0:
257,384,189502,1,8,0:0:0:0:
257,384,189596,2,0,L|227:330,1,47.9999985351563,0|8,1:2|0:0,0:0:0:0:
153,205,189783,1,8,0:0:0:0:
349,122,189971,2,0,P|332:168|318:224,1,95.9999970703126,10|8,1:2|0:0,0:0:0:0:
349,290,190252,1,8,0:0:0:0:
349,290,190346,6,0,P|420:297|470:229,1,143.999995605469,6|0,1:2|0:0,0:0:0:0:
466,247,190721,1,2,1:2:0:0:
265,285,190908,1,14,0:0:0:0:
442,378,191096,1,2,1:2:0:0:
391,222,191283,1,2,0:0:0:0:
284,368,191471,1,2,1:2:0:0:
211,215,191658,5,10,0:0:0:0:
211,215,191752,1,10,0:0:0:0:
211,215,191846,2,0,P|229:155|243:111,1,95.9999970703126,6|8,1:2|0:0,0:0:0:0:
321,125,192127,1,8,0:0:0:0:
321,125,192221,2,0,L|306:67,1,47.9999985351563,0|0,1:2|0:0,0:0:0:0:
286,7,192408,1,14,0:0:0:0:
417,134,192596,2,0,P|486:120|509:83,1,95.9999970703126,2|8,1:2|0:0,0:0:0:0:
286,7,192971,2,0,P|241:10|176:64,1,95.9999970703126,0|10,1:2|0:0,0:0:0:0:
119,23,193252,1,10,0:0:0:0:
119,23,193346,6,0,B|118:122|40:70|28:219,1,191.999994140625,6|8,1:2|1:2,0:0:0:0:
68,217,193814,1,8,0:0:0:0:
104,235,193908,1,10,0:0:0:0:
143,242,194002,1,8,0:0:0:0:
183,237,194096,1,8,1:2:0:0:
217,216,194189,1,8,0:0:0:0:
244,186,194283,1,10,0:0:0:0:
280,169,194377,1,8,0:0:0:0:
321,169,194471,1,8,1:2:0:0:
350,195,194564,1,8,0:0:0:0:
358,233,194658,1,10,0:0:0:0:
344,268,194752,1,8,0:0:0:0:
310,287,194846,5,14,1:2:0:0:
222,110,195033,1,10,0:2:0:0:
437,209,195221,1,0,1:2:0:0:
253,352,195408,2,0,P|227:289|239:242,1,95.9999970703126,10|0,1:2|1:2,0:0:0:0:
494,360,195783,1,10,0:2:0:0:
310,287,195971,1,2,1:2:0:0:
494,360,196158,2,0,P|504:290|513:252,1,95.9999970703126,10|0,0:2|1:2,0:0:0:0:
509,265,196533,1,10,0:2:0:0:
380,135,196721,2,0,P|370:205|361:243,1,95.9999970703126,10|10,0:0|0:2,0:0:0:0:
468,41,197096,6,0,B|315:58|391:125|247:169,1,240,6|2,1:2|0:0,0:0:0:0:
181,144,197752,1,2,0:0:0:0:
181,144,197846,2,0,P|243:82|300:250,1,360.000013732911,2|2,0:0|0:0,0:0:0:0:
392,310,199158,1,2,0:0:0:0:
392,310,199252,1,2,0:0:0:0:
392,310,199346,2,0,B|228:267|228:267|195:298|144:300,1,240.000009155274,2|2,0:0|0:0,0:0:0:0:
166,298,200471,2,0,P|125:262|127:237,1,60.0000022888184,2|0,0:0|0:0,0:0:0:0:
241,355,200846,5,0,3:2:0:0:
258,193,201221,1,2,0:0:0:0:
258,193,201596,1,2,0:0:0:0:
258,193,201971,1,2,0:0:0:0:
215,113,202346,5,8,1:2:0:0:
180,145,202439,1,8,0:0:0:0:
168,191,202533,1,8,0:0:0:0:
181,236,202627,1,8,0:0:0:0:
216,268,202721,1,8,1:2:0:0:
262,277,202814,1,8,0:0:0:0:
307,261,202908,1,8,0:0:0:0:
336,223,203002,1,8,0:0:0:0:
342,176,203096,2,0,L|280:188,1,47.9999985351563,8|8,1:2|0:0,0:0:0:0:
216,268,203283,2,0,L|153:279,1,47.9999985351563,8|8,0:0|0:0,0:0:0:0:
106,338,203471,5,10,1:2:0:0:
70,332,203564,1,10,0:0:0:0:
42,308,203658,1,10,0:0:0:0:
32,273,203752,1,10,0:0:0:0:
47,240,203846,6,0,P|67:181|90:86,1,143.999995605469,6|0,1:2|0:0,0:0:0:0:
86,101,204221,1,2,1:2:0:0:
205,183,204408,1,8,0:0:0:0:
205,183,204502,1,8,0:0:0:0:
205,183,204596,2,0,L|148:169,2,47.9999985351563,2|8|8,1:2|0:0|0:0,0:0:0:0:
0,148,204971,1,10,1:2:0:0:
173,87,205158,5,8,0:0:0:0:
173,87,205252,1,8,0:0:0:0:
173,87,205346,2,0,B|282:56|245:111|368:80,1,191.999994140625,2|2,1:2|1:2,0:0:0:0:
511,14,205908,1,8,0:0:0:0:
474,38,206002,1,8,0:0:0:0:
461,80,206096,1,2,1:2:0:0:
466,123,206189,1,8,0:0:0:0:
489,160,206283,1,8,0:0:0:0:
361,81,206471,2,0,L|343:157,1,47.9999985351563,10|0,1:2|0:0,0:0:0:0:
339,220,206658,5,10,0:0:0:0:
339,220,206752,1,8,0:0:0:0:
339,220,206846,1,2,1:2:0:0:
489,160,207033,1,0,1:2:0:0:
339,220,207221,2,0,B|246:191|295:155|172:118,1,180.000006866455,12|8,0:2|0:0,0:0:0:0:
108,152,207596,1,2,1:2:0:0:
295,137,207783,1,0,1:2:0:0:
209,308,207971,2,0,P|197:240|191:199,1,95.9999970703126,0|10,1:2|1:2,0:0:0:0:
192,213,208252,1,8,0:0:0:0:
192,213,208346,5,2,1:2:0:0:
20,264,208533,1,2,1:2:0:0:
20,264,208627,1,0,1:2:0:0:
20,264,208721,2,0,B|52:190|87:224|117:124,1,143.999995605469,14|0,1:2|0:0,0:0:0:0:
65,127,209096,1,10,1:2:0:0:
45,83,209189,1,8,0:0:0:0:
59,36,209283,1,8,0:0:0:0:
101,13,209377,1,8,0:0:0:0:
149,16,209471,2,0,L|170:70,1,47.9999985351563,8|8,1:2|0:0,0:0:0:0:
247,86,209658,2,0,L|268:140,1,47.9999985351563,8|8,0:0|0:0,0:0:0:0:
358,122,209846,6,0,B|335:180|335:180|298:209|298:209|271:288,1,191.999994140625,14|2,1:2|1:2,0:0:0:0:
374,270,210408,1,8,0:0:0:0:
374,270,210502,1,8,0:0:0:0:
374,270,210596,2,0,P|416:238|515:253,1,143.999995605469,2|8,1:2|0:0,0:0:0:0:
503,244,210971,1,10,1:2:0:0:
471,17,211158,5,8,0:0:0:0:
471,17,211252,1,8,0:0:0:0:
471,17,211346,2,0,P|482:83|405:146,1,143.999995605469,2|0,1:2|0:0,0:0:0:0:
358,122,211721,2,0,P|298:112|251:103,1,95.9999970703126,2|8,1:2|0:0,0:0:0:0:
196,68,212002,1,8,0:0:0:0:
196,68,212096,2,0,P|186:94|188:119,1,47.9999985351563,2|8,1:2|0:0,0:0:0:0:
233,178,212283,1,8,0:0:0:0:
265,36,212471,1,10,1:2:0:0:
113,148,212658,5,8,0:0:0:0:
113,148,212752,1,8,0:0:0:0:
113,148,212846,2,0,P|42:120|33:2,1,191.999994140625,0|2,1:2|1:2,0:0:0:0:
265,36,213408,1,8,0:0:0:0:
276,82,213502,1,8,0:0:0:0:
312,113,213596,1,2,1:2:0:0:
358,122,213689,1,8,0:0:0:0:
405,114,213783,1,8,0:0:0:0:
371,0,213971,2,0,L|349:51,1,47.9999985351563,10|8,1:2|0:0,0:0:0:0:
282,188,214158,5,8,0:0:0:0:
282,188,214252,1,8,0:0:0:0:
282,188,214346,2,0,B|213:210|213:210|176:252|176:252|91:285,1,191.999994140625,0|0,1:2|1:2,0:0:0:0:
184,335,214908,1,12,0:0:0:0:
85,179,215096,1,10,1:2:0:0:
85,179,215189,1,8,1:2:0:0:
85,179,215283,2,0,P|120:181|147:200,1,47.9999985351563,10|0,0:0|0:0,0:0:0:0:
251,283,215471,1,0,1:2:0:0:
364,252,215658,5,10,0:0:0:0:
364,252,215752,1,8,0:0:0:0:
364,252,215846,2,0,L|382:196,3,47.9999985351563,12|8|10|8,1:2|0:0|0:0|0:0,0:0:0:0:
414,177,216221,1,10,1:2:0:0:
448,152,216314,1,8,0:0:0:0:
460,110,216408,1,10,0:0:0:0:
447,69,216502,1,8,0:0:0:0:
407,50,216596,1,10,1:2:0:0:
364,53,216689,1,8,0:0:0:0:
330,79,216783,1,10,0:0:0:0:
312,117,216877,1,8,0:0:0:0:
271,134,216971,1,10,1:2:0:0:
228,134,217064,1,8,0:0:0:0:
190,113,217158,1,10,0:0:0:0:
174,73,217252,1,8,0:0:0:0:
185,31,217346,6,0,P|237:22|256:66,1,95.9999970703126,14|10,1:2|0:0,0:0:0:0:
55,270,217721,1,8,1:2:0:0:
32,232,217814,1,8,0:0:0:0:
41,191,217908,1,8,0:0:0:0:
78,171,218002,1,8,0:0:0:0:
120,175,218096,1,8,1:2:0:0:
150,205,218189,1,8,0:0:0:0:
156,246,218283,1,8,0:0:0:0:
185,277,218377,1,8,0:0:0:0:
227,273,218471,6,0,L|237:215,1,47.9999985351563,8|8,1:2|0:0,0:0:0:0:
331,137,218658,2,0,L|319:202,1,47.9999985351563,8|8,0:0|0:0,0:0:0:0:
412,271,218846,6,0,B|338:261|338:261|298:284|298:284|212:271,1,191.999994140625,6|2,1:2|1:2,0:0:0:0:
342,384,219408,1,8,0:0:0:0:
342,384,219502,1,8,0:0:0:0:
342,384,219596,2,0,L|359:330,2,47.9999985351563,2|8|8,1:2|0:0|0:0,0:0:0:0:
481,307,219971,2,0,P|483:240|458:212,1,95.9999970703126,10|8,1:2|0:0,0:0:0:0:
398,183,220252,1,8,0:0:0:0:
398,183,220346,6,0,B|386:56|298:111|283:19,1,191.999994140625,2|0,1:2|1:2,0:0:0:0:
464,55,220908,1,8,0:0:0:0:
464,55,221002,1,8,0:0:0:0:
464,55,221096,2,0,L|526:28,2,47.9999985351563,2|8|8,1:2|0:0|0:0,0:0:0:0:
305,163,221471,2,0,P|239:142|183:129,1,95.9999970703126,10|8,1:2|0:0,0:0:0:0:
138,174,221752,1,8,0:0:0:0:
138,174,221846,6,0,P|136:110|225:47,1,143.999995605469,0|0,1:2|0:0,0:0:0:0:
187,54,222221,1,2,1:2:0:0:
295,70,222408,1,8,0:0:0:0:
295,70,222502,1,8,0:0:0:0:
295,70,222596,2,0,L|387:43,1,95.9999970703126,2|8,1:2|0:0,0:0:0:0:
48,120,222971,1,10,1:2:0:0:
222,227,223158,5,8,0:0:0:0:
222,227,223252,1,8,0:0:0:0:
222,227,223346,2,0,B|325:207|267:156|409:127,1,191.999994140625,0|0,1:2|1:2,0:0:0:0:
295,70,223908,1,8,0:0:0:0:
295,70,224002,1,8,0:0:0:0:
295,70,224096,2,0,L|210:54,2,47.9999985351563,2|8|10,1:2|0:0|0:0,0:0:0:0:
421,41,224471,1,10,1:2:0:0:
457,71,224564,1,8,0:0:0:0:
475,115,224658,1,10,0:0:0:0:
475,163,224752,1,8,0:0:0:0:
460,208,224846,6,0,P|390:232|319:280,1,143.999995605469,6|0,1:2|0:0,0:0:0:0:
249,270,225221,2,0,P|222:223|232:170,1,95.9999970703126,2|8,1:2|0:0,0:0:0:0:
225,182,225502,1,8,0:0:0:0:
225,182,225596,1,2,1:2:0:0:
189,356,225783,1,0,0:0:0:0:
315,181,225971,1,10,1:2:0:0:
154,276,226158,1,8,0:0:0:0:
345,348,226346,6,0,B|403:367|403:367|447:348|447:348|457:296|506:284,1,191.999994140625,2|2,1:2|1:2,0:0:0:0:
471,163,226908,1,8,0:0:0:0:
471,163,227002,1,8,0:0:0:0:
471,163,227096,2,0,P|436:202|422:253,1,95.9999970703126,2|8,1:2|0:0,0:0:0:0:
345,348,227471,2,0,P|338:279|314:238,1,95.9999970703126,10|10,1:2|0:0,0:0:0:0:
295,188,227752,1,8,0:0:0:0:
287,156,227846,6,0,P|297:81|369:38,1,143.999995605469,2|0,1:2|0:0,0:0:0:0:
348,41,228221,1,0,1:2:0:0:
204,172,228408,2,0,L|157:183,1,47.9999985351563,10|8,0:0|0:0,0:0:0:0:
366,128,228596,2,0,L|475:103,1,95.9999970703126,2|0,1:2|0:0,0:0:0:0:
210,92,228971,2,0,L|114:62,1,95.9999970703126,0|10,1:2|0:0,0:0:0:0:
56,25,229252,1,8,0:0:0:0:
56,25,229346,2,0,P|25:72|52:118,1,95.9999970703126,2|12,1:2|0:0,0:0:0:0:
115,159,229721,1,14,1:2:0:0:
0,231,229908,1,2,0:2:0:0:
194,159,230096,5,10,1:2:0:0:
241,181,230189,1,8,0:0:0:0:
263,228,230283,1,8,0:0:0:0:
263,280,230377,1,8,0:0:0:0:
235,325,230471,2,0,L|168:310,1,47.9999985351563,8|8,1:2|0:0,0:0:0:0:
136,229,230658,2,0,L|203:244,1,47.9999985351563,8|8,0:0|0:0,0:0:0:0:
349,273,230846,5,14,1:2:0:0:
474,127,231033,1,8,0:0:0:0:
512,316,231221,2,0,P|445:295|418:244,1,95.9999970703126,2|8,1:2|0:0,0:0:0:0:
392,210,231502,1,8,0:0:0:0:
392,210,231596,2,0,L|382:156,2,47.9999985351563,2|8|8,1:2|0:0|0:0,0:0:0:0:
499,228,231971,1,10,1:2:0:0:
292,171,232158,5,8,0:0:0:0:
292,171,232252,1,8,0:0:0:0:
292,171,232346,2,0,P|310:112|320:10,1,143.999995605469,2|0,1:2|0:0,0:0:0:0:
320,30,232721,1,2,1:2:0:0:
482,73,232908,1,8,0:0:0:0:
482,73,233002,1,8,0:0:0:0:
482,73,233096,2,0,P|446:77|386:118,1,95.9999970703126,2|8,1:2|0:0,0:0:0:0:
252,212,233471,2,0,P|191:168|98:155,1,143.999995605469,8|0,1:2|1:2,1:2:0:0:
125,154,233846,6,0,B|139:39|208:86|228:-19,1,191.999994140625,0|2,1:2|1:2,0:0:0:0:
281,86,234408,1,8,0:0:0:0:
281,86,234502,1,8,0:0:0:0:
281,86,234596,2,0,P|304:126|304:144,1,47.9999985351563,2|8,1:2|0:0,0:0:0:0:
273,198,234783,1,8,0:0:0:0:
448,72,234971,2,0,P|464:163|467:192,1,95.9999970703126,10|8,1:2|0:0,0:0:0:0:
418,273,235252,1,8,0:0:0:0:
418,273,235346,6,0,B|348:253|348:253|295:281|295:281|203:294,1,191.999994140625,0|0,1:2|1:2,0:0:0:0:
76,243,235908,1,4,0:0:0:0:
178,337,236096,2,0,L|184:391,2,47.9999985351563,10|8|10,1:2|1:2|0:0,0:0:0:0:
161,176,236471,1,0,1:2:0:0:
87,333,236658,5,10,0:0:0:0:
87,333,236752,1,8,0:0:0:0:
87,333,236846,2,0,P|54:336|17:320,3,47.9999985351563,12|8|10|8,1:2|0:0|0:0|0:0,0:0:0:0:
9,292,237221,1,10,1:2:0:0:
5,248,237314,1,8,0:0:0:0:
34,215,237408,1,10,0:0:0:0:
78,207,237502,1,8,0:0:0:0:
113,178,237596,1,10,1:2:0:0:
133,140,237689,1,8,0:0:0:0:
132,95,237783,1,10,0:0:0:0:
104,61,237877,1,8,0:0:0:0:
62,51,237971,2,0,L|12:61,1,47.9999985351563,10|8,1:2|0:0,0:0:0:0:
3,140,238158,2,0,L|57:129,1,47.9999985351563,10|8,0:0|0:0,0:0:0:0:
229,83,238346,5,14,1:2:0:0:
263,98,238439,1,8,0:0:0:0:
297,114,238533,1,10,0:0:0:0:
331,131,238627,1,8,0:0:0:0:
365,148,238721,5,8,1:2:0:0:
351,167,238814,1,8,0:0:0:0:
336,186,238908,1,10,0:0:0:0:
322,205,239002,1,8,0:0:0:0:
306,223,239096,6,0,L|361:243,3,47.9999985351563,10|8|10|8,1:2|0:0|0:0|0:0,0:0:0:0:
211,255,239471,2,0,L|156:235,1,47.9999985351563,8|8,1:2|0:0,0:0:0:0:
254,344,239659,2,0,L|309:364,1,47.9999985351563,8|8,0:0|0:0,0:0:0:0:
147,375,239846,5,4,1:2:0:0:
147,375,240221,5,2,1:2:0:0:
93,231,240408,1,8,0:0:0:0:
287,272,240596,5,2,1:2:0:0:
212,125,240783,1,8,0:0:0:0:
8,263,240971,5,2,1:2:0:0:
152,46,241158,1,10,0:0:0:0:
287,272,241346,6,0,B|319:358|434:387|521:324|521:324|433:285|375:336,1,420.000016021729,6|2,1:2|0:0,0:0:0:0:
256,192,242846,12,0,243971,0:0:0:0:
442,84,244346,6,0,P|390:86|362:126,1,80,6|8,1:2|0:0,0:0:0:0:
295,139,244627,1,8,0:0:0:0:
295,139,244721,1,8,1:2:0:0:
212,55,244908,2,0,P|200:112|191:147,1,80,2|0,0:0|1:2,0:0:0:0:
277,217,245283,2,0,P|289:160|298:125,1,80,8|8,0:0|1:2,0:0:0:0:
195,249,245564,1,8,0:0:0:0:
195,249,245658,6,0,P|255:246|310:342,1,160,10|8,0:0|0:0,0:0:0:0:
395,328,246127,1,8,0:0:0:0:
395,328,246221,2,0,L|405:272,2,40,8|8|8,1:2|0:0|0:0,0:0:0:0:
227,325,246596,2,0,P|169:345|135:361,1,80,2|0,1:2|0:0,0:0:0:0:
76,342,246877,1,8,0:0:0:0:
76,342,246971,2,0,P|40:304|54:218,1,120,8|0,1:2|0:0,0:0:0:0:
40,239,247346,1,0,1:2:0:0:
192,217,247533,5,2,0:0:0:0:
192,217,247627,1,10,0:0:0:0:
192,217,247721,2,0,L|129:191,1,40,10|0,1:2|0:0,0:0:0:0:
49,151,247908,1,2,0:0:0:0:
124,283,248096,1,10,1:2:0:0:
195,80,248283,1,2,0:0:0:0:
266,288,248471,2,0,L|282:225,1,40,10|8,1:2|0:0,0:0:0:0:
411,162,248658,2,0,L|398:211,1,40,10|8,0:0|0:0,0:0:0:0:
379,277,248846,5,2,1:2:0:0:
318,162,249033,1,2,0:0:0:0:
477,279,249221,1,10,1:2:0:0:
477,279,249314,1,8,0:0:0:0:
477,279,249408,1,10,0:0:0:0:
375,84,249596,1,8,1:2:0:0:
422,80,249689,1,8,0:0:0:0:
466,98,249783,1,8,0:0:0:0:
491,138,249877,1,8,0:0:0:0:
491,186,249971,2,0,L|433:202,1,40,8|8,1:2|0:0,0:0:0:0:
359,276,250158,6,0,B|310:148|262:203|235:102,1,200,6|8,1:2|0:0,0:0:0:0:
240,119,250721,2,0,P|259:88|263:64,1,40,10|8,1:2|0:0,0:0:0:0:
229,12,250908,1,8,0:0:0:0:
81,172,251096,5,8,1:2:0:0:
17,39,251283,1,8,0:0:0:0:
17,39,251377,1,8,0:0:0:0:
17,39,251471,1,8,1:2:0:0:
29,248,251658,2,0,P|91:205|194:181,1,160,6|8,1:2|0:0,0:0:0:0:
245,219,252127,1,8,0:0:0:0:
245,219,252221,2,0,P|298:195|309:164,1,80,10|8,1:2|0:0,0:0:0:0:
303,105,252502,1,8,0:0:0:0:
303,105,252596,5,8,1:2:0:0:
497,140,252783,1,8,0:0:0:0:
497,140,252877,1,8,0:0:0:0:
497,140,252971,2,0,L|440:147,1,40,8|0,1:2|0:0,0:0:0:0:
364,22,253158,2,0,B|387:90|387:90|375:149|375:149|405:238,1,200,6|0,1:2|1:2,0:0:0:0:
328,298,253721,1,10,0:0:0:0:
477,306,253908,1,0,1:2:0:0:
308,224,254096,2,0,P|258:257|249:314,1,100,0|0,1:2|1:2,0:0:0:0:
246,293,254471,1,8,0:0:0:0:
151,352,254658,6,0,P|91:330|86:282,1,100,6|0,1:2|0:0,0:0:0:0:
106,225,255033,1,2,1:2:0:0:
246,293,255221,5,0,1:2:0:0:
47,167,255408,1,10,0:0:0:0:
316,99,255596,5,0,1:2:0:0:
106,225,255783,1,10,0:0:0:0:
412,294,255971,5,0,1:2:0:0:
167,169,256158,1,8,0:0:0:0:
398,181,256346,6,0,B|408:90|302:41|302:41|269:127|298:185|298:185|287:181|287:181|281:186|281:186|274:195|274:195|221:168|124:190|124:190|183:288|251:293,1,680,6|2,1:2|0:0,0:0:0:0:
