osu file format v14

[General]
AudioFilename: audio.ogg
AudioLeadIn: 0
PreviewTime: 72971
Countdown: 0
SampleSet: Soft
StackLeniency: 0.7
Mode: 0
LetterboxInBreaks: 0
WidescreenStoryboard: 1

[Editor]
DistanceSpacing: 1.3
BeatDivisor: 4
GridSize: 16
TimelineZoom: 1.8

[Metadata]
Title:Platform
TitleUnicode:プラットホーム
Artist:Mashumairesh!!
ArtistUnicode:Mashumairesh!!
Creator:Lancien
Version:Hard
Source:SHOW BY ROCK!!ましゅまいれっしゅ!!
Tags:japanese anime show by rock!! sb69 ruhuyu ルフユ delmin デルミン mashima himeko マシマヒメコ howan ほわん toono hikaru 遠野ひかる natsuyoshi yuuko 夏吉ゆうこ watada misaki 和多田美咲 yamane aya 山根綺 pop insert song エールアンドレスポンス yell and response Stars!!
BeatmapID:4090460
BeatmapSetID:1970218

[Difficulty]
HPDrainRate:4
CircleSize:4
OverallDifficulty:6
ApproachRate:8
SliderMultiplier:1.4
SliderTickRate:1

[Events]
//Background and Video events
0,0,"bg.jpg",0,0
//Break Periods
2,96046,105596
2,199336,200836
//Storyboard Layer 0 (Background)
//Storyboard Layer 1 (Fail)
//Storyboard Layer 2 (Pass)
//Storyboard Layer 3 (Foreground)
//Storyboard Layer 4 (Overlay)
//Storyboard Sound Samples

[TimingPoints]
1346,375,4,2,1,50,1,0
1346,-133.333333333333,4,2,1,50,0,0
7158,-100,4,2,1,50,0,0
9408,-133.333333333333,4,2,1,40,0,0
11846,-100,4,2,1,60,0,0
23846,-117.647058823529,4,2,1,50,0,0
29846,-117.647058823529,4,2,1,65,0,0
30783,-117.647058823529,4,2,1,50,0,0
59846,-117.647058823529,4,2,1,55,0,0
68846,-100,4,2,1,55,0,0
73158,-100,4,2,1,45,0,0
73346,-83.3333333333333,4,2,1,60,0,1
92846,-83.3333333333333,4,2,1,65,0,0
93596,-100,4,2,1,65,0,0
94346,-133.333333333333,4,2,1,65,0,0
95846,-133.333333333333,4,2,1,50,0,0
107846,-100,4,2,1,50,0,0
131846,-100,4,2,1,55,0,0
142346,-133.333333333333,4,2,1,50,0,0
143846,-100,4,2,1,50,0,0
145346,-83.3333333333333,4,2,1,60,0,1
164846,-83.3333333333333,4,2,1,60,0,0
197096,-133.333333333333,4,2,1,65,0,0
197658,-133.333333333333,4,2,1,45,0,0
202346,-83.3333333333333,4,2,1,50,0,0
203846,-83.3333333333333,4,2,1,60,0,1
241346,-133.333333333333,4,2,1,50,0,0

[Colours]
Combo1 : 249,254,141
Combo2 : 150,218,254
Combo3 : 196,136,255
Combo4 : 255,170,255

[HitObjects]
38,191,1346,6,0,P|107:167|211:339,1,315.000012016297,6|0,1:2|0:0,0:0:0:0:
212,337,2846,2,0,B|256:274|328:256|379:302|377:350|319:352|315:350,1,210.000008010865,6|2,1:2|0:0,0:0:0:0:
331,347,3971,1,2,0:0:0:0:
424,308,4346,2,0,L|451:199,1,105.000004005432,6|2,1:2|0:0,0:0:0:0:
362,176,5096,2,0,L|320:77,1,105.000004005432,2|2,0:0|0:0,0:0:0:0:
235,116,5846,2,0,L|69:64,1,157.500006008148,6|0,1:2|0:0,0:0:0:0:
29,126,6596,1,2,0:0:0:0:
29,126,6783,2,0,P|11:162|18:194,1,52.5000020027161,2|0,0:0|0:0,0:0:0:0:
61,240,7158,6,0,L|44:279,2,35,2|2|8,0:0|0:0|0:0,0:0:0:0:
134,291,7533,2,0,L|128:328,2,35,10|8|10,0:0|0:0|0:0,0:0:0:0:
229,284,7908,2,0,L|239:320,2,35,10|8|10,0:0|0:0|0:0,0:0:0:0:
316,241,8283,2,0,L|345:278,2,35,10|8|10,0:0|0:0|0:0,0:0:0:0:
244,187,8658,5,10,0:0:0:0:
244,187,8752,1,8,0:0:0:0:
244,187,8846,2,0,P|230:147|237:103,1,70,6|6,1:2|1:2,0:0:0:0:
231,119,9408,1,2,0:0:0:0:
231,119,9596,2,0,P|302:115|341:70,2,105.000004005432,2|2|2,0:0|0:0|0:0,0:0:0:0:
421,33,11846,6,0,P|398:82|393:111,1,70,6|8,1:2|0:0,0:0:0:0:
400,127,12127,1,8,0:0:0:0:
400,127,12221,1,8,1:2:0:0:
395,208,12408,2,0,B|316:187|347:157|245:136,1,140,2|8,0:0|0:0,0:0:0:0:
239,159,12877,1,8,0:0:0:0:
239,159,12971,1,8,1:2:0:0:
178,221,13158,6,0,P|153:183|154:150,1,70,10|0,0:0|1:2,0:0:0:0:
116,87,13533,1,8,0:0:0:0:
116,87,13627,1,8,0:0:0:0:
116,87,13721,2,0,P|82:118|68:160,1,70,8|8,1:2|0:0,0:0:0:0:
0,175,14096,2,0,P|33:214|62:295,1,105,2|0,1:2|0:0,0:0:0:0:
81,286,14471,2,0,P|87:312|85:332,2,35,8|8|8,1:2|0:0|0:0,0:0:0:0:
160,260,14846,5,0,1:2:0:0:
239,316,15033,1,2,0:0:0:0:
239,316,15127,1,10,0:0:0:0:
239,316,15221,2,0,P|288:295|324:288,1,70,10|2,1:2|0:0,0:0:0:0:
393,318,15596,2,0,P|413:275|406:242,1,70,10|2,1:2|0:0,0:0:0:0:
394,227,15877,1,8,0:0:0:0:
394,227,15971,2,0,L|353:217,2,35,10|8|10,1:2|0:0|0:0,0:0:0:0:
475,201,16346,6,0,P|481:146|495:104,1,70,0|10,1:2|0:0,0:0:0:0:
498,97,16627,1,8,0:0:0:0:
498,97,16721,1,10,1:2:0:0:
425,52,16908,1,2,0:0:0:0:
406,126,17096,2,0,P|364:117|333:90,1,70,8|8,1:2|0:0,0:0:0:0:
324,67,17377,1,8,0:0:0:0:
324,67,17471,1,8,1:2:0:0:
252,112,17658,6,0,B|225:191|171:147|143:298,1,210,6|10,1:2|1:2,0:0:0:0:
145,286,18596,2,0,P|196:306|226:335,1,70,8|8,1:2|0:0,0:0:0:0:
227,347,18877,1,8,0:0:0:0:
227,347,18971,1,8,1:2:0:0:
140,384,19158,6,0,P|63:350|66:225,1,210,6|10,1:2|1:2,0:0:0:0:
58,236,20096,2,0,P|97:214|98:165,1,70,8|8,1:2|0:0,0:0:0:0:
120,160,20377,1,8,0:0:0:0:
120,160,20471,1,8,1:2:0:0:
62,89,20658,6,0,B|176:59|152:120|291:96,1,210,6|10,1:2|0:0,0:0:0:0:
357,52,21408,1,0,1:2:0:0:
357,52,21596,2,0,P|349:96|344:130,1,70,0|0,1:2|1:2,0:0:0:0:
305,186,21971,1,8,0:0:0:0:
387,236,22158,6,0,P|433:205|504:190,1,105,6|0,1:2|0:0,0:0:0:0:
502,204,22533,2,0,P|475:162|466:88,1,105,2|0,1:2|0:0,0:0:0:0:
479,92,22908,1,10,0:0:0:0:
432,29,23096,1,0,1:2:0:0:
355,19,23283,1,10,0:0:0:0:
281,52,23471,1,0,1:2:0:0:
246,121,23658,1,8,0:0:0:0:
257,200,23846,6,0,P|275:251|271:317,2,119.000002269745,6|0|2,1:2|1:2|1:2,0:0:0:0:
182,199,24783,2,0,P|143:183|115:182,1,59.5000011348725,2|0,0:0|1:2,0:0:0:0:
78,248,25158,1,2,0:0:0:0:
78,248,25252,1,2,0:0:0:0:
78,248,25346,2,0,P|40:284|33:311,2,59.5000011348725,2|0|0,1:2|0:0|1:2,0:0:0:0:
126,181,25908,2,0,P|143:141|142:115,1,59.5000011348725,2|0,0:0|1:2,0:0:0:0:
55,97,26283,2,0,P|65:41|81:15,1,59.5000011348725,2|0,0:0|1:2,0:0:0:0:
154,16,26658,5,2,0:0:0:0:
154,16,26846,2,0,B|252:31|215:63|319:86,1,178.500003404617,2|2,1:2|0:0,0:0:0:0:
315,85,27783,2,0,P|337:49|367:38,1,59.5000011348725,2|2,0:0|1:2,0:0:0:0:
432,60,28158,2,0,P|442:97|450:157,1,89.2500017023087,2|0,0:0|0:0,0:0:0:0:
480,172,28533,2,0,P|469:223|460:247,1,59.5000011348725,2|2,0:0|1:2,0:0:0:0:
489,304,28908,2,0,P|447:280|352:268,1,119.000002269745,2|0,0:0|0:0,0:0:0:0:
309,311,29471,1,0,1:2:0:0:
309,311,29658,1,0,0:0:0:0:
241,254,29846,6,0,P|255:213|265:122,1,119.000002269745,6|0,1:2|1:2,0:0:0:0:
237,64,30408,1,2,0:0:0:0:
237,64,30596,2,0,P|192:89|157:85,1,59.5000011348725,2|2,1:2|0:0,0:0:0:0:
118,41,30971,1,2,1:2:0:0:
118,41,31158,2,0,P|55:49|27:105,2,119.000002269745,2|0|2,0:0|0:0|0:0,0:0:0:0:
118,41,32283,2,0,P|131:92|139:122,1,59.5000011348725,2|2,0:0|1:2,0:0:0:0:
93,174,32658,5,2,0:0:0:0:
93,174,32752,1,2,0:0:0:0:
93,174,32846,2,0,P|108:231|125:315,1,119.000002269745,2|0,1:2|1:2,0:0:0:0:
191,349,33408,2,0,P|237:341|283:277,1,119.000002269745
361,292,33971,2,0,P|354:236|341:214,1,59.5000011348725,0|2,1:2|0:0,0:0:0:0:
287,177,34346,2,0,B|396:154|347:113|453:87,1,178.500003404617,2|2,1:2|0:0,0:0:0:0:
439,91,35283,2,0,P|452:127|461:153,1,59.5000011348725,2|0,0:0|1:2,0:0:0:0:
510,214,35658,5,2,0:0:0:0:
510,214,35752,1,2,0:0:0:0:
510,214,35846,2,0,P|498:265|482:353,2,119.000002269745,6|2|2,1:2|1:2|1:2,0:0:0:0:
458,147,36783,2,0,P|426:162|409:194,1,59.5000011348725,2|0,0:0|1:2,0:0:0:0:
371,243,37158,2,0,P|324:236|262:172,2,119.000002269745,2|0|2,0:0|0:0|0:0,0:0:0:0:
371,243,38283,2,0,P|380:288|361:309,1,59.5000011348725,2|0,0:0|1:2,0:0:0:0:
398,375,38658,5,2,0:0:0:0:
398,375,38846,2,0,P|346:345|272:334,1,119.000002269745,2|2,1:2|1:2,0:0:0:0:
288,333,39596,2,0,P|243:357|219:348,1,59.5000011348725,2|2,1:2|0:0,0:0:0:0:
160,379,39971,1,2,1:2:0:0:
160,379,40158,2,0,P|118:364|68:305,1,119.000002269745,2|0,0:0|0:0,0:0:0:0:
17,251,40721,1,2,1:2:0:0:
51,183,40908,2,0,B|115:156|115:156|135:120|135:120|200:98,1,178.500003404617,2|0,0:0|1:2,0:0:0:0:
199,98,41846,6,0,P|229:126|245:150,1,59.5000011348725,6|0,1:2|0:0,0:0:0:0:
315,145,42221,2,0,P|313:188|304:220,1,59.5000011348725,2|0,1:2|0:0,0:0:0:0:
370,252,42596,2,0,P|339:289|253:309,1,119.000002269745,2|2,1:2|1:2,0:0:0:0:
274,311,43346,2,0,P|323:326|375:384,1,119.000002269745,2|2,1:2|1:2,0:0:0:0:
446,380,43908,2,0,P|497:379|507:315,1,119.000002269745,2|2,0:0|0:0,0:0:0:0:
481,207,44658,5,2,0:0:0:0:
481,207,44752,1,2,0:0:0:0:
481,207,44846,2,0,B|341:223|416:279|261:314,1,238.00000453949,2|0,1:2|1:2,0:0:0:0:
273,310,45971,1,2,1:2:0:0:
199,281,46158,2,0,P|209:241|224:150,1,119.000002269745,6|2,1:2|0:3,0:0:0:0:
251,140,46627,1,2,0:3:0:0:
251,140,46721,2,0,P|248:99|243:68,1,59.5000011348725,2|0,1:3|0:0,0:0:0:0:
179,30,47096,5,8,1:2:0:0:
179,30,47189,1,8,0:0:0:0:
179,30,47283,1,10,0:0:0:0:
179,30,47377,1,8,0:0:0:0:
179,30,47471,2,0,L|173:59,3,29.7500005674362,10|8|10|8,1:2|0:0|0:0|0:0,0:0:0:0:
144,85,47846,6,0,P|92:87|45:162,1,119.000002269745,6|0,1:2|0:0,0:0:0:0:
82,212,48408,1,10,0:3:0:0:
82,212,48596,2,0,P|131:218|153:232,2,59.5000011348725,10|4|4,1:3|0:3|1:3,0:0:0:0:
17,261,49158,1,2,0:0:0:0:
17,261,49346,2,0,P|26:296|32:327,1,59.5000011348725,2|10,1:2|0:0,0:0:0:0:
98,357,49721,2,0,P|128:345|163:338,1,59.5000011348725,10|10,1:2|0:0,0:0:0:0:
179,311,50002,1,8,0:0:0:0:
179,311,50096,2,0,P|225:322|242:331,1,59.5000011348725,8|10,1:2|0:0,0:0:0:0:
272,353,50377,1,8,0:0:0:0:
272,353,50471,1,8,1:2:0:0:
369,326,50658,1,8,0:0:0:0:
369,326,50752,1,8,0:0:0:0:
369,326,50846,6,0,P|380:268|395:204,1,119.000002269745,6|2,1:2|1:2,0:0:0:0:
445,157,51408,2,0,P|399:165|327:105,1,119.000002269745,2|2,0:3|0:0,0:0:0:0:
339,129,52158,2,0,P|351:84|356:60,1,59.5000011348725,2|0,0:0|1:2,0:0:0:0:
403,13,52533,1,10,0:0:0:0:
480,33,52721,1,10,1:2:0:0:
502,119,52908,1,10,0:0:0:0:
502,119,53002,1,10,0:0:0:0:
502,119,53096,2,0,P|485:151|476:173,2,59.5000011348725,10|8|8,1:2|0:0|1:2,0:0:0:0:
484,37,53658,5,10,0:0:0:0:
484,37,53846,2,0,B|387:58|440:63|372:104,1,119.000002269745,6|0,1:2|1:2,0:0:0:0:
314,138,54408,1,2,0:0:0:0:
314,138,54596,2,0,P|323:169|329:199,2,59.5000011348725,2|0|0,1:2|0:0|1:2,0:0:0:0:
250,78,55158,1,2,0:0:0:0:
250,78,55346,2,0,P|181:73|117:34,1,119.000002269745,2|0,1:2|1:2,0:0:0:0:
54,18,55908,1,2,0:0:0:0:
54,18,56096,2,0,P|64:59|71:152,1,119.000002269745,2|0,1:2|1:2,0:0:0:0:
35,211,56658,5,2,0:0:0:0:
35,211,56846,2,0,P|97:215|139:275,1,119.000002269745,2|0,1:2|1:2,0:0:0:0:
64,299,57408,1,2,0:0:0:0:
64,299,57596,2,0,P|131:303|166:360,1,119.000002269745,2|0,1:2|1:2,0:0:0:0:
244,347,58158,6,0,P|282:330|312:247,1,119.000002269745,2|2,0:0|0:0,0:0:0:0:
250,210,58721,1,10,1:2:0:0:
303,149,58908,1,8,0:0:0:0:
236,105,59096,1,10,1:2:0:0:
297,48,59283,1,8,0:0:0:0:
226,5,59471,2,0,L|157:19,1,59.5000011348725,10|10,1:2|0:0,0:0:0:0:
297,48,59846,6,0,P|363:25|401:14,1,89.2500017023087,6|8,1:2|0:0,0:0:0:0:
428,3,60221,2,0,L|439:36,3,29.7500005674362,8|8|10|8,1:2|0:0|0:0|0:0,0:0:0:0:
475,67,60596,2,0,L|484:104,3,29.7500005674362,8|8|10|8,1:2|0:0|0:0|0:0,0:0:0:0:
458,145,60971,2,0,L|467:185,3,29.7500005674362,10|8|8|8,1:2|0:0|0:0|0:0,0:0:0:0:
508,200,61346,5,8,1:2:0:0:
452,328,61721,2,0,L|406:318,3,29.7500005674362,8|8|8|8,1:2|0:0|0:0|0:0,0:0:0:0:
373,336,62096,2,0,L|327:326,3,29.7500005674362,8|8|8|8,1:2|0:0|0:0|0:0,0:0:0:0:
309,293,62471,2,0,L|263:283,3,29.7500005674362,10|8|10|8,1:2|0:0|0:0|0:0,0:0:0:0:
234,292,62846,6,0,P|156:322|131:332,1,89.2500017023087,6|8,1:2|0:0,0:0:0:0:
106,301,63221,2,0,L|96:271,3,29.7500005674362,0|8|10|8,1:2|0:0|0:0|0:0,0:0:0:0:
121,225,63596,2,0,L|111:195,3,29.7500005674362,8|8|10|8,1:2|0:0|0:0|0:0,0:0:0:0:
68,167,63971,2,0,L|58:137,3,29.7500005674362,8|8|10|8,1:2|0:0|0:0|0:0,0:0:0:0:
20,103,64346,5,8,1:2:0:0:
55,0,64721,1,10,1:2:0:0:
55,0,64814,1,8,0:0:0:0:
55,0,64908,1,8,0:0:0:0:
142,12,65096,1,10,1:2:0:0:
142,12,65189,1,8,0:0:0:0:
142,12,65283,1,8,0:0:0:0:
162,84,65471,2,0,L|152:114,2,29.7500005674362,8|8|10,1:2|0:0|0:0,0:0:0:0:
236,39,65846,6,0,B|353:50|301:86|421:121,1,178.500003404617,6|2,1:2|0:0,0:0:0:0:
493,117,66596,2,0,P|440:125|367:226,1,178.500003404617,2|2,1:2|0:0,0:0:0:0:
299,274,67346,2,0,P|236:274|200:171,1,178.500003404617,2|2,1:2|0:0,0:0:0:0:
279,157,68096,2,0,P|214:135|95:96,1,178.500003404617,2|2,1:2|0:0,0:0:0:0:
66,114,68752,1,2,0:0:0:0:
66,114,68846,6,0,P|36:157|35:218,1,105,6|0,1:2|0:0,0:0:0:0:
63,233,69221,2,0,L|80:273,2,35,2|2|2,1:2|0:0|0:0,0:0:0:0:
74,348,69596,2,0,B|124:328|124:328|147:299|147:299|207:277,1,140,2|2,1:2|1:2,0:0:0:0:
253,241,70158,1,2,0:0:0:0:
325,286,70346,5,10,1:2:0:0:
325,286,70533,2,0,P|345:245|343:202,1,70,10|0,0:0|1:2,0:0:0:0:
427,204,70908,2,0,P|408:147|336:85,1,140,10|10,0:0|0:0,0:0:0:0:
346,16,71471,1,0,1:2:0:0:
273,52,71658,2,0,P|247:81|229:120,1,70,10|0,0:0|0:0,0:0:0:0:
149,125,72033,1,10,0:0:0:0:
149,125,72221,2,0,P|149:167|156:206,1,70,10|10,1:2|0:0,0:0:0:0:
101,258,72596,1,10,1:2:0:0:
101,258,72971,6,0,L|112:304,3,35,6|2|2|2,0:0|0:0|0:0|0:0,0:0:0:0:
79,335,73346,2,0,P|140:347|211:381,1,125.999996154785,2|0,1:2|0:0,0:0:0:0:
244,365,73721,2,0,P|297:343|303:302,1,83.9999974365235,2|8,1:2|0:0,0:0:0:0:
316,295,74002,1,8,0:0:0:0:
316,295,74096,1,2,1:2:0:0:
235,231,74283,1,0,0:0:0:0:
312,177,74471,2,0,P|351:188|376:235,1,83.9999974365235,2|8,1:2|0:0,0:0:0:0:
416,249,74752,1,8,0:0:0:0:
416,249,74846,6,0,P|426:298|512:387,2,167.999994873047,2|0|2,1:2|1:2|1:2,0:0:0:0:
497,227,75783,1,8,0:0:0:0:
505,145,75971,2,0,P|470:110|419:100,1,83.9999974365235,10|8,1:2|0:0,0:0:0:0:
408,74,76252,1,8,0:0:0:0:
408,74,76346,2,0,B|307:87|362:129|236:146,1,167.999994873047,0|2,1:2|1:2,0:0:0:0:
182,107,76908,1,8,0:0:0:0:
182,107,77002,1,8,0:0:0:0:
182,107,77096,2,0,L|173:59,2,41.9999987182618,2|8|0,1:2|0:0|0:0,0:0:0:0:
113,166,77471,1,10,1:2:0:0:
33,130,77658,5,8,0:0:0:0:
33,130,77752,1,8,0:0:0:0:
33,130,77846,2,0,P|60:184|90:303,1,167.999994873047,0|0,1:2|1:2,0:0:0:0:
72,363,78408,1,8,0:0:0:0:
158,371,78596,1,2,1:2:0:0:
240,338,78783,1,2,0:0:0:0:
288,258,78971,1,10,1:2:0:0:
288,258,79064,1,8,0:0:0:0:
288,258,79158,1,10,0:0:0:0:
273,169,79346,6,0,B|172:151|214:113|88:98,1,167.999994873047,6|2,1:2|1:2,0:0:0:0:
33,118,79908,1,8,0:0:0:0:
16,34,80096,2,0,P|69:11|119:14,1,83.9999974365235,2|0,1:2|0:0,0:0:0:0:
176,39,80471,1,10,1:2:0:0:
176,39,80658,1,8,0:0:0:0:
272,6,80846,6,0,P|253:71|258:165,1,125.999996154785,2|0,1:2|0:0,0:0:0:0:
276,150,81221,2,0,P|286:203|284:237,1,83.9999974365235,2|8,1:2|0:0,0:0:0:0:
266,261,81502,1,8,0:0:0:0:
266,261,81596,2,0,P|256:308|264:354,1,83.9999974365235,2|0,1:2|0:0,0:0:0:0:
343,381,81971,1,10,1:2:0:0:
414,324,82158,1,10,0:0:0:0:
490,378,82346,6,0,P|472:324|475:193,1,167.999994873047,2|0,1:2|1:2,0:0:0:0:
492,130,82908,1,10,0:0:0:0:
412,148,83096,2,0,P|353:145|322:188,1,83.9999974365235,2|0,1:2|0:0,0:0:0:0:
272,227,83471,2,0,P|203:214|191:186,1,83.9999974365235,0|10,1:2|0:0,0:0:0:0:
170,177,83752,1,0,0:0:0:0:
170,177,83846,2,0,P|179:121|184:82,1,83.9999974365235,2|0,1:2|0:0,0:0:0:0:
262,58,84221,1,14,1:2:0:0:
262,58,84408,1,2,0:2:0:0:
326,130,84596,6,0,L|339:87,3,41.9999987182618,10|8|8|8,1:2|0:0|0:0|0:0,0:0:0:0:
386,70,84971,2,0,L|374:23,3,41.9999987182618,8|8|8|8,1:2|0:0|0:0|0:0,0:0:0:0:
335,3,85346,6,0,B|274:12|274:12|247:39|247:39|161:61,1,167.999994873047,14|2,1:2|1:2,0:0:0:0:
98,36,85908,1,8,0:0:0:0:
98,36,86002,1,8,0:0:0:0:
98,36,86096,2,0,L|71:-11,2,41.9999987182618,2|8|0,1:2|0:0|0:0,0:0:0:0:
100,122,86471,2,0,P|124:165|147:214,1,83.9999974365235,10|8,1:2|0:0,0:0:0:0:
176,217,86752,1,8,0:0:0:0:
176,217,86846,6,0,P|107:227|42:311,1,167.999994873047,2|2,1:2|1:2,0:0:0:0:
76,382,87408,1,8,0:0:0:0:
76,382,87502,1,8,0:0:0:0:
76,382,87596,1,2,1:2:0:0:
141,322,87783,1,0,0:0:0:0:
213,376,87971,2,0,P|246:343|266:297,1,83.9999974365235,10|8,1:2|0:0,0:0:0:0:
347,270,88346,6,0,P|337:210|300:139,1,125.999996154785,0|0,1:2|0:0,0:0:0:0:
273,132,88721,2,0,P|280:81|300:50,1,83.9999974365235,2|8,1:2|0:0,0:0:0:0:
332,35,89002,1,8,0:0:0:0:
332,35,89096,1,2,1:2:0:0:
421,75,89283,1,0,0:0:0:0:
512,43,89471,2,0,B|508:57|498:91|490:155,1,83.9999974365235,2|8,1:2|0:0,0:0:0:0:
470,155,89752,1,8,0:0:0:0:
470,155,89846,6,0,P|453:207|434:324,1,167.999994873047,0|0,1:2|1:2,0:0:0:0:
502,373,90408,1,12,0:0:0:0:
434,318,90596,2,0,P|385:333|356:371,1,83.9999974365235,10|10,1:2|0:0,0:0:0:0:
280,364,90971,1,0,1:2:0:0:
201,306,91158,1,10,0:0:0:0:
201,306,91252,1,8,0:0:0:0:
201,306,91346,6,0,L|212:256,3,41.9999987182618,12|8|10|8,1:2|0:0|0:0|0:0,0:0:0:0:
248,235,91721,2,0,L|259:185,3,41.9999987182618,10|8|10|8,1:2|0:0|0:0|0:0,0:0:0:0:
300,169,92096,2,0,L|311:119,3,41.9999987182618,10|8|10|8,1:2|0:0|0:0|0:0,0:0:0:0:
353,101,92471,1,10,1:2:0:0:
353,101,92564,1,8,0:0:0:0:
353,101,92658,1,10,0:0:0:0:
283,37,92846,5,14,1:2:0:0:
283,37,93033,2,0,P|231:47|141:132,1,167.999994873047,14|2,1:2|0:0,0:0:0:0:
66,96,93596,2,0,P|34:52|41:17,2,70,2|0|2,0:0|0:0|0:0,0:0:0:0:
146,120,94158,1,2,0:0:0:0:
146,120,94346,2,0,B|210:154|252:247|205:322|138:332|85:286|101:226|138:221,1,315.000012016297,6|2,1:2|3:2,0:0:0:0:
122,228,95846,5,6,1:2:0:0:
21,380,106346,6,0,B|149:354|82:298|209:263,1,210.000008010865,6|0,1:2|0:0,0:0:0:0:
272,291,107283,1,2,0:0:0:0:
272,291,107377,1,2,0:0:0:0:
272,291,107471,2,0,P|315:260|319:224,1,78.7500030040742,2|0,0:0|0:0,0:0:0:0:
370,225,107846,6,0,P|265:194|210:178,2,140,6|10|2,1:2|1:2|1:2,0:0:0:0:
410,212,108689,1,8,0:0:0:0:
410,212,108783,1,2,0:0:0:0:
470,266,108971,2,0,P|496:223|493:193,1,70,8|2,1:2|0:0,0:0:0:0:
510,118,109346,2,0,P|471:91|370:98,1,140,0|10,1:2|1:2,0:0:0:0:
307,60,109908,2,0,L|295:15,2,35,10|8|0,0:0|0:0|1:2,0:0:0:0:
381,92,110283,1,2,0:0:0:0:
335,162,110471,2,0,P|295:177|260:190,1,70,8|2,1:2|0:0,0:0:0:0:
219,251,110846,6,0,B|179:164|153:203|120:121,1,140,2|10,1:2|1:2,0:0:0:0:
198,92,111408,2,0,P|207:50|118:21,1,140,2|10,0:0|0:0,0:0:0:0:
49,15,111971,1,10,1:2:0:0:
49,15,112158,2,0,P|37:82|16:162,1,140,10|2,0:0|0:0,0:0:0:0:
0,234,112721,1,10,1:2:0:0:
0,234,112908,2,0,P|42:196|96:301,1,210,2|8,0:0|1:2,0:0:0:0:
121,331,113564,1,8,0:0:0:0:
121,331,113658,1,8,0:0:0:0:
202,369,113846,6,0,P|241:355|277:351,1,70,6|0,1:2|0:0,0:0:0:0:
333,305,114221,2,0,P|294:274|260:262,1,70,10|8,1:2|0:0,0:0:0:0:
222,206,114596,2,0,P|262:187|303:187,1,70,2|0,1:2|0:0,0:0:0:0:
362,159,114971,2,0,P|342:128|312:110,1,70,10|10,1:2|0:0,0:0:0:0:
305,31,115346,2,0,B|396:49|363:73|450:99,1,140,2|10,1:2|1:2,0:0:0:0:
502,43,115908,2,0,P|481:93|447:199,1,140,10|2,0:0|0:0,0:0:0:0:
402,240,116471,1,8,1:2:0:0:
483,292,116658,5,10,0:0:0:0:
483,292,116752,1,8,0:0:0:0:
483,292,116846,2,0,P|423:281|324:386,1,210,4|2,1:2|0:3,0:0:0:0:
324,376,117502,1,2,0:3:0:0:
324,376,117596,1,10,1:2:0:0:
254,323,117783,1,0,1:2:0:0:
179,368,117971,1,8,1:2:0:0:
138,297,118158,6,0,P|119:240|76:146,1,140,6|2,1:2|1:2,0:0:0:0:
45,108,118721,1,2,1:2:0:0:
84,40,118908,1,2,1:2:0:0:
172,47,119096,2,0,P|185:90|191:128,1,70,8|10,1:2|0:0,0:0:0:0:
271,169,119471,2,0,P|281:120|294:88,1,70,10|10,1:2|0:0,0:0:0:0:
366,77,119846,6,0,P|418:79|467:161,1,140,6|0,1:2|1:2,0:0:0:0:
425,212,120408,1,10,0:3:0:0:
425,212,120596,2,0,P|376:218|350:236,2,70,10|8|4,1:3|0:3|1:3,0:0:0:0:
467,145,121158,1,6,0:3:0:0:
467,145,121346,2,0,P|482:110|470:71,1,70,2|10,1:2|0:0,0:0:0:0:
425,20,121721,6,0,P|384:39|349:46,1,70,6|2,1:3|0:0,0:0:0:0:
333,73,122002,1,8,0:0:0:0:
333,73,122096,2,0,P|287:62|258:49,1,70,0|10,1:2|0:0,0:0:0:0:
236,23,122377,1,8,0:0:0:0:
236,23,122471,1,2,1:2:0:0:
143,58,122658,1,10,0:0:0:0:
143,58,122752,1,8,0:0:0:0:
143,58,122846,6,0,B|124:107|124:107|153:203,1,140,6|2,1:2|1:2,0:0:0:0:
94,243,123408,2,0,P|140:235|227:294,1,140,2|2,0:3|0:0,0:0:0:0:
283,341,123971,1,0,1:2:0:0:
283,341,124158,1,2,0:0:0:0:
202,365,124346,6,0,P|156:373|122:353,1,70,2|10,1:2|0:0,0:0:0:0:
56,377,124721,1,10,1:2:0:0:
15,306,124908,1,10,0:0:0:0:
15,306,125002,1,10,0:0:0:0:
15,306,125096,1,2,1:2:0:0:
64,236,125283,1,8,0:0:0:0:
135,276,125471,2,0,P|188:280|221:256,1,70,0|10,1:2|0:0,0:0:0:0:
270,214,125846,5,6,1:2:0:0:
270,214,126033,2,0,P|232:176|126:158,1,140,0|2,1:2|1:2,0:0:0:0:
75,154,126596,2,0,P|50:116|63:79,1,70,10|0,1:2|0:0,0:0:0:0:
105,27,126971,1,0,1:2:0:0:
190,61,127158,1,10,0:0:0:0:
190,61,127346,2,0,P|259:66|331:113,1,140,2|0,1:2|1:2,0:0:0:0:
404,100,127908,1,2,0:0:0:0:
404,100,128096,2,0,P|447:70|451:45,2,70,10|0|0,1:2|0:0|1:2,0:0:0:0:
319,100,128658,5,10,0:0:0:0:
319,100,128846,2,0,P|340:183|349:252,1,140,6|0,1:2|0:0,0:0:0:0:
420,290,129408,1,0,1:2:0:0:
420,290,129596,2,0,P|471:281|488:192,1,140,10|0,1:2|1:2,0:0:0:0:
427,154,130158,5,10,0:0:0:0:
427,154,130346,2,0,P|382:170|341:189,1,70,2|0,1:2|0:0,0:0:0:0:
302,257,130721,1,10,1:2:0:0:
222,191,130908,1,8,0:0:0:0:
153,243,131096,1,10,1:2:0:0:
102,173,131283,1,8,0:0:0:0:
35,227,131471,2,0,P|49:269|56:301,1,70,10|10,1:2|0:0,0:0:0:0:
121,359,131846,6,0,P|178:340|232:365,1,105,6|8,1:2|0:0,0:0:0:0:
260,360,132221,2,0,L|272:318,3,35,10|8|10|8,1:2|0:0|0:0|0:0,0:0:0:0:
314,308,132596,2,0,L|352:286,3,35,8|8|10|8,1:2|0:0|0:0|0:0,0:0:0:0:
388,309,132971,2,0,L|430:321,3,35,10|8|8|8,1:2|0:0|0:0|0:0,0:0:0:0:
435,370,133346,5,8,1:2:0:0:
512,259,133721,2,0,L|502:213,3,35,8|8|8|8,1:2|0:0|0:0|0:0,0:0:0:0:
510,182,134096,2,0,L|500:136,3,35,8|8|8|8,1:2|0:0|0:0|0:0,0:0:0:0:
469,118,134471,2,0,L|459:72,3,35,10|8|10|8,1:2|0:0|0:0|0:0,0:0:0:0:
448,34,134846,6,0,P|391:53|337:28,1,105,6|8,1:2|0:0,0:0:0:0:
313,38,135221,2,0,L|301:80,3,35,8|8|10|8,1:2|0:0|0:0|0:0,0:0:0:0:
259,90,135596,2,0,L|220:111,3,35,8|8|10|8,1:2|0:0|0:0|0:0,0:0:0:0:
185,89,135971,2,0,L|143:77,3,35,8|8|10|8,1:2|0:0|0:0|0:0,0:0:0:0:
134,35,136346,5,8,1:2:0:0:
56,137,136720,1,10,1:2:0:0:
56,137,136814,1,8,0:0:0:0:
56,137,136908,1,8,0:0:0:0:
117,202,137096,1,10,1:2:0:0:
117,202,137189,1,8,0:0:0:0:
117,202,137283,1,8,0:0:0:0:
48,247,137471,2,0,L|31:209,2,35,8|8|10,1:2|0:0|0:0,0:0:0:0:
112,305,137846,6,0,B|223:315|177:352|307:387,1,210,6|2,1:2|0:0,0:0:0:0:
362,326,138596,2,0,P|371:266|395:162,1,140,2|0,1:2|1:2,0:0:0:0:
456,129,139158,1,2,0:0:0:0:
456,129,139346,2,0,P|417:82|320:76,1,140,10|4,1:3|1:3,0:0:0:0:
268,31,139908,1,6,0:3:0:0:
268,31,140096,2,0,P|259:100|247:189,1,140,10|4,1:3|1:3,0:0:0:0:
200,239,140658,1,2,0:0:0:0:
200,239,140752,1,2,0:0:0:0:
200,239,140846,6,0,P|147:241|95:210,1,105,6|0,1:2|0:0,0:0:0:0:
72,181,141221,2,0,L|82:142,2,35,2|0|2,1:2|0:0|0:3,0:0:0:0:
78,66,141596,2,0,B|163:87|126:130|211:137,1,140,2|8,1:3|0:3,0:0:0:0:
274,125,142158,1,2,1:2:0:0:
274,125,142252,1,0,1:2:0:0:
274,125,142346,6,0,P|332:109|438:310,1,315.000012016297,6|0,1:2|0:0,0:0:0:0:
451,285,143846,2,0,L|371:260,1,70,8|8,0:0|0:0,0:0:0:0:
349,289,144127,1,8,0:0:0:0:
349,289,144221,1,8,0:0:0:0:
291,219,144408,1,8,0:0:0:0:
291,219,144502,1,8,0:0:0:0:
291,219,144596,2,0,P|293:172|325:145,1,70,8|8,0:0|0:0,0:0:0:0:
373,122,144971,2,0,L|382:78,3,35,10|10|10|10,0:0|0:0|0:0|0:0,0:0:0:0:
413,55,145346,6,0,P|370:19|293:24,1,125.999996154785,2|0,1:2|0:0,0:0:0:0:
258,22,145721,1,2,1:2:0:0:
203,87,145908,1,8,0:0:0:0:
203,87,146002,1,8,0:0:0:0:
203,87,146096,1,2,1:2:0:0:
272,148,146283,1,0,0:0:0:0:
221,213,146471,2,0,P|175:217|132:192,1,83.9999974365235,2|8,1:2|0:0,0:0:0:0:
100,187,146752,1,8,0:0:0:0:
100,187,146846,6,0,P|87:136|50:-9,2,167.999994873047,2|8|2,1:2|1:2|1:2,0:0:0:0:
51,259,147783,1,0,0:0:0:0:
114,319,147971,2,0,B|215:306|160:264|286:247,1,167.999994873047,10|0,1:2|1:2,0:0:0:0:
268,165,148533,1,0,0:0:0:0:
333,207,148721,2,0,P|346:254|351:302,1,83.9999974365235,2|8,1:2|0:0,0:0:0:0:
332,330,149002,1,8,0:0:0:0:
332,330,149096,1,2,1:2:0:0:
402,369,149283,1,0,0:0:0:0:
478,343,149471,1,10,1:2:0:0:
510,265,149658,5,8,0:0:0:0:
510,265,149752,1,8,0:0:0:0:
510,265,149846,2,0,P|483:211|453:92,1,167.999994873047,0|0,1:2|1:2,0:0:0:0:
512,65,150408,1,8,0:0:0:0:
444,24,150596,2,0,P|393:28|368:62,1,83.9999974365235,2|2,1:2|0:0,0:0:0:0:
327,115,150971,1,10,1:2:0:0:
327,115,151064,1,8,0:0:0:0:
327,115,151158,1,10,0:0:0:0:
250,69,151346,6,0,B|232:170|194:128|179:254,1,167.999994873047,6|2,1:2|1:2,0:0:0:0:
254,273,151908,1,8,0:0:0:0:
201,340,152096,2,0,P|146:355|99:327,1,83.9999974365235,2|0,1:2|0:0,0:0:0:0:
43,329,152471,1,10,1:2:0:0:
31,253,152658,1,8,0:0:0:0:
94,197,152846,6,0,P|171:170|247:162,1,125.999996154785,2|0,1:2|0:0,0:0:0:0:
260,162,153221,2,0,P|280:118|276:81,1,83.9999974365235,2|8,1:2|0:0,0:0:0:0:
287,47,153502,1,8,0:0:0:0:
287,47,153596,1,2,1:2:0:0:
207,9,153783,1,0,0:0:0:0:
127,24,153971,1,10,1:2:0:0:
65,84,154158,5,10,0:0:0:0:
65,84,154252,1,8,0:0:0:0:
65,84,154346,2,0,P|83:138|120:272,1,167.999994873047,2|0,1:2|1:2,0:0:0:0:
170,320,154908,1,10,0:0:0:0:
170,320,155096,2,0,B|205:215|254:264|285:164,1,167.999994873047,2|0,1:2|1:2,0:0:0:0:
305,113,155658,1,10,0:0:0:0:
231,125,155846,2,0,P|213:67|208:24,1,83.9999974365235,2|12,1:2|0:0,0:0:0:0:
283,4,156221,1,14,1:2:0:0:
283,4,156408,1,2,0:2:0:0:
359,55,156596,6,0,L|405:39,3,41.9999987182618,10|8|8|8,1:2|0:0|0:0|0:0,0:0:0:0:
443,22,156971,2,0,L|482:38,3,41.9999987182618,8|8|8|8,1:2|0:0|0:0|0:0,0:0:0:0:
512,77,157346,6,0,B|503:138|503:138|476:165|476:165|454:251,1,167.999994873047,14|2,1:2|1:2,0:0:0:0:
442,334,157908,1,8,0:0:0:0:
442,334,158002,1,8,0:0:0:0:
442,334,158096,2,0,L|494:326,2,41.9999987182618,2|8|0,1:2|0:0|0:0,0:0:0:0:
363,361,158471,2,0,P|311:338|307:287,1,83.9999974365235,10|8,1:2|0:0,0:0:0:0:
319,271,158752,1,8,0:0:0:0:
319,271,158846,6,0,P|338:182|353:98,1,167.999994873047,2|2,1:2|1:2,0:0:0:0:
400,34,159408,1,8,0:0:0:0:
400,34,159502,1,8,0:0:0:0:
400,34,159596,1,2,1:2:0:0:
316,5,159783,1,0,0:0:0:0:
243,37,159971,2,0,P|210:70|190:116,1,83.9999974365235,10|8,1:2|0:0,0:0:0:0:
128,135,160346,6,0,P|148:195|212:252,1,125.999996154785,0|0,1:2|0:0,0:0:0:0:
232,255,160721,2,0,P|225:306|205:337,1,83.9999974365235,2|8,1:2|0:0,0:0:0:0:
180,349,161002,1,8,0:0:0:0:
180,349,161096,1,2,1:2:0:0:
91,309,161283,1,0,0:0:0:0:
0,341,161471,2,0,B|4:327|14:293|22:229,1,83.9999974365235,2|8,1:2|0:0,0:0:0:0:
42,229,161752,1,8,0:0:0:0:
42,229,161846,6,0,P|59:177|78:60,1,167.999994873047,0|0,1:2|1:2,0:0:0:0:
10,11,162408,1,4,0:0:0:0:
78,66,162596,2,0,P|127:51|156:13,1,83.9999974365235,10|10,1:2|0:0,0:0:0:0:
232,20,162971,1,0,1:2:0:0:
311,78,163158,1,10,0:0:0:0:
311,78,163252,1,8,0:0:0:0:
311,78,163346,6,0,L|300:128,3,41.9999987182618,12|8|10|8,1:2|0:0|0:0|0:0,0:0:0:0:
264,149,163721,2,0,L|253:199,3,41.9999987182618,10|8|10|8,1:2|0:0|0:0|0:0,0:0:0:0:
212,215,164096,2,0,L|201:265,3,41.9999987182618,10|8|10|8,1:2|0:0|0:0|0:0,0:0:0:0:
159,283,164471,1,10,1:2:0:0:
159,283,164564,1,8,0:0:0:0:
159,283,164658,1,10,0:0:0:0:
144,370,164846,5,14,1:2:0:0:
229,347,165033,2,0,B|329:317|306:280|411:256,1,167.999994873047,14|2,1:2|1:2,0:0:0:0:
417,269,165502,1,0,1:2:0:0:
417,269,165596,2,0,P|446:232|419:169,1,83.9999974365235,14|0,0:0|1:2,0:0:0:0:
500,138,165971,2,0,P|470:80|381:72,1,125.999996154785,14|10,0:0|0:0,0:0:0:0:
372,0,166346,6,0,P|362:64|335:176,1,167.999994873047,6|8,1:2|0:2,0:0:0:0:
266,247,166908,2,0,P|256:183|229:71,1,167.999994873047,6|8,1:2|0:0,0:0:0:0:
158,25,167471,2,0,P|148:89|121:201,1,167.999994873047,6|8,1:2|0:0,0:0:0:0:
48,214,168033,5,8,0:0:0:0:
124,189,168221,1,8,0:0:0:0:
12,314,168596,2,0,P|60:337|100:347,1,83.9999974365235,0|8,1:2|0:0,0:0:0:0:
123,320,168877,1,8,0:0:0:0:
123,320,168971,1,0,1:2:0:0:
187,268,169158,5,8,0:0:0:0:
187,268,169252,1,8,0:0:0:0:
187,268,169346,2,0,P|288:268|346:326,1,167.999994873047,6|8,1:2|0:0,0:0:0:0:
332,384,169908,2,0,P|382:296|461:275,1,167.999994873047,6|8,1:2|0:0,0:0:0:0:
504,316,170471,2,0,P|453:228|474:149,1,167.999994873047,6|8,1:2|0:0,0:0:0:0:
509,99,171033,1,2,1:2:0:0:
509,99,171127,1,0,1:2:0:0:
509,99,171221,2,0,P|494:46|411:33,1,125.999996154785,10|0,0:0|0:0,0:0:0:0:
391,51,171596,1,10,1:2:0:0:
298,15,171783,2,0,P|312:63|339:195,1,167.999994873047,6|0,1:2|1:2,0:0:0:0:
321,213,172252,1,0,1:2:0:0:
321,213,172346,6,0,P|266:250|186:188,1,167.999994873047,6|2,1:2|1:2,0:0:0:0:
125,156,172908,2,0,P|114:110|107:68,1,83.9999974365235,10|0,0:0|1:2,0:0:0:0:
35,25,173283,2,0,P|29:91|19:130,1,83.9999974365235,2|8,0:0|1:2,0:0:0:0:
8,191,173658,1,10,0:0:0:0:
8,191,173752,1,8,0:0:0:0:
8,191,173846,2,0,P|57:183|140:285,2,167.999994873047,0|2|8,1:2|1:2|1:2,0:0:0:0:
17,358,174971,2,0,P|58:361|107:358,1,83.9999974365235,10|8,1:2|0:0,0:0:0:0:
184,364,175346,6,0,B|281:339|249:302|367:273,1,167.999994873047,2|2,1:2|1:2,0:0:0:0:
365,208,175908,2,0,P|322:164|285:147,1,83.9999974365235,10|0,0:0|1:2,0:0:0:0:
232,200,176283,2,0,P|189:169|171:135,1,83.9999974365235,2|0,0:0|1:2,0:0:0:0:
205,69,176658,1,10,0:0:0:0:
205,69,176752,1,8,0:0:0:0:
205,69,176846,2,0,P|280:85|394:103,1,167.999994873047,0|0,1:2|1:2,0:0:0:0:
460,96,177408,1,8,0:0:0:0:
460,96,177502,1,8,0:0:0:0:
460,96,177596,2,0,L|479:35,2,41.9999987182618,0|8|0,1:2|0:0|0:0,0:0:0:0:
423,173,177971,1,10,1:2:0:0:
423,173,178064,1,8,0:0:0:0:
423,173,178158,1,8,0:0:0:0:
507,166,178346,6,0,B|486:233|486:233|459:251|459:251|433:328,2,167.999994873047,6|2|2,1:2|1:2|1:2,0:0:0:0:
507,166,179189,1,8,0:0:0:0:
507,166,179283,1,0,1:2:0:0:
425,172,179471,2,0,P|374:196|323:212,1,83.9999974365235,10|8,1:2|0:0,0:0:0:0:
299,273,179846,6,0,P|237:267|127:229,1,167.999994873047,0|2,1:2|1:2,0:0:0:0:
55,226,180408,1,8,0:0:0:0:
55,226,180502,1,8,0:0:0:0:
55,226,180596,1,2,1:2:0:0:
5,151,180783,1,0,0:0:0:0:
29,76,180971,2,0,P|69:45|119:29,1,83.9999974365235,10|8,1:2|0:0,0:0:0:0:
184,16,181346,6,0,P|203:69|210:165,1,125.999996154785,6|0,1:2|0:0,0:0:0:0:
231,169,181721,1,10,0:0:0:0:
192,232,181908,2,0,P|178:279|138:346,1,125.999996154785,6|0,1:2|0:0,0:0:0:0:
155,373,182283,1,10,0:0:0:0:
249,366,182471,2,0,P|302:348|377:331,1,125.999996154785,6|0,1:2|0:0,0:0:0:0:
411,338,182846,6,0,P|434:285|429:248,1,83.9999974365235,2|14,1:2|0:0,0:0:0:0:
353,235,183221,1,6,1:2:0:0:
353,235,183408,2,0,P|281:219|233:211,1,83.9999974365235,2|8,0:0|1:2,0:0:0:0:
292,138,183783,1,10,0:0:0:0:
218,101,183971,2,0,L|154:83,2,41.9999987182618,10|8|10,1:2|0:0|0:0,0:0:0:0:
286,58,184346,2,0,B|346:43|346:43|391:58|391:58|467:47,1,167.999994873047,6|10,1:2|1:2,0:0:0:0:
509,2,184908,2,0,P|491:70|469:153,1,125.999996154785,10|8,0:0|0:0,0:0:0:0:
503,166,185283,2,0,P|489:223|480:252,1,83.9999974365235,2|8,0:0|1:2,0:0:0:0:
402,285,185658,5,10,0:0:0:0:
402,285,185752,1,8,0:0:0:0:
402,285,185846,2,0,P|326:252|275:174,2,167.999994873047,0|0|0,1:2|1:2|1:2,0:0:0:0:
433,319,186689,1,8,0:0:0:0:
433,319,186783,1,10,0:0:0:0:
375,379,186971,1,10,1:2:0:0:
287,368,187158,1,10,0:0:0:0:
233,304,187346,6,0,P|234:241|277:116,1,167.999994873047,2|2,1:2|1:2,0:0:0:0:
342,99,187908,2,0,P|316:37|254:31,1,125.999996154785,10|0,0:0|0:0,0:0:0:0:
231,17,188283,2,0,P|186:33|136:42,1,83.9999974365235,2|8,0:0|1:2,0:0:0:0:
67,51,188658,1,10,0:0:0:0:
67,51,188752,1,8,0:0:0:0:
67,51,188846,2,0,P|121:66|169:187,1,167.999994873047,0|0,1:2|1:2,0:0:0:0:
111,218,189408,1,8,0:0:0:0:
111,218,189502,1,8,0:0:0:0:
111,218,189596,2,0,L|55:202,2,41.9999987182618,0|8|0,1:2|0:0|0:0,0:0:0:0:
176,272,189971,2,0,P|237:253|276:243,1,83.9999974365235,10|8,1:2|0:0,0:0:0:0:
293,263,190252,1,8,0:0:0:0:
293,263,190346,6,0,P|362:277|414:186,1,167.999994873047,6|2,1:2|1:2,0:0:0:0:
501,174,190908,1,14,0:0:0:0:
501,174,191096,2,0,P|475:95|373:93,1,167.999994873047,2|2,1:2|1:2,0:0:0:0:
326,33,191658,1,10,0:0:0:0:
326,33,191752,1,10,0:0:0:0:
326,33,191846,2,0,P|314:81|299:125,1,83.9999974365235,6|8,1:2|0:0,0:0:0:0:
317,152,192127,1,8,0:0:0:0:
317,152,192221,1,0,1:2:0:0:
233,173,192408,1,6,0:0:0:0:
174,117,192596,2,0,P|135:84|84:85,1,83.9999974365235,2|8,1:2|0:0,0:0:0:0:
35,123,192971,1,0,1:2:0:0:
92,190,193158,5,10,0:0:0:0:
92,190,193252,1,10,0:0:0:0:
92,190,193346,2,0,P|103:245|117:318,1,125.999996154785,6|0,1:2|0:0,0:0:0:0:
154,339,193721,2,0,L|196:350,3,41.9999987182618,8|8|10|8,1:2|0:0|0:0|0:0,0:0:0:0:
238,324,194096,2,0,L|280:335,3,41.9999987182618,8|8|10|8,1:2|0:0|0:0|0:0,0:0:0:0:
326,314,194471,2,0,L|368:325,3,41.9999987182618,8|8|10|8,1:2|0:0|0:0|0:0,0:0:0:0:
408,298,194846,5,14,1:2:0:0:
486,314,195033,2,0,P|493:269|493:212,1,83.9999974365235,10|0,0:2|0:0,0:0:0:0:
443,168,195408,2,0,P|406:187|355:171,1,83.9999974365235,10|0,1:2|1:2,0:0:0:0:
294,229,195783,1,10,0:2:0:0:
294,229,195971,1,2,1:2:0:0:
228,162,196158,2,0,P|233:115|242:78,1,83.9999974365235,10|0,0:2|1:2,0:0:0:0:
309,33,196533,1,10,0:2:0:0:
396,43,196721,1,10,0:0:0:0:
455,95,196908,1,10,0:2:0:0:
443,168,197096,6,0,P|427:130|429:14,1,157.500006008148,6|2,1:2|0:0,0:0:0:0:
453,9,197752,1,2,0:0:0:0:
453,9,197846,1,2,0:0:0:0:
119,78,202346,6,0,L|68:91,2,41.9999987182618,8|8|8,1:2|0:0|0:0,0:0:0:0:
200,121,202721,1,8,1:2:0:0:
200,121,202814,1,8,0:0:0:0:
200,121,202908,1,8,0:0:0:0:
126,160,203096,2,0,L|75:173,2,41.9999987182618,8|8|8,1:2|0:0|0:0,0:0:0:0:
201,207,203471,1,10,1:2:0:0:
201,207,203564,1,10,0:0:0:0:
201,207,203658,1,10,0:0:0:0:
283,227,203846,6,0,B|182:245|224:283|98:298,1,167.999994873047,6|2,1:2|1:2,0:0:0:0:
58,251,204408,1,8,0:0:0:0:
58,251,204502,1,8,0:0:0:0:
58,251,204596,2,0,P|34:298|46:352,1,83.9999974365235,2|0,1:2|0:0,0:0:0:0:
97,382,204971,1,10,1:2:0:0:
181,378,205158,1,8,0:0:0:0:
248,324,205346,6,0,L|225:166,1,125.999996154785,2|0,1:2|0:0,0:0:0:0:
194,187,205721,2,0,L|176:95,1,83.9999974365235,2|8,1:2|0:0,0:0:0:0:
191,60,206002,1,8,0:0:0:0:
191,60,206096,2,0,P|230:21|274:11,1,83.9999974365235,2|0,1:2|0:0,0:0:0:0:
329,62,206471,1,10,1:2:0:0:
414,28,206658,5,10,0:0:0:0:
414,28,206752,1,8,0:0:0:0:
414,28,206846,2,0,P|466:59|486:96,1,83.9999974365235,2|0,1:2|1:2,0:0:0:0:
508,151,207221,2,0,P|475:211|413:243,1,125.999996154785,12|8,0:2|0:0,0:0:0:0:
403,258,207596,2,0,P|353:239|325:193,1,83.9999974365235,2|0,1:2|1:2,0:0:0:0:
277,148,207971,1,0,1:2:0:0:
218,214,208158,5,10,1:2:0:0:
218,214,208346,2,0,P|227:262|233:300,1,83.9999974365235,2|2,1:2|1:2,0:0:0:0:
244,339,208627,1,0,1:2:0:0:
244,339,208721,1,14,1:2:0:0:
159,362,208908,1,2,0:2:0:0:
86,323,209096,6,0,L|74:276,3,41.9999987182618,10|8|8|8,1:2|0:0|0:0|0:0,0:0:0:0:
38,247,209471,2,0,L|49:202,3,41.9999987182618,8|8|8|8,1:2|0:0|0:0|0:0,0:0:0:0:
61,160,209846,6,0,B|120:171|120:171|147:198|147:198|233:220,1,167.999994873047,14|2,1:2|1:2,0:0:0:0:
286,174,210408,1,8,0:0:0:0:
286,174,210502,1,8,0:0:0:0:
286,174,210596,1,2,1:2:0:0:
318,96,210783,1,0,0:0:0:0:
259,34,210971,2,0,P|195:38|158:67,1,83.9999974365235,10|8,1:2|0:0,0:0:0:0:
151,22,211252,1,8,0:0:0:0:
151,22,211346,6,0,P|82:32|17:116,1,167.999994873047,2|2,1:2|1:2,0:0:0:0:
32,189,211908,1,8,0:0:0:0:
32,189,212002,1,8,0:0:0:0:
32,189,212096,2,0,L|42:233,2,41.9999987182618,2|8|0,1:2|0:0|0:0,0:0:0:0:
105,141,212471,2,0,P|138:174|158:220,1,83.9999974365235,10|8,1:2|0:0,0:0:0:0:
197,214,212752,1,8,0:0:0:0:
197,214,212846,6,0,P|187:274|150:345,1,125.999996154785,0|0,1:2|0:0,0:0:0:0:
176,364,213221,2,0,P|244:373|262:388,1,83.9999974365235,2|8,1:2|0:0,0:0:0:0:
296,365,213502,1,8,0:0:0:0:
296,365,213596,1,2,1:2:0:0:
367,320,213783,1,0,0:0:0:0:
433,380,213971,2,0,B|437:366|447:332|455:268,1,83.9999974365235,2|8,1:2|0:0,0:0:0:0:
489,269,214252,1,8,0:0:0:0:
489,269,214346,6,0,P|472:217|453:100,1,167.999994873047,0|0,1:2|1:2,0:0:0:0:
445,31,214908,1,4,0:0:0:0:
373,67,215096,2,0,P|324:52|295:14,1,83.9999974365235,10|10,1:2|0:0,0:0:0:0:
228,2,215471,1,0,1:2:0:0:
186,77,215658,1,10,0:0:0:0:
186,77,215752,1,8,0:0:0:0:
186,77,215846,6,0,L|197:127,3,41.9999987182618,12|8|10|8,1:2|0:0|0:0|0:0,0:0:0:0:
237,147,216221,2,0,L|248:197,3,41.9999987182618,10|8|10|8,1:2|0:0|0:0|0:0,0:0:0:0:
291,212,216596,2,0,L|302:262,3,41.9999987182618,10|8|10|8,1:2|0:0|0:0|0:0,0:0:0:0:
346,286,216971,1,10,1:2:0:0:
346,286,217064,1,8,0:0:0:0:
346,286,217158,1,10,0:0:0:0:
283,347,217346,6,0,P|217:318|141:315,1,125.999996154785,14|0,1:2|0:0,0:0:0:0:
117,298,217721,2,0,L|106:252,3,41.9999987182618,8|8|8|8,1:2|0:0|0:0|0:0,0:0:0:0:
136,219,218096,2,0,L|125:173,3,41.9999987182618,8|8|8|8,1:2|0:0|0:0|0:0,0:0:0:0:
96,155,218471,1,8,1:2:0:0:
96,155,218564,1,8,0:0:0:0:
96,155,218658,1,8,0:0:0:0:
97,68,218846,6,0,P|142:19|250:39,1,167.999994873047,6|2,1:2|1:2,0:0:0:0:
309,87,219408,1,8,0:0:0:0:
309,87,219502,1,8,0:0:0:0:
309,87,219596,1,2,1:2:0:0:
251,146,219783,1,0,0:0:0:0:
291,213,219971,2,0,P|339:199|380:192,1,83.9999974365235,2|8,1:2|0:0,0:0:0:0:
412,187,220252,1,8,0:0:0:0:
412,187,220346,6,0,B|433:88|473:117|496:3,2,167.999994873047,2|0|2,1:2|1:2|1:2,0:0:0:0:
402,270,221283,1,0,0:0:0:0:
324,289,221471,1,10,1:2:0:0:
265,233,221658,1,8,0:0:0:0:
265,233,221752,1,8,0:0:0:0:
265,233,221846,2,0,P|211:206|139:231,1,125.999996154785,0|0,1:2|0:0,0:0:0:0:
107,230,222221,2,0,P|132:282|146:328,1,83.9999974365235,2|8,1:2|0:0,0:0:0:0:
180,330,222502,1,8,0:0:0:0:
180,330,222596,1,2,1:2:0:0:
110,382,222783,1,0,0:0:0:0:
34,347,222971,1,10,1:2:0:0:
3,272,223158,5,8,0:0:0:0:
3,272,223252,1,8,0:0:0:0:
3,272,223346,2,0,P|30:218|60:99,1,167.999994873047,0|0,1:2|1:2,0:0:0:0:
60,29,223908,1,8,0:0:0:0:
60,29,224002,1,8,0:0:0:0:
60,29,224096,2,0,L|10:16,2,41.9999987182618,2|8|2,1:2|0:0|0:0,0:0:0:0:
141,85,224471,1,10,1:2:0:0:
141,85,224564,1,8,0:0:0:0:
141,85,224658,1,10,0:0:0:0:
212,26,224846,6,0,B|230:127|268:85|283:211,1,167.999994873047,6|2,1:2|1:2,0:0:0:0:
241,248,225408,1,8,0:0:0:0:
281,321,225596,2,0,P|336:336|383:308,1,83.9999974365235,2|0,1:2|0:0,0:0:0:0:
435,325,225971,1,10,1:2:0:0:
479,261,226158,1,8,0:0:0:0:
418,197,226346,6,0,P|341:170|265:162,1,125.999996154785,2|0,1:2|0:0,0:0:0:0:
252,162,226721,2,0,P|232:118|236:81,1,83.9999974365235,2|8,1:2|0:0,0:0:0:0:
225,47,227002,1,8,0:0:0:0:
225,47,227096,1,2,1:2:0:0:
305,9,227283,1,0,0:0:0:0:
385,24,227471,1,10,1:2:0:0:
447,84,227658,5,10,0:0:0:0:
447,84,227752,1,8,0:0:0:0:
447,84,227846,2,0,P|429:138|392:272,1,167.999994873047,2|0,1:2|1:2,0:0:0:0:
342,320,228408,1,10,0:0:0:0:
342,320,228596,2,0,B|310:261|310:261|270:238|270:238|227:164,1,167.999994873047,2|0,1:2|1:2,0:0:0:0:
281,125,229158,1,10,0:0:0:0:
281,125,229346,2,0,P|299:67|313:24,1,83.9999974365235,2|12,1:2|0:0,0:0:0:0:
229,4,229721,1,14,1:2:0:0:
229,4,229908,1,2,0:2:0:0:
153,55,230096,6,0,L|107:39,3,41.9999987182618,10|8|8|8,1:2|0:0|0:0|0:0,0:0:0:0:
69,22,230471,2,0,L|30:38,3,41.9999987182618,8|8|8|8,1:2|0:0|0:0|0:0,0:0:0:0:
0,77,230846,6,0,B|16:172|62:141|71:243,1,167.999994873047,14|2,1:2|1:2,0:0:0:0:
46,313,231408,1,8,0:0:0:0:
46,313,231502,1,8,0:0:0:0:
46,313,231596,2,0,L|-6:305,2,41.9999987182618,2|8|0,1:2|0:0|0:0,0:0:0:0:
112,357,231971,2,0,P|164:334|168:283,1,83.9999974365235,10|8,1:2|0:0,0:0:0:0:
193,271,232252,1,8,0:0:0:0:
193,271,232346,6,0,P|174:182|159:98,1,167.999994873047,2|2,1:2|1:2,0:0:0:0:
114,41,232908,1,8,0:0:0:0:
114,41,233002,1,8,0:0:0:0:
114,41,233096,1,2,1:2:0:0:
190,2,233283,1,0,0:0:0:0:
269,37,233471,2,0,P|302:70|322:116,1,83.9999974365235,10|8,1:2|0:0,0:0:0:0:
384,135,233846,6,0,P|364:195|300:252,1,125.999996154785,0|0,1:2|0:0,0:0:0:0:
280,255,234221,2,0,P|287:306|307:337,1,83.9999974365235,2|8,1:2|0:0,0:0:0:0:
332,349,234502,1,8,0:0:0:0:
332,349,234596,1,2,1:2:0:0:
402,313,234783,1,0,0:0:0:0:
472,363,234971,2,0,P|488:300|498:267,1,83.9999974365235,2|8,1:2|0:0,0:0:0:0:
470,229,235252,1,8,0:0:0:0:
470,229,235346,6,0,B|472:152|413:154|394:74,1,167.999994873047,0|0,1:2|1:2,0:0:0:0:
327,44,235908,1,4,0:0:0:0:
260,106,236096,1,10,1:2:0:0:
260,106,236283,2,0,P|268:161|279:199,1,83.9999974365235,10|0,0:0|1:2,0:0:0:0:
368,232,236658,1,10,0:0:0:0:
368,232,236752,1,8,0:0:0:0:
368,232,236846,6,0,L|318:243,3,41.9999987182618,12|8|10|8,1:2|0:0|0:0|0:0,0:0:0:0:
297,279,237221,2,0,L|247:290,3,41.9999987182618,10|8|10|8,1:2|0:0|0:0|0:0,0:0:0:0:
231,331,237596,2,0,L|181:342,3,41.9999987182618,10|8|10|8,1:2|0:0|0:0|0:0,0:0:0:0:
154,373,237971,2,0,L|104:384,3,41.9999987182618,10|8|10|8,1:2|0:0|0:0|0:0,0:0:0:0:
70,352,238346,5,14,1:2:0:0:
98,278,238533,1,10,0:0:0:0:
98,278,238627,1,8,0:0:0:0:
98,278,238721,2,0,L|148:267,3,41.9999987182618,8|8|10|8,1:2|0:0|0:0|0:0,0:0:0:0:
164,226,239096,2,0,L|214:215,3,41.9999987182618,10|8|10|8,1:2|0:0|0:0|0:0,0:0:0:0:
241,184,239471,2,0,L|291:173,3,41.9999987182618,8|8|8|8,1:2|0:0|0:0|0:0,0:0:0:0:
318,139,239846,5,4,1:2:0:0:
318,139,240221,1,2,1:2:0:0:
301,57,240408,1,8,0:0:0:0:
228,24,240596,1,2,1:2:0:0:
147,31,240783,1,8,0:0:0:0:
86,83,240971,1,2,1:2:0:0:
81,161,241158,1,10,0:0:0:0:
132,225,241346,6,0,B|356:184|189:93|460:42,1,367.500014019013,6|2,1:2|0:0,0:0:0:0:
256,192,242846,12,6,244346,1:2:0:0:
