osu file format v14

[General]
AudioFilename: audio.mp3
AudioLeadIn: 0
PreviewTime: 397
Countdown: 0
SampleSet: Soft
StackLeniency: 0.7
Mode: 0
LetterboxInBreaks: 0
WidescreenStoryboard: 1

[Editor]
DistanceSpacing: 1.2
BeatDivisor: 4
GridSize: 16
TimelineZoom: 1.6

[Metadata]
Title:Kimi no Rhapsody (TV Size)
TitleUnicode:キミのラプソディー (TV Size)
Artist:Mashumairesh!!
ArtistUnicode:Mashumairesh!!
Creator:Yorita Yoshino
Version:Hard
Source:SHOW BY ROCK!!ましゅまいれっしゅ!!
Tags:show by rock!! mashumairesh!! ed ending anime sb69 Ruhuyu ルフユ Delmin デルミン MashimaHimeko Mashima Himeko マシマヒメコ Howan ほわん Toono Hikaru 遠野ひかる Natsuyoshi Yuuko 夏吉ゆうこ Watada Misaki 和多田美咲 Yamane Aya 山根綺 japanese jpop j-pop pop j-rock jrock rock ショウバイロック!!
BeatmapID:3236030
BeatmapSetID:1571028

[Difficulty]
HPDrainRate:5
CircleSize:4
OverallDifficulty:6
ApproachRate:7.5
SliderMultiplier:1.4
SliderTickRate:1

[Events]
//Background and Video events
0,0,"bg (2).jpg",0,0
//Break Periods
//Storyboard Layer 0 (Background)
//Storyboard Layer 1 (Fail)
//Storyboard Layer 2 (Pass)
//Storyboard Layer 3 (Foreground)
//Storyboard Layer 4 (Overlay)
//Storyboard Sound Samples

[TimingPoints]
415,454.545454545455,4,2,3,40,1,0
1550,-100,4,2,2,60,0,0
2233,-83.3333333333333,4,2,2,80,0,0
14505,-83.3333333333333,4,2,2,5,0,0
14733,-83.3333333333333,4,2,2,80,0,0
16437,-83.3333333333333,4,2,2,70,0,0
16551,-83.3333333333333,4,2,2,60,0,0
16778,-83.3333333333333,4,2,2,60,0,0
17233,-100,4,2,2,60,0,0
22005,-100,4,2,4,60,0,0
22119,-100,4,2,2,60,0,0
25642,-100,4,2,4,60,0,0
25755,-100,4,2,2,60,0,0
29278,-100,4,2,4,60,0,0
29392,-100,4,2,2,60,0,0
30187,-100,4,2,2,60,0,0
30415,-100,4,2,4,60,0,0
30528,-100,4,2,2,60,0,0
31324,-100,4,2,2,60,0,0
31437,-100,4,2,2,60,0,0
32232,-100,4,2,2,60,0,0
38596,-100,4,2,2,60,0,0
38710,-100,4,2,2,60,0,0
42233,-83.3333333333333,4,2,2,80,0,0
44165,-83.3333333333333,4,2,2,5,0,0
44278,-83.3333333333333,4,2,2,80,0,0
45187,-83.3333333333333,4,2,2,80,0,0
45869,-83.3333333333333,4,2,2,100,0,1
51324,-83.3333333333333,4,2,2,100,0,1
51551,-83.3333333333333,4,2,2,100,0,1
51665,-83.3333333333333,4,2,2,100,0,1
52005,-83.3333333333333,4,2,2,100,0,1
58142,-83.3333333333333,4,2,3,100,0,1
58369,-83.3333333333333,4,2,2,100,0,0
60415,-83.3333333333333,4,2,2,100,0,1
65869,-83.3333333333333,4,2,2,100,0,1
66096,-83.3333333333333,4,2,2,100,0,1
66210,-83.3333333333333,4,2,2,100,0,1
66551,-83.3333333333333,4,2,2,100,0,1
74846,-83.3333333333333,4,2,2,100,0,0
74960,-83.3333333333333,4,2,2,80,0,0
75187,-100,4,2,2,80,0,0
76096,-100,4,2,2,60,0,0
76778,-83.3333333333333,4,2,2,80,0,0
89050,-83.3333333333333,4,2,2,5,0,0
89278,-83.3333333333333,4,2,2,80,0,0
89505,-83.3333333333333,4,2,2,5,0,0

[Colours]
Combo1 : 245,234,188
Combo2 : 211,244,251
Combo3 : 216,172,233
Combo4 : 199,73,97

[HitObjects]
109,298,642,6,0,P|131:293|182:319,1,70,2|2,0:2|0:2,0:0:0:0:
179,327,983,1,2,0:2:0:0:
332,368,1210,6,0,B|383:377|383:377|427:348,1,105,2|2,0:2|0:2,0:0:0:0:
470,275,1778,2,0,P|457:240|460:214,1,35,8|2,0:2|0:2,0:0:0:0:
511,107,2233,6,0,P|444:98|428:77,1,84,4|2,0:2|1:2,0:0:0:0:
342,50,2687,1,10,0:2:0:0:
334,40,2801,2,0,L|251:57,1,84,2|2,0:2|1:2,0:0:0:0:
132,97,3255,1,8,0:2:0:0:
124,107,3369,2,0,L|41:90,1,84,0|8,1:2|0:2,0:0:0:0:
165,26,3824,1,2,0:2:0:0:
219,143,4051,6,0,P|223:185|206:223,1,84,2|2,1:2|1:2,0:0:0:0:
166,314,4505,1,10,0:0:0:0:
153,305,4619,2,0,P|149:346|166:384,1,84,0|2,0:2|1:2,0:0:0:0:
319,376,5187,5,2,1:2:0:0:
398,311,5415,2,0,P|425:310|444:321,1,41.9999987182618,10|2,0:0|0:2,0:0:0:0:
503,199,5869,6,0,L|397:215,1,84,4|2,0:2|1:2,0:0:0:0:
334,157,6324,1,10,0:2:0:0:
325,145,6437,2,0,B|308:104|308:104|326:56,1,84,2|2,0:2|1:2,0:0:0:0:
227,31,6892,1,8,0:2:0:0:
232,20,7005,2,0,P|175:31|151:79,1,84,0|8,1:2|0:2,0:0:0:0:
58,53,7460,6,0,P|37:35|27:17,2,42,8|8|6,0:2|0:2|0:2,0:0:0:0:
41,152,7915,2,0,P|13:146|-3:136,2,42,8|8|6,0:2|0:2|0:2,0:0:0:0:
106,228,8369,2,0,P|79:237|59:236,1,42,8|8,0:2|0:2,0:0:0:0:
35,237,8596,6,0,P|84:278|88:324,1,84,6|2,0:2|0:2,0:0:0:0:
170,354,9051,1,10,1:2:0:0:
159,363,9165,2,0,L|177:268,1,84,2|2,1:2|0:2,0:0:0:0:
218,255,9505,6,0,L|204:147,1,84,4|2,1:2|1:2,0:0:0:0:
143,93,9960,1,10,0:0:0:0:
134,81,10074,2,0,B|169:58|169:58|226:69,1,84,2|2,1:2|1:2,0:0:0:0:
303,26,10528,1,8,0:2:0:0:
296,40,10642,2,0,P|288:83|303:120,1,84,0|8,1:2|0:2,0:0:0:0:
399,90,11096,1,2,0:2:0:0:
496,63,11324,6,0,L|480:157,1,84,2|2,1:2|1:2,0:0:0:0:
425,229,11778,1,10,0:2:0:0:
425,229,11892,1,2,1:2:0:0:
482,311,12119,2,0,B|467:344|467:344|348:327,1,126,6|2,0:2|1:2,0:0:0:0:
285,291,12687,1,8,0:2:0:0:
270,294,12801,1,0,1:2:0:0:
255,297,12915,2,0,L|264:207,1,84,2|4,1:2|0:2,0:0:0:0:
192,75,13369,5,2,1:2:0:0:
95,45,13596,1,8,0:2:0:0:
39,129,13824,1,2,1:2:0:0:
112,207,14051,6,0,B|126:250|126:250|104:302,1,84,6|0,0:2|0:2,0:0:0:0:
100,308,14392,1,10,0:0:0:0:
232,381,14733,2,0,L|424:356,1,168,6|0,0:2|1:2,0:0:0:0:
498,375,15415,1,8,0:2:0:0:
469,278,15642,1,0,1:2:0:0:
454,280,15755,1,0,1:2:0:0:
438,281,15869,2,0,P|427:242|432:200,1,84,8|8,0:2|0:2,0:0:0:0:
484,113,16324,2,0,L|416:121,2,42,8|0|0,0:2|1:2|1:2,0:0:0:0:
421,31,16778,5,6,1:2:0:0:
421,31,17005,1,0,0:0:0:0:
361,90,17233,2,0,P|351:110|363:203,1,105,8|0,0:2|0:2,0:0:0:0:
390,213,17687,2,0,B|408:243|408:243|387:333,1,105,2|8,1:2|0:2,0:0:0:0:
291,384,18369,1,8,0:2:0:0:
214,348,18596,6,0,L|129:362,1,70,2|0,0:2|1:2,0:0:0:0:
129,347,18937,2,0,L|44:360,1,70,2|0,0:0|0:2,0:0:0:0:
6,278,19392,2,0,B|-8:226|-8:226|15:181,1,105,2|2,0:2|1:2,0:0:0:0:
1,97,19960,2,0,P|41:96|73:83,1,70,8|0,0:2|0:2,0:0:0:0:
124,22,20415,5,2,1:2:0:0:
124,22,20642,1,0,0:2:0:0:
185,79,20869,2,0,L|246:74,2,35,8|0|0,0:2|0:2|0:2,0:0:0:0:
134,146,21324,2,0,P|153:181|236:189,1,105,2|8,1:2|0:2,0:0:0:0:
314,124,22005,1,6,1:2:0:0:
315,39,22233,6,0,L|400:51,1,70,0|0,0:0|1:2,0:0:0:0:
426,52,22574,2,0,L|414:137,1,70,2|0,0:0|0:2,0:0:0:0:
394,157,22915,2,0,L|401:313,1,140,2|2,0:0|1:2,0:0:0:0:
335,350,23596,2,0,L|346:410,2,35,8|0|0,0:2|0:2|1:0,0:0:0:0:
276,289,24051,5,6,1:2:0:0:
212,344,24278,2,0,P|170:356|120:352,1,70,0|10,0:2|0:2,0:0:0:0:
65,325,24733,2,0,P|89:263|72:185,1,140,2|0,0:2|1:0,0:0:0:0:
24,125,25415,1,10,0:2:0:0:
76,192,25642,6,0,B|129:193|129:193|151:176|151:176|224:181,1,140,6|0,1:2|1:2,0:0:0:0:
274,234,26324,2,0,B|302:204|302:204|274:93,1,140,8|2,0:2|1:2,0:0:0:0:
195,93,27005,1,0,1:2:0:0:
113,71,27233,2,0,P|123:14|147:2,1,70,8|0,0:2|0:2,0:0:0:0:
195,93,27687,6,0,L|180:191,1,70,2|0,1:2|0:2,0:0:0:0:
128,224,28142,1,8,0:2:0:0:
166,298,28369,1,0,0:2:0:0:
161,311,28483,2,0,L|292:291,1,105,10|8,0:2|0:2,0:0:0:0:
344,321,29051,1,8,0:2:0:0:
423,347,29278,6,0,P|447:302|452:195,1,140,6|2,0:2|1:2,0:0:0:0:
416,140,29960,1,8,0:2:0:0:
335,164,30187,1,0,0:0:0:0:
320,167,30301,1,8,0:2:0:0:
305,170,30415,2,0,L|313:92,1,70,2|2,1:2|1:2,0:0:0:0:
251,42,30869,1,10,0:2:0:0:
236,39,30983,1,2,1:2:0:0:
221,36,31096,1,2,1:2:0:0:
77,107,31324,5,6,1:2:0:0:
111,183,31551,1,0,0:0:0:0:
147,258,31778,2,0,B|161:273|161:273|311:255,1,140,8|2,0:2|1:2,0:0:0:0:
447,269,32687,2,0,L|436:356,1,70,10|2,0:2|0:2,0:0:0:0:
364,379,33142,6,0,B|319:383|319:383|273:354|273:354|232:358,1,140,2|8,1:2|0:2,0:0:0:0:
64,384,34051,1,2,1:2:0:0:
81,302,34278,1,0,1:0:0:0:
96,219,34505,1,8,0:2:0:0:
36,61,34960,6,0,P|75:91|112:78,1,70,2|0,1:2|0:0,0:0:0:0:
156,144,35415,2,0,P|207:138|222:121,1,70,8|2,0:2|0:2,0:0:0:0:
211,85,35755,2,0,L|342:95,1,105,2|2,1:2|1:2,0:0:0:0:
391,54,36324,1,8,0:2:0:0:
464,14,36551,6,0,P|470:47|448:168,1,140,2|0,0:2|1:0,0:0:0:0:
442,234,37233,2,0,P|473:236|515:266,1,70,14|0,0:2|1:2,0:0:0:0:
450,318,37687,2,0,B|415:342|415:342|286:317,1,140,14|8,0:2|0:2,0:0:0:0:
244,361,38369,1,0,1:2:0:0:
188,298,38596,5,6,1:2:0:0:
108,326,38824,1,0,0:0:0:0:
26,344,39051,2,0,P|15:284|42:202,1,140,8|2,0:2|1:2,0:0:0:0:
38,41,39960,2,0,P|69:56|103:60,1,70,8|2,0:2|0:2,0:0:0:0:
182,29,40415,6,0,L|325:50,1,140,2|8,1:2|0:2,0:0:0:0:
455,149,41324,2,0,L|371:158,1,70,2|2,1:2|1:2,0:0:0:0:
301,165,41778,1,10,0:2:0:0:
168,266,42233,6,0,L|-3:245,1,168,12|2,0:2|1:2,0:0:0:0:
0,144,42915,2,0,P|46:103|154:144,1,168,12|2,0:2|1:2,0:0:0:0:
173,222,43596,1,12,0:2:0:0:
202,318,43824,6,0,L|370:297,1,167.999994873047,6|8,1:2|0:2,0:0:0:0:
275,260,44505,1,8,0:2:0:0:
198,345,44733,1,8,0:2:0:0:
105,209,44960,1,8,0:2:0:0:
0,296,45187,6,0,L|92:329,1,84,2|2,0:2|1:2,0:0:0:0:
126,342,45528,2,0,L|108:244,1,84,2|0,0:2|0:2,0:0:0:0:
105,209,45869,1,6,1:2:0:0:
40,131,46096,6,0,P|79:119|100:72,1,84,2|10,0:2|0:2,0:0:0:0:
107,33,46437,2,0,P|99:72|129:114,1,84,2|2,0:2|1:2,0:0:0:0:
162,137,46778,1,8,0:2:0:0:
240,73,47005,2,0,P|266:63|349:67,2,84,2|8|2,0:2|0:2|0:2,0:0:0:0:
253,173,47687,5,0,1:2:0:0:
352,191,47915,1,2,0:2:0:0:
449,216,48142,1,8,0:2:0:0:
458,234,48255,1,2,1:2:0:0:
380,298,48483,1,2,1:2:0:0:
360,297,48596,1,0,1:0:0:0:
352,191,48824,5,2,0:2:0:0:
408,107,49051,1,10,0:2:0:0:
408,107,49165,2,0,P|338:105|314:82,1,84,2|2,0:2|0:2,0:0:0:0:
293,62,49505,5,4,1:2:0:0:
203,15,49733,1,2,0:2:0:0:
110,54,49960,1,10,0:2:0:0:
110,54,50074,2,0,B|89:94|89:94|98:147,1,84,2|0,0:2|1:2,0:0:0:0:
111,180,50415,1,8,0:2:0:0:
82,276,50642,2,0,L|-10:265,2,84,2|10|10,0:2|0:2|0:2,0:0:0:0:
145,354,51324,6,0,P|171:346|237:347,1,84,6|8,0:2|0:2,0:0:0:0:
250,316,51665,2,0,P|223:259|232:211,1,84,8|0,0:2|0:0,0:0:0:0:
245,214,52005,2,0,P|271:222|337:221,1,84,8|6,0:2|0:2,0:0:0:0:
424,250,52460,5,2,0:2:0:0:
395,153,52687,1,2,1:2:0:0:
395,153,52801,2,0,P|436:154|477:144,1,84,2|2,0:2|0:2,0:0:0:0:
468,120,53142,1,6,1:2:0:0:
395,49,53369,5,2,0:2:0:0:
311,105,53596,1,10,0:2:0:0:
311,105,53710,2,0,P|270:106|229:96,1,84,2|0,0:2|1:2,0:0:0:0:
238,68,54051,2,0,B|228:97|228:97|247:173,2,84,2|2|10,1:2|0:2|0:2,0:0:0:0:
145,27,54733,1,0,0:2:0:0:
64,87,54960,6,0,P|59:136|72:172,1,84,2|0,1:2|0:2,0:0:0:0:
64,269,55415,1,10,0:2:0:0:
64,269,55528,1,2,0:2:0:0:
157,305,55755,2,0,B|180:283|180:283|293:295,1,126,0|0,1:2|0:2,0:0:0:0:
367,332,56324,1,10,0:2:0:0:
370,311,56437,1,0,0:0:0:0:
373,290,56551,1,0,0:2:0:0:
463,244,56778,5,6,1:2:0:0:
406,160,57005,2,0,L|300:171,1,84,2|8,0:2|0:2,0:0:0:0:
235,116,57460,2,0,P|261:45|363:45,1,168,2|0,0:2|1:2,0:0:0:0:
403,115,58142,1,8,0:3:0:0:
331,186,58369,6,0,B|338:231|373:255|373:255|334:240|275:280,1,168,6|0,1:2|1:2,0:0:0:0:
358,345,59051,1,10,0:2:0:0:
452,309,59278,1,0,0:2:0:0:
454,288,59392,1,0,1:2:0:0:
456,267,59505,1,8,0:2:0:0:
485,170,59733,6,0,B|496:151|496:151|475:68,1,84,2|2,1:2|1:2,0:0:0:0:
467,42,60074,2,0,P|439:60|369:37,1,84,2|0,0:2|0:2,0:0:0:0:
355,18,60415,1,6,0:2:0:0:
254,24,60642,2,0,P|213:17|177:37,1,84,2|10,0:2|0:2,0:0:0:0:
150,79,60983,2,0,B|139:98|139:98|154:158,1,84,2|2,0:2|1:2,0:0:0:0:
200,177,61324,1,8,0:2:0:0:
116,233,61551,2,0,P|75:236|36:202,2,84,2|8|2,0:2|1:2|0:2,0:0:0:0:
206,277,62233,5,0,1:2:0:0:
179,374,62460,1,2,0:2:0:0:
277,352,62687,1,10,0:2:0:0:
271,368,62801,1,2,0:2:0:0:
367,338,63028,1,2,1:2:0:0:
361,354,63142,1,8,0:2:0:0:
459,373,63369,5,2,0:2:0:0:
429,276,63596,1,10,0:2:0:0:
429,276,63710,2,0,P|441:227|429:179,1,84,2|2,0:2|0:2,0:0:0:0:
402,156,64051,1,6,0:2:0:0:
302,170,64278,1,2,0:2:0:0:
202,182,64505,1,10,0:2:0:0:
202,182,64619,2,0,B|193:152|193:152|208:70,1,84,2|2,0:2|1:2,0:0:0:0:
244,65,64960,1,8,0:2:0:0:
153,20,65187,2,0,L|69:29,2,84,2|10|8,0:2|0:2|0:2,0:0:0:0:
244,65,65869,6,0,L|350:71,1,84,6|8,0:2|0:2,0:0:0:0:
356,73,66210,2,0,P|327:125|334:164,1,84,8|0,0:2|0:0,0:0:0:0:
343,172,66551,2,0,L|449:166,1,84,8|6,0:2|0:2,0:2:0:0:
485,248,67005,5,2,0:2:0:0:
418,324,67233,1,2,1:2:0:0:
418,324,67346,2,0,P|384:308|331:312,1,84,2|2,0:2|0:2,0:0:0:0:
312,330,67687,1,6,0:2:0:0:
223,379,67915,1,2,0:2:0:0:
141,319,68142,1,10,0:2:0:0:
141,319,68255,2,0,P|132:267|146:207,1,84,2|0,0:2|1:2,0:0:0:0:
151,205,68596,2,0,P|76:233|1:169,1,168,2|10,1:2|0:2,0:0:0:0:
87,123,69278,1,0,0:2:0:0:
38,34,69505,6,0,P|80:39|122:24,1,84,4|0,0:1|0:0,0:0:0:0:
217,1,69960,1,10,0:2:0:0:
217,1,70074,1,2,0:2:0:0:
292,67,70301,6,0,L|280:224,1,126,2|2,0:2|1:2,0:0:0:0:
305,290,70869,1,10,0:2:0:0:
325,283,70983,1,2,1:2:0:0:
344,293,71096,2,0,P|377:321|436:311,1,84,2|6,1:2|1:2,0:0:0:0:
476,240,71551,6,0,L|463:131,1,84,2|8,1:2|0:2,0:0:0:0:
505,30,72005,2,0,P|442:80|364:58,1,168,2|2,1:2|1:2,0:0:0:0:
268,26,72687,1,0,1:2:0:0:
177,71,72915,2,0,B|160:100|160:100|183:258,1,168,6|0,1:2|1:2,0:0:0:0:
72,306,73596,1,10,0:2:0:0:
169,334,73824,1,2,1:2:0:0:
164,349,73937,1,0,1:2:0:0:
159,364,74051,6,0,L|219:349,3,42,2|0|2|0,1:2|1:2|1:2|1:2,0:0:0:0:
245,331,74505,2,0,L|305:346,3,42,2|0|2|0,1:2|1:2|1:2|1:2,0:0:0:0:
478,369,75187,6,0,L|474:279,1,70
489,284,75528,1,0,0:0:0:0:
436,218,75755,2,0,B|392:247|392:247|341:238,1,105,0|2,0:0|0:2,0:0:0:0:
286,172,76324,2,0,L|294:115,1,35,8|2,0:2|0:2,0:0:0:0:
172,43,76778,6,0,P|105:34|89:13,1,84,4|2,0:2|1:2,0:0:0:0:
25,96,77233,1,10,0:2:0:0:
15,104,77346,2,0,L|32:187,1,84,2|2,0:2|1:2,0:0:0:0:
55,284,77801,1,8,0:2:0:0:
67,288,77915,2,0,L|130:231,1,84,0|8,1:2|0:2,0:0:0:0:
123,131,78369,1,2,0:2:0:0:
216,168,78596,6,0,L|328:177,1,84,2|2,1:2|1:2,0:0:0:0:
392,133,79051,1,10,0:0:0:0:
405,124,79165,2,0,P|409:165|392:203,1,84,2|2,0:2|1:2,0:0:0:0:
424,350,79733,5,2,1:2:0:0:
346,283,79960,2,0,P|321:272|305:272,1,41.9999987182618,10|2,0:0|0:2,0:0:0:0:
186,354,80415,6,0,L|80:370,1,84,4|2,0:2|1:2,0:0:0:0:
22,304,80869,1,10,0:2:0:0:
13,292,80983,2,0,B|-4:251|-4:251|14:203,1,84,2|2,0:2|1:2,0:0:0:0:
66,130,81437,1,8,0:2:0:0:
71,141,81551,2,0,P|14:130|-10:82,1,84,0|8,1:2|0:2,0:0:0:0:
64,35,82005,6,0,L|123:24,2,42,8|8|6,0:2|0:2|0:2,0:2:0:0:
146,92,82460,2,0,L|205:81,2,42,8|8|6,0:2|0:2|0:2,0:2:0:0:
228,149,82915,2,0,L|287:138,1,42,8|8,0:2|0:2,0:2:0:0:
281,121,83142,2,0,L|391:132,1,84,6|2,0:2|0:2,0:0:0:0:
463,106,83596,1,10,1:2:0:0:
452,97,83710,2,0,P|440:146|470:192,1,84,2|2,1:2|0:2,0:0:0:0:
490,209,84051,6,0,P|502:248|489:287,1,84,4|2,1:2|1:2,0:0:0:0:
401,335,84505,1,10,0:0:0:0:
410,347,84619,2,0,B|318:359,1,84,2|2,1:2|1:2,0:0:0:0:
227,376,85074,1,8,0:2:0:0:
234,362,85187,2,0,P|242:319|227:282,1,84,0|8,1:2|0:2,0:0:0:0:
131,312,85642,1,2,0:2:0:0:
31,331,85869,6,0,P|16:292|24:251,1,84,2|2,1:2|1:2,0:0:0:0:
106,192,86324,1,10,0:2:0:0:
106,192,86437,1,2,1:2:0:0:
61,101,86665,2,0,B|97:109|124:95|124:95|159:73|218:86,1,126,6|2,0:2|1:2,0:0:0:0:
276,43,87233,1,8,0:2:0:0:
271,28,87346,1,0,1:2:0:0:
266,13,87460,2,0,P|320:10|359:40,1,84,2|4,1:2|0:2,0:0:0:0:
424,85,87915,5,2,1:2:0:0:
416,185,88142,1,8,0:2:0:0:
408,285,88369,1,2,1:2:0:0:
315,324,88596,6,0,B|272:338|272:338|220:316,1,84,6|0,0:2|0:2,0:0:0:0:
214,312,88937,1,10,0:2:0:0:
71,362,89278,2,0,P|104:330|107:264,1,84,6|0,0:0|0:2,0:0:0:0:
