osu file format v14

[General]
AudioFilename: audio.mp3
AudioLeadIn: 0
PreviewTime: 22318
Countdown: 0
SampleSet: Normal
StackLeniency: 0.7
Mode: 0
LetterboxInBreaks: 0
WidescreenStoryboard: 0

[Editor]
Bookmarks: 22318,51856,66625,88779,96164,125702,129395
DistanceSpacing: 1.2
BeatDivisor: 2
GridSize: 4
TimelineZoom: 1

[Metadata]
Title:Sincerity ( Gandgu rmx)
TitleUnicode:Sincerity ( Gandgu rmx)
Artist:Masha Badda Boo & Gandgu
ArtistUnicode:Masha Badda Boo & Gandgu
Creator:HealthPoint
Version:Easy
Source:
Tags:
BeatmapID:971221
BeatmapSetID:452806

[Difficulty]
HPDrainRate:3
CircleSize:2
OverallDifficulty:3
ApproachRate:3
SliderMultiplier:1
SliderTickRate:1

[Events]
//Background and Video events
0,0,"roads-and-bridges16.jpg",0,0
//Break Periods
2,88979,94364
//Storyboard Layer 0 (Background)
//Storyboard Layer 1 (Fail)
//Storyboard Layer 2 (Pass)
//Storyboard Layer 3 (Foreground)
//Storyboard Sound Samples

[TimingPoints]
7549.04735196285,923.076923076923,4,1,0,100,1,0
37087,-100,4,1,0,100,0,1
51856,-100,4,1,0,100,0,0
96164,-100,4,1,0,100,0,1
118318,-100,4,1,0,100,0,0

[Colours]
Combo1 : 74,5,131
Combo2 : 91,90,112
Combo3 : 66,43,230
Combo4 : 101,44,68

[HitObjects]
256,188,7549,5,0,0:0:0:0:
120,228,8472,1,0,0:0:0:0:
208,304,9395,2,0,P|264:316|308:304,1,100
404,224,11241,5,0,0:0:0:0:
240,140,12164,2,0,P|160:92|144:96,1,100
80,168,14010,1,0,0:0:0:0:
196,248,14933,5,0,0:0:0:0:
312,248,15856,1,0,0:0:0:0:
396,192,16779,2,0,P|416:128|400:104,1,100
296,64,18625,1,0,0:0:0:0:
204,136,19549,5,0,0:0:0:0:
272,220,20472,1,0,0:0:0:0:
192,296,21395,1,0,0:0:0:0:
256,192,22318,5,0,0:0:0:0:
312,288,23241,1,0,0:0:0:0:
364,200,23702,1,0,0:0:0:0:
300,128,24164,1,0,0:0:0:0:
208,128,24625,1,0,0:0:0:0:
144,196,25087,1,0,0:0:0:0:
256,192,26010,5,0,0:0:0:0:
256,308,26933,1,0,0:0:0:0:
256,224,27395,6,0,L|256:152,1,50
256,76,28318,1,0,0:0:0:0:
172,156,28779,1,0,0:0:0:0:
280,264,29702,2,0,P|360:228|376:204,1,100
368,120,31087,5,0,0:0:0:0:
296,120,31549,2,0,P|280:176|240:184,1,100
156,184,32933,1,0,0:0:0:0:
152,276,33395,5,0,0:0:0:0:
236,276,33856,2,0,L|308:276,2,50
236,192,35241,1,0,0:0:0:0:
328,192,35702,1,0,0:0:0:0:
292,112,36164,5,0,0:0:0:0:
224,112,36625,1,0,0:0:0:0:
256,188,37087,5,0,0:0:0:0:
164,316,38010,2,0,L|52:316,1,100
120,132,39395,1,0,0:0:0:0:
192,132,39856,2,0,L|308:132,1,100
400,196,41702,5,0,0:0:0:0:
144,264,43087,1,0,0:0:0:0:
104,176,43549,1,0,0:0:0:0:
192,128,44472,6,0,P|296:76|320:144,1,200
324,200,46779,1,0,0:0:0:0:
324,276,47241,1,0,0:0:0:0:
172,280,48164,5,0,0:0:0:0:
172,200,48625,1,0,0:0:0:0:
172,112,49087,2,0,L|76:176,1,100
92,240,50472,1,0,0:0:0:0:
256,192,51856,5,0,0:0:0:0:
376,104,52779,1,0,0:0:0:0:
376,276,53702,1,0,0:0:0:0:
152,276,54625,1,0,0:0:0:0:
156,104,55549,1,0,0:0:0:0:
220,104,56010,5,0,0:0:0:0:
272,104,56472,1,0,0:0:0:0:
328,104,56933,1,0,0:0:0:0:
256,192,57395,1,0,0:0:0:0:
256,260,57856,6,0,L|256:364,1,100
164,292,59241,1,0,0:0:0:0:
160,112,60164,1,0,0:0:0:0:
344,112,61087,5,0,0:0:0:0:
344,296,62010,1,0,0:0:0:0:
256,192,62933,1,0,0:0:0:0:
256,192,66625,5,0,0:0:0:0:
252,124,67549,2,0,P|200:152|188:188,1,100
188,256,68933,1,0,0:0:0:0:
256,256,69395,1,0,0:0:0:0:
352,192,70318,5,0,0:0:0:0:
352,124,70779,1,0,0:0:0:0:
352,56,71241,1,0,0:0:0:0:
280,56,71702,2,0,L|280:168,1,100
212,156,73087,5,0,0:0:0:0:
256,280,74010,1,0,0:0:0:0:
220,224,74472,1,0,0:0:0:0:
288,224,74933,1,0,0:0:0:0:
360,224,75395,6,0,P|388:188|388:172,2,50
328,164,76779,1,0,0:0:0:0:
256,88,77702,2,0,P|188:108|160:144,1,100
168,196,79087,6,0,L|168:248,1,50
168,312,80010,2,0,L|272:312,1,100
256,240,81395,5,0,0:0:0:0:
256,116,82318,1,0,0:0:0:0:
188,116,82779,2,0,L|188:56,1,50
256,48,83702,5,0,0:0:0:0:
324,68,84164,1,0,0:0:0:0:
324,160,85087,2,0,P|320:212|272:220,1,100
244,160,86472,5,0,0:0:0:0:
176,160,86933,1,0,0:0:0:0:
108,160,87395,1,0,0:0:0:0:
96,228,87856,6,0,P|124:272|172:276,1,100
396,112,96164,5,0,0:0:0:0:
396,192,96625,1,0,0:0:0:0:
396,272,97087,1,0,0:0:0:0:
324,272,97549,6,0,L|272:272,1,50
208,272,98472,1,0,0:0:0:0:
140,272,98933,1,0,0:0:0:0:
136,152,99856,6,0,P|80:120|76:72,1,100
140,88,101241,2,0,L|204:88,1,50
280,88,102164,2,0,L|352:88,1,50
256,304,103549,5,0,0:0:0:0:
284,244,104010,2,0,L|220:244,1,50
280,176,104933,2,0,L|216:176,1,50
280,108,105856,6,0,L|216:108,1,50
96,192,107241,1,0,0:0:0:0:
96,260,107702,2,0,L|228:260,1,100
256,252,109087,1,0,0:0:0:0:
312,192,109549,5,0,0:0:0:0:
256,136,110010,1,0,0:0:0:0:
208,192,110933,6,0,L|92:192,1,100
256,248,112779,2,0,L|256:348,1,100
308,192,114625,2,0,L|432:192,1,100
368,124,116010,5,0,0:0:0:0:
300,124,116472,1,0,0:0:0:0:
232,124,116933,1,0,0:0:0:0:
164,124,117395,1,0,0:0:0:0:
256,192,118318,5,0,0:0:0:0:
256,192,119241,1,0,0:0:0:0:
256,192,120164,1,0,0:0:0:0:
256,192,121087,5,0,0:0:0:0:
256,192,122010,1,0,0:0:0:0:
188,260,122933,5,0,0:0:0:0:
256,260,123395,1,0,0:0:0:0:
324,260,123856,1,0,0:0:0:0:
324,192,124318,5,0,0:0:0:0:
188,192,125241,1,0,0:0:0:0:
120,192,125702,2,0,P|124:236|364:172,1,400
