osu file format v14

[General]
AudioFilename: audio.mp3
AudioLeadIn: 0
PreviewTime: 65390
Countdown: 0
SampleSet: Soft
StackLeniency: 0.7
Mode: 2
LetterboxInBreaks: 0
WidescreenStoryboard: 0

[Editor]
DistanceSpacing: 1.4
BeatDivisor: 4
GridSize: 16
TimelineZoom: 1

[Metadata]
Title:GIRI GIRI (TV Size)
TitleUnicode:GIRI GIRI (TV Size)
Artist:Masayuki Suzuki feat. Suu
ArtistUnicode:鈴木雅之 feat. すぅ
Creator:Greaper
Version:Rain
Source:かぐや様は告らせたい-ウルトラロマンティック-
Tags:kaguya-sama wa kokurasetai tensai-tachi no renai zunousen kaguya sama love is war ultra romantic season 3 op opening SILENT SIREN anime jazz pop jpop j-pop japanese female male vocals vocalists Shinomiya Kaguya Shirogane Miyuki Fujiwara Chika Ishigami Yû Iino Miko Hayasaka Ai Osaragi Kobachi
BeatmapID:3572424
BeatmapSetID:1746511

[Difficulty]
HPDrainRate:5
CircleSize:4
OverallDifficulty:9
ApproachRate:9
SliderMultiplier:2.4
SliderTickRate:2

[Events]
//Background and Video events
0,0,"bg.jpg",0,0
//Break Periods
//Storyboard Layer 0 (Background)
//Storyboard Layer 1 (Fail)
//Storyboard Layer 2 (Pass)
//Storyboard Layer 3 (Foreground)
//Storyboard Layer 4 (Overlay)
//Storyboard Sound Samples

[TimingPoints]
469,468.75,4,3,11,60,1,0
4219,-100,4,2,11,70,0,0
6328,-100,4,2,11,5,0,0
6562,-100,4,2,11,65,0,0
7734,-100,4,2,11,75,0,0
21094,-100,4,3,11,60,0,0
22969,-100,4,2,11,75,0,0
26719,-100,4,2,11,65,0,0
32109,-100,4,2,11,75,0,0
34219,-111.111111111111,4,2,11,50,0,0
49219,-100,4,2,11,60,0,0
56719,-100,4,2,11,65,0,0
60469,-100,4,2,11,70,0,0
64219,-100,4,2,11,80,0,0
65390,-100,4,2,11,65,0,0
65859,-100,4,2,11,80,0,1
79219,-100,4,3,11,70,0,0
81094,-100,4,2,11,80,0,1
83437,-100,4,2,11,60,0,0
84844,-100,4,2,11,75,0,0
86484,-100,4,2,11,85,0,0
86953,-100,4,2,11,60,0,0

[Colours]
Combo1 : 145,192,221
Combo2 : 249,117,120
Combo3 : 182,182,182
Combo4 : 251,155,115

[HitObjects]
423,295,469,6,0,P|474:244|405:164,1,180,10|0,0:0|0:0,0:0:0:0:
363,156,937,1,8,0:1:0:0:
170,148,1172,2,0,L|34:140,1,120,2|8,0:2|0:1,0:0:0:0:
349,216,1640,1,8,2:0:0:0:
165,320,1875,2,0,L|159:196,1,120,8|8,2:0|0:1,0:0:0:0:
458,185,2344,6,0,P|454:138|333:69,1,180,10|0,0:0|0:0,0:0:0:0:
285,63,2812,1,8,0:1:0:0:
478,65,3047,2,0,L|486:186,1,120,2|8,0:2|0:1,0:0:0:0:
187,197,3515,1,8,2:0:0:0:
351,211,3750,2,0,L|359:334,1,120,8|0,2:0|0:0,0:0:0:0:
47,345,4219,6,0,L|247:355,2,180,12|4|8,0:0|0:0|0:0,0:0:0:0:
357,262,5156,2,0,L|171:245,1,180,12|4,0:0|0:0,0:0:0:0:
116,232,5625,1,2,0:3:0:0:
419,69,5859,2,0,L|478:63,1,60,8|8,3:0|3:0,0:0:0:0:
478,62,6094,2,0,P|480:105|426:157,1,120,8|0,0:0|0:0,0:0:0:0:
99,236,6562,6,0,L|340:234,1,240,4|8,0:0|3:0,0:0:0:0:
162,169,7265,2,0,L|123:108,2,60,8|8|8,3:0|3:0|3:0,0:0:0:0:
496,80,7734,6,0,L|235:73,1,240,4|0,0:0|0:0,0:0:0:0:
433,145,8437,2,0,L|442:265,1,120,10|0,0:0|0:0,0:0:0:0:
249,263,8906,2,0,L|119:273,1,120,10|0,3:0|0:0,0:0:0:0:
321,299,9375,1,10,0:0:0:0:
16,288,9609,6,0,P|24:210|166:138,1,240,2|0,0:0|0:0,0:0:0:0:
458,152,10312,1,10,0:0:0:0:
290,150,10547,2,0,P|236:197|335:316,1,240,2|0,0:0|0:0,0:0:0:0:
472,312,11250,1,10,0:0:0:0:
165,345,11484,6,0,L|426:349,1,240,2|0,0:0|0:0,0:0:0:0:
232,286,12187,2,0,L|226:151,1,120,10|2,0:0|0:0,0:0:0:0:
409,143,12656,2,0,P|396:84|226:17,1,240,2|8,0:0|0:0,0:0:0:0:
66,20,13359,1,2,0:0:0:0:
375,84,13594,6,0,L|386:216,1,120,2|2,0:0|0:0,0:0:0:0:
220,220,14062,1,10,0:0:0:0:
392,248,14297,1,2,0:0:0:0:
32,272,14765,2,0,L|41:121,1,120,2|10,0:0|0:0,0:0:0:0:
352,256,15234,6,0,L|106:248,1,240,6|0,0:0|0:0,0:0:0:0:
299,197,15937,2,0,L|298:61,1,120,10|0,0:0|0:0,0:0:0:0:
127,68,16406,2,0,L|273:63,1,120,10|2,0:3|0:0,0:0:0:0:
72,62,16875,1,8,0:0:0:0:
375,67,17109,6,0,L|497:63,1,120,6|0,0:0|0:0,0:0:0:0:
324,169,17578,1,2,0:0:0:0:
496,192,17812,1,8,0:0:0:0:
316,240,18047,2,0,P|254:141|322:49,1,240,2|8,0:0|0:0,0:0:0:0:
498,60,18750,1,8,0:0:0:0:
171,270,18984,6,0,L|418:281,1,240,6|0,0:0|0:0,0:0:0:0:
235,205,19687,1,8,0:0:0:0:
411,196,19922,1,4,0:0:0:0:
238,151,20156,2,0,L|108:129,1,120,10|0,0:3|0:0,0:0:0:0:
299,59,20625,2,0,L|296:123,1,60,8|8,3:0|3:0,0:0:0:0:
192,95,20859,1,8,3:0:0:0:
496,112,21094,6,0,L|489:291,1,180,10|0,0:0|0:0,0:0:0:0:
429,307,21562,1,8,0:1:0:0:
238,318,21797,2,0,L|371:330,1,120,2|8,0:2|0:1,0:0:0:0:
51,274,22265,1,8,2:0:0:0:
225,255,22500,2,0,L|357:265,1,120,8|0,2:0|0:0,0:0:0:0:
23,130,22969,5,12,0:0:0:0:
189,130,23203,1,10,0:3:0:0:
23,130,23437,1,10,0:3:0:0:
352,135,23672,1,12,0:0:0:0:
186,135,23906,1,10,0:3:0:0:
352,135,24140,1,10,0:3:0:0:
16,16,24375,1,12,0:0:0:0:
186,25,24609,1,10,0:3:0:0:
20,67,24844,2,0,L|22:205,1,120,10|0,3:0|0:0,0:0:0:0:
326,186,25312,6,0,L|167:196,1,120,4|0,0:0|0:0,0:0:0:0:
389,235,25781,2,0,L|395:98,1,120,8|8,3:0|0:0,0:0:0:0:
332,94,26133,1,8,0:0:0:0:
151,73,26250,2,0,L|32:69,1,120,8|8,0:0|3:0,0:0:0:0:
407,269,26719,6,0,L|414:144,1,120,4|0,0:0|0:0,0:0:0:0:
231,128,27187,2,0,L|219:259,1,120,10|0,0:0|0:0,0:0:0:0:
388,256,27656,1,2,0:0:0:0:
216,280,27890,2,0,L|468:312,1,240,2|2,0:0|0:0,0:0:0:0:
146,214,28594,6,0,L|23:203,1,120,10|0,3:0|0:0,0:0:0:0:
207,171,29062,1,10,0:0:0:0:
19,137,29297,2,0,L|15:58,1,60,2|0,0:0|0:0,0:0:0:0:
19,137,29531,2,0,L|143:146,1,120,0|8,0:0|0:1,0:0:0:0:
312,138,30000,2,0,L|181:130,1,120,8|0,0:0|0:0,0:0:0:0:
496,288,30469,6,0,L|346:276,1,120,4|0,0:0|0:0,0:0:0:0:
70,267,30937,1,2,0:0:0:0:
237,263,31172,2,0,L|245:126,1,120,2|0,0:0|0:0,0:0:0:0:
61,132,31640,2,0,L|66:2,1,120,2|0,0:0|0:0,0:0:0:0:
377,20,32109,6,0,L|500:41,1,120,6|8,0:0|0:1,0:0:0:0:
191,66,32578,2,0,L|71:61,1,120,6|8,0:0|0:0,0:0:0:0:
380,141,33047,2,0,L|376:276,1,120,6|8,0:0|0:1,0:0:0:0:
65,188,33515,2,0,L|57:310,1,120,6|8,0:0|0:0,0:0:0:0:
232,271,33984,2,0,L|303:278,1,60,8|8,3:0|3:0,0:0:0:0:
67,333,34219,5,4,0:0:0:0:
67,333,34453,1,2,0:0:0:0:
176,295,34687,2,0,L|181:167,1,107.999996704102,10|0,0:0|0:0,0:0:0:0:
19,176,35156,1,10,3:0:0:0:
181,146,35390,2,0,L|419:139,1,215.999993408203,2|2,0:0|0:0,0:0:0:0:
222,201,36094,6,0,L|219:329,1,107.999996704102,10|0,3:0|0:0,0:0:0:0:
380,307,36562,1,10,0:0:0:0:
200,339,36797,2,0,P|141:291|217:174,1,215.999993408203,2|2,0:0|0:0,0:0:0:0:
353,166,37500,1,10,0:0:0:0:
158,117,37734,6,0,L|377:106,1,215.999993408203,2|2,0:0|0:0,0:0:0:0:
207,171,38437,2,0,L|202:302,1,107.999996704102,10|2,0:0|0:0,0:0:0:0:
33,281,38906,1,10,3:0:0:0:
217,311,39140,2,0,L|-14:328,1,215.999993408203,2|2,0:0|0:0,0:0:0:0:
193,220,39844,6,0,L|312:212,1,107.999996704102,10|2,0:3|0:0,0:0:0:0:
136,173,40312,1,8,0:0:0:0:
312,166,40547,2,0,L|389:169,2,53.9999983520508,2|2|10,0:0|0:0|3:0,0:0:0:0:
146,92,41015,2,0,L|69:95,2,53.9999983520508,2|2|10,0:0|0:0|0:0,0:0:0:0:
460,94,41484,2,0,L|461:173,1,53.9999983520508,2|2,0:0|0:0,0:0:0:0:
263,202,41719,6,0,L|139:207,1,107.999996704102,4|2,0:0|0:0,0:0:0:0:
332,217,42187,2,0,L|336:352,1,107.999996704102,10|2,0:0|0:0,0:0:0:0:
496,320,42656,1,10,3:0:0:0:
332,331,42890,2,0,P|325:245|465:194,1,215.999993408203,10|2,3:0|0:0,0:0:0:0:
236,133,43594,6,0,L|120:124,1,107.999996704102,10|10,3:0|3:0,0:0:0:0:
304,190,44062,1,10,0:0:0:0:
110,188,44297,2,0,P|45:243|109:337,1,215.999993408203,2|10,0:0|3:0,0:0:0:0:
268,341,45000,1,10,0:0:0:0:
83,86,45234,6,0,L|318:98,1,215.999993408203,10|10,3:0|3:0,0:0:0:0:
161,153,45937,2,0,L|154:285,1,107.999996704102,10|2,0:0|0:0,0:0:0:0:
328,280,46406,2,0,P|324:202|199:146,1,215.999993408203,10|10,3:0|0:0,0:0:0:0:
31,276,47109,6,0,L|254:264,1,215.999993408203,10|2,3:0|0:0,0:0:0:0:
303,259,47695,1,2,0:0:0:0:
359,251,47812,1,10,0:0:0:0:
40,150,48047,2,0,L|166:142,1,107.999996704102,4|0,0:0|3:0,0:0:0:0:
456,130,48515,1,8,3:0:0:0:
139,69,48750,2,0,L|58:61,1,53.9999983520508,8|8,3:0|3:0,0:0:0:0:
283,47,48984,2,0,L|354:46,1,53.9999983520508,8|12,3:0|3:0,0:0:0:0:
100,230,49219,6,0,P|126:150|285:103,2,240,12|8|12,0:0|0:0|0:0,0:0:0:0:
436,255,50625,2,0,L|442:134,1,120,10|2,0:0|0:0,0:0:0:0:
144,284,51094,5,10,3:0:0:0:
306,257,51328,2,0,L|311:117,1,120,10|8,3:0|0:1,0:0:0:0:
16,144,51797,2,0,P|25:68|169:15,1,240,6|10,0:0|0:0,0:0:0:0:
337,27,52500,1,10,0:0:0:0:
32,208,52734,6,0,L|297:204,1,240,4|2,0:0|0:0,0:0:0:0:
81,340,53437,2,0,L|76:221,1,120,10|0,0:0|0:0,0:0:0:0:
269,124,53906,2,0,L|403:109,1,120,10|0,3:0|0:0,0:0:0:0:
189,79,54375,2,0,L|55:64,1,120,8|8,0:1|0:1,0:0:0:0:
387,213,54844,6,0,L|394:343,1,120,10|0,3:0|0:0,0:0:0:0:
200,314,55312,1,8,0:1:0:0:
396,351,55547,2,0,L|267:360,1,120,2|8,0:0|0:1,0:0:0:0:
79,357,56015,1,10,3:0:0:0:
267,310,56250,2,0,L|391:298,1,120,10|8,3:0|3:0,0:0:0:0:
390,234,56601,1,8,3:0:0:0:
165,205,56719,6,0,L|161:85,1,120,4|0,0:0|0:0,0:0:0:0:
345,63,57187,1,8,0:0:0:0:
163,57,57422,2,0,L|35:52,1,120,0|8,0:0|0:0,0:0:0:0:
352,182,57890,1,0,0:0:0:0:
171,204,58125,1,8,0:0:0:0:
352,182,58359,1,0,0:0:0:0:
32,211,58594,6,0,L|26:350,1,120,4|0,0:0|0:0,0:0:0:0:
207,330,59062,1,8,0:0:0:0:
27,337,59297,2,0,L|188:345,1,120,0|8,0:0|0:0,0:0:0:0:
328,290,59765,2,0,L|328:152,1,120,8|8,0:1|0:0,0:0:0:0:
124,166,60234,1,0,0:0:0:0:
436,159,60469,6,0,L|311:154,1,120,4|0,0:0|0:0,0:0:0:0:
496,80,60937,2,0,L|358:76,1,120,8|0,0:0|0:0,0:0:0:0:
58,85,61406,2,0,L|54:233,1,120,12|0,0:0|0:0,0:0:0:0:
236,221,61875,2,0,L|107:235,1,120,8|0,0:0|0:0,0:0:0:0:
444,270,62344,6,0,L|309:279,1,120,12|0,0:0|0:0,0:0:0:0:
122,294,62812,2,0,L|264:285,1,120,8|0,0:0|0:0,0:0:0:0:
32,272,63281,2,0,L|29:149,1,120,12|0,0:0|0:0,0:0:0:0:
333,142,63750,2,0,L|476:129,1,120,8|0,0:0|0:0,0:0:0:0:
149,103,64219,5,8,0:0:0:0:
331,91,64453,1,8,0:0:0:0:
149,103,64687,1,8,0:0:0:0:
331,91,64922,1,8,0:0:0:0:
32,96,65156,1,8,0:0:0:0:
137,172,65390,2,0,L|11:188,1,120
343,173,65859,6,0,B|321:290|321:290|194:302,1,240,4|0,0:0|0:0,0:0:0:0:
400,234,66562,2,0,L|409:114,1,120,10|0,0:0|0:0,0:0:0:0:
225,176,67031,2,0,L|213:49,1,120,10|0,3:0|0:0,0:0:0:0:
415,48,67500,1,10,0:0:0:0:
98,149,67734,6,0,P|28:226|122:278,1,240,2|0,0:0|0:0,0:0:0:0:
425,266,68437,1,10,0:0:0:0:
249,267,68672,2,0,P|240:212|381:102,1,240,2|0,0:0|0:0,0:0:0:0:
481,124,69375,1,10,0:0:0:0:
178,226,69609,6,0,L|439:222,1,240,2|0,0:0|0:0,0:0:0:0:
235,171,70312,2,0,L|96:171,1,120,10|2,0:0|0:0,0:0:0:0:
306,118,70781,1,10,0:3:0:0:
108,119,71015,2,0,L|230:115,1,120,2|8,0:0|0:0,0:0:0:0:
401,114,71484,1,2,0:0:0:0:
84,337,71719,6,0,L|73:205,1,120,10|2,0:3|0:0,0:0:0:0:
253,191,72187,1,10,0:0:0:0:
72,163,72422,1,2,0:0:0:0:
455,148,72890,2,0,L|464:299,1,120,2|10,0:0|0:0,0:0:0:0:
140,319,73359,6,0,P|71:275|158:171,1,240,6|0,0:0|0:0,0:0:0:0:
327,218,74062,2,0,L|326:82,1,120,10|0,0:0|0:0,0:0:0:0:
146,98,74531,2,0,L|282:92,1,120,10|2,0:3|0:0,0:0:0:0:
77,67,75000,1,8,0:0:0:0:
398,206,75234,6,0,L|403:75,1,120,6|0,0:0|0:0,0:0:0:0:
228,70,75703,1,2,0:0:0:0:
408,39,75937,1,8,0:0:0:0:
214,211,76172,2,0,P|336:237|374:345,1,240,2|8,0:0|0:0,0:0:0:0:
178,349,76875,1,8,0:0:0:0:
496,144,77109,6,0,L|247:143,1,240,6|0,0:0|0:0,0:0:0:0:
429,54,77812,1,8,0:0:0:0:
117,83,78047,1,4,0:0:0:0:
303,204,78281,2,0,L|314:82,1,120,10|0,0:3|0:0,0:0:0:0:
135,207,78750,1,8,3:0:0:0:
76,207,78867,1,8,3:0:0:0:
16,208,78984,1,8,3:0:0:0:
342,300,79219,6,0,P|339:225|225:180,1,180,10|0,0:0|0:0,0:0:0:0:
196,169,79687,1,8,0:1:0:0:
16,144,79922,2,0,L|166:139,1,120,2|8,0:2|0:1,0:0:0:0:
451,136,80390,1,8,2:0:0:0:
262,148,80625,2,0,L|405:170,1,120,8|0,2:0|0:0,0:0:0:0:
54,289,81094,5,12,0:0:0:0:
216,258,81328,1,10,0:3:0:0:
54,289,81562,1,10,0:3:0:0:
391,296,81797,1,12,0:0:0:0:
225,296,82031,1,10,0:3:0:0:
391,296,82265,1,10,0:3:0:0:
16,16,82500,1,12,0:0:0:0:
186,25,82734,1,10,0:3:0:0:
20,67,82969,2,0,L|22:205,1,120,10|0,0:3|0:0,0:0:0:0:
326,186,83437,6,0,L|460:190,1,120,4|0,0:0|0:0,0:0:0:0:
132,255,83906,2,0,L|126:118,1,120,8|8,3:0|0:0,0:0:0:0:
189,114,84258,1,8,0:0:0:0:
369,90,84375,2,0,L|510:78,1,120,8|8,0:0|3:0,0:0:0:0:
163,56,84844,6,0,L|353:66,1,180,10|0,0:0|0:0,0:0:0:0:
337,129,85312,1,8,0:1:0:0:
25,152,85547,2,0,L|18:291,1,120,10|8,0:0|0:1,0:0:0:0:
322,299,86015,1,10,0:0:0:0:
139,311,86250,1,10,0:0:0:0:
488,289,86484,5,14,0:0:0:0:
