osu file format v14

[General]
AudioFilename: audio.mp3
AudioLeadIn: 0
PreviewTime: 65390
Countdown: 0
SampleSet: Drum
StackLeniency: 0.7
Mode: 2
LetterboxInBreaks: 0
WidescreenStoryboard: 1

[Editor]
DistanceSpacing: 1.4
BeatDivisor: 4
GridSize: 16
TimelineZoom: 1

[Metadata]
Title:GIRI GIRI (TV Size)
TitleUnicode:GIRI GIRI (TV Size)
Artist:Masayuki Suzuki feat. Suu
ArtistUnicode:鈴木雅之 feat. すぅ
Creator:Greaper
Version:Cup
Source:かぐや様は告らせたい-ウルトラロマンティック-
Tags:kaguya-sama wa kokurasetai tensai-tachi no renai zunousen kaguya sama love is war ultra romantic season 3 op opening SILENT SIREN anime jazz pop jpop j-pop japanese female male vocals vocalists Shinomiya Kaguya Shirogane Miyuki Fujiwara Chika Ishigami Yû Iino Miko Hayasaka Ai Osaragi Kobachi
BeatmapID:3572422
BeatmapSetID:1746511

[Difficulty]
HPDrainRate:2
CircleSize:2.5
OverallDifficulty:6
ApproachRate:6
SliderMultiplier:1.6
SliderTickRate:1

[Events]
//Background and Video events
0,0,"bg.jpg",0,0
//Break Periods
//Storyboard Layer 0 (Background)
//Storyboard Layer 1 (Fail)
//Storyboard Layer 2 (Pass)
//Storyboard Layer 3 (Foreground)
//Storyboard Layer 4 (Overlay)
//Storyboard Sound Samples

[TimingPoints]
469,468.75,4,3,11,60,1,0
4219,-100,4,2,11,70,0,0
6328,-100,4,2,11,5,0,0
6562,-100,4,2,11,65,0,0
7734,-100,4,2,11,75,0,0
21094,-100,4,3,11,60,0,0
22969,-100,4,2,11,75,0,0
26719,-100,4,2,11,65,0,0
32109,-100,4,2,11,75,0,0
34219,-111.111111111111,4,2,11,50,0,0
49219,-100,4,2,11,60,0,0
56719,-100,4,2,11,65,0,0
60469,-100,4,2,11,70,0,0
64219,-100,4,2,11,80,0,0
65390,-100,4,2,11,65,0,0
65859,-100,4,2,11,80,0,1
79219,-100,4,3,11,70,0,0
81094,-100,4,2,11,80,0,1
83437,-100,4,2,11,60,0,0
84844,-100,4,2,11,75,0,0
86484,-100,4,2,11,85,0,0
86953,-100,4,2,11,60,0,0

[Colours]
Combo1 : 145,192,221
Combo2 : 249,117,120
Combo3 : 182,182,182
Combo4 : 251,155,115

[HitObjects]
335,312,469,6,0,L|338:179,1,120,10|0,0:0|0:0,0:0:0:0:
217,193,1172,1,2,0:2:0:0:
373,148,1640,2,0,L|377:62,1,80,8|8,2:0|2:0,0:0:0:0:
230,320,2344,6,0,L|358:322,1,120,10|0,0:0|0:0,0:0:0:0:
357,240,3047,1,2,0:2:0:0:
197,208,3515,2,0,L|192:123,1,80,8|8,2:0|2:0,0:0:0:0:
256,192,4219,12,8,6094,0:0:0:0:
441,312,6562,6,0,L|261:318,1,160,4|8,0:0|3:0,0:0:0:0:
206,285,7265,2,0,L|202:187,1,80,8|8,3:0|3:0,0:0:0:0:
293,177,7734,6,0,P|336:105|281:65,1,160,4|0,0:0|0:0,0:0:0:0:
208,62,8437,1,10,0:0:0:0:
48,57,8906,2,0,L|39:227,1,160,10|10,3:0|0:0,0:0:0:0:
122,228,9609,5,2,0:0:0:0:
285,214,10078,1,0,0:0:0:0:
206,184,10312,2,0,L|204:94,1,80,10|2,0:0|0:0,0:0:0:0:
368,102,11015,2,0,L|365:195,1,80,0|10,0:0|0:0,0:0:0:0:
284,214,11484,6,0,L|96:223,1,160,2|0,0:0|0:0,0:0:0:0:
111,278,12187,1,10,0:0:0:0:
126,332,12422,1,2,0:0:0:0:
198,340,12656,1,2,0:0:0:0:
41,329,13125,1,8,0:0:0:0:
214,70,13594,5,2,0:0:0:0:
273,118,13828,1,2,0:0:0:0:
269,195,14062,1,10,0:0:0:0:
204,237,14297,1,2,0:0:0:0:
49,220,14765,2,0,L|50:133,1,80,2|10,0:0|0:0,0:0:0:0:
137,110,15234,6,0,L|319:111,1,160,6|0,0:0|0:0,0:0:0:0:
378,108,15937,1,10,0:0:0:0:
222,185,16406,2,0,L|216:276,1,80,10|2,0:3|0:0,0:0:0:0:
377,305,17109,6,0,P|422:277|367:198,1,160,6|2,0:0|0:0,0:0:0:0:
301,168,17812,1,8,0:0:0:0:
220,157,18047,1,2,0:0:0:0:
382,122,18515,2,0,L|384:38,1,80,8|8,0:0|0:0,0:0:0:0:
298,52,18984,6,0,L|122:50,1,160,6|0,0:0|0:0,0:0:0:0:
302,159,19922,2,0,P|349:210|286:276,1,160,4|0,0:0|0:0,0:0:0:0:
223,295,20625,1,8,3:0:0:0:
390,309,21094,6,0,L|394:169,1,120,10|0,0:0|0:0,0:0:0:0:
271,181,21797,1,2,0:2:0:0:
105,167,22265,2,0,L|99:66,1,80,8|8,2:0|2:0,0:0:0:0:
273,66,22969,5,12,0:0:0:0:
354,74,23203,2,0,L|356:165,1,80,10|10,0:3|0:3,0:0:0:0:
276,148,23672,1,12,0:0:0:0:
195,156,23906,6,0,L|193:247,1,80,10|10,0:3|0:3,0:0:0:0:
274,255,24375,1,12,0:0:0:0:
353,239,24609,2,0,L|360:149,1,80,10|10,0:3|3:0,0:0:0:0:
193,329,25312,6,0,L|31:322,1,160,4|8,0:0|3:0,0:0:0:0:
187,209,26250,2,0,L|193:100,1,80,8|8,0:0|3:0,0:0:0:0:
108,96,26719,6,0,L|18:90,2,80,4|0|10,0:0|0:0|0:0,0:0:0:0:
269,162,27656,2,0,L|273:244,1,80,2|2,0:0|0:0,0:0:0:0:
113,263,28359,1,2,0:0:0:0:
193,265,28594,6,0,L|369:280,1,160,10|10,3:0|0:0,0:0:0:0:
348,344,29297,1,2,0:0:0:0:
197,361,29765,1,8,0:1:0:0:
281,348,30000,6,0,L|460:342,1,160,8|4,0:0|0:0,0:0:0:0:
283,285,30937,2,0,L|280:193,1,80,2|2,0:0|0:0,0:0:0:0:
444,130,31640,1,2,0:0:0:0:
277,94,32109,6,0,L|104:85,2,160,6|6|6,0:0|0:0|0:0,0:0:0:0:
437,117,33515,2,0,P|480:162|438:244,1,160,6|8,0:0|3:0,0:0:0:0:
370,255,34219,5,4,0:0:0:0:
226,261,34687,2,0,L|221:110,1,143.999995605469,10|10,0:0|3:0,0:0:0:0:
294,105,35390,1,2,0:0:0:0:
440,97,35859,1,2,0:0:0:0:
366,142,36094,6,0,P|328:192|380:260,1,143.999995605469,10|10,3:0|0:0,0:0:0:0:
437,275,36797,1,2,0:0:0:0:
288,314,37265,2,0,L|214:316,1,71.9999978027344,2|10,0:0|0:0,0:0:0:0:
293,247,37734,6,0,P|324:226|281:139,1,143.999995605469,2|2,0:0|0:0,0:0:0:0:
220,129,38437,1,10,0:0:0:0:
73,140,38906,2,0,L|66:55,1,71.9999978027344,10|2,3:0|0:0,0:0:0:0:
213,57,39609,1,2,0:0:0:0:
285,52,39844,6,0,L|446:48,1,143.999995605469,10|8,0:3|0:0,0:0:0:0:
433,123,40547,1,2,0:0:0:0:
289,174,41015,1,2,0:0:0:0:
433,217,41484,1,2,0:0:0:0:
351,249,41719,6,0,L|185:264,1,143.999995605469,4|10,0:0|0:0,0:0:0:0:
353,199,42656,2,0,L|357:106,1,71.9999978027344,10|10,3:0|3:0,0:0:0:0:
218,109,43359,1,2,0:0:0:0:
145,95,43594,6,0,P|103:150|149:208,1,143.999995605469,10|10,3:0|0:0,0:0:0:0:
211,211,44297,1,2,0:0:0:0:
352,225,44765,2,0,L|354:302,1,71.9999978027344,10|10,3:0|0:0,0:0:0:0:
280,310,45234,6,0,L|126:315,1,143.999995605469,10|10,3:0|3:0,0:0:0:0:
132,246,45937,1,10,0:0:0:0:
278,219,46406,2,0,P|312:141|269:104,1,143.999995605469,10|10,3:0|0:0,0:0:0:0:
205,81,47109,6,0,L|363:73,1,143.999995605469,10|2,3:0|0:0,0:0:0:0:
421,67,47812,1,10,0:0:0:0:
342,140,48047,2,0,P|303:202|346:260,1,143.999995605469,4|8,0:0|3:0,0:0:0:0:
408,269,48750,1,8,3:0:0:0:
248,306,49219,6,0,L|65:320,2,160,12|8|12,0:0|0:0|0:0,0:0:0:0:
400,248,50625,2,0,L|401:155,1,80,10|2,0:0|0:0,0:0:0:0:
317,145,51094,6,0,L|311:46,1,80,10|10,3:0|3:0,0:0:0:0:
476,43,51797,1,6,0:0:0:0:
476,43,52265,2,0,L|478:137,1,80,10|10,0:0|0:0,0:0:0:0:
393,151,52734,6,0,L|224:173,1,160,4|2,0:0|0:0,0:0:0:0:
231,245,53437,1,10,0:0:0:0:
393,296,53906,1,10,3:0:0:0:
233,326,54375,2,0,L|129:331,1,80,8|8,0:1|0:1,0:0:0:0:
235,280,54844,6,0,P|276:257|225:176,1,160,10|8,3:0|0:1,0:0:0:0:
153,171,55547,1,2,0:0:0:0:
313,124,56015,2,0,L|320:43,1,80,10|10,3:0|3:0,0:0:0:0:
241,38,56484,1,8,3:0:0:0:
153,31,56719,6,0,P|104:98|150:151,1,160,4|8,0:0|0:0,0:0:0:0:
225,158,57422,1,0,0:0:0:0:
388,131,57890,2,0,L|395:223,1,80,0|8,0:0|0:0,0:0:0:0:
314,226,58359,1,0,0:0:0:0:
226,279,58594,6,0,L|406:290,1,160,4|8,0:0|0:0,0:0:0:0:
467,291,59297,1,0,0:0:0:0:
305,211,59765,2,0,L|298:125,2,80,8|8|0,0:1|0:0|0:0,0:0:0:0:
402,225,60469,6,0,P|444:192|394:114,1,160,4|8,0:0|0:0,0:0:0:0:
232,98,61406,2,0,L|417:97,1,160,12|8,0:0|0:0,0:0:0:0:
214,77,62344,6,0,L|46:69,3,160,12|8|12|8,0:0|0:0|0:0|0:0,0:0:0:0:
218,136,64219,1,8,0:0:0:0:
292,158,64453,1,8,0:0:0:0:
324,229,64687,1,8,0:0:0:0:
292,300,64922,1,8,0:0:0:0:
217,322,65156,1,8,0:0:0:0:
436,283,65859,6,0,P|440:209|355:157,1,160,4|0,0:0|0:0,0:0:0:0:
297,150,66562,1,10,0:0:0:0:
138,166,67031,2,0,L|129:336,1,160,10|10,3:0|0:0,0:0:0:0:
213,339,67734,5,2,0:0:0:0:
373,325,68203,1,0,0:0:0:0:
291,296,68437,2,0,L|289:206,1,80,10|2,0:0|0:0,0:0:0:0:
454,242,69140,2,0,L|457:151,1,80,0|10,0:0|0:0,0:0:0:0:
369,137,69609,6,0,L|181:146,1,160,2|0,0:0|0:0,0:0:0:0:
378,233,70547,2,0,L|466:236,2,80,2|10|2,0:0|0:3|0:0,0:0:0:0:
215,278,71484,1,2,0:0:0:0:
298,248,71719,6,0,L|301:164,1,80,10|2,0:3|0:0,0:0:0:0:
219,141,72187,1,10,0:0:0:0:
298,104,72422,1,2,0:0:0:0:
457,123,72890,2,0,L|460:34,1,80,2|10,0:0|0:0,0:0:0:0:
372,34,73359,6,0,L|203:25,1,160,6|0,0:0|0:0,0:0:0:0:
209,106,74062,1,10,0:0:0:0:
368,132,74531,2,0,L|372:222,1,80,10|2,0:3|0:0,0:0:0:0:
210,232,75234,6,0,L|389:249,1,160,6|2,0:0|0:0,0:0:0:0:
372,311,75937,1,8,0:0:0:0:
293,339,76172,1,2,0:0:0:0:
132,322,76640,2,0,L|126:232,1,80,8|8,0:0|0:0,0:0:0:0:
213,226,77109,6,0,P|255:190|207:99,1,160,6|0,0:0|0:0,0:0:0:0:
66,94,78047,2,0,L|242:90,1,160,4|0,0:0|0:0,0:0:0:0:
308,88,78750,1,8,3:0:0:0:
135,322,79219,6,0,L|142:184,1,120,10|0,0:0|0:0,0:0:0:0:
261,185,79922,1,2,0:2:0:0:
98,168,80390,2,0,L|94:72,1,80,8|8,2:0|2:0,0:0:0:0:
271,111,81094,5,12,0:0:0:0:
352,119,81328,2,0,L|354:210,1,80,10|10,0:3|0:3,0:0:0:0:
274,193,81797,1,12,0:0:0:0:
193,201,82031,6,0,L|191:292,1,80,10|10,0:3|0:3,0:0:0:0:
272,300,82500,1,12,0:0:0:0:
351,284,82734,2,0,L|358:194,1,80,10|10,0:3|0:3,0:0:0:0:
194,130,83437,6,0,L|356:123,1,160,4|8,0:0|3:0,0:0:0:0:
196,292,84375,2,0,L|190:183,1,80,8|8,0:0|3:0,0:0:0:0:
275,185,84844,6,0,L|414:177,1,120,10|0,0:0|0:0,0:0:0:0:
260,138,85547,1,10,0:0:0:0:
418,120,86015,2,0,L|304:109,1,80,10|10,0:0|0:0,0:0:0:0:
248,104,86484,1,14,0:0:0:0:
