osu file format v14

[General]
AudioFilename: audio.mp3
AudioLeadIn: 0
PreviewTime: 55210
Countdown: 0
SampleSet: None
StackLeniency: 0.7
Mode: 3
LetterboxInBreaks: 0
SpecialStyle: 0
WidescreenStoryboard: 1

[Editor]
DistanceSpacing: 1.3
BeatDivisor: 4
GridSize: 4
TimelineZoom: 1.2

[Metadata]
Title:Love Dramatic feat. Rikka Ihara
TitleUnicode:ラブ・ドラマティック feat.伊原六花
Artist:Masayuki Suzuki
ArtistUnicode:鈴木雅之
Creator:arcwinolivirus
Version:[NM] Love Me
Source:かぐや様は告らせたい~天才たちの恋愛頭脳戦~
Tags:anime opening tv size kaguya-sama the geniuses war and brains
BeatmapID:1935623
BeatmapSetID:926703

[Difficulty]
HPDrainRate:7
CircleSize:4
OverallDifficulty:7
ApproachRate:5
SliderMultiplier:1.4
SliderTickRate:1

[Events]
//Background and Video events
0,0,"kaguyasamaGemu.jpg",0,0
//Break Periods
//Storyboard Layer 0 (Background)
//Storyboard Layer 1 (Fail)
//Storyboard Layer 2 (Pass)
//Storyboard Layer 3 (Foreground)
//Storyboard Sound Samples

[TimingPoints]
792,465.116279069767,4,2,1,20,1,0

[HitObjects]
448,192,792,5,0,0:0:0:0:
320,192,792,1,0,0:0:0:0:
64,192,1024,1,0,0:0:0:0:
192,192,1257,1,0,0:0:0:0:
320,192,1257,1,0,0:0:0:0:
448,192,1489,1,0,0:0:0:0:
64,192,1722,1,0,0:0:0:0:
192,192,1722,1,0,0:0:0:0:
320,192,1954,1,0,0:0:0:0:
448,192,2187,1,0,0:0:0:0:
64,192,2187,1,0,0:0:0:0:
192,192,2419,1,0,0:0:0:0:
320,192,2652,1,0,0:0:0:0:
448,192,2652,1,0,0:0:0:0:
448,192,3815,1,0,0:0:0:0:
192,192,4047,1,0,0:0:0:0:
64,192,4047,1,0,0:0:0:0:
320,192,4164,1,0,0:0:0:0:
64,192,4512,1,0,0:0:0:0:
448,192,4512,1,0,0:0:0:0:
320,192,4745,1,0,0:0:0:0:
192,192,4978,1,0,0:0:0:0:
64,192,4978,1,0,0:0:0:0:
448,192,5210,1,0,0:0:0:0:
320,192,5443,1,0,0:0:0:0:
192,192,5443,1,0,0:0:0:0:
64,192,5675,1,0,0:0:0:0:
320,192,5908,1,0,0:0:0:0:
448,192,5908,1,0,0:0:0:0:
192,192,6140,1,0,0:0:0:0:
448,192,6373,1,0,0:0:0:0:
64,192,6373,1,0,0:0:0:0:
320,192,6605,1,0,0:0:0:0:
192,192,6838,1,0,0:0:0:0:
448,192,6838,1,0,0:0:0:0:
64,192,7071,1,0,0:0:0:0:
320,192,7303,1,0,0:0:0:0:
192,192,7303,1,0,0:0:0:0:
448,192,7536,1,0,0:0:0:0:
320,192,7768,1,0,0:0:0:0:
64,192,7768,1,0,0:0:0:0:
192,192,8001,128,0,8466:0:0:0:0:
320,192,8466,1,0,0:0:0:0:
192,192,8698,1,0,0:0:0:0:
320,192,8931,128,0,9396:0:0:0:0:
64,192,9396,1,0,0:0:0:0:
448,192,9629,1,0,0:0:0:0:
64,192,9861,1,0,0:0:0:0:
192,192,9861,128,0,10326:0:0:0:0:
320,192,10326,1,0,0:0:0:0:
320,192,10559,1,0,0:0:0:0:
64,192,10791,1,0,0:0:0:0:
448,192,10791,128,0,11257:0:0:0:0:
192,192,11257,1,0,0:0:0:0:
320,192,11489,1,0,0:0:0:0:
64,192,11722,128,0,12187:0:0:0:0:
320,192,12187,1,0,0:0:0:0:
192,192,12419,1,0,0:0:0:0:
448,192,12652,1,0,0:0:0:0:
320,192,12652,1,0,0:0:0:0:
192,192,13117,1,0,0:0:0:0:
320,192,13350,1,0,0:0:0:0:
64,192,13582,1,0,0:0:0:0:
448,192,13582,1,0,0:0:0:0:
192,192,13815,1,0,0:0:0:0:
448,192,14047,1,0,0:0:0:0:
64,192,14047,1,0,0:0:0:0:
320,192,14280,1,0,0:0:0:0:
192,192,14512,1,0,0:0:0:0:
64,192,14512,1,0,0:0:0:0:
320,192,14745,1,0,0:0:0:0:
448,192,14745,1,0,0:0:0:0:
64,192,14978,1,0,0:0:0:0:
320,192,15210,1,0,0:0:0:0:
192,192,15443,128,0,15908:0:0:0:0:
448,192,15908,1,0,0:0:0:0:
64,192,16140,1,0,0:0:0:0:
320,192,16373,128,0,16838:0:0:0:0:
192,192,16838,1,0,0:0:0:0:
448,192,17071,1,0,0:0:0:0:
64,192,17303,128,0,18466:0:0:0:0:
448,192,18466,1,0,0:0:0:0:
192,192,18466,1,0,0:0:0:0:
320,192,18931,1,0,0:0:0:0:
64,192,18931,1,0,0:0:0:0:
448,192,19396,1,0,0:0:0:0:
64,192,19396,1,0,0:0:0:0:
192,192,19861,1,0,0:0:0:0:
448,192,19861,1,0,0:0:0:0:
320,192,20326,1,0,0:0:0:0:
64,192,20326,1,0,0:0:0:0:
192,192,20559,1,0,0:0:0:0:
448,192,20559,1,0,0:0:0:0:
448,192,21024,1,0,0:0:0:0:
64,192,21024,1,0,0:0:0:0:
320,192,21489,1,0,0:0:0:0:
192,192,21722,1,0,0:0:0:0:
448,192,22187,1,0,0:0:0:0:
64,192,22419,1,0,0:0:0:0:
320,192,22885,1,0,0:0:0:0:
192,192,22885,1,0,0:0:0:0:
448,192,23350,1,0,0:0:0:0:
192,192,23582,1,0,0:0:0:0:
64,192,23582,1,0,0:0:0:0:
320,192,24047,1,0,0:0:0:0:
64,192,24280,1,0,0:0:0:0:
448,192,24512,1,0,0:0:0:0:
192,192,24745,1,0,0:0:0:0:
320,192,24978,1,0,0:0:0:0:
64,192,25210,1,0,0:0:0:0:
448,192,25443,1,0,0:0:0:0:
320,192,25675,1,0,0:0:0:0:
192,192,25908,1,0,0:0:0:0:
448,192,26140,1,0,0:0:0:0:
64,192,26373,1,0,0:0:0:0:
192,192,26605,1,0,0:0:0:0:
320,192,26605,1,0,0:0:0:0:
448,192,27071,1,0,0:0:0:0:
64,192,27071,1,0,0:0:0:0:
448,192,27536,1,0,0:0:0:0:
192,192,27536,1,0,0:0:0:0:
320,192,28001,1,0,0:0:0:0:
64,192,28001,1,0,0:0:0:0:
192,192,28233,1,0,0:0:0:0:
320,192,28466,1,0,0:0:0:0:
64,192,28698,1,0,0:0:0:0:
448,192,28931,1,0,0:0:0:0:
192,192,29164,1,0,0:0:0:0:
64,192,29164,1,0,0:0:0:0:
320,192,29629,1,0,0:0:0:0:
192,192,29861,1,0,0:0:0:0:
320,192,30094,1,0,0:0:0:0:
448,192,30094,1,0,0:0:0:0:
64,192,30326,1,0,0:0:0:0:
320,192,30791,1,0,0:0:0:0:
192,192,31024,1,0,0:0:0:0:
64,192,31024,1,0,0:0:0:0:
448,192,31257,1,0,0:0:0:0:
320,192,31489,1,0,0:0:0:0:
192,192,31722,1,0,0:0:0:0:
64,192,31954,1,0,0:0:0:0:
448,192,31954,1,0,0:0:0:0:
320,192,32187,1,0,0:0:0:0:
192,192,32652,1,0,0:0:0:0:
320,192,32885,1,0,0:0:0:0:
64,192,33117,1,0,0:0:0:0:
448,192,33350,1,0,0:0:0:0:
320,192,33582,1,0,0:0:0:0:
64,192,33815,1,0,0:0:0:0:
192,192,34047,1,0,0:0:0:0:
448,192,34047,128,0,34978:0:0:0:0:
320,192,34978,1,0,0:0:0:0:
64,192,34978,128,0,35443:0:0:0:0:
192,192,35443,1,0,0:0:0:0:
320,192,35675,1,0,0:0:0:0:
448,192,35908,1,0,0:0:0:0:
64,192,35908,1,0,0:0:0:0:
320,192,36838,1,0,0:0:0:0:
192,192,37536,1,0,0:0:0:0:
64,192,37536,1,0,0:0:0:0:
320,192,38001,1,0,0:0:0:0:
192,192,38350,1,0,0:0:0:0:
320,192,38698,1,0,0:0:0:0:
448,192,39396,1,0,0:0:0:0:
64,192,39396,1,0,0:0:0:0:
192,192,39861,1,0,0:0:0:0:
320,192,40094,1,0,0:0:0:0:
64,192,40326,1,0,0:0:0:0:
448,192,40559,1,0,0:0:0:0:
192,192,40791,1,0,0:0:0:0:
320,192,41257,1,0,0:0:0:0:
448,192,41257,1,0,0:0:0:0:
64,192,41722,1,0,0:0:0:0:
448,192,41954,1,0,0:0:0:0:
192,192,42419,1,0,0:0:0:0:
448,192,42885,1,0,0:0:0:0:
320,192,43117,1,0,0:0:0:0:
192,192,43350,1,0,0:0:0:0:
64,192,43350,1,0,0:0:0:0:
320,192,43815,1,0,0:0:0:0:
192,192,44047,1,0,0:0:0:0:
448,192,44280,1,0,0:0:0:0:
192,192,44745,1,0,0:0:0:0:
320,192,44978,1,0,0:0:0:0:
448,192,44978,1,0,0:0:0:0:
64,192,45210,1,0,0:0:0:0:
448,192,45443,1,0,0:0:0:0:
320,192,45675,1,0,0:0:0:0:
192,192,46140,1,0,0:0:0:0:
320,192,46605,1,0,0:0:0:0:
448,192,46838,1,0,0:0:0:0:
64,192,46838,1,0,0:0:0:0:
192,192,47071,1,0,0:0:0:0:
320,192,47303,1,0,0:0:0:0:
448,192,47303,1,0,0:0:0:0:
192,192,47768,1,0,0:0:0:0:
320,192,48001,1,0,0:0:0:0:
64,192,48233,1,0,0:0:0:0:
448,192,48466,1,0,0:0:0:0:
192,192,48698,1,0,0:0:0:0:
64,192,48698,1,0,0:0:0:0:
320,192,48931,1,0,0:0:0:0:
448,192,49164,1,0,0:0:0:0:
64,192,49164,1,0,0:0:0:0:
320,192,49629,1,0,0:0:0:0:
448,192,49861,1,0,0:0:0:0:
64,192,49861,1,0,0:0:0:0:
320,192,50559,1,0,0:0:0:0:
192,192,50559,1,0,0:0:0:0:
448,192,51024,1,0,0:0:0:0:
320,192,51024,1,0,0:0:0:0:
192,192,51257,1,0,0:0:0:0:
192,192,51489,1,0,0:0:0:0:
448,192,51722,1,0,0:0:0:0:
64,192,51722,1,0,0:0:0:0:
320,192,51954,1,0,0:0:0:0:
320,192,52187,1,0,0:0:0:0:
192,192,52419,1,0,0:0:0:0:
64,192,52419,1,0,0:0:0:0:
448,192,52652,1,0,0:0:0:0:
448,192,52885,1,0,0:0:0:0:
320,192,53117,1,0,0:0:0:0:
192,192,53117,1,0,0:0:0:0:
64,192,53350,1,0,0:0:0:0:
64,192,53582,1,0,0:0:0:0:
320,192,53815,1,0,0:0:0:0:
448,192,53815,1,0,0:0:0:0:
64,192,54047,1,0,0:0:0:0:
192,192,54280,1,0,0:0:0:0:
320,192,54280,1,0,0:0:0:0:
448,192,54512,1,0,0:0:0:0:
320,192,54745,1,0,0:0:0:0:
64,192,54745,1,0,0:0:0:0:
192,192,54978,1,0,0:0:0:0:
448,192,54978,1,0,0:0:0:0:
448,192,55908,1,0,0:0:0:0:
192,192,56140,1,0,0:0:0:0:
64,192,56140,1,0,0:0:0:0:
320,192,56257,1,0,0:0:0:0:
448,192,56605,1,0,0:0:0:0:
64,192,56605,1,0,0:0:0:0:
320,192,56838,1,0,0:0:0:0:
192,192,57071,1,0,0:0:0:0:
64,192,57071,1,0,0:0:0:0:
320,192,57536,1,0,0:0:0:0:
192,192,57768,1,0,0:0:0:0:
320,192,58001,1,0,0:0:0:0:
448,192,58001,1,0,0:0:0:0:
192,192,58233,1,0,0:0:0:0:
64,192,58233,1,0,0:0:0:0:
448,192,58698,1,0,0:0:0:0:
192,192,58931,1,0,0:0:0:0:
320,192,58931,1,0,0:0:0:0:
64,192,59396,1,0,0:0:0:0:
320,192,59629,1,0,0:0:0:0:
192,192,59861,1,0,0:0:0:0:
448,192,60094,1,0,0:0:0:0:
64,192,60094,128,0,60559:0:0:0:0:
192,192,60559,1,0,0:0:0:0:
320,192,60791,1,0,0:0:0:0:
448,192,61024,128,0,61489:0:0:0:0:
320,192,61489,1,0,0:0:0:0:
192,192,61722,1,0,0:0:0:0:
64,192,61954,1,0,0:0:0:0:
320,192,61954,1,0,0:0:0:0:
192,192,62419,1,0,0:0:0:0:
448,192,62419,1,0,0:0:0:0:
320,192,62885,1,0,0:0:0:0:
192,192,62885,1,0,0:0:0:0:
448,192,63350,1,0,0:0:0:0:
64,192,63350,1,0,0:0:0:0:
320,192,63582,1,0,0:0:0:0:
192,192,63815,1,0,0:0:0:0:
64,192,64047,1,0,0:0:0:0:
448,192,64047,1,0,0:0:0:0:
192,192,64280,1,0,0:0:0:0:
320,192,64512,1,0,0:0:0:0:
448,192,64512,1,0,0:0:0:0:
192,192,64978,1,0,0:0:0:0:
320,192,65210,1,0,0:0:0:0:
192,192,65443,1,0,0:0:0:0:
64,192,65443,1,0,0:0:0:0:
320,192,65675,1,0,0:0:0:0:
448,192,65675,1,0,0:0:0:0:
64,192,66140,1,0,0:0:0:0:
320,192,66373,1,0,0:0:0:0:
192,192,66373,1,0,0:0:0:0:
448,192,66838,1,0,0:0:0:0:
192,192,67071,1,0,0:0:0:0:
320,192,67303,1,0,0:0:0:0:
64,192,67536,1,0,0:0:0:0:
448,192,67536,128,0,68001:0:0:0:0:
320,192,68001,1,0,0:0:0:0:
192,192,68233,1,0,0:0:0:0:
64,192,68466,128,0,68931:0:0:0:0:
192,192,68931,1,0,0:0:0:0:
320,192,69164,1,0,0:0:0:0:
448,192,69396,1,0,0:0:0:0:
192,192,69396,1,0,0:0:0:0:
320,192,69861,1,0,0:0:0:0:
64,192,69861,1,0,0:0:0:0:
192,192,70326,1,0,0:0:0:0:
320,192,70326,1,0,0:0:0:0:
448,192,70559,1,0,0:0:0:0:
64,192,70791,1,0,0:0:0:0:
320,192,71024,1,0,0:0:0:0:
192,192,71257,1,0,0:0:0:0:
448,192,71489,1,0,0:0:0:0:
64,192,71489,1,0,0:0:0:0:
320,192,71722,1,0,0:0:0:0:
192,192,71954,1,0,0:0:0:0:
64,192,71954,1,0,0:0:0:0:
448,192,72187,1,0,0:0:0:0:
320,192,72419,1,0,0:0:0:0:
192,192,72419,1,0,0:0:0:0:
64,192,72652,1,0,0:0:0:0:
320,192,72885,1,0,0:0:0:0:
448,192,72885,1,0,0:0:0:0:
192,192,73117,1,0,0:0:0:0:
64,192,73117,1,0,0:0:0:0:
192,192,73582,1,0,0:0:0:0:
320,192,73582,1,0,0:0:0:0:
320,192,74047,1,0,0:0:0:0:
448,192,74047,1,0,0:0:0:0:
192,192,74280,1,0,0:0:0:0:
64,192,74280,1,0,0:0:0:0:
320,192,74745,1,0,0:0:0:0:
192,192,74745,1,0,0:0:0:0:
64,192,74978,1,0,0:0:0:0:
320,192,75210,1,0,0:0:0:0:
448,192,75210,1,0,0:0:0:0:
192,192,75443,1,0,0:0:0:0:
448,192,75675,1,0,0:0:0:0:
64,192,75675,1,0,0:0:0:0:
320,192,75908,1,0,0:0:0:0:
192,192,76140,1,0,0:0:0:0:
64,192,76140,1,0,0:0:0:0:
320,192,76373,1,0,0:0:0:0:
448,192,76605,1,0,0:0:0:0:
192,192,76605,1,0,0:0:0:0:
64,192,76838,1,0,0:0:0:0:
320,192,76838,1,0,0:0:0:0:
192,192,77303,1,0,0:0:0:0:
448,192,77303,1,0,0:0:0:0:
448,192,77768,1,0,0:0:0:0:
64,192,77768,1,0,0:0:0:0:
320,192,78001,1,0,0:0:0:0:
192,192,78001,1,0,0:0:0:0:
448,192,78233,1,0,0:0:0:0:
64,192,78466,1,0,0:0:0:0:
320,192,78698,1,0,0:0:0:0:
64,192,78931,1,0,0:0:0:0:
448,192,78931,1,0,0:0:0:0:
192,192,79164,1,0,0:0:0:0:
320,192,79396,1,0,0:0:0:0:
64,192,79396,1,0,0:0:0:0:
448,192,79629,1,0,0:0:0:0:
320,192,79861,1,0,0:0:0:0:
192,192,79861,1,0,0:0:0:0:
64,192,80094,1,0,0:0:0:0:
192,192,80326,1,0,0:0:0:0:
448,192,80326,1,0,0:0:0:0:
320,192,80559,1,0,0:0:0:0:
64,192,80559,1,0,0:0:0:0:
448,192,81024,1,0,0:0:0:0:
64,192,81024,1,0,0:0:0:0:
192,192,81489,1,0,0:0:0:0:
320,192,81489,1,0,0:0:0:0:
448,192,81722,1,0,0:0:0:0:
64,192,81722,1,0,0:0:0:0:
320,192,81954,1,0,0:0:0:0:
192,192,82187,1,0,0:0:0:0:
64,192,82187,1,0,0:0:0:0:
320,192,82419,1,0,0:0:0:0:
448,192,82419,1,0,0:0:0:0:
64,192,82652,1,0,0:0:0:0:
192,192,82885,1,0,0:0:0:0:
320,192,82885,1,0,0:0:0:0:
64,192,83117,1,0,0:0:0:0:
448,192,83117,1,0,0:0:0:0:
320,192,83350,1,0,0:0:0:0:
192,192,83350,1,0,0:0:0:0:
448,192,83582,1,0,0:0:0:0:
64,192,83815,1,0,0:0:0:0:
320,192,84047,1,0,0:0:0:0:
448,192,84047,1,0,0:0:0:0:
192,192,84280,1,0,0:0:0:0:
64,192,84280,1,0,0:0:0:0:
448,192,84512,1,0,0:0:0:0:
192,192,84745,1,0,0:0:0:0:
320,192,84978,1,0,0:0:0:0:
64,192,85210,1,0,0:0:0:0:
448,192,85443,1,0,0:0:0:0:
192,192,85443,1,0,0:0:0:0:
320,192,85675,1,0,0:0:0:0:
192,192,85908,1,0,0:0:0:0:
64,192,85908,1,0,0:0:0:0:
320,192,86140,1,0,0:0:0:0:
448,192,86140,1,0,0:0:0:0:
320,192,86605,1,0,0:0:0:0:
192,192,86838,1,0,0:0:0:0:
448,192,87071,1,0,0:0:0:0:
64,192,87071,1,0,0:0:0:0:
192,192,87536,1,0,0:0:0:0:
320,192,87768,1,0,0:0:0:0:
448,192,88001,128,0,89164:0:0:0:0:
64,192,88001,128,0,89164:0:0:0:0:
320,192,89164,1,0,0:0:0:0:
192,192,89164,1,0,0:0:0:0:
192,192,89396,1,0,0:0:0:0:
320,192,89396,1,0,0:0:0:0:
