osu file format v14

[General]
AudioFilename: audio.mp3
AudioLeadIn: 0
PreviewTime: 55210
Countdown: 0
SampleSet: Soft
StackLeniency: 0.7
Mode: 3
LetterboxInBreaks: 0
SpecialStyle: 0
WidescreenStoryboard: 1

[Editor]
DistanceSpacing: 1.3
BeatDivisor: 4
GridSize: 4
TimelineZoom: 1.2

[Metadata]
Title:Love Dramatic feat. Rikka Ihara
TitleUnicode:ラブ・ドラマティック feat.伊原六花
Artist:Masayuki Suzuki
ArtistUnicode:鈴木雅之
Creator:arcwinolivirus
Version:[HD Another] Abunai Gemu
Source:かぐや様は告らせたい~天才たちの恋愛頭脳戦~
Tags:anime opening tv size kaguya-sama the geniuses war and brains
BeatmapID:1935621
BeatmapSetID:926703

[Difficulty]
HPDrainRate:8
CircleSize:4
OverallDifficulty:8
ApproachRate:5
SliderMultiplier:1.4
SliderTickRate:1

[Events]
//Background and Video events
0,0,"kaguyasamaGemu.jpg",0,0
//Break Periods
//Storyboard Layer 0 (Background)
//Storyboard Layer 1 (Fail)
//Storyboard Layer 2 (Pass)
//Storyboard Layer 3 (Foreground)
//Storyboard Sound Samples

[TimingPoints]
792,465.116279069767,4,2,1,20,1,0

[HitObjects]
192,192,792,5,0,0:0:0:0:
448,192,792,128,0,1024:0:0:0:0:
64,192,792,128,0,1024:0:0:0:0:
320,192,1024,1,0,0:0:0:0:
192,192,1140,1,0,0:0:0:0:
64,192,1257,1,0,0:0:0:0:
448,192,1257,128,0,1722:0:0:0:0:
192,192,1489,1,0,0:0:0:0:
320,192,1605,1,0,0:0:0:0:
192,192,1722,1,0,0:0:0:0:
64,192,1722,128,0,2187:0:0:0:0:
320,192,1838,1,0,0:0:0:0:
448,192,1954,1,0,0:0:0:0:
192,192,2071,1,0,0:0:0:0:
448,192,2187,1,0,0:0:0:0:
320,192,2187,128,0,2652:0:0:0:0:
64,192,2419,1,0,0:0:0:0:
192,192,2536,1,0,0:0:0:0:
448,192,2652,1,0,0:0:0:0:
64,192,2652,1,0,0:0:0:0:
64,192,3117,1,0,0:0:0:0:
192,192,3175,1,0,0:0:0:0:
320,192,3233,1,0,0:0:0:0:
448,192,3291,1,0,0:0:0:0:
64,192,3350,1,0,0:0:0:0:
192,192,3408,1,0,0:0:0:0:
448,192,3466,1,0,0:0:0:0:
320,192,3524,1,0,0:0:0:0:
192,192,3582,1,0,0:0:0:0:
64,192,3640,1,0,0:0:0:0:
448,192,3698,1,0,0:0:0:0:
320,192,3757,1,0,0:0:0:0:
64,192,3815,1,0,0:0:0:0:
192,192,3873,1,0,0:0:0:0:
320,192,3931,1,0,0:0:0:0:
448,192,3989,1,0,0:0:0:0:
64,192,4047,1,0,0:0:0:0:
192,192,4105,1,0,0:0:0:0:
448,192,4164,1,0,0:0:0:0:
320,192,4222,1,0,0:0:0:0:
192,192,4280,1,0,0:0:0:0:
64,192,4338,1,0,0:0:0:0:
448,192,4396,1,0,0:0:0:0:
320,192,4454,1,0,0:0:0:0:
192,192,4512,1,0,0:0:0:0:
64,192,4512,128,0,4745:0:0:0:0:
448,192,4745,1,0,0:0:0:0:
320,192,4745,128,0,5210:0:0:0:0:
448,192,4978,1,0,0:0:0:0:
192,192,4978,1,0,0:0:0:0:
64,192,4978,128,0,5443:0:0:0:0:
448,192,5210,1,0,0:0:0:0:
192,192,5326,1,0,0:0:0:0:
320,192,5443,1,0,0:0:0:0:
448,192,5443,128,0,5908:0:0:0:0:
192,192,5675,1,0,0:0:0:0:
64,192,5675,128,0,5908:0:0:0:0:
320,192,5908,1,0,0:0:0:0:
192,192,5908,128,0,6140:0:0:0:0:
448,192,6140,1,0,0:0:0:0:
320,192,6140,128,0,6605:0:0:0:0:
192,192,6373,1,0,0:0:0:0:
64,192,6373,1,0,0:0:0:0:
64,192,6605,128,0,7303:0:0:0:0:
448,192,6605,128,0,7071:0:0:0:0:
320,192,6838,1,0,0:0:0:0:
192,192,6838,1,0,0:0:0:0:
320,192,7071,1,0,0:0:0:0:
192,192,7187,1,0,0:0:0:0:
448,192,7303,1,0,0:0:0:0:
320,192,7303,128,0,7536:0:0:0:0:
64,192,7536,128,0,7768:0:0:0:0:
320,192,7768,1,0,0:0:0:0:
192,192,7768,1,0,0:0:0:0:
448,192,7768,128,0,8001:0:0:0:0:
192,192,8001,1,0,0:0:0:0:
320,192,8001,128,0,8466:0:0:0:0:
64,192,8001,128,0,8466:0:0:0:0:
448,192,8233,1,0,0:0:0:0:
192,192,8466,1,0,0:0:0:0:
448,192,8466,128,0,8698:0:0:0:0:
320,192,8698,1,0,0:0:0:0:
192,192,8698,1,0,0:0:0:0:
64,192,8698,128,0,8931:0:0:0:0:
448,192,8931,1,0,0:0:0:0:
192,192,8931,128,0,9396:0:0:0:0:
320,192,9047,1,0,0:0:0:0:
64,192,9164,1,0,0:0:0:0:
448,192,9164,1,0,0:0:0:0:
320,192,9396,1,0,0:0:0:0:
64,192,9396,128,0,9629:0:0:0:0:
448,192,9629,1,0,0:0:0:0:
320,192,9629,1,0,0:0:0:0:
192,192,9629,128,0,9861:0:0:0:0:
64,192,9861,1,0,0:0:0:0:
320,192,9861,128,0,10326:0:0:0:0:
448,192,9861,128,0,10326:0:0:0:0:
192,192,10094,1,0,0:0:0:0:
192,192,10326,1,0,0:0:0:0:
64,192,10326,128,0,10791:0:0:0:0:
448,192,10559,1,0,0:0:0:0:
320,192,10559,1,0,0:0:0:0:
320,192,10791,1,0,0:0:0:0:
448,192,10791,128,0,11257:0:0:0:0:
192,192,10791,128,0,11257:0:0:0:0:
64,192,11024,128,0,11257:0:0:0:0:
320,192,11257,128,0,11489:0:0:0:0:
448,192,11489,128,0,11722:0:0:0:0:
64,192,11489,1,0,0:0:0:0:
192,192,11605,1,0,0:0:0:0:
320,192,11722,1,0,0:0:0:0:
64,192,11722,128,0,12187:0:0:0:0:
192,192,11838,1,0,0:0:0:0:
320,192,11954,1,0,0:0:0:0:
448,192,11954,1,0,0:0:0:0:
192,192,12187,1,0,0:0:0:0:
448,192,12187,128,0,12419:0:0:0:0:
192,192,12419,1,0,0:0:0:0:
64,192,12419,128,0,12652:0:0:0:0:
320,192,12419,128,0,12652:0:0:0:0:
448,192,12652,128,0,12885:0:0:0:0:
192,192,12652,128,0,13117:0:0:0:0:
64,192,12885,1,0,0:0:0:0:
320,192,12885,1,0,0:0:0:0:
448,192,13117,1,0,0:0:0:0:
320,192,13117,128,0,13350:0:0:0:0:
64,192,13350,1,0,0:0:0:0:
448,192,13350,1,0,0:0:0:0:
192,192,13350,128,0,13582:0:0:0:0:
448,192,13582,128,0,14047:0:0:0:0:
320,192,13582,128,0,13815:0:0:0:0:
192,192,13815,1,0,0:0:0:0:
64,192,13815,1,0,0:0:0:0:
64,192,14047,128,0,14512:0:0:0:0:
192,192,14047,128,0,14280:0:0:0:0:
448,192,14280,1,0,0:0:0:0:
320,192,14280,1,0,0:0:0:0:
192,192,14512,1,0,0:0:0:0:
320,192,14512,1,0,0:0:0:0:
448,192,14512,128,0,14745:0:0:0:0:
320,192,14745,1,0,0:0:0:0:
64,192,14745,1,0,0:0:0:0:
192,192,14745,1,0,0:0:0:0:
448,192,14978,1,0,0:0:0:0:
192,192,14978,128,0,15210:0:0:0:0:
448,192,15210,1,0,0:0:0:0:
320,192,15210,128,0,15443:0:0:0:0:
64,192,15210,128,0,15443:0:0:0:0:
448,192,15443,1,0,0:0:0:0:
192,192,15443,128,0,15675:0:0:0:0:
64,192,15675,1,0,0:0:0:0:
448,192,15675,1,0,0:0:0:0:
320,192,15675,1,0,0:0:0:0:
192,192,15908,1,0,0:0:0:0:
320,192,15908,128,0,16140:0:0:0:0:
64,192,16140,1,0,0:0:0:0:
192,192,16140,128,0,16373:0:0:0:0:
448,192,16140,128,0,16373:0:0:0:0:
64,192,16373,1,0,0:0:0:0:
320,192,16373,128,0,16605:0:0:0:0:
448,192,16605,1,0,0:0:0:0:
64,192,16605,1,0,0:0:0:0:
192,192,16605,1,0,0:0:0:0:
320,192,16838,1,0,0:0:0:0:
192,192,16838,128,0,17071:0:0:0:0:
448,192,17071,1,0,0:0:0:0:
320,192,17071,128,0,17303:0:0:0:0:
64,192,17071,128,0,17303:0:0:0:0:
192,192,17303,128,0,17768:0:0:0:0:
448,192,17303,128,0,17768:0:0:0:0:
320,192,17768,1,0,0:0:0:0:
64,192,17768,1,0,0:0:0:0:
192,192,18001,1,0,0:0:0:0:
64,192,18001,1,0,0:0:0:0:
320,192,18117,1,0,0:0:0:0:
448,192,18117,1,0,0:0:0:0:
192,192,18233,1,0,0:0:0:0:
64,192,18233,1,0,0:0:0:0:
320,192,18466,1,0,0:0:0:0:
64,192,18466,1,0,0:0:0:0:
448,192,18466,1,0,0:0:0:0:
192,192,18698,1,0,0:0:0:0:
320,192,18698,1,0,0:0:0:0:
448,192,18931,1,0,0:0:0:0:
192,192,18931,1,0,0:0:0:0:
64,192,18931,1,0,0:0:0:0:
448,192,19396,1,0,0:0:0:0:
64,192,19396,1,0,0:0:0:0:
320,192,19396,1,0,0:0:0:0:
192,192,19629,1,0,0:0:0:0:
320,192,19629,1,0,0:0:0:0:
448,192,19861,1,0,0:0:0:0:
64,192,19861,1,0,0:0:0:0:
192,192,19861,1,0,0:0:0:0:
320,192,20094,1,0,0:0:0:0:
192,192,20210,1,0,0:0:0:0:
448,192,20326,1,0,0:0:0:0:
320,192,20326,1,0,0:0:0:0:
64,192,20326,128,0,20559:0:0:0:0:
320,192,20559,1,0,0:0:0:0:
192,192,20559,1,0,0:0:0:0:
448,192,20559,128,0,20791:0:0:0:0:
192,192,20791,1,0,0:0:0:0:
64,192,21024,1,0,0:0:0:0:
448,192,21024,1,0,0:0:0:0:
320,192,21024,128,0,21257:0:0:0:0:
64,192,21257,1,0,0:0:0:0:
448,192,21257,1,0,0:0:0:0:
320,192,21489,1,0,0:0:0:0:
192,192,21489,1,0,0:0:0:0:
64,192,21722,1,0,0:0:0:0:
448,192,21722,1,0,0:0:0:0:
192,192,21954,1,0,0:0:0:0:
320,192,22071,1,0,0:0:0:0:
448,192,22187,1,0,0:0:0:0:
64,192,22187,1,0,0:0:0:0:
192,192,22419,1,0,0:0:0:0:
320,192,22419,1,0,0:0:0:0:
448,192,22652,1,0,0:0:0:0:
64,192,22652,1,0,0:0:0:0:
320,192,22768,1,0,0:0:0:0:
64,192,22885,1,0,0:0:0:0:
448,192,22885,1,0,0:0:0:0:
192,192,22885,1,0,0:0:0:0:
320,192,23117,1,0,0:0:0:0:
448,192,23350,1,0,0:0:0:0:
64,192,23350,1,0,0:0:0:0:
192,192,23582,1,0,0:0:0:0:
320,192,23582,1,0,0:0:0:0:
64,192,23582,1,0,0:0:0:0:
448,192,23815,1,0,0:0:0:0:
320,192,23931,1,0,0:0:0:0:
192,192,24047,1,0,0:0:0:0:
64,192,24047,128,0,24280:0:0:0:0:
320,192,24280,1,0,0:0:0:0:
192,192,24280,128,0,24512:0:0:0:0:
448,192,24512,1,0,0:0:0:0:
64,192,24512,1,0,0:0:0:0:
320,192,24512,128,0,24745:0:0:0:0:
64,192,24745,128,0,25443:0:0:0:0:
192,192,24745,1,0,0:0:0:0:
448,192,24861,1,0,0:0:0:0:
320,192,24978,1,0,0:0:0:0:
192,192,24978,1,0,0:0:0:0:
448,192,25210,1,0,0:0:0:0:
320,192,25443,1,0,0:0:0:0:
448,192,25443,1,0,0:0:0:0:
192,192,25443,128,0,25675:0:0:0:0:
64,192,25675,1,0,0:0:0:0:
448,192,25675,128,0,26373:0:0:0:0:
320,192,25791,1,0,0:0:0:0:
192,192,25908,1,0,0:0:0:0:
64,192,25908,1,0,0:0:0:0:
320,192,26140,1,0,0:0:0:0:
192,192,26140,1,0,0:0:0:0:
320,192,26373,1,0,0:0:0:0:
64,192,26373,1,0,0:0:0:0:
192,192,26373,128,0,26605:0:0:0:0:
448,192,26605,1,0,0:0:0:0:
64,192,26605,1,0,0:0:0:0:
320,192,26605,128,0,27071:0:0:0:0:
448,192,27071,1,0,0:0:0:0:
192,192,27071,1,0,0:0:0:0:
64,192,27071,1,0,0:0:0:0:
320,192,27303,1,0,0:0:0:0:
448,192,27303,128,0,27536:0:0:0:0:
192,192,27536,1,0,0:0:0:0:
64,192,27536,128,0,27768:0:0:0:0:
320,192,27652,1,0,0:0:0:0:
192,192,27768,1,0,0:0:0:0:
192,192,28001,1,0,0:0:0:0:
320,192,28001,1,0,0:0:0:0:
448,192,28001,1,0,0:0:0:0:
448,192,28233,1,0,0:0:0:0:
64,192,28233,1,0,0:0:0:0:
320,192,28350,1,0,0:0:0:0:
64,192,28466,1,0,0:0:0:0:
192,192,28466,1,0,0:0:0:0:
448,192,28582,1,0,0:0:0:0:
320,192,28698,1,0,0:0:0:0:
64,192,28698,1,0,0:0:0:0:
192,192,28698,1,0,0:0:0:0:
448,192,28815,1,0,0:0:0:0:
320,192,28931,1,0,0:0:0:0:
192,192,28931,1,0,0:0:0:0:
64,192,29164,1,0,0:0:0:0:
320,192,29164,1,0,0:0:0:0:
448,192,29164,1,0,0:0:0:0:
192,192,29396,1,0,0:0:0:0:
320,192,29512,1,0,0:0:0:0:
64,192,29629,1,0,0:0:0:0:
448,192,29629,1,0,0:0:0:0:
320,192,29861,1,0,0:0:0:0:
192,192,29861,1,0,0:0:0:0:
320,192,30094,1,0,0:0:0:0:
448,192,30094,1,0,0:0:0:0:
64,192,30094,1,0,0:0:0:0:
192,192,30210,1,0,0:0:0:0:
64,192,30326,1,0,0:0:0:0:
448,192,30326,1,0,0:0:0:0:
320,192,30559,1,0,0:0:0:0:
192,192,30791,1,0,0:0:0:0:
64,192,30791,1,0,0:0:0:0:
448,192,31024,1,0,0:0:0:0:
320,192,31024,1,0,0:0:0:0:
64,192,31024,1,0,0:0:0:0:
192,192,31257,1,0,0:0:0:0:
320,192,31373,1,0,0:0:0:0:
448,192,31489,1,0,0:0:0:0:
64,192,31489,1,0,0:0:0:0:
192,192,31722,1,0,0:0:0:0:
320,192,31722,1,0,0:0:0:0:
192,192,31954,1,0,0:0:0:0:
64,192,31954,1,0,0:0:0:0:
448,192,31954,1,0,0:0:0:0:
320,192,32071,1,0,0:0:0:0:
448,192,32187,128,0,32885:0:0:0:0:
64,192,32187,128,0,32652:0:0:0:0:
320,192,32652,1,0,0:0:0:0:
192,192,32885,1,0,0:0:0:0:
320,192,32885,1,0,0:0:0:0:
64,192,32885,128,0,33117:0:0:0:0:
192,192,33117,128,0,33815:0:0:0:0:
320,192,33233,1,0,0:0:0:0:
64,192,33350,1,0,0:0:0:0:
448,192,33350,1,0,0:0:0:0:
320,192,33582,1,0,0:0:0:0:
448,192,33582,1,0,0:0:0:0:
64,192,33815,1,0,0:0:0:0:
448,192,33815,1,0,0:0:0:0:
320,192,33815,128,0,34047:0:0:0:0:
192,192,34047,1,0,0:0:0:0:
448,192,34047,128,0,34512:0:0:0:0:
64,192,34047,128,0,34512:0:0:0:0:
192,192,34512,1,0,0:0:0:0:
320,192,34629,1,0,0:0:0:0:
448,192,34745,1,0,0:0:0:0:
192,192,34745,128,0,34978:0:0:0:0:
448,192,34978,128,0,35443:0:0:0:0:
64,192,34978,128,0,35443:0:0:0:0:
320,192,34978,1,0,0:0:0:0:
192,192,35443,1,0,0:0:0:0:
320,192,35443,1,0,0:0:0:0:
448,192,35675,1,0,0:0:0:0:
64,192,35675,1,0,0:0:0:0:
192,192,35791,1,0,0:0:0:0:
320,192,35908,1,0,0:0:0:0:
64,192,35908,128,0,38001:0:0:0:0:
448,192,35908,128,0,36373:0:0:0:0:
320,192,36373,1,0,0:0:0:0:
192,192,36605,1,0,0:0:0:0:
448,192,36838,1,0,0:0:0:0:
320,192,36838,1,0,0:0:0:0:
192,192,37071,1,0,0:0:0:0:
448,192,37303,1,0,0:0:0:0:
192,192,37419,1,0,0:0:0:0:
320,192,37536,1,0,0:0:0:0:
448,192,37536,1,0,0:0:0:0:
192,192,37652,1,0,0:0:0:0:
320,192,37768,1,0,0:0:0:0:
448,192,38001,128,0,39861:0:0:0:0:
192,192,38001,128,0,38466:0:0:0:0:
320,192,38233,1,0,0:0:0:0:
64,192,38466,128,0,38698:0:0:0:0:
320,192,38698,128,0,38931:0:0:0:0:
192,192,38931,1,0,0:0:0:0:
320,192,39164,1,0,0:0:0:0:
192,192,39396,1,0,0:0:0:0:
64,192,39396,1,0,0:0:0:0:
320,192,39512,1,0,0:0:0:0:
64,192,39629,1,0,0:0:0:0:
320,192,39861,1,0,0:0:0:0:
192,192,39861,128,0,41722:0:0:0:0:
64,192,40094,1,0,0:0:0:0:
448,192,40094,1,0,0:0:0:0:
448,192,40326,1,0,0:0:0:0:
320,192,40559,1,0,0:0:0:0:
64,192,40559,1,0,0:0:0:0:
448,192,40791,1,0,0:0:0:0:
64,192,41024,1,0,0:0:0:0:
448,192,41257,1,0,0:0:0:0:
320,192,41257,1,0,0:0:0:0:
64,192,41373,1,0,0:0:0:0:
448,192,41489,1,0,0:0:0:0:
64,192,41722,1,0,0:0:0:0:
320,192,41722,128,0,42419:0:0:0:0:
448,192,41954,1,0,0:0:0:0:
64,192,41954,1,0,0:0:0:0:
448,192,42187,1,0,0:0:0:0:
192,192,42187,1,0,0:0:0:0:
64,192,42419,1,0,0:0:0:0:
192,192,42419,128,0,43117:0:0:0:0:
448,192,42652,1,0,0:0:0:0:
320,192,42885,1,0,0:0:0:0:
64,192,43117,1,0,0:0:0:0:
448,192,43117,1,0,0:0:0:0:
320,192,43233,1,0,0:0:0:0:
192,192,43350,1,0,0:0:0:0:
448,192,43350,128,0,43815:0:0:0:0:
64,192,43350,128,0,43815:0:0:0:0:
320,192,43815,1,0,0:0:0:0:
192,192,43815,128,0,44280:0:0:0:0:
64,192,44047,1,0,0:0:0:0:
320,192,44280,128,0,44745:0:0:0:0:
448,192,44280,128,0,44745:0:0:0:0:
192,192,44745,1,0,0:0:0:0:
64,192,44745,128,0,45210:0:0:0:0:
448,192,44861,1,0,0:0:0:0:
192,192,44978,1,0,0:0:0:0:
320,192,45094,1,0,0:0:0:0:
448,192,45210,1,0,0:0:0:0:
192,192,45210,128,0,45443:0:0:0:0:
64,192,45443,1,0,0:0:0:0:
448,192,45443,128,0,45675:0:0:0:0:
320,192,45559,1,0,0:0:0:0:
192,192,45675,128,0,46140:0:0:0:0:
64,192,45791,1,0,0:0:0:0:
320,192,45908,1,0,0:0:0:0:
64,192,46140,128,0,46838:0:0:0:0:
448,192,46140,128,0,46838:0:0:0:0:
320,192,46838,1,0,0:0:0:0:
192,192,46838,1,0,0:0:0:0:
448,192,46954,1,0,0:0:0:0:
64,192,47071,1,0,0:0:0:0:
320,192,47303,1,0,0:0:0:0:
64,192,47303,1,0,0:0:0:0:
448,192,47303,128,0,47652:0:0:0:0:
192,192,47536,1,0,0:0:0:0:
64,192,47652,128,0,48001:0:0:0:0:
320,192,47768,1,0,0:0:0:0:
448,192,48001,1,0,0:0:0:0:
192,192,48001,128,0,48233:0:0:0:0:
320,192,48117,1,0,0:0:0:0:
448,192,48233,128,0,48698:0:0:0:0:
320,192,48466,1,0,0:0:0:0:
64,192,48466,1,0,0:0:0:0:
192,192,48698,1,0,0:0:0:0:
320,192,48698,1,0,0:0:0:0:
448,192,48815,1,0,0:0:0:0:
64,192,48931,128,0,49861:0:0:0:0:
448,192,49164,1,0,0:0:0:0:
192,192,49164,1,0,0:0:0:0:
320,192,49164,128,0,49512:0:0:0:0:
192,192,49396,1,0,0:0:0:0:
448,192,49512,128,0,49861:0:0:0:0:
320,192,49629,1,0,0:0:0:0:
320,192,49861,1,0,0:0:0:0:
192,192,49861,128,0,50094:0:0:0:0:
320,192,50094,128,0,50559:0:0:0:0:
64,192,50326,128,0,50559:0:0:0:0:
448,192,50559,1,0,0:0:0:0:
192,192,50559,128,0,50791:0:0:0:0:
320,192,50675,1,0,0:0:0:0:
448,192,50791,1,0,0:0:0:0:
64,192,50791,128,0,51024:0:0:0:0:
320,192,51024,1,0,0:0:0:0:
192,192,51024,128,0,51722:0:0:0:0:
448,192,51024,128,0,51257:0:0:0:0:
320,192,51257,1,0,0:0:0:0:
64,192,51257,128,0,51489:0:0:0:0:
448,192,51489,1,0,0:0:0:0:
320,192,51489,128,0,51722:0:0:0:0:
448,192,51722,128,0,51954:0:0:0:0:
64,192,51722,128,0,51954:0:0:0:0:
320,192,51954,1,0,0:0:0:0:
192,192,51954,128,0,52187:0:0:0:0:
64,192,52187,1,0,0:0:0:0:
320,192,52187,128,0,52419:0:0:0:0:
64,192,52419,1,0,0:0:0:0:
192,192,52419,128,0,52652:0:0:0:0:
448,192,52419,128,0,53117:0:0:0:0:
320,192,52652,1,0,0:0:0:0:
64,192,52652,128,0,54512:0:0:0:0:
192,192,52885,1,0,0:0:0:0:
320,192,52885,1,0,0:0:0:0:
192,192,53117,1,0,0:0:0:0:
320,192,53117,128,0,53350:0:0:0:0:
192,192,53350,1,0,0:0:0:0:
448,192,53350,1,0,0:0:0:0:
320,192,53582,1,0,0:0:0:0:
192,192,53582,1,0,0:0:0:0:
320,192,53815,1,0,0:0:0:0:
448,192,53815,1,0,0:0:0:0:
192,192,53815,128,0,54047:0:0:0:0:
320,192,54047,1,0,0:0:0:0:
448,192,54047,1,0,0:0:0:0:
320,192,54280,1,0,0:0:0:0:
192,192,54280,1,0,0:0:0:0:
448,192,54280,128,0,54512:0:0:0:0:
320,192,54512,1,0,0:0:0:0:
192,192,54512,1,0,0:0:0:0:
448,192,54745,1,0,0:0:0:0:
320,192,54745,1,0,0:0:0:0:
192,192,54745,1,0,0:0:0:0:
64,192,54745,1,0,0:0:0:0:
64,192,54978,1,0,0:0:0:0:
192,192,54978,1,0,0:0:0:0:
320,192,54978,1,0,0:0:0:0:
448,192,54978,1,0,0:0:0:0:
448,192,55210,1,0,0:0:0:0:
320,192,55268,1,0,0:0:0:0:
192,192,55326,1,0,0:0:0:0:
64,192,55385,1,0,0:0:0:0:
448,192,55443,1,0,0:0:0:0:
320,192,55501,1,0,0:0:0:0:
64,192,55559,1,0,0:0:0:0:
192,192,55617,1,0,0:0:0:0:
320,192,55675,1,0,0:0:0:0:
448,192,55733,1,0,0:0:0:0:
64,192,55791,1,0,0:0:0:0:
192,192,55850,1,0,0:0:0:0:
448,192,55908,1,0,0:0:0:0:
320,192,55966,1,0,0:0:0:0:
192,192,56024,1,0,0:0:0:0:
64,192,56082,1,0,0:0:0:0:
448,192,56140,1,0,0:0:0:0:
320,192,56198,1,0,0:0:0:0:
64,192,56257,1,0,0:0:0:0:
192,192,56315,1,0,0:0:0:0:
320,192,56373,1,0,0:0:0:0:
448,192,56431,1,0,0:0:0:0:
64,192,56489,1,0,0:0:0:0:
192,192,56547,1,0,0:0:0:0:
320,192,56605,1,0,0:0:0:0:
448,192,56605,128,0,56838:0:0:0:0:
320,192,56838,128,0,57303:0:0:0:0:
192,192,56838,128,0,57071:0:0:0:0:
448,192,57071,1,0,0:0:0:0:
64,192,57071,128,0,57536:0:0:0:0:
448,192,57303,1,0,0:0:0:0:
192,192,57419,1,0,0:0:0:0:
320,192,57536,1,0,0:0:0:0:
448,192,57536,128,0,58001:0:0:0:0:
192,192,57768,1,0,0:0:0:0:
64,192,57768,128,0,58233:0:0:0:0:
192,192,58001,1,0,0:0:0:0:
320,192,58001,1,0,0:0:0:0:
192,192,58233,128,0,58698:0:0:0:0:
320,192,58233,128,0,58466:0:0:0:0:
448,192,58466,1,0,0:0:0:0:
64,192,58698,128,0,59396:0:0:0:0:
448,192,58698,128,0,59164:0:0:0:0:
192,192,58931,1,0,0:0:0:0:
320,192,58931,1,0,0:0:0:0:
320,192,59164,1,0,0:0:0:0:
192,192,59280,1,0,0:0:0:0:
448,192,59396,1,0,0:0:0:0:
320,192,59396,128,0,59629:0:0:0:0:
64,192,59629,1,0,0:0:0:0:
192,192,59629,1,0,0:0:0:0:
448,192,59745,1,0,0:0:0:0:
320,192,59745,1,0,0:0:0:0:
192,192,59861,1,0,0:0:0:0:
64,192,59861,128,0,60094:0:0:0:0:
448,192,60094,1,0,0:0:0:0:
192,192,60094,128,0,60559:0:0:0:0:
320,192,60094,128,0,60326:0:0:0:0:
448,192,60326,1,0,0:0:0:0:
64,192,60326,1,0,0:0:0:0:
320,192,60559,1,0,0:0:0:0:
448,192,60559,128,0,60791:0:0:0:0:
64,192,60791,1,0,0:0:0:0:
192,192,60791,1,0,0:0:0:0:
320,192,60791,128,0,61024:0:0:0:0:
192,192,61024,1,0,0:0:0:0:
64,192,61024,128,0,61489:0:0:0:0:
448,192,61140,1,0,0:0:0:0:
192,192,61257,1,0,0:0:0:0:
320,192,61257,1,0,0:0:0:0:
448,192,61489,1,0,0:0:0:0:
320,192,61489,128,0,61722:0:0:0:0:
64,192,61722,1,0,0:0:0:0:
192,192,61722,1,0,0:0:0:0:
448,192,61722,128,0,61954:0:0:0:0:
64,192,61954,1,0,0:0:0:0:
192,192,61954,128,0,62419:0:0:0:0:
320,192,61954,128,0,62187:0:0:0:0:
448,192,62187,1,0,0:0:0:0:
64,192,62187,1,0,0:0:0:0:
320,192,62419,1,0,0:0:0:0:
64,192,62419,128,0,62652:0:0:0:0:
448,192,62419,128,0,62885:0:0:0:0:
192,192,62652,1,0,0:0:0:0:
320,192,62652,1,0,0:0:0:0:
320,192,62885,1,0,0:0:0:0:
192,192,62885,128,0,63117:0:0:0:0:
64,192,62885,128,0,63117:0:0:0:0:
320,192,63117,1,0,0:0:0:0:
448,192,63117,1,0,0:0:0:0:
448,192,63350,1,0,0:0:0:0:
192,192,63350,128,0,63582:0:0:0:0:
320,192,63350,128,0,63582:0:0:0:0:
448,192,63582,1,0,0:0:0:0:
64,192,63582,1,0,0:0:0:0:
320,192,63698,1,0,0:0:0:0:
192,192,63698,1,0,0:0:0:0:
448,192,63815,1,0,0:0:0:0:
64,192,63815,1,0,0:0:0:0:
320,192,63931,1,0,0:0:0:0:
64,192,64047,1,0,0:0:0:0:
192,192,64047,1,0,0:0:0:0:
448,192,64047,1,0,0:0:0:0:
320,192,64280,128,0,64745:0:0:0:0:
192,192,64280,128,0,64512:0:0:0:0:
448,192,64512,1,0,0:0:0:0:
64,192,64512,128,0,64978:0:0:0:0:
192,192,64745,1,0,0:0:0:0:
448,192,64861,1,0,0:0:0:0:
320,192,64978,1,0,0:0:0:0:
192,192,64978,128,0,65443:0:0:0:0:
320,192,65210,1,0,0:0:0:0:
448,192,65210,128,0,65675:0:0:0:0:
64,192,65443,1,0,0:0:0:0:
64,192,65675,128,0,66140:0:0:0:0:
320,192,65675,128,0,65908:0:0:0:0:
192,192,65908,1,0,0:0:0:0:
448,192,65908,1,0,0:0:0:0:
320,192,66140,128,0,66838:0:0:0:0:
192,192,66140,128,0,66605:0:0:0:0:
64,192,66373,1,0,0:0:0:0:
448,192,66373,1,0,0:0:0:0:
64,192,66605,1,0,0:0:0:0:
448,192,66722,1,0,0:0:0:0:
64,192,66838,1,0,0:0:0:0:
192,192,66838,1,0,0:0:0:0:
320,192,67071,1,0,0:0:0:0:
448,192,67071,128,0,67303:0:0:0:0:
192,192,67303,1,0,0:0:0:0:
64,192,67303,1,0,0:0:0:0:
320,192,67303,128,0,67536:0:0:0:0:
448,192,67536,1,0,0:0:0:0:
64,192,67536,128,0,68001:0:0:0:0:
192,192,67536,128,0,67768:0:0:0:0:
320,192,67768,1,0,0:0:0:0:
448,192,67768,1,0,0:0:0:0:
448,192,68001,1,0,0:0:0:0:
192,192,68001,128,0,68233:0:0:0:0:
64,192,68233,1,0,0:0:0:0:
320,192,68233,1,0,0:0:0:0:
448,192,68233,128,0,68466:0:0:0:0:
64,192,68466,1,0,0:0:0:0:
320,192,68466,128,0,68931:0:0:0:0:
192,192,68582,1,0,0:0:0:0:
448,192,68698,1,0,0:0:0:0:
64,192,68698,1,0,0:0:0:0:
192,192,68931,1,0,0:0:0:0:
64,192,68931,128,0,69396:0:0:0:0:
448,192,69164,1,0,0:0:0:0:
320,192,69164,1,0,0:0:0:0:
448,192,69396,1,0,0:0:0:0:
320,192,69396,128,0,69861:0:0:0:0:
192,192,69396,128,0,69629:0:0:0:0:
64,192,69629,1,0,0:0:0:0:
448,192,69629,1,0,0:0:0:0:
192,192,69861,1,0,0:0:0:0:
448,192,69861,128,0,70094:0:0:0:0:
64,192,69861,128,0,70326:0:0:0:0:
320,192,70094,1,0,0:0:0:0:
192,192,70094,1,0,0:0:0:0:
448,192,70326,1,0,0:0:0:0:
192,192,70326,128,0,70559:0:0:0:0:
320,192,70326,128,0,70559:0:0:0:0:
448,192,70559,1,0,0:0:0:0:
64,192,70559,1,0,0:0:0:0:
320,192,70675,1,0,0:0:0:0:
192,192,70675,1,0,0:0:0:0:
448,192,70791,1,0,0:0:0:0:
64,192,70791,1,0,0:0:0:0:
320,192,71024,1,0,0:0:0:0:
64,192,71024,1,0,0:0:0:0:
192,192,71140,1,0,0:0:0:0:
448,192,71140,1,0,0:0:0:0:
320,192,71257,1,0,0:0:0:0:
64,192,71257,1,0,0:0:0:0:
192,192,71373,1,0,0:0:0:0:
64,192,71489,1,0,0:0:0:0:
320,192,71489,1,0,0:0:0:0:
448,192,71489,128,0,71722:0:0:0:0:
192,192,71722,1,0,0:0:0:0:
320,192,71722,128,0,71954:0:0:0:0:
64,192,71954,1,0,0:0:0:0:
448,192,71954,1,0,0:0:0:0:
192,192,71954,128,0,72187:0:0:0:0:
320,192,72187,1,0,0:0:0:0:
64,192,72187,128,0,72419:0:0:0:0:
448,192,72419,1,0,0:0:0:0:
320,192,72419,1,0,0:0:0:0:
192,192,72419,128,0,72652:0:0:0:0:
64,192,72652,1,0,0:0:0:0:
448,192,72652,128,0,72885:0:0:0:0:
192,192,72885,1,0,0:0:0:0:
320,192,72885,1,0,0:0:0:0:
64,192,72885,128,0,73117:0:0:0:0:
448,192,73117,1,0,0:0:0:0:
192,192,73117,128,0,73350:0:0:0:0:
320,192,73117,128,0,73582:0:0:0:0:
448,192,73350,1,0,0:0:0:0:
192,192,73582,1,0,0:0:0:0:
64,192,73582,1,0,0:0:0:0:
448,192,73582,128,0,73815:0:0:0:0:
64,192,73815,128,0,74047:0:0:0:0:
320,192,74047,1,0,0:0:0:0:
192,192,74047,1,0,0:0:0:0:
448,192,74047,128,0,74280:0:0:0:0:
64,192,74280,1,0,0:0:0:0:
320,192,74280,128,0,74512:0:0:0:0:
192,192,74280,128,0,74512:0:0:0:0:
448,192,74512,1,0,0:0:0:0:
64,192,74512,1,0,0:0:0:0:
192,192,74745,1,0,0:0:0:0:
64,192,74745,128,0,74978:0:0:0:0:
448,192,74745,128,0,74978:0:0:0:0:
320,192,74978,1,0,0:0:0:0:
192,192,74978,1,0,0:0:0:0:
448,192,75210,1,0,0:0:0:0:
64,192,75210,1,0,0:0:0:0:
320,192,75210,128,0,75443:0:0:0:0:
192,192,75443,1,0,0:0:0:0:
448,192,75443,128,0,75675:0:0:0:0:
320,192,75675,1,0,0:0:0:0:
64,192,75675,1,0,0:0:0:0:
192,192,75675,128,0,75908:0:0:0:0:
448,192,75908,1,0,0:0:0:0:
64,192,75908,128,0,76140:0:0:0:0:
320,192,76140,1,0,0:0:0:0:
192,192,76140,1,0,0:0:0:0:
448,192,76140,128,0,76373:0:0:0:0:
64,192,76373,1,0,0:0:0:0:
320,192,76373,128,0,76605:0:0:0:0:
448,192,76605,1,0,0:0:0:0:
64,192,76605,1,0,0:0:0:0:
192,192,76605,128,0,76838:0:0:0:0:
320,192,76838,1,0,0:0:0:0:
64,192,76838,128,0,77071:0:0:0:0:
448,192,76838,128,0,77071:0:0:0:0:
320,192,77071,128,0,77303:0:0:0:0:
192,192,77303,1,0,0:0:0:0:
448,192,77303,128,0,77536:0:0:0:0:
64,192,77303,128,0,77536:0:0:0:0:
192,192,77536,128,0,77768:0:0:0:0:
448,192,77768,1,0,0:0:0:0:
64,192,77768,1,0,0:0:0:0:
320,192,77768,128,0,78001:0:0:0:0:
192,192,78001,1,0,0:0:0:0:
64,192,78001,128,0,78233:0:0:0:0:
448,192,78001,128,0,78233:0:0:0:0:
192,192,78233,1,0,0:0:0:0:
320,192,78233,128,0,78466:0:0:0:0:
64,192,78466,128,0,78698:0:0:0:0:
448,192,78466,128,0,78698:0:0:0:0:
320,192,78698,1,0,0:0:0:0:
192,192,78698,128,0,79164:0:0:0:0:
64,192,78931,1,0,0:0:0:0:
448,192,78931,1,0,0:0:0:0:
320,192,78931,1,0,0:0:0:0:
320,192,79164,1,0,0:0:0:0:
448,192,79164,128,0,79396:0:0:0:0:
192,192,79396,1,0,0:0:0:0:
64,192,79396,1,0,0:0:0:0:
320,192,79396,128,0,79629:0:0:0:0:
448,192,79629,1,0,0:0:0:0:
64,192,79629,128,0,79861:0:0:0:0:
448,192,79861,1,0,0:0:0:0:
320,192,79861,1,0,0:0:0:0:
192,192,79861,1,0,0:0:0:0:
64,192,80094,1,0,0:0:0:0:
320,192,80094,128,0,80326:0:0:0:0:
448,192,80326,1,0,0:0:0:0:
192,192,80326,1,0,0:0:0:0:
64,192,80326,128,0,80559:0:0:0:0:
192,192,80559,1,0,0:0:0:0:
448,192,80559,128,0,81024:0:0:0:0:
320,192,80559,128,0,80791:0:0:0:0:
192,192,80791,1,0,0:0:0:0:
320,192,81024,1,0,0:0:0:0:
192,192,81024,128,0,81257:0:0:0:0:
64,192,81024,128,0,81489:0:0:0:0:
320,192,81257,1,0,0:0:0:0:
448,192,81489,1,0,0:0:0:0:
192,192,81489,1,0,0:0:0:0:
320,192,81489,128,0,81722:0:0:0:0:
192,192,81722,1,0,0:0:0:0:
448,192,81722,128,0,81954:0:0:0:0:
64,192,81722,128,0,81954:0:0:0:0:
320,192,81954,128,0,82303:0:0:0:0:
192,192,81954,128,0,82303:0:0:0:0:
448,192,82187,128,0,82536:0:0:0:0:
64,192,82187,128,0,82536:0:0:0:0:
192,192,82419,128,0,82536:0:0:0:0:
320,192,82419,128,0,82536:0:0:0:0:
448,192,82652,1,0,0:0:0:0:
320,192,82652,1,0,0:0:0:0:
64,192,82652,1,0,0:0:0:0:
320,192,82885,128,0,83233:0:0:0:0:
192,192,82885,128,0,83233:0:0:0:0:
448,192,83117,128,0,83466:0:0:0:0:
64,192,83117,128,0,83466:0:0:0:0:
192,192,83350,128,0,83466:0:0:0:0:
320,192,83350,128,0,83466:0:0:0:0:
448,192,83582,1,0,0:0:0:0:
192,192,83582,1,0,0:0:0:0:
64,192,83582,1,0,0:0:0:0:
192,192,83815,128,0,84164:0:0:0:0:
320,192,83815,128,0,84164:0:0:0:0:
448,192,84047,128,0,84164:0:0:0:0:
64,192,84047,128,0,84164:0:0:0:0:
192,192,84280,1,0,0:0:0:0:
320,192,84280,1,0,0:0:0:0:
448,192,84280,1,0,0:0:0:0:
64,192,84396,1,0,0:0:0:0:
320,192,84512,1,0,0:0:0:0:
192,192,84629,1,0,0:0:0:0:
448,192,84745,1,0,0:0:0:0:
64,192,84861,1,0,0:0:0:0:
320,192,84978,1,0,0:0:0:0:
448,192,84978,1,0,0:0:0:0:
192,192,85094,1,0,0:0:0:0:
320,192,85210,1,0,0:0:0:0:
64,192,85326,1,0,0:0:0:0:
448,192,85443,1,0,0:0:0:0:
192,192,85443,1,0,0:0:0:0:
320,192,85443,1,0,0:0:0:0:
64,192,85675,1,0,0:0:0:0:
448,192,85675,1,0,0:0:0:0:
320,192,85675,128,0,85908:0:0:0:0:
192,192,85908,1,0,0:0:0:0:
64,192,85908,1,0,0:0:0:0:
448,192,85908,128,0,86373:0:0:0:0:
64,192,86140,128,0,86373:0:0:0:0:
192,192,86140,128,0,86373:0:0:0:0:
320,192,86140,128,0,86373:0:0:0:0:
320,192,86605,1,0,0:0:0:0:
192,192,86605,128,0,86838:0:0:0:0:
448,192,86838,1,0,0:0:0:0:
64,192,86838,128,0,87303:0:0:0:0:
192,192,87071,128,0,87303:0:0:0:0:
320,192,87071,128,0,87303:0:0:0:0:
448,192,87071,128,0,87303:0:0:0:0:
192,192,87536,1,0,0:0:0:0:
320,192,87536,1,0,0:0:0:0:
448,192,87768,1,0,0:0:0:0:
64,192,87768,1,0,0:0:0:0:
448,192,88001,128,0,89047:0:0:0:0:
320,192,88001,128,0,89047:0:0:0:0:
192,192,88001,128,0,89047:0:0:0:0:
64,192,88001,128,0,89047:0:0:0:0:
448,192,89164,1,0,0:0:0:0:
320,192,89164,1,0,0:0:0:0:
192,192,89164,1,0,0:0:0:0:
64,192,89164,1,0,0:0:0:0:
448,192,89396,1,0,0:0:0:0:
320,192,89396,1,0,0:0:0:0:
192,192,89396,1,0,0:0:0:0:
64,192,89396,1,0,0:0:0:0:
