osu file format v14

[General]
AudioFilename: audio.mp3
AudioLeadIn: 0
PreviewTime: 58190
Countdown: 0
SampleSet: Normal
StackLeniency: 0.7
Mode: 3
LetterboxInBreaks: 0
SpecialStyle: 0
WidescreenStoryboard: 0

[Editor]
DistanceSpacing: 1
BeatDivisor: 4
GridSize: 32
TimelineZoom: 1.2

[Metadata]
Title:DADDY ! DADDY ! DO ! feat. Airi Suzuki (TV Size)
TitleUnicode:DADDY ! DADDY ! DO ! feat. 鈴木愛理 (TV Size)
Artist:Masayuki Suzuki
ArtistUnicode:鈴木雅之
Creator:Kibitz
Version:Easy
Source:Kaguya-sama: Love Is War?
Tags:daddy doo the geniuses' war of love and brains かぐや様は告らせたい?~天才たちの恋愛頭脳戦~ kaguya-sama wa kokurasetai? tensai-tachi no renai zunosen japanese groovy anime opening op season 2 水野良樹 本間昭光 mizuno yoshiki honma akimitsu all time rock n roll 鈴木愛理
BeatmapID:3453669
BeatmapSetID:1690030

[Difficulty]
HPDrainRate:6
CircleSize:4
OverallDifficulty:6
ApproachRate:5
SliderMultiplier:1.4
SliderTickRate:1

[Events]
//Background and Video events
0,0,"ChikaMyMommy.jpg",0,0
//Break Periods
//Storyboard Layer 0 (Background)
//Storyboard Layer 1 (Fail)
//Storyboard Layer 2 (Pass)
//Storyboard Layer 3 (Foreground)
//Storyboard Layer 4 (Overlay)
//Storyboard Sound Samples
Sample,3843,0,"clap.wav",70
Sample,4060,0,"clap.wav",70
Sample,5582,0,"clap.wav",70
Sample,5799,0,"clap.wav",70
Sample,9277,0,"clap.wav",70
Sample,16234,0,"clap.wav",70
Sample,17973,0,"clap.wav",70
Sample,19712,0,"clap.wav",70
Sample,59495,0,"clap.wav",70
Sample,59712,0,"clap.wav",70
Sample,61234,0,"clap.wav",70
Sample,61451,0,"clap.wav",70
Sample,64930,0,"clap.wav",70
Sample,73408,0,"clap.wav",70
Sample,73625,0,"clap.wav",70
Sample,75147,0,"clap.wav",70
Sample,75364,0,"clap.wav",70
Sample,78843,0,"clap.wav",70

[TimingPoints]
1017,434.782608695652,4,1,1,80,1,0
58190,-100,4,1,1,80,0,1
68625,-100,4,1,1,80,0,0
72103,-100,4,1,1,80,0,1
84495,-100,4,1,1,80,0,0

[HitObjects]
64,192,799,5,2,0:0:0:0:
192,192,799,1,0,0:0:0:0:
320,192,1234,1,2,0:0:0:0:
448,192,1234,1,0,0:0:0:0:
64,192,1669,1,2,0:0:0:0:
448,192,1669,128,0,2103:0:0:0:0:
192,192,2103,1,0,0:0:0:70:LR_Tom Hit 2.wav
320,192,2321,1,8,0:0:0:0:
64,192,2538,128,2,2973:0:0:0:0:
448,192,2538,1,4,0:0:0:0:
192,192,2973,1,2,0:0:0:0:
320,192,3190,1,8,0:0:0:0:
64,192,3625,1,2,0:0:0:0:
448,192,3843,1,2,0:0:0:0:
448,192,4060,1,8,0:0:0:0:
192,192,4277,128,2,4712:0:0:0:0:
320,192,4712,1,2,0:0:0:0:
64,192,4930,1,8,0:0:0:0:
448,192,5364,1,2,0:0:0:0:
192,192,5582,1,2,0:0:0:0:
192,192,5799,1,8,0:0:0:0:
320,192,6016,128,2,6451:0:0:0:0:
64,192,6451,1,2,0:0:0:0:
448,192,6669,128,8,7103:0:0:0:0:
320,192,7103,1,2,0:0:0:0:
192,192,7321,1,2,0:0:0:0:
64,192,7538,1,8,0:0:0:0:
320,192,7756,1,2,0:0:0:0:
448,192,7756,128,0,8625:0:0:0:0:
64,192,8843,1,2,0:0:0:0:
64,192,9060,1,2,0:0:0:0:
448,192,9277,1,8,0:0:0:0:
320,192,9495,128,6,9930:0:0:0:0:
64,192,9930,1,2,0:0:0:0:
448,192,10147,1,8,0:0:0:0:
192,192,10364,128,0,10799:0:0:0:0:
448,192,10799,128,2,11234:0:0:0:0:
64,192,11234,1,2,0:0:0:0:
192,192,11234,1,4,0:0:0:0:
64,192,11669,128,2,12103:0:0:0:0:
320,192,12103,1,2,0:0:0:0:
448,192,12103,1,4,0:0:0:0:
192,192,12538,128,2,12973:0:0:0:0:
320,192,12973,1,4,0:0:0:0:
448,192,12973,128,2,13408:0:0:0:0:
64,192,13408,128,2,13843:0:0:0:0:
192,192,13408,1,0,0:0:0:0:
320,192,13843,1,2,0:0:0:0:
448,192,13843,128,0,14277:0:0:0:0:
64,192,14277,1,2,0:0:0:0:
192,192,14495,1,0,0:0:0:70:LR_Tom Hit 2.wav
320,192,14712,1,2,0:0:0:0:
64,192,14930,128,6,15364:0:0:0:0:
320,192,15364,1,8,0:0:0:0:
448,192,15364,128,0,15799:0:0:0:0:
192,192,15799,1,2,0:0:0:0:
64,192,16016,1,2,0:0:0:0:
320,192,16234,1,8,0:0:0:0:
448,192,16451,128,6,16886:0:0:0:0:
320,192,16886,1,2,0:0:0:0:
64,192,17103,128,8,17538:0:0:0:0:
192,192,17103,1,0,0:0:0:0:
448,192,17538,1,2,0:0:0:0:
320,192,17756,1,2,0:0:0:0:
192,192,17973,1,8,0:0:0:0:
448,192,18190,128,6,18625:0:0:0:0:
320,192,18625,1,2,0:0:0:0:
64,192,18843,128,8,19277:0:0:0:0:
192,192,18843,1,0,0:0:0:0:
320,192,19277,1,2,0:0:0:0:
448,192,19495,1,2,0:0:0:0:
192,192,19712,1,8,0:0:0:0:
320,192,19930,1,2,0:0:0:0:
448,192,19930,128,0,20364:0:0:0:0:
64,192,20364,128,2,20799:0:0:0:0:
192,192,20364,1,0,0:0:0:0:
320,192,20799,1,2,0:0:0:0:
448,192,20799,128,0,21234:0:0:0:0:
64,192,21234,1,0,0:0:0:70:clap.wav
192,192,21451,1,0,0:0:0:70:clap.wav
320,192,21669,1,2,0:0:0:0:
448,192,21886,128,6,22321:0:0:0:0:
64,192,22321,1,8,0:0:0:0:
320,192,22756,1,2,0:0:0:0:
448,192,22973,1,2,0:0:0:0:
192,192,23190,1,8,0:0:0:0:
448,192,23408,1,0,0:0:0:70:LR_Tom Hit 2.wav
64,192,23625,128,6,23951:0:0:0:0:
192,192,23951,128,6,24277:0:0:0:0:
320,192,24277,128,6,24712:0:0:0:0:
448,192,24712,1,2,0:0:0:0:
64,192,24930,1,8,0:0:0:0:
192,192,25147,1,0,0:0:0:0:
448,192,25364,128,2,25799:0:0:0:0:
320,192,25799,128,8,26234:0:0:0:0:
64,192,26234,128,2,26669:0:0:0:0:
192,192,26669,1,8,0:0:0:0:
320,192,26886,1,2,0:0:0:0:
448,192,26886,128,4,27321:0:0:0:0:
64,192,27321,1,2,0:0:0:0:
192,192,27538,1,8,0:0:0:0:
448,192,27756,1,2,0:0:0:0:
64,192,27973,1,0,0:0:0:70:LR_Tom Hit 2.wav
192,192,27973,1,0,0:0:0:0:
320,192,28408,1,8,0:0:0:0:
448,192,28408,1,0,0:0:0:0:
192,192,28625,1,2,0:0:0:0:
64,192,28843,128,2,29277:0:0:0:0:
448,192,28843,1,4,0:0:0:0:
448,192,29277,1,8,0:0:0:0:
320,192,29712,1,2,0:0:0:0:
64,192,29930,1,2,0:0:0:0:
320,192,30147,1,8,0:0:0:0:
192,192,30364,1,0,0:0:0:70:LR_Tom Hit 2.wav
448,192,30582,128,6,30908:0:0:0:0:
320,192,30908,128,6,31234:0:0:0:0:
192,192,31234,128,6,31669:0:0:0:0:
64,192,31669,1,2,0:0:0:0:
448,192,31886,1,8,0:0:0:0:
320,192,32103,1,6,0:0:0:0:
64,192,32321,128,0,32756:0:0:0:0:
192,192,32756,1,8,0:0:0:0:
320,192,32973,1,4,0:0:0:0:
448,192,32973,1,2,0:0:0:0:
64,192,33408,1,2,0:0:0:0:
448,192,33625,1,8,0:0:0:0:
64,192,33843,128,4,34277:0:0:0:0:
192,192,33843,1,2,0:0:0:0:
192,192,34495,1,8,0:0:0:0:
320,192,34712,1,2,0:0:0:0:
64,192,34930,1,2,0:0:0:0:
448,192,35147,128,0,35799:0:0:0:70:LR_Tom Hit 2.wav
64,192,35799,1,2,0:0:0:0:
192,192,35799,1,4,0:0:0:0:
320,192,36234,1,8,0:0:0:0:
448,192,36451,128,2,36886:0:0:0:0:
64,192,36886,1,2,0:0:0:0:
320,192,37103,1,8,0:0:0:0:
192,192,37538,1,2,0:0:0:0:
448,192,37538,1,0,0:0:0:0:
320,192,37973,1,8,0:0:0:0:
64,192,38190,128,2,38625:0:0:0:0:
448,192,38625,1,2,0:0:0:0:
192,192,38843,1,8,0:0:0:0:
64,192,39277,1,2,0:0:0:0:
320,192,39277,1,0,0:0:0:0:
320,192,39712,1,8,0:0:0:0:
448,192,39930,128,2,40364:0:0:0:0:
64,192,40364,1,2,0:0:0:0:
320,192,40582,1,8,0:0:0:0:
64,192,41016,128,2,41451:0:0:0:0:
448,192,41016,1,0,0:0:0:0:
192,192,41451,1,8,0:0:0:0:
320,192,41669,1,2,0:0:0:0:
448,192,41669,128,4,42103:0:0:0:0:
64,192,42103,1,2,0:0:0:0:
192,192,42321,1,8,0:0:0:0:
320,192,42321,1,0,0:0:0:0:
448,192,42756,1,6,0:0:0:0:
448,192,42973,1,2,0:0:0:0:
64,192,43408,128,2,43843:0:0:0:0:
320,192,43408,1,4,0:0:0:0:
448,192,43843,1,2,0:0:0:0:
192,192,44060,1,8,0:0:0:0:
320,192,44277,1,0,0:0:0:0:
64,192,44495,1,6,0:0:0:0:
64,192,44712,1,2,0:0:0:0:
192,192,45147,1,2,0:0:0:0:
448,192,45147,128,4,45582:0:0:0:0:
64,192,45582,1,2,0:0:0:0:
320,192,45799,128,8,46234:0:0:0:0:
64,192,46234,1,2,0:0:0:0:
192,192,46234,1,0,0:0:0:0:
448,192,46669,1,8,0:0:0:0:
192,192,46886,128,2,47321:0:0:0:0:
320,192,47321,128,0,47756:0:0:0:0:
64,192,47756,128,2,48190:0:0:0:0:
192,192,48190,128,2,48625:0:0:0:0:
320,192,48625,128,0,49060:0:0:0:0:
448,192,49060,128,0,49495:0:0:0:70:LR_Tom Hit 2.wav
64,192,49495,1,0,0:0:0:70:LR_Tom Hit 2.wav
192,192,49712,1,6,0:0:0:0:
448,192,49930,1,2,0:0:0:0:
320,192,50147,1,8,0:0:0:0:
192,192,50364,1,2,0:0:0:0:
448,192,50799,128,2,51451:0:0:0:0:
64,192,51451,1,2,0:0:0:0:
320,192,51669,1,2,0:0:0:0:
192,192,51886,1,8,0:0:0:0:
448,192,52103,1,2,0:0:0:0:
64,192,52538,128,2,53190:0:0:0:0:
448,192,53190,1,6,0:0:0:0:
192,192,53408,1,2,0:0:0:0:
320,192,53625,1,8,0:0:0:0:
64,192,53843,1,2,0:0:0:0:
192,192,53843,1,0,0:0:0:0:
320,192,54277,1,2,0:0:0:0:
448,192,54277,1,0,0:0:0:0:
64,192,54712,128,2,56234:0:0:0:0:
192,192,54712,1,0,0:0:0:0:
192,192,56234,1,8,0:0:0:0:
320,192,56451,1,2,0:0:0:0:
448,192,56451,1,0,0:0:0:0:
64,192,56886,1,2,0:0:0:0:
192,192,56886,1,0,0:0:0:0:
64,192,57321,128,2,57756:0:0:0:0:
448,192,57321,1,0,0:0:0:0:
320,192,57756,1,0,0:0:0:70:LR_Tom Hit 2.wav
192,192,57973,1,0,0:0:0:70:LR_Tom Hit 2.wav
64,192,58190,1,4,0:0:0:0:
448,192,58190,128,2,58625:0:0:0:0:
320,192,58625,1,2,0:0:0:0:
192,192,58843,1,8,0:0:0:0:
448,192,59277,1,2,0:0:0:0:
64,192,59495,1,2,0:0:0:0:
64,192,59712,1,8,0:0:0:0:
320,192,59930,128,2,60364:0:0:0:0:
192,192,60364,1,2,0:0:0:0:
448,192,60582,1,8,0:0:0:0:
64,192,61016,1,2,0:0:0:0:
320,192,61234,1,2,0:0:0:0:
320,192,61451,1,8,0:0:0:0:
192,192,61669,128,2,62103:0:0:0:0:
448,192,62103,1,2,0:0:0:0:
64,192,62321,1,8,0:0:0:0:
320,192,62538,128,0,62973:0:0:0:0:
192,192,62973,1,2,0:0:0:0:
448,192,63190,1,8,0:0:0:0:
64,192,63408,128,2,64277:0:0:0:0:
192,192,63408,1,0,0:0:0:0:
448,192,64495,1,2,0:0:0:0:
448,192,64712,1,2,0:0:0:0:
320,192,64930,1,8,0:0:0:0:
192,192,65147,128,6,65582:0:0:0:0:
448,192,65582,1,2,0:0:0:0:
64,192,65799,1,8,0:0:0:0:
320,192,66016,128,0,66451:0:0:0:0:
64,192,66451,1,2,0:0:0:0:
448,192,66669,1,8,0:0:0:0:
192,192,66886,128,6,67321:0:0:0:0:
64,192,67321,1,2,0:0:0:0:
448,192,67538,1,8,0:0:0:0:
320,192,67756,128,2,68190:0:0:0:0:
192,192,68190,128,2,68625:0:0:0:0:
64,192,68625,128,4,69277:0:0:0:0:
448,192,68625,1,2,0:0:0:0:
192,192,69277,1,8,0:0:0:0:
320,192,69495,1,0,0:0:0:0:
448,192,69712,128,2,70147:0:0:0:0:
64,192,70147,1,8,0:0:0:0:
192,192,70364,1,2,0:0:0:0:
320,192,70364,1,0,0:0:0:0:
64,192,70799,1,2,0:0:0:0:
448,192,70799,1,0,0:0:0:0:
320,192,71234,1,2,0:0:0:0:
448,192,71234,128,0,71669:0:0:0:0:
192,192,71669,1,0,0:0:0:70:LR_Tom Hit 2.wav
320,192,71886,1,0,0:0:0:70:LR_Tom Hit 2.wav
64,192,72103,128,4,72538:0:0:0:0:
448,192,72103,1,2,0:0:0:0:
192,192,72538,1,2,0:0:0:0:
320,192,72756,1,8,0:0:0:0:
64,192,73190,1,2,0:0:0:0:
448,192,73408,1,2,0:0:0:0:
448,192,73625,1,8,0:0:0:0:
192,192,73843,128,2,74277:0:0:0:0:
448,192,74277,1,2,0:0:0:0:
64,192,74495,1,8,0:0:0:0:
448,192,74930,1,2,0:0:0:0:
64,192,75147,1,2,0:0:0:0:
64,192,75364,1,8,0:0:0:0:
320,192,75582,128,2,76016:0:0:0:0:
64,192,76016,1,2,0:0:0:0:
448,192,76234,1,8,0:0:0:0:
192,192,76451,128,0,76886:0:0:0:0:
320,192,76886,1,2,0:0:0:0:
64,192,77103,1,8,0:0:0:0:
320,192,77321,1,2,0:0:0:0:
448,192,77321,128,0,78190:0:0:0:0:
64,192,78408,1,2,0:0:0:0:
64,192,78625,1,2,0:0:0:0:
192,192,78843,1,8,0:0:0:0:
320,192,79060,128,6,79495:0:0:0:0:
64,192,79495,1,2,0:0:0:0:
448,192,79712,1,8,0:0:0:0:
192,192,79930,128,0,80364:0:0:0:0:
448,192,80364,128,2,80799:0:0:0:0:
64,192,80799,1,2,0:0:0:0:
192,192,80799,1,4,0:0:0:0:
64,192,81234,128,2,81669:0:0:0:0:
320,192,81669,1,4,0:0:0:0:
448,192,81669,1,2,0:0:0:0:
192,192,82103,128,2,82538:0:0:0:0:
320,192,82538,1,4,0:0:0:0:
448,192,82538,128,2,82973:0:0:0:0:
64,192,82973,128,2,83408:0:0:0:0:
192,192,82973,1,0,0:0:0:0:
320,192,83408,1,2,0:0:0:0:
448,192,83408,128,0,83843:0:0:0:0:
64,192,83843,1,2,0:0:0:0:
320,192,84060,1,0,0:0:0:70:LR_Tom Hit 2.wav
192,192,84277,1,0,0:0:0:0:
64,192,84495,1,2,0:0:0:0:
448,192,84495,1,0,0:0:0:0:
192,192,84930,1,8,0:0:0:0:
320,192,84930,1,0,0:0:0:0:
320,192,85364,1,8,0:0:0:0:
448,192,85364,1,0,0:0:0:70:clap.wav
64,192,85799,1,8,0:0:0:0:
192,192,85799,1,0,0:0:0:70:clap.wav
64,192,86234,1,8,0:0:0:0:
320,192,86234,1,0,0:0:0:70:clap.wav
192,192,86669,1,8,0:0:0:0:
448,192,86669,1,0,0:0:0:70:clap.wav
448,192,87103,1,8,0:0:0:0:
64,192,87321,128,2,87973:0:0:0:0:
192,192,87321,1,0,0:0:0:0:
320,192,87973,1,8,0:0:0:0:
448,192,87973,128,0,89060:0:0:0:0:
