osu file format v14

[General]
AudioFilename: audio.mp3
AudioLeadIn: 0
PreviewTime: 679
Countdown: 0
SampleSet: Soft
StackLeniency: 0.7
Mode: 0
LetterboxInBreaks: 0
WidescreenStoryboard: 0

[Editor]
DistanceSpacing: 0.8
BeatDivisor: 4
GridSize: 4
TimelineZoom: 1.4

[Metadata]
Title:DADDY ! DADDY ! DO ! feat. Airi Suzuki (TV Size)
TitleUnicode:DADDY ! DADDY ! DO ! feat. 鈴木愛理 (TV Size)
Artist:Masayuki Suzuki
ArtistUnicode:鈴木雅之
Creator:A r M i N
Version:MOMMY !
Source:Kaguya-sama: Love Is War?
Tags:wants to be confessed to?: the geniuses' war of love and brains かぐや様は告らせたい?~天才たちの恋愛頭脳戦~ kaguya-sama wa kokurasetai? tensai-tachi no renai zunosen japanese groovy anime opening op season 2 水野良樹 本間昭光 mizuno yoshiki honma akimitsu Armin A_r_m_i_n Stixy Reform Kujinn Eli Elinor [_Eli_] pop j-pop jpop
BeatmapID:2710807
BeatmapSetID:1307544

[Difficulty]
HPDrainRate:5.6
CircleSize:3.8
OverallDifficulty:8.2
ApproachRate:8.6
SliderMultiplier:1.8
SliderTickRate:1

[Events]
//Background and Video events
0,0,"Love is war.jpg",0,0
Video,318,"kaguya daddy 24 rf 2.mp4"
//Break Periods
//Storyboard Layer 0 (Background)
//Storyboard Layer 1 (Fail)
//Storyboard Layer 2 (Pass)
//Storyboard Layer 3 (Foreground)
//Storyboard Layer 4 (Overlay)
//Storyboard Sound Samples

[TimingPoints]
-734,434.782608695652,4,2,1,50,1,0
787,-166.666666666667,4,2,1,65,0,0
1222,-125,4,2,1,80,0,0
1657,-100,4,2,1,80,0,0
1983,-100,4,2,1,5,0,0
2092,-100,4,2,1,80,0,0
2526,-90.9090909090909,4,2,1,80,0,1
3939,-90.9090909090909,4,2,1,5,0,1
4048,-90.9090909090909,4,2,1,80,0,1
4157,-90.9090909090909,4,2,1,5,0,1
4265,-90.9090909090909,4,2,1,80,0,1
5679,-90.9090909090909,4,2,1,5,0,1
5787,-90.9090909090909,4,2,1,80,0,1
5896,-90.9090909090909,4,2,1,5,0,1
6005,-90.9090909090909,4,2,1,80,0,1
14918,-100,4,2,1,80,0,0
21874,-100,4,2,1,60,0,0
49700,-90.9090909090909,4,2,1,70,0,0
55570,-166.666666666667,4,2,1,70,0,0
56439,-166.666666666667,4,2,1,50,0,0
56874,-125,4,2,1,60,0,0
57309,-100,4,2,1,70,0,0
57635,-100,4,2,1,5,0,0
57744,-100,4,2,1,70,0,0
58179,-83.3333333333333,4,2,1,80,0,1
59592,-83.3333333333333,4,2,1,5,0,1
59700,-83.3333333333333,4,2,1,80,0,1
59809,-83.3333333333333,4,2,1,5,0,1
59918,-83.3333333333333,4,2,1,80,0,1
61331,-83.3333333333333,4,2,1,5,0,1
61439,-83.3333333333333,4,2,1,80,0,1
61548,-83.3333333333333,4,2,1,5,0,1
61657,-83.3333333333333,4,2,1,80,0,1
70352,-125,4,2,1,80,0,0
70787,-100,4,2,1,80,0,0
71222,-83.3333333333333,4,2,1,80,0,0
71548,-83.3333333333333,4,2,1,5,0,0
71657,-83.3333333333333,4,2,1,80,0,0
72092,-83.3333333333333,4,2,1,80,0,1
73505,-83.3333333333333,4,2,1,5,0,1
73613,-83.3333333333333,4,2,1,80,0,1
73722,-83.3333333333333,4,2,1,5,0,1
73831,-83.3333333333333,4,2,1,80,0,1
75244,-83.3333333333333,4,2,1,5,0,1
75352,-83.3333333333333,4,2,1,80,0,1
75461,-83.3333333333333,4,2,1,5,0,1
75570,-83.3333333333333,4,2,1,80,0,1
84048,-83.3333333333333,4,2,1,80,0,0
84483,-83.3333333333333,4,2,1,80,0,1
87852,-83.3333333333333,4,2,1,5,0,1
87961,-181.818181818182,4,2,1,80,0,0
88722,-125,4,2,1,5,0,0

[Colours]
Combo1 : 189,165,218
Combo2 : 243,176,253
Combo3 : 242,142,157

[HitObjects]
181,231,787,6,0,L|191:289,1,53.9999983520508,4|0,0:0|0:0,0:0:0:0:
345,160,1222,6,0,L|332:230,1,72,4|0,0:0|0:0,0:0:0:0:
129,75,1657,6,0,L|152:207,1,135,4|0,0:0|0:0,0:0:0:0:
181,231,2092,5,8,3:0:0:0:
339,36,2309,1,4,3:0:0:0:
418,328,2526,6,0,B|315:297|332:391|230:361,1,198.000006042481,6|2,1:2|1:2,0:0:0:0:
81,161,3179,1,10,0:0:0:0:
259,254,3396,1,2,0:0:0:0:
134,63,3613,1,2,1:2:0:0:
78,313,3831,6,0,L|68:364,1,49.5000015106202,8|0,0:2|0:0,0:0:0:0:
247,145,4048,2,0,L|238:96,1,49.5000015106202,8|0,0:0|0:0,0:0:0:0:
319,350,4265,6,0,P|389:376|478:297,1,198.000006042481,2|2,1:2|1:2,0:0:0:0:
332,96,4918,1,10,0:0:0:0:
223,294,5135,1,2,0:0:0:0:
462,159,5352,1,2,1:2:0:0:
204,116,5570,6,0,L|152:106,1,49.5000015106202,8|0,0:0|0:0,0:0:0:0:
354,263,5787,2,0,L|363:314,1,49.5000015106202,8|0,0:0|0:0,0:0:0:0:
422,20,6005,6,0,B|360:7|360:7|326:140,1,198.000006042481,2|2,1:2|1:2,0:0:0:0:
134,250,6657,1,10,0:0:0:0:
255,53,6874,1,2,0:0:0:0:
321,275,7092,1,2,1:2:0:0:
171,126,7309,1,2,1:2:0:0:
114,382,7526,1,10,0:0:0:0:
276,163,7744,2,0,L|373:180,1,99.0000030212403,2|0,1:2|0:0,0:0:0:0:
148,28,8179,5,2,1:2:0:0:
216,232,8396,1,8,0:0:0:0:
345,41,8613,1,0,0:0:0:0:
445,294,8831,1,0,1:2:0:0:
242,80,9048,5,2,1:2:0:0:
303,297,9265,1,10,0:0:0:0:
469,126,9483,2,0,B|420:116|420:116|377:143,1,99.0000030212403,6|0,1:2|0:0,0:0:0:0:
176,308,9918,5,2,1:2:0:0:
242,80,10135,1,10,0:0:0:0:
401,281,10353,2,0,B|352:291|352:291|309:264,1,99.0000030212403,2|0,0:0|1:2,0:0:0:0:
64,157,10787,6,0,L|81:254,1,99.0000030212403,6|8,1:2|0:0,0:0:0:0:
290,62,11222,2,0,L|273:160,1,99.0000030212403,6|0,1:2|0:0,0:0:0:0:
0,118,11657,6,0,L|17:215,1,99.0000030212403,6|8,1:2|0:0,0:0:0:0:
243,4,12092,2,0,L|225:101,1,99.0000030212403,6|0,1:2|0:0,0:0:0:0:
333,261,12526,6,0,P|287:241|239:234,1,99.0000030212403,6|8,1:2|0:0,0:0:0:0:
21,343,12961,2,0,P|69:334|114:315,1,99.0000030212403,6|0,1:2|0:0,0:0:0:0:
161,95,13396,6,0,L|143:192,1,99.0000030212403,6|0,1:2|0:0,0:0:0:0:
294,352,13831,2,0,B|323:239|323:239|303:203|259:194,1,198.000006042481,6|2,1:2|1:2,0:0:0:0:
30,200,14483,1,10,3:0:0:0:
203,290,14700,1,2,1:2:0:0:
129,132,14918,5,6,1:2:0:0:
54,309,15135,1,0,0:0:0:0:
258,193,15352,2,0,L|346:208,1,90,10|0,0:0|3:0,0:0:0:0:
376,218,15679,1,0,3:0:0:0:
376,218,15787,1,2,1:2:0:0:
186,122,16005,2,0,P|161:163|158:206,1,90,2|8,1:2|0:0,0:0:0:0:
289,370,16439,6,0,L|258:193,1,180,0|0,1:2|1:2,0:0:0:0:
461,65,17092,2,0,L|445:153,1,90,10|0,0:0|3:0,0:0:0:0:
447,184,17418,1,0,3:0:0:0:
447,184,17526,1,2,1:2:0:0:
270,39,17744,2,0,P|227:33|187:53,1,90,2|8,1:2|0:0,0:0:0:0:
51,252,18179,6,0,B|143:228|129:305|221:282,1,180,0|0,1:2|1:2,0:0:0:0:
357,103,18831,2,0,P|310:97|276:119,1,90,10|0,0:0|3:0,0:0:0:0:
271,148,19157,1,0,3:0:0:0:
271,148,19265,1,2,1:2:0:0:
382,336,19483,2,0,L|397:247,1,90,2|8,1:2|0:0,0:0:0:0:
145,357,19918,6,0,P|98:342|48:333,1,90,4|0,1:2|0:0,0:0:0:0:
184,171,20352,2,0,P|228:162|270:148,1,90,0|8,1:2|0:0,0:0:0:0:
34,63,20787,2,0,P|61:124|82:238,1,180,4|10,1:2|0:0,0:0:0:0:
239,75,21439,2,0,P|291:68|329:92,1,90,10|2,0:0|1:2,0:0:0:0:
168,203,21874,5,6,1:2:0:0:
111,71,22092,1,2,0:0:0:0:
269,173,22309,2,0,L|253:261,1,90,8|0,0:0|3:0,0:0:0:0:
254,292,22635,1,0,3:0:0:0:
254,292,22744,1,0,1:2:0:0:
398,172,22961,1,2,1:2:0:0:
282,71,23179,1,10,0:0:0:0:
255,75,23287,1,8,3:0:0:0:
228,80,23396,1,6,3:0:0:0:
406,15,23613,6,0,P|389:76|386:160,1,135,6|2,1:2|1:2,0:0:0:0:
398,172,24048,1,8,0:0:0:0:
228,80,24265,2,0,P|151:63|79:124,1,180,6|2,1:2|1:2,0:0:0:0:
273,176,24918,1,10,0:0:0:0:
321,33,25135,1,2,0:0:0:0:
175,154,25352,6,0,P|190:209|198:262,1,90,2|0,1:2|0:0,0:0:0:0:
355,323,25787,2,0,P|363:278|375:235,1,90,10|0,0:0|3:0,0:0:0:0:
399,222,26113,1,0,3:0:0:0:
399,222,26222,2,0,P|449:218|485:248,1,90,2|0,1:2|1:2,0:0:0:0:
368,123,26657,1,10,0:0:0:0:
271,297,26874,6,0,P|194:314|122:253,1,180,6|2,1:2|1:2,0:0:0:0:
223,48,27526,1,10,0:0:0:0:
334,216,27744,1,2,0:0:0:0:
122,126,27961,5,10,1:2:0:0:
337,16,28179,1,2,1:2:0:0:
70,2,28396,5,10,1:2:0:0:
308,117,28613,1,2,1:2:0:0:
47,163,28831,5,6,1:2:0:0:
223,48,29048,1,2,0:0:0:0:
185,239,29265,2,0,P|173:185|159:141,1,90,8|0,0:0|3:0,0:0:0:0:
153,133,29592,1,0,3:0:0:0:
153,133,29700,1,0,1:2:0:0:
323,231,29918,1,2,1:2:0:0:
196,340,30135,1,10,0:0:0:0:
169,335,30244,1,8,3:0:0:0:
142,331,30352,1,6,3:0:0:0:
272,142,30570,6,0,P|336:126|393:158,1,135,6|2,1:2|1:2,0:0:0:0:
409,183,31005,1,8,0:0:0:0:
185,239,31222,2,0,P|174:173|150:60,1,180,6|2,1:2|1:2,0:0:0:0:
79,220,31874,1,10,0:0:0:0:
272,142,32092,1,6,1:2:0:0:
80,3,32309,6,0,P|55:43|58:85,1,90,2|0,0:0|1:2,0:0:0:0:
187,243,32744,2,0,L|171:155,1,90,10|4,0:0|1:2,0:0:0:0:
117,312,33179,1,2,0:0:0:0:
278,217,33396,1,2,1:2:0:0:
87,180,33613,1,10,0:0:0:0:
239,345,33831,6,0,B|331:324|319:395|412:375,1,180,6|0,1:2|1:2,0:0:0:0:
486,190,34483,2,0,P|473:215|472:239,1,45,10|2,0:0|0:0,0:0:0:0:
511,314,34700,1,2,1:2:0:0:
365,193,34918,1,2,1:2:0:0:
492,94,35135,1,6,3:0:0:0:
386,21,35352,2,0,L|395:76,2,45,10|8|6,3:0|3:0|3:0,0:0:0:0:
228,150,35787,6,0,P|184:155|143:133,1,90,6|2,1:2|0:0,0:0:0:0:
279,0,36222,1,8,0:0:0:0:
323,189,36439,2,0,P|307:277|297:367,1,180,0|2,1:2|1:2,0:0:0:0:
127,268,37092,1,10,0:0:0:0:
228,150,37309,1,2,0:0:0:0:
191,354,37526,5,2,1:2:0:0:
121,161,37744,1,2,0:0:0:0:
301,229,37961,1,8,0:0:0:0:
82,261,38179,2,0,P|20:199|25:111,1,180,0|2,1:0|0:0,0:0:0:0:
211,61,38831,2,0,L|227:149,1,90,10|0,0:0|1:2,0:0:0:0:
443,292,39265,6,0,P|456:233|412:169,1,135,2|2,1:2|0:0,0:0:0:0:
393,166,39700,1,8,0:0:0:0:
229,261,39918,2,0,L|317:277,1,90,0|0,1:2|0:0,0:0:0:0:
185,153,40352,1,2,1:2:0:0:
136,308,40570,1,10,0:0:0:0:
291,176,40787,1,2,0:0:0:0:
36,36,41005,6,0,P|54:87|71:170,1,135,6|2,1:2|0:0,0:0:0:0:
57,191,41439,1,8,0:0:0:0:
248,52,41657,2,0,B|340:31|328:102|421:82,1,180,4|2,1:2|1:2,0:0:0:0:
300,259,42309,2,0,L|284:171,1,90,10|10,0:0|0:0,0:0:0:0:
282,150,42635,1,8,0:0:0:0:
282,150,42744,5,6,1:2:0:0:
383,340,42961,1,2,1:2:0:0:
190,245,43179,1,8,0:0:0:0:
351,88,43396,2,0,B|375:113|403:131|403:131|371:238,1,180,6|2,1:2|1:2,0:0:0:0:
209,134,44048,1,10,0:0:0:0:
412,21,44265,1,2,0:0:0:0:
288,189,44483,5,6,1:2:0:0:
205,0,44700,1,2,1:2:0:0:
387,132,44918,1,8,0:0:0:0:
172,232,45135,2,0,B|109:220|109:220|62:243|62:243|0:232,1,180,6|2,1:2|1:2,0:0:0:0:
97,28,45787,2,0,P|128:76|122:116,1,90,10|0,0:0|0:0,0:0:0:0:
195,323,46222,6,0,P|202:254|219:145,1,180,4|10,1:2|0:0,0:0:0:0:
409,48,46874,1,2,1:2:0:0:
301,209,47092,1,2,0:0:0:0:
192,46,47309,2,0,P|235:41|273:63,1,90,2|8,0:0|0:0,0:0:0:0:
35,148,47744,6,0,P|25:99|13:57,1,90,2|0,1:2|0:0,0:0:0:0:
219,144,48179,2,0,P|206:187|198:231,1,90,2|8,1:2|0:0,0:0:0:0:
32,351,48613,6,0,P|72:323|116:318,1,90,2|0,0:0|1:2,0:0:0:0:
353,379,49048,2,0,P|307:378|263:344,1,90,2|8,0:0|0:0,0:0:0:0:
263,327,49374,1,8,0:0:0:0:
263,327,49483,1,6,3:0:0:0:
337,68,49700,5,14,0:0:0:0:
452,316,49918,1,2,1:2:0:0:
429,7,50135,1,10,0:0:0:0:
347,264,50352,1,2,1:2:0:0:
257,31,50570,5,8,0:0:0:0:
491,122,50787,1,0,1:2:0:0:
214,139,51005,5,8,0:0:0:0:
429,7,51222,1,0,1:2:0:0:
343,276,51439,5,14,0:0:0:0:
213,20,51657,1,2,1:2:0:0:
209,316,51874,1,10,0:0:0:0:
325,77,52092,1,2,1:2:0:0:
371,315,52309,5,8,0:0:0:0:
138,216,52526,1,0,1:2:0:0:
403,202,52744,5,8,0:0:0:0:
201,340,52961,1,0,1:2:0:0:
311,85,53179,5,14,0:0:0:0:
412,353,53396,2,0,P|360:341|314:335,1,99.0000030212403,2|8,1:2|0:0,0:0:0:0:
68,258,53831,6,0,P|116:222|160:233,1,99.0000030212403,6|8,1:2|0:0,0:0:0:0:
396,105,54265,2,0,P|348:113|310:84,1,99.0000030212403,6|8,1:2|0:0,0:0:0:0:
64,20,54700,5,6,1:2:0:0:
151,227,54918,1,2,0:0:0:0:
209,49,55135,1,2,0:0:0:0:
70,122,55352,1,2,0:0:0:0:
242,258,55570,6,0,P|251:206|221:163,1,107.999996704102,2|2,0:0|0:0,0:0:0:0:
70,265,56222,1,8,0:0:0:0:
237,365,56439,6,0,P|265:362|295:353,1,53.9999983520508,4|0,1:2|0:0,0:0:0:0:
431,242,56874,6,0,P|395:238|360:229,1,72,4|0,1:2|0:0,0:0:0:0:
152,106,57309,6,0,P|219:94|281:69,1,135,4|0,1:2|0:0,0:0:0:0:
297,48,57744,5,8,3:0:0:0:
207,244,57961,1,4,3:0:0:0:
68,6,58179,6,0,B|92:36|127:54|127:54|91:189,1,215.999993408203,6|2,1:2|1:2,0:0:0:0:
305,315,58831,1,10,0:0:0:0:
225,109,59048,1,2,0:0:0:0:
94,307,59265,1,2,1:2:0:0:
326,188,59483,6,0,L|382:178,1,53.9999983520508,8|0,0:2|0:0,0:0:0:0:
116,117,59700,2,0,L|59:107,1,53.9999983520508,8|0,0:0|0:0,0:0:0:0:
259,347,59918,6,0,P|360:369|421:289,1,215.999993408203,2|2,1:2|1:2,0:0:0:0:
273,80,60571,1,10,0:0:0:0:
181,276,60788,1,2,0:0:0:0:
375,163,61005,1,2,1:2:0:0:
116,107,61222,6,0,L|59:97,1,53.9999983520508,8|0,0:0|0:0,0:0:0:0:
288,256,61439,2,0,L|297:309,1,53.9999983520508,8|0,0:0|0:0,0:0:0:0:
331,58,61657,6,0,B|290:-2|197:51|231:168,1,215.999993408203,2|2,1:2|1:2,0:0:0:0:
377,359,62309,1,10,0:0:0:0:
169,248,62526,1,2,0:0:0:0:
373,139,62744,1,2,1:2:0:0:
259,347,62961,1,2,1:2:0:0:
149,76,63179,1,10,0:0:0:0:
340,249,63396,2,0,L|446:230,1,107.999996704102,2|0,1:2|0:0,0:0:0:0:
249,77,63831,5,2,1:2:0:0:
165,295,64048,1,10,0:0:0:0:
386,109,64265,1,2,0:0:0:0:
280,379,64482,1,2,1:2:0:0:
153,148,64700,5,2,1:2:0:0:
340,233,64918,1,10,0:0:0:0:
108,351,65135,2,0,P|78:308|92:257,1,107.999996704102,6|0,1:2|0:0,0:0:0:0:
378,148,65570,5,2,1:2:0:0:
191,233,65788,1,10,0:0:0:0:
423,351,66005,2,0,P|452:308|438:257,1,107.999996704102,2|0,1:2|0:0,0:0:0:0:
215,123,66439,5,2,1:2:0:0:
321,359,66657,1,10,0:0:0:0:
505,150,66874,6,0,B|393:116|411:219|300:186,1,215.999993408203,6|2,1:2|1:2,0:0:0:0:
89,87,67526,2,0,P|100:111|108:137,1,53.9999983520508,10|2,0:0|0:0,0:0:0:0:
194,262,67744,6,0,P|203:153|225:47,1,215.999993408203,6|0,1:2|1:2,0:0:0:0:
20,201,68396,1,8,0:0:0:0:
242,374,68613,6,0,B|382:346|382:346|391:309|363:269,1,215.999993408203,6|0,1:2|1:0,0:0:0:0:
223,36,69265,1,10,0:0:0:0:
118,244,69483,1,2,0:0:0:0:
359,167,69700,1,2,1:2:0:0:
113,76,69918,1,2,1:2:0:0:
271,347,70135,1,10,0:0:0:0:
253,32,70352,6,0,P|243:66|238:102,1,72,6|0,1:2|0:0,0:0:0:0:
400,277,70787,6,0,P|392:233|376:191,1,90,4|8,1:2|0:0,0:0:0:0:
137,280,71222,6,0,P|181:215|259:215,1,161.999995056153,4|0,1:2|0:0,0:0:0:0:
280,236,71657,5,8,0:2:0:0:
122,69,71874,1,8,0:0:0:0:
420,142,72092,6,0,P|399:247|396:355,1,215.999993408203,6|2,1:2|1:2,0:0:0:0:
134,263,72744,1,10,0:0:0:0:
317,123,72961,1,2,0:0:0:0:
231,363,73179,5,2,1:2:0:0:
109,156,73396,2,0,L|100:103,1,53.9999983520508,8|0,0:2|0:0,0:0:0:0:
303,217,73613,2,0,L|293:270,1,53.9999983520508,8|0,0:0|0:0,0:0:0:0:
156,5,73831,6,0,P|73:-4|-9:90,1,215.999993408203,2|2,1:2|1:2,0:0:0:0:
170,270,74483,1,10,0:0:0:0:
264,39,74700,1,2,0:0:0:0:
49,210,74918,1,2,1:2:0:0:
303,217,75135,6,0,L|356:226,1,53.9999983520508,8|0,0:0|0:0,0:0:0:0:
144,102,75352,2,0,L|134:48,1,53.9999983520508,8|0,0:0|0:0,0:0:0:0:
45,314,75570,6,0,B|53:361|80:380|80:380|215:346,1,215.999993408203,2|2,1:2|1:2,0:0:0:0:
449,184,76222,1,10,0:0:0:0:
189,121,76439,1,2,0:0:0:0:
317,338,76657,1,2,1:2:0:0:
381,65,76874,1,2,1:2:0:0:
512,324,77092,1,10,0:0:0:0:
219,204,77309,6,0,B|108:174|124:269|14:240,1,215.999993408203,2|2,1:2|1:2,0:0:0:0:
132,85,77961,1,8,0:0:0:0:
181,300,78179,1,0,0:0:0:0:
19,125,78396,1,0,1:2:0:0:
236,112,78613,5,2,1:2:0:0:
55,222,78831,1,10,0:0:0:0:
283,334,79048,2,0,B|301:284|301:284|268:236,1,107.999996704102,6|0,1:2|0:0,0:0:0:0:
222,49,79483,5,2,1:2:0:0:
403,159,79701,1,10,0:0:0:0:
175,271,79918,2,0,B|157:221|157:221|190:173,1,107.999996704102,2|0,0:0|1:2,0:0:0:0:
448,264,80352,6,0,P|403:288|342:281,1,107.999996704102,6|8,1:2|0:0,0:0:0:0:
304,62,80787,2,0,P|349:38|410:45,1,107.999996704102,6|0,1:2|0:0,0:0:0:0:
453,279,81222,6,0,P|408:303|347:296,1,107.999996704102,6|8,1:2|0:0,0:0:0:0:
299,47,81657,2,0,P|344:23|405:30,1,107.999996704102,6|0,1:2|0:0,0:0:0:0:
259,215,82092,6,0,P|245:267|233:319,1,107.999996704102,6|8,1:2|0:0,0:0:0:0:
51,150,82526,2,0,P|39:97|25:45,1,107.999996704102,6|0,1:2|0:0,0:0:0:0:
285,114,82961,6,0,L|173:93,1,107.999996704102,6|0,1:2|0:0,0:0:0:0:
61,290,83396,2,0,B|194:255|194:255|231:277|233:319,1,215.999993408203,6|2,1:2|1:2,0:0:0:0:
422,183,84048,1,10,3:0:0:0:
217,94,84265,1,2,1:2:0:0:
338,333,84483,5,14,0:2:0:0:
444,40,84700,1,0,1:2:0:0:
456,377,84918,5,10,0:0:0:0:
326,84,85135,1,2,1:2:0:0:
198,340,85352,5,8,0:0:0:0:
444,175,85570,1,2,1:2:0:0:
132,164,85787,5,8,0:0:0:0:
398,291,86005,1,2,1:2:0:0:
264,90,86222,5,8,0:0:0:0:
151,361,86439,1,2,1:2:0:0:
122,38,86657,5,8,0:0:0:0:
263,305,86874,1,2,1:2:0:0:
339,0,87092,5,8,0:0:0:0:
158,235,87309,2,0,B|117:278|48:300|-7:263|-5:199|36:160|90:180,1,269.999991760254,6|0,1:2|0:0,0:0:0:0:
94,187,87961,6,0,P|73:272|66:358,1,173.250005287171,14|0,0:2|0:0,0:0:0:0:
