osu file format v14

[General]
AudioFilename: audio.mp3
AudioLeadIn: 0
PreviewTime: 51331
Countdown: 0
SampleSet: Normal
StackLeniency: 0.7
Mode: 1
LetterboxInBreaks: 0
WidescreenStoryboard: 0

[Editor]
Bookmarks: 679,7440,14201,14412,20961,27722,34482,37863,44623,51384,58144,64905,71665,78426,80116,87299
DistanceSpacing: 0.9
BeatDivisor: 8
GridSize: 32
TimelineZoom: 2.2

[Metadata]
Title:Megane-Go-Round (TV Size)
TitleUnicode:メガネゴーラウンド (TV Size)
Artist:Masayoshi ga Megane o Wasureta
ArtistUnicode:マサヨシがめがねを忘れた
Creator:Slyme
Version:Rolling
Source:好きな子がめがねを忘れた
Tags:mari_0hara mari 0hara suki na ko ga megane wo wasureta the girl i like forgot her glasses sukimega gohands square enix flying dog glovision shouchiku manga jpop j-pop anime ending ed itou jazz pop japanese 小村楓 kaede komura 伊藤昌弘 masahiro ito 三重あい ai mie 若山詩音 shion wakayama オーイシマサヨシ oishi masayoshi
BeatmapID:4271427
BeatmapSetID:2028307

[Difficulty]
HPDrainRate:6
CircleSize:5
OverallDifficulty:7
ApproachRate:5
SliderMultiplier:1.4
SliderTickRate:1

[Events]
//Background and Video events
0,0,"The girl I like forgot her glasses (1).jpg",0,-100
Video,0,"output.mp4"
//Break Periods
//Storyboard Layer 0 (Background)
//Storyboard Layer 1 (Fail)
//Storyboard Layer 2 (Pass)
//Storyboard Layer 3 (Foreground)
//Storyboard Layer 4 (Overlay)
//Storyboard Sound Samples

[TimingPoints]
686,422.535211267606,4,1,0,80,1,0
686,-55.5555555555556,4,1,0,80,0,0
5756,-55.551379388108,4,1,0,80,0,0
7024,-55.551379388108,4,1,0,80,0,0
7657,-62.508216116735,4,1,0,70,0,0
12305,-62.508216116735,4,1,0,70,0,0
12411,-62.942616983255,4,1,0,69,0,0
12516,-63.387322535493,4,1,0,69,0,0
12728,-64.291508923743,4,1,0,68,0,0
12833,-64.751140464356,4,1,0,67,0,0
12939,-65.22186406968,4,1,0,67,0,0
13150,-66.179540709812,4,1,0,66,0,0
13256,-66.671340437465,4,1,0,65,0,0
13362,-67.165760293806,4,1,0,64,0,0
13414,-67.418119948958,4,1,0,64,0,0
13467,-67.672383121042,4,1,0,64,0,0
13573,-68.186706818671,4,1,0,63,0,0
13678,-68.703944516688,4,1,0,63,0,0
13784,-69.234129295282,4,1,0,62,0,0
13837,-69.502302126727,4,1,0,62,0,0
13890,-69.772560528247,4,1,0,62,0,0
13995,-70.314232902033,4,1,0,61,0,0
14101,-70.869662418958,4,1,0,61,0,0
17587,-55.565293602103,4,1,0,80,0,0
17693,-56.607142857143,4,1,0,78,0,0
17798,-57.699308336367,4,1,0,77,0,0
17904,-58.834446919079,4,1,0,75,0,0
18009,-60.003785727806,4,1,0,73,0,0
18062,-60.611854684512,4,1,0,72,0,0
18115,-61.220548474314,4,1,0,72,0,0
18221,-55.565293602103,4,1,0,80,0,0
18643,-66.6666666666667,4,1,0,70,0,0
19277,-50,4,1,0,90,0,0
19488,-52.6315789473684,4,1,0,80,0,0
19700,-55.565293602103,4,1,0,75,0,0
19911,-58.8235294117647,4,1,0,70,0,0
20333,-71.428571428571,4,1,0,50,0,0
20439,-69.925442272908,4,1,0,52,0,0
20545,-68.484272381611,4,1,0,53,0,0
20650,-67.114093959732,4,1,0,55,0,0
20703,-66.44309369105,4,1,0,56,0,0
20756,-65.785377798991,4,1,0,57,0,0
20809,-65.140555646885,4,1,0,58,0,0
20862,-64.508251765328,4,1,0,58,0,0
20914,-63.899695619746,4,1,0,59,0,0
20967,-63.291139240506,4,1,0,60,0,0
27305,-62.5,4,1,0,60,0,0
27411,-61.536223450684,4,1,0,64,0,0
27516,-60.610402636481,4,1,0,67,0,0
27622,-59.70359915314,4,1,0,71,0,0
27728,-58.823529411765,4,1,0,75,0,0
27939,-66.6760148636338,4,1,0,70,0,0
30897,-62.508216116735,4,1,0,70,0,0
31319,-71.4285714285714,4,1,0,60,0,0
32798,-62.508216116735,4,1,0,70,0,0
33009,-71.4285714285714,4,1,0,60,0,0
33432,-62.508216116735,4,1,0,70,0,0
33643,-71.428571428571,4,1,0,50,0,0
33749,-70.171067928915,4,1,0,51,0,0
33855,-68.957075240738,4,1,0,53,0,0
33960,-67.795250320924,4,1,0,54,0,0
34066,-66.661407384033,4,1,0,55,0,0
34171,-65.57504268198,4,1,0,56,0,0
34277,-64.513666208581,4,1,0,58,0,0
34383,-63.486100676183,4,1,0,59,0,0
34488,-62.5,4,1,0,60,0,0
34541,-62.653460209215,4,1,0,60,0,0
34594,-62.807675874496,4,1,0,60,0,0
34647,-62.962652588061,4,1,0,60,0,0
34700,-63.118395997461,4,1,0,60,0,0
34805,-63.429230725937,4,1,0,60,0,0
34911,-63.746146667044,4,1,0,60,0,0
35016,-64.06321055025,4,1,0,60,0,0
35122,-64.386509493249,4,1,0,60,0,0
35175,-64.549385721241,4,1,0,60,0,0
35228,-64.713088083298,4,1,0,60,0,0
35333,-65.039868419787,4,1,0,60,0,0
35386,-65.206071242599,4,1,0,60,0,0
35439,-65.373125670698,4,1,0,60,0,0
35492,-65.541038266196,4,1,0,60,0,0
35545,-65.709815658799,4,1,0,60,0,0
35650,-66.046766033092,4,1,0,60,0,0
35756,-66.39044888662,4,1,0,60,0,0
35862,-66.73772724581,4,1,0,60,0,0
35967,-67.085329920533,4,1,0,60,0,0
36073,-67.439935372555,4,1,0,60,0,0
36178,-67.794910870045,4,1,0,60,0,0
36284,-68.15707777285,4,1,0,60,0,0
36390,-68.523134918222,4,1,0,60,0,0
36495,-68.88963599132,4,1,0,60,0,0
36601,-69.263625841212,4,1,0,70,0,0
36812,-70.020295737895,4,1,0,60,0,0
36918,-70.406697070032,4,1,0,60,0,0
37024,-70.797386715805,4,1,0,60,0,0
37076,-70.990635367236,4,1,0,60,0,0
37129,-71.188688978492,4,1,0,60,0,0
37182,-71.387850763286,4,1,0,60,0,0
37235,-71.588130048594,4,1,0,60,0,0
37340,-71.988246816846,4,1,0,60,0,0
37446,-72.396736686581,4,1,0,60,0,0
37499,-72.602725017984,4,1,0,60,0,0
37552,-72.809888879318,4,1,0,60,0,0
37657,-73.223818857137,4,1,0,60,0,0
37763,-73.646492479606,4,1,0,60,0,0
37869,-74.074074074074,4,1,0,60,0,0
43784,-55.557802766766,4,1,0,80,0,0
44101,-57.1428571428571,4,1,0,70,0,0
44418,-58.8235294117647,4,1,0,75,0,0
44629,-60.6060606060606,4,1,0,70,0,0
46108,-62.506934941007,4,1,0,70,0,0
46319,-64.005453719133,4,1,0,68,0,0
46425,-64.785708809323,4,1,0,67,0,0
46531,-65.57758721043,4,1,0,66,0,0
46636,-66.4451827242525,4,1,0,65,0,0
46742,-67.236920628606,4,1,0,64,0,0
46953,-68.973961309281,4,1,0,62,0,0
47059,-69.880913000331,4,1,0,62,0,0
47164,-70.803133771838,4,1,0,61,0,0
47376,-72.741359273447,4,1,0,59,0,0
47587,-74.778761061947,4,1,0,57,0,0
47798,-76.9230769230769,4,1,0,55,0,0
48009,-58.811247216036,4,1,0,75,0,0
48326,-58.856191004997,4,1,0,75,0,0
48432,-60.6060606060606,4,1,0,70,0,0
48538,-62.5,4,1,0,65,0,0
48643,-58.811247216036,4,1,0,75,0,0
48960,-58.8235294117647,4,1,0,70,0,0
49066,-62.5,4,1,0,65,0,0
49277,-58.811247216036,4,1,0,75,0,0
49488,-62.5,4,1,0,65,0,0
49700,-58.8235294117647,4,1,0,70,0,0
50016,-57.1428571428571,4,1,0,75,0,0
50333,-55.5555555555556,4,1,0,80,0,0
50545,-54.054054054054,4,1,0,82,0,0
50967,-52.6315789473684,4,1,0,85,0,0
51390,-50,4,1,0,90,0,1
61531,-50,4,1,0,90,0,1
61583,-49.912227398555,4,1,0,90,0,1
61636,-49.823083403538,4,1,0,90,0,1
61689,-49.823083403538,4,1,0,90,0,1
61742,-49.64574728854,4,1,0,90,0,1
61847,-49.471324365924,4,1,0,90,0,1
61953,-49.296479061083,4,1,0,90,0,1
62006,-49.296479061083,4,1,0,90,0,1
62059,-49.122865306665,4,1,0,90,0,1
62164,-48.952090851902,4,1,0,90,0,1
62217,-48.86634056055,4,1,0,90,0,1
62270,-48.780890164638,4,1,0,90,0,1
62376,-48.610882788098,4,1,0,90,0,1
62428,-48.527915449503,4,1,0,90,0,1
62481,-48.443643512451,4,1,0,90,0,1
62534,-48.275974662052,4,1,0,90,0,1
62587,-48.275974662052,4,1,0,90,0,1
62693,-48.109462449564,4,1,0,90,0,1
62798,-48.0769230769231,4,1,0,90,0,1
62851,-47.945649706521,4,1,0,90,0,1
62904,-47.781404517985,4,1,0,90,0,1
63009,-47.619814480804,4,1,0,90,0,1
63062,-47.538664351629,4,1,0,90,0,1
63115,-47.4577903319,4,1,0,90,0,1
63221,-47.296865003199,4,1,0,90,0,1
63274,-47.216810909207,4,1,0,90,0,1
63326,-47.138530208831,4,1,0,90,0,1
63379,-47.059010758164,4,1,0,90,0,1
63432,-46.979759143338,4,1,0,90,0,1
63538,-46.822054026665,4,1,0,90,0,1
63643,-46.666877091093,4,1,0,90,0,1
63696,-46.511262111489,4,1,0,90,0,1
63749,-46.511262111489,4,1,0,90,0,1
63855,-46.356681507494,4,1,0,90,0,1
63907,-46.281224566456,4,1,0,90,0,1
63960,-46.204568892778,4,1,0,90,0,1
64066,-46.05201681981,4,1,0,90,0,1
64119,-45.976117917781,4,1,0,90,0,1
64171,-45.901893821794,4,1,0,90,0,1
64224,-45.826488547252,4,1,0,90,0,1
64277,-45.751330610224,4,1,0,90,0,1
64383,-45.60175189686,4,1,0,90,0,1
64488,-45.454545454545,4,1,0,90,0,1
64541,-45.978260869565,4,1,0,90,0,1
64594,-46.51418517704,4,1,0,90,0,1
64647,-47.062750333778,4,1,0,90,0,1
64700,-47.624408916911,4,1,0,90,0,1
64752,-48.188653451811,4,1,0,90,0,1
64805,-48.777675276753,4,1,0,90,0,1
64858,-49.381274807378,4,1,0,90,0,1
64911,-50,4,1,0,90,0,1
75052,-50.002219033389,4,1,0,90,0,1
75105,-50.117880814341,4,1,0,90,0,1
75157,-50.236318777682,4,1,0,90,0,1
75210,-50.355317849321,4,1,0,89,0,1
75263,-50.474882026163,4,1,0,89,0,1
75369,-50.715721873781,4,1,0,89,0,1
75474,-50.956566311378,4,1,0,88,0,1
75527,-51.079006226198,4,1,0,88,0,1
75580,-51.202035962613,4,1,0,88,0,1
75686,-51.447532649396,4,1,0,87,0,1
75791,-51.697766901193,4,1,0,87,0,1
75897,-51.950447265685,4,1,0,86,0,1
75950,-52.075308908267,4,1,0,86,0,1
76002,-52.203190881431,4,1,0,86,0,1
76108,-52.460848375731,4,1,0,85,0,1
76214,-52.721061908253,4,1,0,85,0,1
76319,-52.98137814283,4,1,0,84,0,1
76372,-53.11375457674,4,1,0,84,0,1
76425,-53.246794164908,4,1,0,84,0,1
76531,-53.512341085762,4,1,0,83,0,1
76636,-53.783117193094,4,1,0,83,0,1
76742,-54.056647528268,4,1,0,82,0,1
76795,-54.194458696768,4,1,0,82,0,1
76847,-54.330354272488,4,1,0,82,0,1
76900,-54.469566338453,4,1,0,82,0,1
76953,-54.609493650435,4,1,0,82,0,1
77059,-54.891516175133,4,1,0,81,0,1
77164,-55.173764711644,4,1,0,81,0,1
77270,-55.461660896247,4,1,0,80,0,1
77376,-55.752577319588,4,1,0,80,0,1
77481,-56.043773835185,4,1,0,79,0,1
77587,-56.340845446059,4,1,0,79,0,1
77640,-56.49056540705,4,1,0,79,0,1
77693,-56.638235836252,4,1,0,78,0,1
77745,-56.789542659364,4,1,0,78,0,1
77798,-56.941660068397,4,1,0,78,0,1
77904,-57.248352839552,4,1,0,77,0,1
78009,-57.555426897797,4,1,0,77,0,1
78062,-57.711680639268,4,1,0,77,0,1
78115,-57.868785097932,4,1,0,76,0,1
78168,-58.182569328491,4,1,0,76,0,1
78221,-58.182569328491,4,1,0,76,0,1
78274,-58.3422515276,4,1,0,76,0,1
78326,-58.502812635223,4,1,0,75,0,1
78432,-58.8235294117647,4,1,0,75,0,0
78855,-66.7086217747008,4,1,0,65,0,0
79488,-66.652649285114,4,1,0,55,0,0
79594,-65.199506375977,4,1,0,58,0,0
79700,-63.821220052345,4,1,0,62,0,0
79805,-62.487679873842,4,1,0,65,0,0
79911,-61.208727553582,4,1,0,68,0,0
79964,-60.588685015291,4,1,0,70,0,0
80016,-59.99242997729,4,1,0,72,0,0
80756,-66.652649285114,4,1,0,55,0,0
81812,-62.5,4,1,0,70,0,0
81918,-61.944677284158,4,1,0,71,0,0
82024,-61.399135925557,4,1,0,71,0,0
82076,-61.135009927201,4,1,0,72,0,0
82129,-60.868132773248,4,1,0,72,0,0
82235,-60.341308075447,4,1,0,73,0,0
82288,-60.081300813008,4,1,0,73,0,0
82340,-59.823524649883,4,1,0,74,0,0
82393,-59.572752922209,4,1,0,74,0,0
82446,-59.319312891315,4,1,0,74,0,0
83502,-58.818847500796,4,1,0,75,0,0
83608,-58.326756116811,4,1,0,76,0,0
83714,-57.842830306825,4,1,0,76,0,0
83766,-57.608356719676,4,1,0,77,0,0
83819,-57.371322102321,4,1,0,77,0,0
83925,-56.903056903057,4,1,0,78,0,0
83978,-56.671779141104,4,1,0,78,0,0
84031,-56.44237378752,4,1,0,79,0,0
84083,-56.219094712819,4,1,0,79,0,0
84136,-55.993332323079,4,1,0,79,0,0
85193,-55.551379388108,4,1,0,80,0,0
85298,-55.112238049072,4,1,0,81,0,0
85404,-54.679985201628,4,1,0,81,0,0
85457,-54.470406132527,4,1,0,82,0,0
85509,-54.258443465492,4,1,0,82,0,0
85615,-53.839428821215,4,1,0,83,0,0
85668,-53.632339066696,4,1,0,83,0,0
85721,-53.426836321573,4,1,0,84,0,0
85774,-53.226735811005,4,1,0,84,0,0
85826,-53.024323742556,4,1,0,84,0,0
86460,-52.631578947368,4,1,0,85,0,0
86513,-52.286773794808,4,1,0,86,0,0
86566,-51.9464570797,4,1,0,86,0,0
86671,-51.285160038797,4,1,0,87,0,0
86724,-51.0204081632653,4,1,0,88,0,0
86777,-50.634426621977,4,1,0,89,0,0
86883,-50,4,1,0,90,0,0
87305,-47.6333583771596,4,1,0,90,0,0
88573,-66.652649285114,4,1,0,55,0,0

[HitObjects]
256,192,686,5,12,1:0:0:0:
256,192,791,1,0,1:0:0:0:
256,192,897,1,8,1:0:0:0:
256,192,950,1,8,1:0:0:0:
256,192,1002,1,0,1:0:0:0:
256,192,1108,1,8,1:0:0:0:
256,192,1161,1,8,1:0:0:0:
256,192,1214,1,0,1:0:0:0:
256,192,1266,1,0,1:0:0:0:
256,192,1319,1,8,1:0:0:0:
256,192,1425,1,0,1:0:0:0:
256,192,1478,1,0,0:0:0:0:
256,192,1531,1,8,1:0:0:0:
256,192,1636,1,8,1:0:0:0:
256,192,1742,1,0,1:0:0:0:
256,192,1847,1,0,1:0:0:0:
256,192,1953,1,8,1:0:0:0:
256,192,2059,1,8,1:0:0:0:
256,192,2164,1,8,1:0:0:0:
256,192,2270,1,0,1:0:0:0:
256,192,2376,1,8,1:0:0:0:
256,192,2481,1,0,1:0:0:0:
256,192,2587,1,8,1:0:0:0:
256,192,2640,1,0,1:0:0:0:
256,192,2693,1,0,1:0:0:0:
256,192,2798,1,8,1:0:0:0:
256,192,2851,1,0,1:0:0:0:
256,192,2904,1,0,1:0:0:0:
256,192,2957,1,0,1:0:0:0:
256,192,3009,1,8,1:0:0:0:
256,192,3115,1,0,1:0:0:0:
256,192,3168,1,0,0:0:0:0:
256,192,3221,1,8,1:0:0:0:
256,192,3326,1,8,1:0:0:0:
256,192,3432,1,0,1:0:0:0:
256,192,3538,1,0,1:0:0:0:
256,192,3643,1,8,1:0:0:0:
256,192,3749,1,0,1:0:0:0:
256,192,3855,1,8,1:0:0:0:
256,192,3960,1,0,1:0:0:0:
256,192,4066,1,8,1:0:0:0:
256,192,4171,1,0,1:0:0:0:
256,192,4277,1,8,1:0:0:0:
256,192,4330,1,8,1:0:0:0:
256,192,4383,1,0,1:0:0:0:
256,192,4488,1,8,1:0:0:0:
256,192,4541,1,8,1:0:0:0:
256,192,4594,1,0,1:0:0:0:
256,192,4647,1,0,1:0:0:0:
256,192,4700,1,8,1:0:0:0:
256,192,4805,1,0,1:0:0:0:
256,192,4858,1,0,0:0:0:0:
256,192,4911,1,8,1:0:0:0:
256,192,5016,1,8,1:0:0:0:
256,192,5122,1,8,1:0:0:0:
256,192,5228,1,0,1:0:0:0:
256,192,5333,1,0,1:0:0:0:
256,192,5439,1,0,1:0:0:0:
256,192,5545,1,8,1:0:0:0:
256,192,5650,1,0,1:0:0:0:
256,192,5756,1,12,1:0:0:0:
256,192,6073,1,4,1:0:0:0:
256,192,6390,1,4,1:0:0:0:
256,192,6601,1,12,1:0:0:0:
256,192,7024,1,12,1:0:0:0:
256,192,7164,1,0,1:0:0:0:
256,192,7305,1,0,1:0:0:0:
256,192,7446,1,12,1:0:0:0:
256,192,7657,1,0,1:0:0:0:
256,192,7763,1,0,1:0:0:0:
256,192,7869,1,8,1:0:0:0:
256,192,8080,1,0,1:0:0:0:
256,192,8186,1,0,1:0:0:0:
256,192,8291,1,8,1:0:0:0:
256,192,8397,1,0,1:0:0:0:
256,192,8502,1,8,1:0:0:0:
256,192,8608,1,8,1:0:0:0:
256,192,8714,1,0,1:0:0:0:
256,192,8819,1,0,1:0:0:0:
256,192,8925,1,8,1:0:0:0:
256,192,9031,1,8,1:0:0:0:
256,192,9136,1,0,1:0:0:0:
256,192,9347,1,8,1:0:0:0:
256,192,9453,1,0,1:0:0:0:
256,192,9559,1,8,1:0:0:0:
256,192,9770,1,0,1:0:0:0:
256,192,9876,1,8,1:0:0:0:
256,192,9981,1,0,1:0:0:0:
256,192,10087,1,8,1:0:0:0:
256,192,10193,1,8,1:0:0:0:
256,192,10298,1,0,1:0:0:0:
256,192,10404,1,8,1:0:0:0:
256,192,10509,1,0,1:0:0:0:
256,192,10615,1,8,1:0:0:0:
256,192,10721,1,8,1:0:0:0:
256,192,10826,1,0,1:0:0:0:
256,192,11038,1,8,1:0:0:0:
256,192,11143,1,0,1:0:0:0:
256,192,11249,1,8,1:0:0:0:
256,192,11355,1,8,1:0:0:0:
256,192,11460,1,0,1:0:0:0:
256,192,11566,1,0,1:0:0:0:
256,192,11671,1,8,1:0:0:0:
256,192,11777,1,0,1:0:0:0:
256,192,11883,1,8,1:0:0:0:
256,192,11988,1,8,1:0:0:0:
256,192,12094,1,0,1:0:0:0:
256,192,12200,1,0,1:0:0:0:
256,192,12305,1,8,1:0:0:0:
256,192,12411,1,8,1:0:0:0:
256,192,12516,1,0,1:0:0:0:
256,192,12728,1,8,1:0:0:0:
256,192,12833,1,0,1:0:0:0:
256,192,12939,1,8,1:0:0:0:
256,192,13150,1,8,1:0:0:0:
256,192,13256,1,0,1:0:0:0:
256,192,13362,1,8,1:0:0:0:
256,192,13467,1,0,1:0:0:0:
256,192,13573,1,8,1:0:0:0:
448,64,13679,1,8,0:0:0:0:
256,192,13784,1,0,1:0:0:0:
64,64,13890,1,0,0:0:0:0:
448,64,13996,1,8,0:0:0:0:
256,192,14101,1,0,1:0:0:0:
182,186,14207,1,12,1:0:0:0:
256,192,14418,1,0,1:0:0:0:
256,192,14524,1,0,1:0:0:0:
256,192,14629,1,8,1:0:0:0:
250,193,14735,1,8,1:0:0:0:
256,192,14840,1,0,1:0:0:0:
256,192,14946,1,0,1:0:0:0:
256,192,15052,1,8,1:0:0:0:
256,192,15157,1,0,0:0:0:0:
256,192,15263,1,0,1:0:0:0:
256,192,15369,1,0,1:0:0:0:
256,192,15474,1,8,1:0:0:0:
256,192,15686,1,0,1:0:0:0:
256,192,15791,1,0,1:0:0:0:
256,192,15897,1,8,1:0:0:0:
256,192,16108,1,8,1:0:0:0:
256,192,16319,1,8,1:0:0:0:
256,192,16425,1,0,1:0:0:0:
256,192,16531,1,8,1:0:0:0:
256,192,16742,1,8,1:0:0:0:
256,192,16953,1,0,1:0:0:0:
256,192,17059,1,0,0:0:0:0:
256,192,17164,1,8,1:0:0:0:
256,192,17270,1,8,1:0:0:0:
256,192,17376,1,0,1:0:0:0:
256,192,17587,1,12,1:0:0:0:
256,192,17798,1,8,1:0:0:0:
256,192,17904,1,0,1:0:0:0:
256,192,18009,1,8,1:0:0:0:
256,192,18221,1,12,1:0:0:0:
256,192,18643,1,8,1:0:0:0:
256,192,18855,1,0,1:0:0:0:
256,192,18960,1,0,1:0:0:0:
256,192,19066,1,0,1:0:0:0:
382,210,19277,1,12,1:0:0:0:
256,192,19488,1,4,1:0:0:0:
256,192,19700,1,12,1:0:0:0:
256,192,19911,1,4,1:0:0:0:
256,192,20333,1,0,1:0:0:0:
256,192,20439,1,8,1:0:0:0:
256,192,20545,1,0,1:0:0:0:
256,192,20650,1,8,1:0:0:0:
256,192,20703,1,8,1:0:0:0:
256,192,20756,1,0,1:0:0:0:
256,192,20809,1,8,1:0:0:0:
256,192,20862,1,0,1:0:0:0:
256,192,20914,1,0,0:0:0:0:
256,192,20967,1,8,1:0:0:0:
256,192,21178,1,0,1:0:0:0:
256,192,21284,1,0,1:0:0:0:
256,192,21390,1,8,1:0:0:0:
256,192,21601,1,0,1:0:0:0:
256,192,21707,1,0,1:0:0:0:
256,192,21812,1,8,1:0:0:0:
256,192,21918,1,0,1:0:0:0:
256,192,22024,1,8,1:0:0:0:
256,192,22129,1,8,1:0:0:0:
256,192,22235,1,0,1:0:0:0:
256,192,22340,1,0,1:0:0:0:
256,192,22446,1,8,1:0:0:0:
256,192,22552,1,8,1:0:0:0:
256,192,22657,1,0,1:0:0:0:
256,192,22869,1,8,1:0:0:0:
256,192,22974,1,0,1:0:0:0:
256,192,23080,1,8,1:0:0:0:
256,192,23291,1,0,1:0:0:0:
256,192,23397,1,0,1:0:0:0:
256,192,23502,1,8,1:0:0:0:
256,192,23608,1,0,1:0:0:0:
256,192,23714,1,8,1:0:0:0:
256,192,23819,1,8,1:0:0:0:
256,192,23925,1,0,1:0:0:0:
256,192,24031,1,0,1:0:0:0:
256,192,24136,1,8,1:0:0:0:
256,192,24242,1,8,1:0:0:0:
256,192,24347,1,4,1:0:0:0:
256,192,24559,1,8,1:0:0:0:
256,192,24664,1,0,1:0:0:0:
256,192,24770,1,8,1:0:0:0:
256,192,24876,1,8,1:0:0:0:
256,192,24981,1,0,1:0:0:0:
256,192,25087,1,0,1:0:0:0:
256,192,25193,1,8,1:0:0:0:
256,192,25298,1,0,1:0:0:0:
256,192,25404,1,8,1:0:0:0:
448,64,25510,1,8,0:0:0:0:
64,64,25616,1,0,0:0:0:0:
256,192,25721,1,0,1:0:0:0:
256,192,25826,1,8,1:0:0:0:
256,192,25932,1,8,1:0:0:0:
256,192,26038,1,0,1:0:0:0:
256,192,26249,1,8,1:0:0:0:
256,192,26355,1,0,1:0:0:0:
256,192,26460,1,8,1:0:0:0:
256,192,26671,1,8,1:0:0:0:
256,192,26777,1,0,1:0:0:0:
256,192,26883,1,8,1:0:0:0:
256,192,26988,1,8,1:0:0:0:
256,192,27094,1,0,1:0:0:0:
256,192,27200,1,0,1:0:0:0:
256,192,27305,1,8,1:0:0:0:
256,192,27411,1,8,1:0:0:0:
256,192,27516,1,0,1:0:0:0:
256,192,27622,1,0,1:0:0:0:
182,186,27728,1,12,1:0:0:0:
256,192,27939,1,0,1:0:0:0:
256,192,28045,1,0,1:0:0:0:
256,192,28150,1,8,1:0:0:0:
256,192,28256,1,8,1:0:0:0:
256,192,28362,1,0,1:0:0:0:
256,192,28467,1,0,1:0:0:0:
256,192,28573,1,8,1:0:0:0:
256,192,28678,1,0,0:0:0:0:
256,192,28784,1,8,1:0:0:0:
256,192,28890,1,0,1:0:0:0:
256,192,28995,1,8,1:0:0:0:
256,192,29207,1,0,1:0:0:0:
256,192,29312,1,0,1:0:0:0:
256,192,29418,1,8,1:0:0:0:
256,192,29629,1,8,1:0:0:0:
256,192,29840,1,0,1:0:0:0:
256,192,29946,1,0,1:0:0:0:
256,192,30052,1,8,1:0:0:0:
256,192,30263,1,8,1:0:0:0:
256,192,30474,1,0,1:0:0:0:
256,192,30580,1,8,1:0:0:0:
256,192,30686,1,0,1:0:0:0:
256,192,30897,1,8,1:0:0:0:
256,192,31002,1,8,1:0:0:0:
256,192,31108,1,8,1:0:0:0:
256,192,31319,1,0,1:0:0:0:
256,192,31425,1,0,1:0:0:0:
256,192,31531,1,8,1:0:0:0:
250,193,31636,1,8,1:0:0:0:
256,192,31742,1,0,1:0:0:0:
256,192,31847,1,0,1:0:0:0:
256,192,31953,1,8,1:0:0:0:
256,192,32059,1,0,0:0:0:0:
256,192,32164,1,8,1:0:0:0:
256,192,32270,1,0,1:0:0:0:
256,192,32376,1,8,1:0:0:0:
256,192,32587,1,0,1:0:0:0:
256,192,32693,1,8,1:0:0:0:
256,192,32798,1,4,1:0:0:0:
256,192,33009,1,8,1:0:0:0:
256,192,33221,1,0,1:0:0:0:
256,192,33326,1,0,1:0:0:0:
256,192,33432,1,12,1:0:0:0:
256,192,33643,1,0,1:0:0:0:
256,192,33749,1,8,1:0:0:0:
256,192,33855,1,0,1:0:0:0:
256,192,33960,1,0,1:0:0:0:
64,64,34066,1,8,0:0:0:0:
261,194,34171,1,0,1:0:0:0:
261,194,34277,1,8,1:0:0:0:
261,194,34488,1,8,1:0:0:0:
261,194,34541,1,8,1:0:0:0:
261,194,34594,1,0,1:0:0:0:
261,194,34647,1,0,1:0:0:0:
261,194,34700,1,8,1:0:0:0:
263,197,34805,1,8,1:0:0:0:
263,197,34911,1,0,1:0:0:0:
268,197,35016,1,0,1:0:0:0:
261,194,35122,1,8,1:0:0:0:
264,197,35175,1,0,1:0:0:0:
264,197,35228,1,0,1:0:0:0:
261,194,35333,1,8,1:0:0:0:
261,194,35386,1,8,1:0:0:0:
261,194,35439,1,0,1:0:0:0:
261,194,35492,1,0,1:0:0:0:
261,194,35545,1,8,1:0:0:0:
263,197,35650,1,8,1:0:0:0:
263,197,35756,1,0,1:0:0:0:
268,197,35862,1,0,1:0:0:0:
261,187,35967,1,8,1:0:0:0:
261,187,36073,1,0,1:0:0:0:
261,187,36178,1,8,1:0:0:0:
264,197,36284,1,0,1:0:0:0:
261,194,36390,1,0,1:0:0:0:
261,194,36495,1,0,1:0:0:0:
262,190,36601,1,12,1:0:0:0:
266,192,36812,1,0,1:0:0:0:
266,192,36918,1,0,1:0:0:0:
261,194,37024,1,8,1:0:0:0:
261,194,37076,1,8,1:0:0:0:
261,194,37129,1,0,1:0:0:0:
261,194,37182,1,0,1:0:0:0:
261,194,37235,1,8,1:0:0:0:
263,197,37340,1,0,1:0:0:0:
263,197,37446,1,0,1:0:0:0:
268,197,37552,1,8,1:0:0:0:
266,192,37657,1,8,1:0:0:0:
266,192,37763,1,0,1:0:0:0:
266,192,37869,1,12,1:0:0:0:
261,194,38080,1,0,1:0:0:0:
261,194,38291,1,8,1:0:0:0:
266,203,38502,1,0,1:0:0:0:
266,203,38714,1,8,1:0:0:0:
270,202,38925,1,8,1:0:0:0:
270,202,39031,1,0,1:0:0:0:
270,202,39136,1,0,1:0:0:0:
270,202,39347,1,8,1:0:0:0:
271,207,39559,1,0,1:0:0:0:
263,200,39770,1,0,1:0:0:0:
270,202,39981,1,8,1:0:0:0:
270,202,40087,1,8,1:0:0:0:
270,202,40193,1,0,1:0:0:0:
271,207,40404,1,8,1:0:0:0:
270,202,40615,1,0,1:0:0:0:
270,202,40826,1,0,1:0:0:0:
270,202,41038,1,0,1:0:0:0:
266,192,41249,1,8,1:0:0:0:
261,194,41460,1,0,1:0:0:0:
264,220,41566,1,0,1:0:0:0:
261,194,41671,1,8,1:0:0:0:
264,220,41777,1,8,1:0:0:0:
266,203,41883,1,0,1:0:0:0:
266,203,42094,1,8,1:0:0:0:
270,202,42305,1,8,1:0:0:0:
270,202,42411,1,0,1:0:0:0:
270,202,42516,1,8,1:0:0:0:
270,202,42728,1,0,1:0:0:0:
271,207,42939,1,8,1:0:0:0:
272,202,43045,1,8,1:0:0:0:
263,200,43150,1,0,1:0:0:0:
262,202,43256,1,0,1:0:0:0:
262,202,43362,1,8,1:0:0:0:
270,202,43573,1,0,1:0:0:0:
271,202,43784,1,12,1:0:0:0:
275,202,44101,1,12,1:0:0:0:
275,202,44418,1,12,1:0:0:0:
266,205,44629,1,4,1:0:0:0:
271,194,44840,1,8,1:0:0:0:
271,206,45052,1,8,1:0:0:0:
270,198,45263,1,0,1:0:0:0:
271,194,45369,1,0,1:0:0:0:
270,198,45474,1,8,1:0:0:0:
272,199,45580,1,8,1:0:0:0:
272,199,45686,1,0,1:0:0:0:
272,199,45791,1,0,1:0:0:0:
272,199,45897,1,8,1:0:0:0:
270,198,46108,1,8,1:0:0:0:
272,199,46319,1,0,1:0:0:0:
270,198,46425,1,0,1:0:0:0:
272,199,46531,1,8,1:0:0:0:
272,199,46636,1,0,0:0:0:0:
272,199,46742,1,8,1:0:0:0:
272,199,46953,1,0,1:0:0:0:
270,198,47059,1,8,1:0:0:0:
272,199,47164,1,0,1:0:0:0:
270,198,47376,1,8,1:0:0:0:
272,199,47587,1,8,1:0:0:0:
272,199,47798,1,0,1:0:0:0:
270,198,48009,1,12,1:0:0:0:
270,198,48326,1,8,1:0:0:0:
270,198,48432,1,8,1:0:0:0:
264,198,48538,1,0,1:0:0:0:
264,198,48643,1,12,1:0:0:0:
270,198,48960,1,8,1:0:0:0:
270,198,49066,1,0,1:0:0:0:
264,198,49277,1,12,1:0:0:0:
264,198,49488,1,8,1:0:0:0:
272,199,49700,1,4,1:0:0:0:
270,198,50016,1,4,1:0:0:0:
272,199,50333,1,4,1:0:0:0:
272,199,50545,1,4,1:0:0:0:
270,198,50967,1,12,1:0:0:0:
256,192,51390,1,12,1:0:0:0:
256,192,51495,1,0,0:0:0:0:
256,192,51601,1,8,1:0:0:0:
256,192,51654,1,8,1:0:0:0:
256,192,51707,1,0,1:0:0:0:
256,192,51759,1,0,1:0:0:0:
256,192,51812,1,8,1:0:0:0:
256,192,51918,1,0,1:0:0:0:
256,192,52024,1,8,1:0:0:0:
256,192,52076,1,8,1:0:0:0:
256,192,52129,1,0,1:0:0:0:
256,192,52235,1,8,1:0:0:0:
256,192,52288,1,8,1:0:0:0:
256,192,52340,1,8,1:0:0:0:
256,192,52446,1,0,1:0:0:0:
256,192,52552,1,0,1:0:0:0:
256,192,52657,1,8,1:0:0:0:
256,192,52710,1,0,1:0:0:0:
256,192,52763,1,0,1:0:0:0:
256,192,52869,1,8,1:0:0:0:
256,192,52921,1,0,1:0:0:0:
256,192,52974,1,0,1:0:0:0:
256,192,53027,1,0,1:0:0:0:
256,192,53080,1,8,1:0:0:0:
256,192,53186,1,0,1:0:0:0:
256,192,53291,1,8,1:0:0:0:
256,192,53344,1,8,1:0:0:0:
256,192,53397,1,0,1:0:0:0:
256,192,53502,1,8,1:0:0:0:
256,192,53555,1,8,1:0:0:0:
256,192,53608,1,8,1:0:0:0:
256,192,53714,1,0,1:0:0:0:
256,192,53819,1,0,1:0:0:0:
256,192,53925,1,8,1:0:0:0:
256,192,53978,1,8,1:0:0:0:
256,192,54031,1,0,1:0:0:0:
256,192,54083,1,0,1:0:0:0:
256,192,54136,1,8,1:0:0:0:
256,192,54189,1,8,1:0:0:0:
256,192,54242,1,0,1:0:0:0:
256,192,54347,1,8,1:0:0:0:
256,192,54400,1,8,0:0:0:0:
256,192,54453,1,0,1:0:0:0:
256,192,54559,1,8,1:0:0:0:
256,192,54664,1,0,1:0:0:0:
256,192,54770,1,8,1:0:0:0:
256,192,54823,1,8,1:0:0:0:
256,192,54876,1,0,1:0:0:0:
256,192,54928,1,0,1:0:0:0:
256,192,54981,1,0,1:0:0:0:
256,192,55087,1,8,1:0:0:0:
256,192,55193,1,0,1:0:0:0:
256,192,55245,1,0,1:0:0:0:
256,192,55298,1,8,1:0:0:0:
256,192,55404,1,0,1:0:0:0:
256,192,55457,1,0,1:0:0:0:
256,192,55509,1,0,1:0:0:0:
256,192,55615,1,8,1:0:0:0:
256,192,55721,1,0,1:0:0:0:
256,192,55826,1,8,1:0:0:0:
256,192,55879,1,8,1:0:0:0:
256,192,55932,1,0,1:0:0:0:
256,192,55985,1,0,1:0:0:0:
256,192,56038,1,8,1:0:0:0:
256,192,56143,1,0,1:0:0:0:
256,192,56249,1,8,1:0:0:0:
256,192,56302,1,8,1:0:0:0:
256,192,56355,1,0,1:0:0:0:
256,192,56460,1,8,1:0:0:0:
256,192,56566,1,0,1:0:0:0:
256,192,56671,1,0,1:0:0:0:
256,192,56724,1,0,1:0:0:0:
256,192,56777,1,8,1:0:0:0:
256,192,56883,1,0,1:0:0:0:
256,192,56988,1,0,1:0:0:0:
256,192,57094,1,8,1:0:0:0:
256,192,57147,1,8,1:0:0:0:
256,192,57200,1,0,1:0:0:0:
256,192,57305,1,8,1:0:0:0:
256,192,57358,1,8,1:0:0:0:
256,192,57411,1,0,1:0:0:0:
256,192,57464,1,0,1:0:0:0:
256,192,57516,1,8,1:0:0:0:
256,192,57622,1,0,1:0:0:0:
256,192,57728,1,8,1:0:0:0:
256,192,57781,1,8,1:0:0:0:
256,192,57833,1,0,1:0:0:0:
256,192,57886,1,0,1:0:0:0:
256,192,57939,1,8,1:0:0:0:
256,192,58045,1,0,1:0:0:0:
256,192,58150,1,12,1:0:0:0:
256,192,58256,1,0,0:0:0:0:
256,192,58362,1,8,1:0:0:0:
256,192,58414,1,0,1:0:0:0:
256,192,58467,1,0,1:0:0:0:
256,192,58520,1,0,1:0:0:0:
256,192,58573,1,8,1:0:0:0:
256,192,58678,1,0,1:0:0:0:
256,192,58784,1,8,1:0:0:0:
256,192,58837,1,8,1:0:0:0:
256,192,58890,1,0,1:0:0:0:
256,192,58995,1,8,1:0:0:0:
256,192,59048,1,8,1:0:0:0:
256,192,59101,1,8,1:0:0:0:
256,192,59207,1,0,1:0:0:0:
256,192,59312,1,0,1:0:0:0:
256,192,59418,1,8,1:0:0:0:
256,192,59471,1,0,1:0:0:0:
256,192,59524,1,0,1:0:0:0:
256,192,59629,1,8,1:0:0:0:
256,192,59682,1,8,1:0:0:0:
256,192,59735,1,0,1:0:0:0:
256,192,59788,1,0,1:0:0:0:
256,192,59840,1,8,1:0:0:0:
256,192,59946,1,0,1:0:0:0:
256,192,60052,1,8,1:0:0:0:
256,192,60105,1,8,1:0:0:0:
256,192,60157,1,0,1:0:0:0:
256,192,60263,1,8,1:0:0:0:
256,192,60316,1,8,1:0:0:0:
256,192,60369,1,8,1:0:0:0:
256,192,60474,1,0,1:0:0:0:
256,192,60580,1,0,1:0:0:0:
256,192,60686,1,8,1:0:0:0:
256,192,60738,1,8,1:0:0:0:
256,192,60791,1,0,1:0:0:0:
256,192,60844,1,0,0:0:0:0:
256,192,60897,1,8,1:0:0:0:
256,192,60950,1,8,1:0:0:0:
256,192,61002,1,0,1:0:0:0:
256,192,61108,1,8,1:0:0:0:
256,192,61161,1,8,1:0:0:0:
256,192,61214,1,0,1:0:0:0:
256,192,61319,1,8,1:0:0:0:
256,192,61425,1,0,1:0:0:0:
256,192,61531,1,8,1:0:0:0:
256,192,61583,1,8,1:0:0:0:
256,192,61636,1,8,1:0:0:0:
244,188,61689,1,8,0:0:0:0:
256,192,61742,1,0,1:0:0:0:
256,192,61847,1,0,1:0:0:0:
256,192,61953,1,8,1:0:0:0:
256,192,62006,1,8,0:0:0:0:
256,192,62059,1,0,1:0:0:0:
256,192,62164,1,8,1:0:0:0:
256,192,62270,1,0,1:0:0:0:
256,192,62376,1,8,1:0:0:0:
256,192,62428,1,0,0:0:0:0:
256,192,62481,1,0,1:0:0:0:
256,192,62534,1,0,0:0:0:0:
256,192,62587,1,8,1:0:0:0:
256,192,62693,1,0,1:0:0:0:
256,192,62798,1,8,1:0:0:0:
256,192,62851,1,0,0:0:0:0:
256,192,62904,1,0,1:0:0:0:
256,192,63009,1,8,1:0:0:0:
256,192,63115,1,0,1:0:0:0:
256,192,63221,1,8,1:0:0:0:
256,192,63274,1,8,0:0:0:0:
256,192,63326,1,0,1:0:0:0:
256,192,63379,1,0,0:0:0:0:
256,192,63432,1,8,1:0:0:0:
256,192,63538,1,0,1:0:0:0:
256,192,63643,1,8,1:0:0:0:
256,192,63696,1,0,0:0:0:0:
256,192,63749,1,8,1:0:0:0:
256,192,63855,1,0,1:0:0:0:
256,192,63960,1,0,1:0:0:0:
256,192,64066,1,8,1:0:0:0:
256,192,64119,1,8,0:0:0:0:
256,192,64171,1,8,1:0:0:0:
256,192,64224,1,8,0:0:0:0:
256,192,64277,1,0,1:0:0:0:
256,192,64383,1,0,1:0:0:0:
256,192,64488,1,8,1:0:0:0:
256,192,64541,1,8,1:0:0:0:
256,192,64594,1,0,1:0:0:0:
256,192,64647,1,0,1:0:0:0:
256,192,64700,1,8,1:0:0:0:
256,192,64752,1,8,1:0:0:0:
256,192,64805,1,0,1:0:0:0:
256,192,64858,1,0,1:0:0:0:
256,192,64911,1,12,1:0:0:0:
256,192,65122,1,8,1:0:0:0:
256,192,65175,1,8,1:0:0:0:
256,192,65228,1,0,1:0:0:0:
256,192,65281,1,0,1:0:0:0:
256,192,65333,1,8,1:0:0:0:
256,192,65439,1,0,1:0:0:0:
256,192,65545,1,8,1:0:0:0:
256,192,65597,1,8,1:0:0:0:
256,192,65650,1,0,1:0:0:0:
256,192,65756,1,8,1:0:0:0:
256,192,65809,1,8,1:0:0:0:
256,192,65862,1,8,1:0:0:0:
256,192,65967,1,0,1:0:0:0:
256,192,66073,1,0,1:0:0:0:
256,192,66178,1,8,1:0:0:0:
256,192,66231,1,0,1:0:0:0:
256,192,66284,1,0,1:0:0:0:
256,192,66390,1,8,1:0:0:0:
256,192,66443,1,0,1:0:0:0:
256,192,66495,1,0,1:0:0:0:
256,192,66548,1,0,1:0:0:0:
256,192,66601,1,8,1:0:0:0:
256,192,66707,1,0,1:0:0:0:
256,192,66812,1,8,1:0:0:0:
256,192,66865,1,8,1:0:0:0:
256,192,66918,1,0,1:0:0:0:
256,192,67024,1,8,1:0:0:0:
256,192,67076,1,8,1:0:0:0:
256,192,67129,1,8,1:0:0:0:
256,192,67235,1,0,1:0:0:0:
256,192,67340,1,0,1:0:0:0:
256,192,67446,1,8,1:0:0:0:
256,192,67499,1,0,1:0:0:0:
256,192,67552,1,0,1:0:0:0:
256,192,67657,1,8,1:0:0:0:
256,192,67710,1,0,1:0:0:0:
256,192,67763,1,0,1:0:0:0:
256,192,67816,1,0,1:0:0:0:
256,192,67869,1,8,1:0:0:0:
256,192,67974,1,0,1:0:0:0:
256,192,68080,1,8,1:0:0:0:
256,192,68133,1,0,1:0:0:0:
256,192,68186,1,0,1:0:0:0:
256,192,68291,1,8,1:0:0:0:
256,192,68344,1,8,1:0:0:0:
256,192,68397,1,0,1:0:0:0:
256,192,68450,1,0,1:0:0:0:
256,192,68502,1,0,1:0:0:0:
256,192,68608,1,8,1:0:0:0:
256,192,68714,1,0,1:0:0:0:
256,192,68766,1,0,1:0:0:0:
256,192,68819,1,8,1:0:0:0:
256,192,68925,1,0,1:0:0:0:
256,192,68978,1,0,1:0:0:0:
256,192,69031,1,0,1:0:0:0:
256,192,69136,1,8,1:0:0:0:
256,192,69242,1,0,1:0:0:0:
256,192,69347,1,8,1:0:0:0:
256,192,69400,1,8,1:0:0:0:
256,192,69453,1,0,1:0:0:0:
256,192,69506,1,0,1:0:0:0:
256,192,69559,1,8,1:0:0:0:
256,192,69664,1,0,1:0:0:0:
256,192,69770,1,8,1:0:0:0:
256,192,69823,1,8,1:0:0:0:
256,192,69876,1,0,1:0:0:0:
256,192,69981,1,8,1:0:0:0:
256,192,70034,1,0,1:0:0:0:
256,192,70087,1,0,1:0:0:0:
256,192,70193,1,0,1:0:0:0:
256,192,70298,1,8,1:0:0:0:
256,192,70404,1,0,1:0:0:0:
256,192,70457,1,0,1:0:0:0:
256,192,70509,1,8,1:0:0:0:
256,192,70615,1,8,1:0:0:0:
256,192,70721,1,0,1:0:0:0:
256,192,70826,1,8,1:0:0:0:
256,192,70879,1,8,1:0:0:0:
256,192,70932,1,0,1:0:0:0:
256,192,71038,1,0,1:0:0:0:
256,192,71143,1,8,1:0:0:0:
256,192,71249,1,0,1:0:0:0:
256,192,71302,1,0,1:0:0:0:
256,192,71355,1,8,1:0:0:0:
256,192,71407,1,8,1:0:0:0:
256,192,71460,1,0,1:0:0:0:
256,192,71566,1,8,1:0:0:0:
256,192,71671,1,4,1:0:0:0:
256,192,71883,1,8,1:0:0:0:
256,192,71988,1,0,1:0:0:0:
256,192,72094,1,8,1:0:0:0:
256,192,72147,1,8,1:0:0:0:
256,192,72200,1,0,1:0:0:0:
256,192,72252,1,0,0:0:0:0:
256,192,72305,1,8,1:0:0:0:
256,192,72411,1,0,1:0:0:0:
256,192,72516,1,8,1:0:0:0:
256,192,72569,1,0,1:0:0:0:
256,192,72622,1,0,1:0:0:0:
256,192,72728,1,8,1:0:0:0:
256,192,72833,1,0,1:0:0:0:
256,192,72939,1,8,1:0:0:0:
256,192,72992,1,0,1:0:0:0:
256,192,73045,1,0,1:0:0:0:
256,192,73097,1,0,1:0:0:0:
256,192,73150,1,8,1:0:0:0:
256,192,73256,1,0,1:0:0:0:
256,192,73362,1,8,1:0:0:0:
256,192,73414,1,8,1:0:0:0:
256,192,73467,1,0,1:0:0:0:
256,192,73520,1,0,1:0:0:0:
256,192,73573,1,0,1:0:0:0:
256,192,73626,1,0,0:0:0:0:
256,192,73678,1,8,1:0:0:0:
256,192,73784,1,0,1:0:0:0:
256,192,73890,1,0,1:0:0:0:
256,192,73995,1,8,1:0:0:0:
256,192,74048,1,8,1:0:0:0:
256,192,74101,1,0,1:0:0:0:
256,192,74207,1,8,1:0:0:0:
256,192,74259,1,8,1:0:0:0:
256,192,74312,1,0,1:0:0:0:
256,192,74365,1,0,1:0:0:0:
256,192,74418,1,8,1:0:0:0:
256,192,74471,1,8,0:0:0:0:
256,192,74524,1,0,1:0:0:0:
256,192,74629,1,8,1:0:0:0:
256,192,74682,1,8,1:0:0:0:
256,192,74735,1,8,1:0:0:0:
256,192,74840,1,0,1:0:0:0:
256,192,74946,1,0,1:0:0:0:
256,192,75052,1,8,1:0:0:0:
256,192,75105,1,8,1:0:0:0:
256,192,75157,1,0,1:0:0:0:
256,192,75210,1,0,1:0:0:0:
256,192,75263,1,0,1:0:0:0:
256,192,75369,1,8,1:0:0:0:
256,192,75474,1,0,1:0:0:0:
256,192,75527,1,0,1:0:0:0:
256,192,75580,1,8,1:0:0:0:
256,192,75686,1,8,1:0:0:0:
256,192,75791,1,0,1:0:0:0:
256,192,75897,1,8,1:0:0:0:
256,192,75950,1,8,1:0:0:0:
256,192,76002,1,0,1:0:0:0:
256,192,76108,1,8,1:0:0:0:
256,192,76214,1,0,1:0:0:0:
256,192,76319,1,8,1:0:0:0:
256,192,76372,1,0,1:0:0:0:
256,192,76425,1,0,1:0:0:0:
256,192,76531,1,8,1:0:0:0:
256,192,76636,1,0,1:0:0:0:
256,192,76742,1,8,1:0:0:0:
256,192,76795,1,8,1:0:0:0:
256,192,76847,1,0,1:0:0:0:
256,192,76900,1,0,1:0:0:0:
256,192,76953,1,8,1:0:0:0:
256,192,77059,1,8,1:0:0:0:
256,192,77164,1,0,1:0:0:0:
256,192,77270,1,8,1:0:0:0:
256,192,77376,1,0,1:0:0:0:
256,192,77481,1,0,1:0:0:0:
256,192,77587,1,8,1:0:0:0:
256,192,77640,1,8,1:0:0:0:
256,192,77693,1,0,1:0:0:0:
256,192,77745,1,0,1:0:0:0:
256,192,77798,1,0,1:0:0:0:
256,192,77904,1,8,1:0:0:0:
256,192,78009,1,0,1:0:0:0:
256,192,78062,1,0,1:0:0:0:
256,192,78115,1,8,1:0:0:0:
256,192,78168,1,8,0:0:0:0:
256,192,78221,1,8,1:0:0:0:
256,192,78274,1,8,1:0:0:0:
256,192,78326,1,0,1:0:0:0:
256,192,78432,1,12,1:0:0:0:
256,192,78855,1,8,1:0:0:0:
256,192,78960,1,0,1:0:0:0:
256,192,79066,1,0,1:0:0:0:
256,192,79277,1,8,1:0:0:0:
256,192,79488,1,0,1:0:0:0:
256,192,79594,1,0,1:0:0:0:
256,192,79700,1,8,1:0:0:0:
256,192,79805,1,8,1:0:0:0:
256,192,79911,1,0,1:0:0:0:
256,192,79964,1,0,1:0:0:0:
256,192,80016,1,0,1:0:0:0:
256,192,80122,1,8,1:0:0:0:
256,192,80756,1,0,1:0:0:0:
256,192,80967,1,8,1:0:0:0:
256,192,81812,1,12,1:0:0:0:
256,192,81918,1,0,1:0:0:0:
256,192,82024,1,8,1:0:0:0:
256,192,82076,1,8,1:0:0:0:
256,192,82129,1,0,1:0:0:0:
256,192,82235,1,8,1:0:0:0:
256,192,82288,1,8,1:0:0:0:
256,192,82340,1,0,1:0:0:0:
256,192,82393,1,0,1:0:0:0:
256,192,82446,1,8,1:0:0:0:
256,192,82552,1,0,1:0:0:0:
256,192,82605,1,0,0:0:0:0:
256,192,82657,1,8,1:0:0:0:
256,192,82763,1,8,1:0:0:0:
256,192,82869,1,0,1:0:0:0:
256,192,82974,1,0,1:0:0:0:
256,192,83080,1,8,1:0:0:0:
256,192,83186,1,8,1:0:0:0:
256,192,83291,1,8,1:0:0:0:
256,192,83397,1,0,1:0:0:0:
256,192,83502,1,12,1:0:0:0:
256,192,83608,1,0,1:0:0:0:
256,192,83714,1,8,1:0:0:0:
256,192,83766,1,0,1:0:0:0:
256,192,83819,1,0,1:0:0:0:
256,192,83925,1,8,1:0:0:0:
256,192,83978,1,0,1:0:0:0:
256,192,84031,1,0,1:0:0:0:
256,192,84083,1,0,1:0:0:0:
256,192,84136,1,8,1:0:0:0:
256,192,84242,1,0,1:0:0:0:
256,192,84295,1,0,0:0:0:0:
256,192,84347,1,8,1:0:0:0:
256,192,84453,1,8,1:0:0:0:
256,192,84559,1,0,1:0:0:0:
256,192,84664,1,0,1:0:0:0:
256,192,84770,1,8,1:0:0:0:
256,192,84876,1,0,1:0:0:0:
256,192,84981,1,8,1:0:0:0:
256,192,85087,1,0,1:0:0:0:
256,192,85193,1,12,1:0:0:0:
256,192,85298,1,0,1:0:0:0:
256,192,85404,1,8,1:0:0:0:
256,192,85457,1,8,1:0:0:0:
256,192,85509,1,0,1:0:0:0:
256,192,85615,1,8,1:0:0:0:
256,192,85668,1,8,1:0:0:0:
256,192,85721,1,0,1:0:0:0:
256,192,85774,1,0,1:0:0:0:
256,192,85826,1,8,1:0:0:0:
256,192,85932,1,0,1:0:0:0:
256,192,85985,1,0,0:0:0:0:
256,192,86038,1,8,1:0:0:0:
256,192,86143,1,8,1:0:0:0:
256,192,86249,1,8,1:0:0:0:
256,192,86355,1,0,1:0:0:0:
256,192,86460,1,0,1:0:0:0:
256,192,86566,1,0,1:0:0:0:
256,192,86671,1,8,1:0:0:0:
256,192,86724,1,8,0:0:0:0:
256,192,86777,1,8,1:0:0:0:
256,192,86883,1,0,1:0:0:0:
256,192,87305,1,12,1:0:0:0:
256,192,88573,1,8,1:0:0:0:
256,192,88643,1,8,1:0:0:0:
256,192,88714,1,0,1:0:0:0:
