osu file format v14

[General]
AudioFilename: audio.mp3
AudioLeadIn: 0
PreviewTime: 51331
Countdown: 0
SampleSet: Normal
StackLeniency: 0.7
Mode: 1
LetterboxInBreaks: 0
WidescreenStoryboard: 0

[Editor]
Bookmarks: 679,7440,14201,14412,20961,27722,34482,37863,44623,51384,58144,64905,71665,78426,80116,87299
DistanceSpacing: 0.9
BeatDivisor: 8
GridSize: 32
TimelineZoom: 2.2

[Metadata]
Title:Megane-Go-Round (TV Size)
TitleUnicode:メガネゴーラウンド (TV Size)
Artist:Masayoshi ga Megane o Wasureta
ArtistUnicode:マサヨシがめがねを忘れた
Creator:Slyme
Version:Hell Oni-Go-Round
Source:好きな子がめがねを忘れた
Tags:mari_0hara mari 0hara suki na ko ga megane wo wasureta the girl i like forgot her glasses sukimega gohands square enix flying dog glovision shouchiku manga jpop j-pop anime ending ed itou jazz pop japanese 小村楓 kaede komura 伊藤昌弘 masahiro ito 三重あい ai mie 若山詩音 shion wakayama オーイシマサヨシ oishi masayoshi
BeatmapID:4237029
BeatmapSetID:2028307

[Difficulty]
HPDrainRate:5.7
CircleSize:5
OverallDifficulty:6.5
ApproachRate:5
SliderMultiplier:1.4
SliderTickRate:1

[Events]
//Background and Video events
0,0,"The girl I like forgot her glasses (1).jpg",0,-100
Video,0,"output.mp4"
//Break Periods
//Storyboard Layer 0 (Background)
//Storyboard Layer 1 (Fail)
//Storyboard Layer 2 (Pass)
//Storyboard Layer 3 (Foreground)
//Storyboard Layer 4 (Overlay)
//Storyboard Sound Samples

[TimingPoints]
686,422.535211267606,4,1,0,80,1,0
686,-60.6023877340767,4,1,0,80,0,0
5756,-60.6023877340767,4,1,0,80,0,0
7024,-64.5119669698729,4,1,0,75,0,0
7164,-64.5119669698729,4,1,0,75,0,0
7446,-64.5161290322581,4,1,0,75,0,0
7657,-68.975031038764,4,1,0,70,0,0
12305,-68.975031038764,4,1,0,70,0,0
12411,-69.5071939945784,4,1,0,69,0,0
12516,-70.0476323900252,4,1,0,69,0,0
12728,-71.1541198235378,4,1,0,68,0,0
12833,-71.7154331612163,4,1,0,67,0,0
12939,-72.2961249277039,4,1,0,67,0,0
13150,-73.4753857457752,4,1,0,66,0,0
13256,-74.0795614489962,4,1,0,65,0,0
13362,-74.6881768616028,4,1,0,64,0,0
13414,-75.0018750468762,4,1,0,64,0,0
13467,-75.3182194772915,4,1,0,64,0,0
13573,-75.9532128209023,4,1,0,63,0,0
13678,-76.5990042129452,4,1,0,63,0,0
13784,-77.2558714462299,4,1,0,62,0,0
13837,-77.5915580384854,4,1,0,62,0,0
13890,-77.930174563591,4,1,0,62,0,0
13995,-78.6039930828486,4,1,0,61,0,0
14101,-79.3021411578112,4,1,0,61,0,0
17587,-60.6170818936776,4,1,0,80,0,0
17693,-61.8582209575653,4,1,0,78,0,0
17798,-63.1672035878972,4,1,0,77,0,0
17904,-64.5286184422792,4,1,0,75,0,0
18009,-65.9369642621654,4,1,0,73,0,0
18062,-66.6755567408988,4,1,0,72,0,0
18115,-67.4127005527841,4,1,0,72,0,0
18221,-60.6170818936776,4,1,0,80,0,0
18643,-80,4,1,0,70,0,0
19277,-54.054054054054,4,1,0,90,0,0
19488,-57.1428571428571,4,1,0,75,0,0
19700,-60.6060606060606,4,1,0,80,0,0
19911,-64.5161290322581,4,1,0,70,0,0
20333,-79.9808046068943,4,1,0,60,0,0
20439,-77.8937529210157,4,1,0,62,0,0
20545,-75.9186152444579,4,1,0,63,0,0
20650,-74.0576168258905,4,1,0,65,0,0
20703,-73.1528895391368,4,1,0,66,0,0
20756,-72.2647781471311,4,1,0,67,0,0
20826,-71.1338739507754,4,1,0,68,0,0
20897,-70.0182047332306,4,1,0,69,0,0
20967,-68.9655172413793,4,1,0,70,0,0
27305,-66.666666666667,4,1,0,70,0,0
27411,-65.036900369004,4,1,0,73,0,0
27516,-63.499211889214,4,1,0,75,0,0
27622,-62.018913569386,4,1,0,77,0,0
27728,-60.606060606061,4,1,0,80,0,0
27939,-80,4,1,0,60,0,0
30897,-68.975031038764,4,1,0,70,0,0
31319,-80,4,1,0,60,0,0
32798,-68.975031038764,4,1,0,70,0,0
33009,-80,4,1,0,60,0,0
33432,-68.975031038764,4,1,0,70,0,0
33643,-79.9552250739586,4,1,0,60,0,0
33749,-75.4147812971342,4,1,0,64,0,0
33855,-71.4030703320243,4,1,0,68,0,0
33907,-69.5313586427479,4,1,0,68,0,0
33960,-67.7598590594932,4,1,0,71,0,0
34066,-64.499484004128,4,1,0,75,0,0
34119,-62.9445458551017,4,1,0,77,0,0
34171,-61.5157480314961,4,1,0,79,0,0
34277,-58.7924040214004,4,1,0,83,0,0
34383,-56.3253351357441,4,1,0,86,0,0
34488,-54.054054054054,4,1,0,90,0,0
34594,-54.702984313948,4,1,0,89,0,0
34647,-55.033327636301,4,1,0,88,0,0
34700,-55.367684988823,4,1,0,88,0,0
34805,-56.042234727621,4,1,0,87,0,0
34911,-56.740088105727,4,1,0,85,0,0
35016,-57.448706512043,4,1,0,84,0,0
35122,-58.182256218756,4,1,0,83,0,0
35228,-58.934781282411,4,1,0,82,0,0
35333,-59.699647734998,4,1,0,81,0,0
35439,-60.492203644561,4,1,0,80,0,0
35492,-60.896425644582,4,1,0,79,0,0
35545,-61.306086183918,4,1,0,79,0,0
35650,-62.134173795588,4,1,0,78,0,0
35756,-62.993152918161,4,1,0,76,0,0
35862,-63.876215036699,4,1,0,75,0,0
35967,-64.775699054516,4,1,0,74,0,0
36073,-65.709815658799,4,1,0,73,0,0
36178,-66.662066109999,4,1,0,72,0,0
36284,-67.651796344282,4,1,0,71,0,0
36390,-68.671358498614,4,1,0,70,0,0
36495,-69.712058887205,4,1,0,69,0,0
36601,-70.795163063393,4,1,0,68,0,0
36812,-73.054526204341,4,1,0,65,0,0
36918,-74.244869725617,4,1,0,64,0,0
37024,-75.474646456754,4,1,0,63,0,0
37129,-76.733656366669,4,1,0,62,0,0
37182,-77.385243931747,4,1,0,61,0,0
37235,-78.047992243678,4,1,0,61,0,0
37340,-79.395085066163,4,1,0,60,0,0
37446,-80.803011292346,4,1,0,59,0,0
37552,-82.261772971132,4,1,0,57,0,0
37657,-83.75964623255,4,1,0,56,0,0
37763,-85.32815122339,4,1,0,55,0,0
37869,-86.95652173913,4,1,0,54,0,0
42939,-74.0740740740735,4,1,0,64,0,0
43784,-57.1428571428571,4,1,0,90,0,0
44101,-58.8235294117647,4,1,0,85,0,0
44418,-60.5913717886573,4,1,0,80,0,0
44629,-62.5,4,1,0,75,0,0
44840,-64.499484004128,4,1,0,75,0,0
46108,-64.516129032258,4,1,0,75,0,0
46319,-65.842018116295,4,1,0,73,0,0
46425,-66.528884952268,4,1,0,72,0,0
46531,-67.23023371457,4,1,0,71,0,0
46742,-68.671271840715,4,1,0,69,0,0
46953,-70.175438596491,4,1,0,68,0,0
47059,-70.956229663063,4,1,0,67,0,0
47164,-71.746975164509,4,1,0,66,0,0
47376,-73.398479913138,4,1,0,64,0,0
47587,-75.119457717524,4,1,0,62,0,0
47798,-76.923076923077,4,1,0,60,0,0
48009,-64.499484004128,4,1,0,75,0,0
48326,-64.5536117745788,4,1,0,75,0,0
48432,-66.6666666666667,4,1,0,70,0,0
48538,-68.9655172413793,4,1,0,65,0,0
48643,-64.499484004128,4,1,0,75,0,0
48960,-64.5161290322581,4,1,0,70,0,0
49066,-66.6666666666667,4,1,0,65,0,0
49277,-64.499484004128,4,1,0,75,0,0
49488,-68.9655172413793,4,1,0,65,0,0
49700,-64.5161290322581,4,1,0,70,0,0
50016,-62.5,4,1,0,75,0,0
50333,-60.6060606060606,4,1,0,80,0,0
50545,-58.8235294117647,4,1,0,82,0,0
50967,-57.1428571428571,4,1,0,85,0,0
51390,-54.054054054054,4,1,0,90,0,1
61636,-53.8444970923971,4,1,0,90,0,1
61742,-53.6394357131363,4,1,0,90,0,1
61795,-53.5360565340757,4,1,0,90,0,1
61847,-53.4359303195469,4,1,0,90,0,1
61953,-53.2339632685653,4,1,0,90,0,1
62059,-53.0278926715452,4,1,0,90,0,1
62164,-52.8289925511121,4,1,0,90,0,1
62217,-52.7287107830214,4,1,0,90,0,1
62270,-52.6288090100521,4,1,0,90,0,1
62323,-52.5320445471738,4,1,0,90,0,1
62376,-52.4328859060403,4,1,0,90,0,1
62481,-52.2384161312229,4,1,0,90,0,1
62587,-52.0453835744769,4,1,0,90,0,1
62640,-51.9480519480519,4,1,0,90,0,1
62693,-51.8510836876491,4,1,0,90,0,1
62798,-51.6582291559045,4,1,0,90,0,1
62904,-51.4694528797159,4,1,0,90,0,1
63009,-51.2820512820513,4,1,0,90,0,1
63062,-51.1875511875512,4,1,0,90,0,1
63115,-51.0960094016657,4,1,0,90,0,1
63221,-50.9087206638497,4,1,0,90,0,1
63326,-50.7227998985544,4,1,0,90,0,1
63432,-50.5407864146366,4,1,0,90,0,1
63485,-50.4489960649783,4,1,0,90,0,1
63538,-50.3600745329103,4,1,0,90,0,1
63643,-50.1781323699132,4,1,0,90,0,1
63749,-50,4,1,0,90,0,1
63855,-49.820645675568,4,1,0,90,0,1
63907,-49.7314501690869,4,1,0,90,0,1
63960,-49.6450379784541,4,1,0,90,0,1
64013,-49.5564695971059,4,1,0,90,0,1
64066,-49.468216670789,4,1,0,90,0,1
64171,-49.295080350981,4,1,0,90,0,1
64277,-49.1207387759112,4,1,0,90,0,1
64383,-48.9476260401371,4,1,0,90,0,1
64488,-48.7923883874116,4,1,0,90,0,1
64541,-49.3949123240306,4,1,0,90,0,1
64594,-50.0150045013504,4,1,0,90,0,1
64647,-50.6508635972243,4,1,0,90,0,1
64700,-51.2873115191302,4,1,0,90,0,1
64752,-51.9561490102354,4,1,0,90,0,1
64805,-52.6426616129712,4,1,0,90,0,1
64858,-53.3447135388883,4,1,0,90,0,1
75052,-54.0569760527596,4,1,0,90,0,1
75105,-54.1917303419498,4,1,0,90,0,1
75157,-54.3301097468217,4,1,0,90,0,1
75210,-54.4691976687183,4,1,0,90,0,1
75263,-54.608999563128,4,1,0,89,0,1
75369,-54.8907673729279,4,1,0,89,0,1
75474,-55.1724137931034,4,1,0,88,0,1
75527,-55.3158535236199,4,1,0,88,0,1
75580,-55.4631170271769,4,1,0,88,0,1
75686,-55.7506829458661,4,1,0,87,0,1
75791,-56.0443871546265,4,1,0,87,0,1
75897,-56.3412023212575,4,1,0,86,0,1
75950,-56.4876009715867,4,1,0,86,0,1
76002,-56.6379700951518,4,1,0,86,0,1
76108,-56.9411228789432,4,1,0,85,0,1
76214,-57.2475383558507,4,1,0,85,0,1
76319,-57.5539568345324,4,1,0,84,0,1
76372,-57.7100646352724,4,1,0,84,0,1
76425,-57.8703703703704,4,1,0,84,0,1
76531,-58.1835107930413,4,1,0,83,0,1
76636,-58.5034809571169,4,1,0,83,0,1
76742,-58.8269898229308,4,1,0,82,0,1
76795,-58.9900896649363,4,1,0,82,0,1
76847,-59.150597421034,4,1,0,82,0,1
76900,-59.3154991399253,4,1,0,82,0,1
76953,-59.4813228646205,4,1,0,82,0,1
77059,-59.8157674362962,4,1,0,81,0,1
77164,-60.1503759398496,4,1,0,81,0,1
77270,-60.4960677555959,4,1,0,80,0,1
77376,-60.842054027744,4,1,0,80,0,1
77481,-61.1882763262559,4,1,0,79,0,1
77587,-61.5422487537695,4,1,0,79,0,1
77640,-61.7207752129367,4,1,0,79,0,1
77693,-61.8965090368903,4,1,0,78,0,1
77745,-62.0770997578993,4,1,0,78,0,1
77798,-62.2587473540032,4,1,0,78,0,1
77904,-62.625250501002,4,1,0,77,0,1
78009,-62.992125984252,4,1,0,77,0,1
78062,-63.1791761435431,4,1,0,77,0,1
78115,-63.3713561470215,4,1,0,76,0,1
78221,-63.7470516988589,4,1,0,76,0,1
78274,-63.9386189258312,4,1,0,76,0,1
78326,-64.13134098634,4,1,0,75,0,1
78432,-64.5161290322581,4,1,0,75,0,0
78855,-74.1234897338967,4,1,0,65,0,0
79488,-74.0576168258905,4,1,0,55,0,0
79594,-72.2647781471311,4,1,0,58,0,0
79700,-70.576610911144,4,1,0,62,0,0
79805,-68.9512514652141,4,1,0,65,0,0
79911,-67.3945275643618,4,1,0,68,0,0
79964,-66.6444518493835,4,1,0,70,0,0
80016,-65.9239237919441,4,1,0,72,0,0
80756,-74.0576168258905,4,1,0,55,0,0
81812,-68.9655172413793,4,1,0,70,0,0
81918,-68.2920166632521,4,1,0,71,0,0
82024,-67.6269696354906,4,1,0,71,0,0
82076,-67.3083395032644,4,1,0,72,0,0
82129,-66.9837229553219,4,1,0,72,0,0
82235,-66.348195329087,4,1,0,73,0,0
82288,-66.0327522451136,4,1,0,73,0,0
82340,-65.720294426919,4,1,0,74,0,0
82393,-65.4193379562999,4,1,0,74,0,0
82446,-65.1126448756348,4,1,0,74,0,0
83502,-64.5119669698729,4,1,0,75,0,0
83608,-63.9181847235539,4,1,0,76,0,0
83714,-63.3392449961996,4,1,0,76,0,0
83766,-63.0556781638186,4,1,0,77,0,0
83819,-62.7746390458255,4,1,0,77,0,0
83925,-62.2122682593007,4,1,0,78,0,0
83978,-61.938680706101,4,1,0,78,0,0
84031,-61.6636862551643,4,1,0,79,0,0
84083,-61.3948919449902,4,1,0,79,0,0
84136,-61.1284308331805,4,1,0,79,0,0
85193,-60.6023877340767,4,1,0,80,0,0
85298,-60.0781015319916,4,1,0,81,0,0
85404,-59.5663569216107,4,1,0,81,0,0
85457,-59.3154991399253,4,1,0,82,0,0
85509,-59.0667454223272,4,1,0,82,0,0
85615,-58.5685838116434,4,1,0,83,0,0
85668,-58.3260425780111,4,1,0,83,0,0
85721,-58.0821281291747,4,1,0,84,0,0
85774,-57.8435909301249,4,1,0,84,0,0
85826,-57.6070050118094,4,1,0,84,0,0
86460,-57.142857142857,4,1,0,85,0,0
86566,-56.336152360658,4,1,0,86,0,0
86671,-55.559204045446,4,1,0,87,0,0
86724,-55.2486187845304,4,1,0,88,0,0
86777,-54.796295096833,4,1,0,89,0,0
86883,-54.054054054054,4,1,0,90,0,0
87305,-51.2978352313532,4,1,0,90,0,0
88573,-74.0576168258905,4,1,0,55,0,0

[HitObjects]
256,192,686,5,12,1:0:0:0:
256,192,791,1,0,1:0:0:0:
256,192,897,1,8,1:0:0:0:
256,192,950,1,8,1:0:0:0:
256,192,1002,1,0,1:0:0:0:
256,192,1108,1,8,1:0:0:0:
256,192,1161,1,8,1:0:0:0:
256,192,1214,1,8,1:0:0:0:
256,192,1319,1,0,1:0:0:0:
256,192,1425,1,0,1:0:0:0:
256,192,1478,1,0,0:0:0:0:
256,192,1531,1,8,1:0:0:0:
256,192,1636,1,0,1:0:0:0:
256,192,1742,1,8,1:0:0:0:
256,192,1847,1,0,1:0:0:0:
256,192,1953,1,8,1:0:0:0:
256,192,2059,1,8,1:0:0:0:
256,192,2164,1,0,1:0:0:0:
256,192,2376,1,8,1:0:0:0:
256,192,2481,1,0,1:0:0:0:
256,192,2587,1,8,1:0:0:0:
256,192,2640,1,8,1:0:0:0:
256,192,2693,1,0,1:0:0:0:
256,192,2798,1,8,1:0:0:0:
256,192,2851,1,8,1:0:0:0:
256,192,2904,1,8,1:0:0:0:
256,192,3009,1,0,1:0:0:0:
256,192,3115,1,0,1:0:0:0:
256,192,3168,1,0,0:0:0:0:
256,192,3221,1,8,1:0:0:0:
256,192,3326,1,0,1:0:0:0:
256,192,3432,1,8,1:0:0:0:
256,192,3538,1,0,1:0:0:0:
256,192,3643,1,8,1:0:0:0:
256,192,3749,1,8,1:0:0:0:
256,192,3855,1,0,1:0:0:0:
256,192,4066,1,0,1:0:0:0:
256,192,4171,1,8,1:0:0:0:
256,192,4277,1,0,1:0:0:0:
256,192,4330,1,0,1:0:0:0:
256,192,4383,1,8,1:0:0:0:
256,192,4488,1,0,1:0:0:0:
256,192,4541,1,0,1:0:0:0:
256,192,4594,1,0,1:0:0:0:
256,192,4700,1,8,1:0:0:0:
256,192,4805,1,8,1:0:0:0:
265,193,4858,1,8,0:0:0:0:
256,192,4911,1,0,1:0:0:0:
256,192,5016,1,8,1:0:0:0:
256,192,5122,1,8,1:0:0:0:
256,192,5228,1,0,1:0:0:0:
256,192,5333,1,8,1:0:0:0:
256,192,5439,1,0,1:0:0:0:
256,192,5545,1,0,1:0:0:0:
256,192,5650,1,0,1:0:0:0:
256,192,5756,1,12,1:0:0:0:
256,192,6073,1,4,1:0:0:0:
256,192,6390,1,4,1:0:0:0:
256,192,6601,1,12,1:0:0:0:
256,192,7024,1,12,1:0:0:0:
256,192,7164,1,0,1:0:0:0:
256,192,7305,1,0,1:0:0:0:
256,192,7446,1,12,1:0:0:0:
256,192,7657,1,0,1:0:0:0:
256,192,7763,1,0,1:0:0:0:
256,192,7869,1,8,1:0:0:0:
256,192,8080,1,0,1:0:0:0:
256,192,8186,1,0,1:0:0:0:
256,192,8291,1,8,1:0:0:0:
256,192,8397,1,0,1:0:0:0:
256,192,8502,1,8,1:0:0:0:
256,192,8608,1,8,1:0:0:0:
256,192,8714,1,0,1:0:0:0:
256,192,8819,1,0,1:0:0:0:
256,192,8925,1,8,1:0:0:0:
256,192,9031,1,8,1:0:0:0:
256,192,9136,1,0,1:0:0:0:
256,192,9347,1,8,1:0:0:0:
256,192,9453,1,0,1:0:0:0:
256,192,9559,1,8,1:0:0:0:
256,192,9770,1,0,1:0:0:0:
256,192,9876,1,8,1:0:0:0:
256,192,9981,1,0,1:0:0:0:
256,192,10087,1,8,1:0:0:0:
256,192,10193,1,8,1:0:0:0:
256,192,10298,1,0,1:0:0:0:
256,192,10404,1,8,1:0:0:0:
256,192,10509,1,0,1:0:0:0:
256,192,10615,1,8,1:0:0:0:
256,192,10721,1,8,1:0:0:0:
256,192,10826,1,0,1:0:0:0:
256,192,11038,1,8,1:0:0:0:
256,192,11143,1,0,1:0:0:0:
256,192,11249,1,8,1:0:0:0:
256,192,11355,1,8,1:0:0:0:
256,192,11460,1,0,1:0:0:0:
256,192,11566,1,0,1:0:0:0:
256,192,11671,1,8,1:0:0:0:
256,192,11777,1,0,1:0:0:0:
256,192,11883,1,8,1:0:0:0:
256,192,11988,1,8,1:0:0:0:
256,192,12094,1,0,1:0:0:0:
256,192,12200,1,0,1:0:0:0:
256,192,12305,1,8,1:0:0:0:
256,192,12411,1,8,1:0:0:0:
256,192,12516,1,0,1:0:0:0:
256,192,12728,1,8,1:0:0:0:
256,192,12833,1,0,1:0:0:0:
256,192,12939,1,8,1:0:0:0:
256,192,13150,1,8,1:0:0:0:
256,192,13256,1,0,1:0:0:0:
256,192,13362,1,8,1:0:0:0:
256,192,13467,1,0,1:0:0:0:
256,192,13573,1,8,1:0:0:0:
448,64,13679,1,8,0:0:0:0:
256,192,13784,1,0,1:0:0:0:
64,64,13890,1,0,0:0:0:0:
448,64,13996,1,8,0:0:0:0:
256,192,14101,1,0,1:0:0:0:
182,186,14207,1,12,1:0:0:0:
256,192,14418,1,0,1:0:0:0:
256,192,14524,1,0,1:0:0:0:
256,192,14629,1,8,1:0:0:0:
250,193,14735,1,8,1:0:0:0:
256,192,14840,1,0,1:0:0:0:
256,192,14946,1,0,1:0:0:0:
256,192,15052,1,8,1:0:0:0:
256,192,15263,1,0,1:0:0:0:
256,192,15369,1,0,1:0:0:0:
256,192,15474,1,8,1:0:0:0:
256,192,15686,1,8,1:0:0:0:
256,192,15791,1,0,1:0:0:0:
256,192,15897,1,8,1:0:0:0:
256,192,16108,1,8,1:0:0:0:
256,192,16319,1,0,1:0:0:0:
256,192,16425,1,0,1:0:0:0:
256,192,16531,1,8,1:0:0:0:
256,192,16742,1,8,1:0:0:0:
256,192,16953,1,0,1:0:0:0:
256,192,17164,1,8,1:0:0:0:
256,192,17270,1,8,1:0:0:0:
256,192,17376,1,0,1:0:0:0:
256,192,17587,1,12,1:0:0:0:
256,192,17798,1,8,1:0:0:0:
256,192,17904,1,0,1:0:0:0:
256,192,18009,1,8,1:0:0:0:
256,192,18221,1,12,1:0:0:0:
256,192,18643,1,8,1:0:0:0:
256,192,18855,1,0,1:0:0:0:
256,192,18960,1,0,1:0:0:0:
256,192,19066,1,0,1:0:0:0:
382,210,19277,1,12,1:0:0:0:
256,192,19488,1,4,1:0:0:0:
256,192,19700,1,12,1:0:0:0:
256,192,19911,1,4,1:0:0:0:
256,192,20333,1,0,1:0:0:0:
256,192,20439,1,0,1:0:0:0:
256,192,20545,1,8,1:0:0:0:
256,192,20650,1,8,1:0:0:0:
256,192,20756,1,0,1:0:0:0:
256,192,20826,1,0,1:0:0:0:
256,192,20897,1,0,1:0:0:0:
256,192,20967,1,8,1:0:0:0:
256,192,21178,1,0,1:0:0:0:
256,192,21284,1,0,1:0:0:0:
256,192,21390,1,8,1:0:0:0:
256,192,21601,1,0,1:0:0:0:
256,192,21707,1,0,1:0:0:0:
256,192,21812,1,8,1:0:0:0:
256,192,21918,1,0,1:0:0:0:
256,192,22024,1,8,1:0:0:0:
256,192,22129,1,8,1:0:0:0:
256,192,22235,1,0,1:0:0:0:
256,192,22340,1,0,1:0:0:0:
256,192,22446,1,8,1:0:0:0:
256,192,22552,1,8,1:0:0:0:
256,192,22657,1,0,1:0:0:0:
256,192,22869,1,8,1:0:0:0:
256,192,22974,1,0,1:0:0:0:
256,192,23080,1,8,1:0:0:0:
256,192,23291,1,0,1:0:0:0:
256,192,23397,1,0,1:0:0:0:
256,192,23502,1,8,1:0:0:0:
256,192,23608,1,8,1:0:0:0:
256,192,23714,1,0,1:0:0:0:
256,192,23819,1,0,1:0:0:0:
256,192,23925,1,8,1:0:0:0:
256,192,24031,1,0,1:0:0:0:
256,192,24136,1,8,1:0:0:0:
256,192,24242,1,8,1:0:0:0:
256,192,24347,1,4,1:0:0:0:
256,192,24559,1,8,1:0:0:0:
256,192,24664,1,0,1:0:0:0:
256,192,24770,1,8,1:0:0:0:
256,192,24876,1,0,1:0:0:0:
256,192,24981,1,8,1:0:0:0:
256,192,25087,1,8,1:0:0:0:
256,192,25193,1,0,1:0:0:0:
256,192,25298,1,0,1:0:0:0:
256,192,25404,1,8,1:0:0:0:
448,64,25510,1,8,0:0:0:0:
64,64,25616,1,0,0:0:0:0:
256,192,25721,1,0,1:0:0:0:
256,192,25826,1,8,1:0:0:0:
256,192,25932,1,8,1:0:0:0:
256,192,26038,1,0,1:0:0:0:
256,192,26249,1,8,1:0:0:0:
256,192,26355,1,0,1:0:0:0:
256,192,26460,1,8,1:0:0:0:
256,192,26671,1,8,1:0:0:0:
256,192,26777,1,0,1:0:0:0:
256,192,26883,1,8,1:0:0:0:
256,192,26988,1,0,1:0:0:0:
256,192,27094,1,8,1:0:0:0:
256,192,27200,1,8,1:0:0:0:
256,192,27305,1,0,1:0:0:0:
256,192,27411,1,8,1:0:0:0:
256,192,27516,1,0,1:0:0:0:
256,192,27622,1,0,1:0:0:0:
182,186,27728,1,12,1:0:0:0:
256,192,27939,1,0,1:0:0:0:
256,192,28045,1,0,1:0:0:0:
256,192,28150,1,8,1:0:0:0:
256,192,28256,1,8,1:0:0:0:
256,192,28362,1,0,1:0:0:0:
256,192,28467,1,0,1:0:0:0:
256,192,28573,1,8,1:0:0:0:
256,192,28784,1,8,1:0:0:0:
256,192,28890,1,0,1:0:0:0:
256,192,28995,1,8,1:0:0:0:
256,192,29207,1,0,1:0:0:0:
256,192,29312,1,0,1:0:0:0:
256,192,29418,1,8,1:0:0:0:
256,192,29629,1,8,1:0:0:0:
256,192,29840,1,0,1:0:0:0:
256,192,29946,1,0,1:0:0:0:
256,192,30052,1,8,1:0:0:0:
256,192,30263,1,8,1:0:0:0:
256,192,30474,1,0,1:0:0:0:
256,192,30580,1,8,1:0:0:0:
256,192,30686,1,0,1:0:0:0:
256,192,30897,1,8,1:0:0:0:
256,192,31002,1,8,1:0:0:0:
256,192,31108,1,8,1:0:0:0:
256,192,31319,1,0,1:0:0:0:
256,192,31425,1,0,1:0:0:0:
256,192,31531,1,8,1:0:0:0:
250,193,31636,1,8,1:0:0:0:
256,192,31742,1,0,1:0:0:0:
256,192,31847,1,0,1:0:0:0:
256,192,31953,1,8,1:0:0:0:
256,192,32164,1,8,1:0:0:0:
256,192,32270,1,0,1:0:0:0:
256,192,32376,1,8,1:0:0:0:
256,192,32587,1,0,1:0:0:0:
256,192,32693,1,8,1:0:0:0:
256,192,32798,1,4,1:0:0:0:
256,192,33009,1,8,1:0:0:0:
256,192,33221,1,8,1:0:0:0:
256,192,33326,1,0,1:0:0:0:
256,192,33432,1,12,1:0:0:0:
256,192,33643,1,0,1:0:0:0:
256,192,33749,1,0,1:0:0:0:
256,192,33855,1,8,1:0:0:0:
256,192,33960,1,8,1:0:0:0:
64,64,34066,1,0,0:0:0:0:
261,194,34171,1,0,1:0:0:0:
261,194,34277,1,8,1:0:0:0:
261,194,34488,1,8,1:0:0:0:
261,194,34594,1,0,1:0:0:0:
261,194,34647,1,0,1:0:0:0:
261,194,34700,1,8,1:0:0:0:
263,197,34805,1,8,1:0:0:0:
263,197,34911,1,0,1:0:0:0:
268,197,35016,1,0,1:0:0:0:
261,194,35122,1,8,1:0:0:0:
264,197,35228,1,0,1:0:0:0:
261,194,35333,1,8,1:0:0:0:
261,194,35439,1,0,1:0:0:0:
261,194,35492,1,0,1:0:0:0:
261,194,35545,1,8,1:0:0:0:
263,197,35650,1,8,1:0:0:0:
263,197,35756,1,0,1:0:0:0:
268,197,35862,1,0,1:0:0:0:
261,187,35967,1,8,1:0:0:0:
261,187,36073,1,0,1:0:0:0:
261,187,36178,1,8,1:0:0:0:
264,197,36284,1,0,1:0:0:0:
261,194,36390,1,0,1:0:0:0:
261,194,36495,1,0,1:0:0:0:
262,190,36601,1,12,1:0:0:0:
266,192,36812,1,0,1:0:0:0:
266,192,36918,1,0,1:0:0:0:
261,194,37024,1,8,1:0:0:0:
261,194,37129,1,0,1:0:0:0:
261,194,37182,1,0,1:0:0:0:
261,194,37235,1,8,1:0:0:0:
263,197,37340,1,0,1:0:0:0:
263,197,37446,1,0,1:0:0:0:
268,197,37552,1,8,1:0:0:0:
266,192,37657,1,8,1:0:0:0:
266,192,37763,1,0,1:0:0:0:
266,192,37869,1,12,1:0:0:0:
261,194,38080,1,0,1:0:0:0:
261,194,38291,1,8,1:0:0:0:
266,203,38502,1,0,1:0:0:0:
266,203,38714,1,8,1:0:0:0:
270,202,38925,1,8,1:0:0:0:
270,202,39031,1,0,1:0:0:0:
270,202,39136,1,0,1:0:0:0:
270,202,39347,1,8,1:0:0:0:
271,207,39559,1,0,1:0:0:0:
263,200,39770,1,0,1:0:0:0:
270,202,39981,1,8,1:0:0:0:
270,202,40087,1,8,1:0:0:0:
270,202,40193,1,0,1:0:0:0:
271,207,40404,1,8,1:0:0:0:
270,202,40615,1,0,1:0:0:0:
270,202,40826,1,0,1:0:0:0:
270,202,41038,1,0,1:0:0:0:
266,192,41249,1,8,1:0:0:0:
261,194,41460,1,0,1:0:0:0:
264,220,41566,1,0,1:0:0:0:
261,194,41671,1,8,1:0:0:0:
264,220,41777,1,8,1:0:0:0:
266,203,41883,1,0,1:0:0:0:
266,203,42094,1,8,1:0:0:0:
270,202,42305,1,8,1:0:0:0:
270,202,42411,1,0,1:0:0:0:
270,202,42516,1,8,1:0:0:0:
270,202,42728,1,0,1:0:0:0:
271,207,42939,1,8,1:0:0:0:
272,202,43045,1,8,1:0:0:0:
263,200,43150,1,0,1:0:0:0:
262,202,43256,1,0,1:0:0:0:
262,202,43362,1,8,1:0:0:0:
270,202,43573,1,0,1:0:0:0:
271,202,43784,1,12,1:0:0:0:
275,202,44101,1,12,1:0:0:0:
275,202,44418,1,12,1:0:0:0:
266,205,44629,1,4,1:0:0:0:
271,194,44840,1,8,1:0:0:0:
271,206,45052,1,8,1:0:0:0:
270,198,45263,1,0,1:0:0:0:
271,194,45369,1,0,1:0:0:0:
270,198,45474,1,8,1:0:0:0:
272,199,45580,1,8,1:0:0:0:
272,199,45686,1,0,1:0:0:0:
272,199,45791,1,0,1:0:0:0:
272,199,45897,1,8,1:0:0:0:
270,198,46108,1,8,1:0:0:0:
272,199,46319,1,0,1:0:0:0:
270,198,46425,1,0,1:0:0:0:
272,199,46531,1,8,1:0:0:0:
272,199,46742,1,8,1:0:0:0:
272,199,46953,1,0,1:0:0:0:
270,198,47059,1,8,1:0:0:0:
272,199,47164,1,0,1:0:0:0:
270,198,47376,1,8,1:0:0:0:
272,199,47587,1,8,1:0:0:0:
272,199,47798,1,0,1:0:0:0:
270,198,48009,1,12,1:0:0:0:
270,198,48326,1,8,1:0:0:0:
270,198,48432,1,8,1:0:0:0:
264,198,48538,1,0,1:0:0:0:
264,198,48643,1,12,1:0:0:0:
270,198,48960,1,8,1:0:0:0:
270,198,49066,1,0,1:0:0:0:
264,198,49277,1,12,1:0:0:0:
264,198,49488,1,8,1:0:0:0:
272,199,49700,1,4,1:0:0:0:
270,198,50016,1,4,1:0:0:0:
272,199,50333,1,4,1:0:0:0:
272,199,50545,1,4,1:0:0:0:
270,198,50967,1,12,1:0:0:0:
256,192,51390,1,12,1:0:0:0:
256,192,51601,1,8,1:0:0:0:
256,192,51707,1,0,1:0:0:0:
256,192,51812,1,8,1:0:0:0:
256,192,51865,1,8,1:0:0:0:
256,192,51918,1,0,1:0:0:0:
256,192,52024,1,8,1:0:0:0:
256,192,52129,1,0,1:0:0:0:
256,192,52235,1,0,1:0:0:0:
256,192,52288,1,0,1:0:0:0:
256,192,52340,1,8,1:0:0:0:
256,192,52446,1,0,1:0:0:0:
256,192,52657,1,8,1:0:0:0:
448,64,52710,1,8,1:0:0:0:
256,192,52763,1,0,1:0:0:0:
256,192,52869,1,8,1:0:0:0:
256,192,52974,1,0,1:0:0:0:
256,192,53080,1,8,1:0:0:0:
256,192,53133,1,8,1:0:0:0:
256,192,53186,1,0,1:0:0:0:
256,192,53291,1,8,1:0:0:0:
256,192,53397,1,0,1:0:0:0:
256,192,53502,1,0,1:0:0:0:
448,64,53555,1,0,1:0:0:0:
256,192,53608,1,8,1:0:0:0:
256,192,53714,1,0,1:0:0:0:
256,192,53925,1,8,1:0:0:0:
448,64,53978,1,8,1:0:0:0:
256,192,54031,1,0,1:0:0:0:
256,192,54136,1,8,1:0:0:0:
256,192,54242,1,0,1:0:0:0:
256,192,54347,1,8,1:0:0:0:
256,192,54453,1,0,1:0:0:0:
256,192,54559,1,8,1:0:0:0:
256,192,54612,1,0,1:0:0:0:
256,192,54664,1,0,1:0:0:0:
256,192,54770,1,8,1:0:0:0:
256,192,54823,1,8,0:0:0:0:
256,192,54876,1,8,0:0:0:0:
256,192,54981,1,0,1:0:0:0:
256,192,55087,1,0,1:0:0:0:
256,192,55193,1,8,1:0:0:0:
448,64,55245,1,8,1:0:0:0:
256,192,55298,1,0,1:0:0:0:
256,192,55404,1,8,1:0:0:0:
64,64,55457,1,8,1:0:0:0:
256,192,55509,1,8,1:0:0:0:
256,192,55615,1,0,1:0:0:0:
256,192,55721,1,0,1:0:0:0:
256,192,55826,1,8,1:0:0:0:
256,192,55879,1,8,1:0:0:0:
256,192,55932,1,0,1:0:0:0:
256,192,56038,1,8,1:0:0:0:
256,192,56143,1,0,1:0:0:0:
256,192,56249,1,0,1:0:0:0:
256,192,56302,1,0,1:0:0:0:
256,192,56355,1,8,1:0:0:0:
256,192,56460,1,0,1:0:0:0:
256,192,56671,1,8,1:0:0:0:
256,192,56777,1,8,1:0:0:0:
256,192,56883,1,0,1:0:0:0:
256,192,56988,1,0,1:0:0:0:
256,192,57094,1,8,1:0:0:0:
448,64,57147,1,8,1:0:0:0:
256,192,57200,1,0,1:0:0:0:
256,192,57305,1,8,1:0:0:0:
256,192,57358,1,8,1:0:0:0:
256,192,57411,1,8,1:0:0:0:
256,192,57516,1,0,1:0:0:0:
256,192,57622,1,8,1:0:0:0:
256,192,57728,1,0,1:0:0:0:
256,192,57781,1,0,0:0:0:0:
256,192,57833,1,8,1:0:0:0:
256,192,57939,1,0,1:0:0:0:
256,192,58045,1,8,1:0:0:0:
256,192,58150,1,4,1:0:0:0:
256,192,58362,1,8,1:0:0:0:
256,192,58467,1,0,1:0:0:0:
256,192,58573,1,8,1:0:0:0:
256,192,58626,1,8,1:0:0:0:
256,192,58678,1,0,1:0:0:0:
256,192,58784,1,8,1:0:0:0:
256,192,58890,1,0,1:0:0:0:
256,192,58995,1,8,1:0:0:0:
256,192,59048,1,0,1:0:0:0:
256,192,59101,1,0,1:0:0:0:
256,192,59207,1,8,1:0:0:0:
448,64,59418,1,0,1:0:0:0:
64,64,59471,1,0,1:0:0:0:
256,192,59524,1,8,1:0:0:0:
256,192,59629,1,8,1:0:0:0:
256,192,59735,1,0,1:0:0:0:
256,192,59840,1,8,1:0:0:0:
256,192,59893,1,0,1:0:0:0:
256,192,59946,1,0,1:0:0:0:
256,192,60052,1,8,1:0:0:0:
256,192,60157,1,0,1:0:0:0:
256,192,60263,1,0,1:0:0:0:
256,192,60316,1,0,1:0:0:0:
256,192,60369,1,8,1:0:0:0:
256,192,60474,1,8,1:0:0:0:
256,192,60686,1,8,1:0:0:0:
64,64,60738,1,8,1:0:0:0:
64,64,60791,1,0,1:0:0:0:
448,64,60897,1,8,1:0:0:0:
256,192,61002,1,0,1:0:0:0:
256,192,61108,1,8,1:0:0:0:
256,192,61161,1,0,1:0:0:0:
256,192,61214,1,0,1:0:0:0:
256,192,61319,1,8,1:0:0:0:
256,192,61425,1,0,1:0:0:0:
256,192,61531,1,8,1:0:0:0:
256,192,61742,1,0,1:0:0:0:
256,192,61847,1,0,1:0:0:0:
256,192,61953,1,8,1:0:0:0:
256,192,62006,1,8,0:0:0:0:
256,192,62059,1,0,1:0:0:0:
256,192,62164,1,8,1:0:0:0:
256,192,62270,1,0,1:0:0:0:
256,192,62376,1,8,1:0:0:0:
256,192,62587,1,0,1:0:0:0:
256,192,62693,1,0,1:0:0:0:
256,192,62798,1,8,1:0:0:0:
256,192,62851,1,8,1:0:0:0:
256,192,62904,1,0,1:0:0:0:
256,192,63009,1,8,1:0:0:0:
256,192,63115,1,0,1:0:0:0:
256,192,63221,1,8,1:0:0:0:
256,192,63432,1,0,1:0:0:0:
256,192,63538,1,8,1:0:0:0:
256,192,63643,1,0,1:0:0:0:
256,192,63696,1,0,0:0:0:0:
256,192,63749,1,8,1:0:0:0:
256,192,63855,1,0,1:0:0:0:
256,192,63960,1,0,1:0:0:0:
256,192,64066,1,8,1:0:0:0:
256,192,64171,1,8,1:0:0:0:
256,192,64277,1,0,1:0:0:0:
256,192,64383,1,0,1:0:0:0:
256,192,64488,1,8,1:0:0:0:
256,192,64541,1,8,1:0:0:0:
256,192,64594,1,0,1:0:0:0:
256,192,64647,1,0,1:0:0:0:
256,192,64700,1,8,1:0:0:0:
256,192,64805,1,0,1:0:0:0:
256,192,64911,1,12,1:0:0:0:
256,192,65122,1,8,1:0:0:0:
256,192,65228,1,0,1:0:0:0:
256,192,65333,1,8,1:0:0:0:
256,192,65386,1,8,1:0:0:0:
256,192,65439,1,0,1:0:0:0:
256,192,65545,1,8,1:0:0:0:
256,192,65650,1,0,1:0:0:0:
256,192,65756,1,8,1:0:0:0:
256,192,65809,1,0,1:0:0:0:
256,192,65862,1,0,1:0:0:0:
256,192,65967,1,8,1:0:0:0:
256,192,66178,1,8,1:0:0:0:
448,64,66231,1,8,1:0:0:0:
256,192,66284,1,0,1:0:0:0:
256,192,66390,1,8,1:0:0:0:
256,192,66495,1,0,1:0:0:0:
256,192,66601,1,0,1:0:0:0:
256,192,66654,1,0,1:0:0:0:
256,192,66707,1,8,1:0:0:0:
256,192,66812,1,8,1:0:0:0:
256,192,66918,1,0,1:0:0:0:
256,192,67024,1,8,1:0:0:0:
256,192,67076,1,8,1:0:0:0:
256,192,67129,1,0,1:0:0:0:
256,192,67235,1,8,1:0:0:0:
256,192,67446,1,8,1:0:0:0:
448,64,67499,1,0,1:0:0:0:
256,192,67552,1,0,1:0:0:0:
256,192,67657,1,8,1:0:0:0:
256,192,67763,1,0,1:0:0:0:
256,192,67869,1,8,1:0:0:0:
256,192,67974,1,0,1:0:0:0:
256,192,68080,1,8,1:0:0:0:
256,192,68133,1,8,1:0:0:0:
256,192,68186,1,8,1:0:0:0:
256,192,68291,1,0,1:0:0:0:
256,192,68344,1,0,0:0:0:0:
256,192,68397,1,0,0:0:0:0:
256,192,68502,1,8,1:0:0:0:
256,192,68608,1,0,1:0:0:0:
256,192,68714,1,8,1:0:0:0:
256,192,68819,1,8,1:0:0:0:
256,192,68925,1,0,1:0:0:0:
256,192,68978,1,0,1:0:0:0:
256,192,69031,1,8,1:0:0:0:
256,192,69136,1,0,1:0:0:0:
256,192,69347,1,8,1:0:0:0:
256,192,69400,1,8,1:0:0:0:
256,192,69453,1,0,1:0:0:0:
256,192,69559,1,8,1:0:0:0:
256,192,69664,1,0,1:0:0:0:
256,192,69770,1,8,1:0:0:0:
256,192,69981,1,0,1:0:0:0:
260,197,70034,1,0,0:0:0:0:
260,197,70087,1,0,0:0:0:0:
256,192,70193,1,8,1:0:0:0:
256,192,70298,1,8,1:0:0:0:
256,192,70404,1,0,1:0:0:0:
64,64,70457,1,0,1:0:0:0:
448,64,70509,1,8,1:0:0:0:
64,64,70615,1,0,1:0:0:0:
256,192,70721,1,0,1:0:0:0:
256,192,70826,1,8,1:0:0:0:
256,192,70879,1,8,1:0:0:0:
256,192,70932,1,0,1:0:0:0:
256,192,71038,1,8,1:0:0:0:
256,192,71143,1,8,1:0:0:0:
256,192,71249,1,0,1:0:0:0:
64,64,71302,1,0,1:0:0:0:
256,192,71355,1,8,1:0:0:0:
256,192,71460,1,0,1:0:0:0:
256,192,71566,1,8,1:0:0:0:
256,192,71671,1,4,1:0:0:0:
256,192,71883,1,8,1:0:0:0:
256,192,71988,1,0,1:0:0:0:
256,192,72094,1,8,1:0:0:0:
256,192,72147,1,8,1:0:0:0:
256,192,72200,1,0,1:0:0:0:
256,192,72305,1,8,1:0:0:0:
256,192,72411,1,0,1:0:0:0:
448,64,72516,1,8,1:0:0:0:
64,64,72569,1,0,1:0:0:0:
256,192,72622,1,0,1:0:0:0:
256,192,72728,1,8,1:0:0:0:
256,192,72939,1,8,1:0:0:0:
256,192,72992,1,8,1:0:0:0:
256,192,73045,1,0,1:0:0:0:
256,192,73150,1,8,1:0:0:0:
256,192,73256,1,0,1:0:0:0:
256,192,73362,1,0,1:0:0:0:
448,64,73414,1,0,1:0:0:0:
256,192,73467,1,8,1:0:0:0:
256,192,73573,1,0,1:0:0:0:
256,192,73784,1,8,1:0:0:0:
256,192,73890,1,0,1:0:0:0:
256,192,73995,1,8,1:0:0:0:
448,64,74048,1,8,1:0:0:0:
256,192,74101,1,0,1:0:0:0:
256,192,74207,1,8,1:0:0:0:
448,64,74259,1,8,1:0:0:0:
256,192,74312,1,8,1:0:0:0:
256,192,74418,1,0,1:0:0:0:
256,192,74524,1,8,1:0:0:0:
256,192,74629,1,0,1:0:0:0:
256,192,74735,1,8,1:0:0:0:
256,192,74840,1,0,1:0:0:0:
256,192,74946,1,0,1:0:0:0:
256,192,75052,1,8,1:0:0:0:
256,192,75263,1,0,1:0:0:0:
256,192,75369,1,0,1:0:0:0:
256,192,75474,1,8,1:0:0:0:
64,64,75527,1,8,1:0:0:0:
448,64,75580,1,0,1:0:0:0:
64,64,75686,1,8,1:0:0:0:
256,192,75791,1,0,1:0:0:0:
256,192,75897,1,0,1:0:0:0:
448,64,75950,1,0,1:0:0:0:
64,64,76002,1,8,1:0:0:0:
448,64,76108,1,0,1:0:0:0:
256,192,76214,1,8,1:0:0:0:
256,192,76319,1,8,1:0:0:0:
64,64,76372,1,8,1:0:0:0:
256,192,76425,1,0,1:0:0:0:
256,192,76531,1,8,1:0:0:0:
256,192,76636,1,0,1:0:0:0:
256,192,76742,1,8,1:0:0:0:
256,192,76953,1,0,1:0:0:0:
256,192,77059,1,0,1:0:0:0:
256,192,77164,1,8,1:0:0:0:
256,192,77270,1,0,1:0:0:0:
256,192,77376,1,8,1:0:0:0:
256,192,77481,1,8,1:0:0:0:
256,192,77587,1,0,1:0:0:0:
256,192,77640,1,0,1:0:0:0:
256,192,77693,1,0,1:0:0:0:
256,192,77798,1,8,1:0:0:0:
256,192,77904,1,8,1:0:0:0:
256,192,78009,1,0,1:0:0:0:
256,192,78062,1,0,1:0:0:0:
256,192,78115,1,8,1:0:0:0:
256,192,78221,1,8,1:0:0:0:
256,192,78326,1,0,1:0:0:0:
256,192,78432,1,12,1:0:0:0:
256,192,78855,1,8,1:0:0:0:
256,192,78960,1,0,1:0:0:0:
256,192,79066,1,0,1:0:0:0:
256,192,79277,1,8,1:0:0:0:
256,192,79488,1,0,1:0:0:0:
256,192,79594,1,0,1:0:0:0:
256,192,79700,1,8,1:0:0:0:
256,192,79805,1,8,1:0:0:0:
256,192,79911,1,0,1:0:0:0:
256,192,79964,1,0,1:0:0:0:
256,192,80016,1,0,1:0:0:0:
256,192,80122,1,8,1:0:0:0:
256,192,80756,1,0,1:0:0:0:
256,192,80967,1,8,1:0:0:0:
256,192,81812,1,12,1:0:0:0:
256,192,81918,1,0,1:0:0:0:
256,192,82024,1,8,1:0:0:0:
256,192,82076,1,8,1:0:0:0:
256,192,82129,1,0,1:0:0:0:
256,192,82235,1,8,1:0:0:0:
256,192,82288,1,0,1:0:0:0:
256,192,82340,1,0,1:0:0:0:
256,192,82446,1,8,1:0:0:0:
256,192,82552,1,8,1:0:0:0:
256,192,82605,1,8,0:0:0:0:
256,192,82657,1,0,1:0:0:0:
256,192,82763,1,8,1:0:0:0:
256,192,82869,1,8,1:0:0:0:
256,192,82974,1,0,1:0:0:0:
256,192,83080,1,8,1:0:0:0:
256,192,83186,1,8,1:0:0:0:
256,192,83291,1,0,1:0:0:0:
256,192,83502,1,12,1:0:0:0:
256,192,83608,1,0,1:0:0:0:
256,192,83714,1,8,1:0:0:0:
256,192,83766,1,8,1:0:0:0:
256,192,83819,1,0,1:0:0:0:
256,192,83925,1,8,1:0:0:0:
256,192,83978,1,8,1:0:0:0:
256,192,84031,1,8,1:0:0:0:
256,192,84136,1,0,1:0:0:0:
256,192,84242,1,8,1:0:0:0:
256,192,84295,1,8,0:0:0:0:
256,192,84347,1,0,1:0:0:0:
256,192,84453,1,8,1:0:0:0:
256,192,84559,1,8,1:0:0:0:
256,192,84664,1,0,1:0:0:0:
256,192,84770,1,8,1:0:0:0:
256,192,84876,1,8,1:0:0:0:
256,192,84981,1,0,1:0:0:0:
256,192,85193,1,12,1:0:0:0:
256,192,85298,1,0,1:0:0:0:
256,192,85404,1,8,1:0:0:0:
256,192,85457,1,8,1:0:0:0:
256,192,85509,1,0,1:0:0:0:
256,192,85615,1,8,1:0:0:0:
256,192,85668,1,8,1:0:0:0:
256,192,85721,1,8,1:0:0:0:
256,192,85826,1,8,1:0:0:0:
256,192,85932,1,0,1:0:0:0:
256,202,85985,1,0,0:0:0:0:
256,192,86038,1,8,1:0:0:0:
256,192,86143,1,0,1:0:0:0:
256,192,86249,1,8,1:0:0:0:
256,192,86355,1,0,1:0:0:0:
256,192,86460,1,8,1:0:0:0:
256,192,86566,1,0,1:0:0:0:
256,192,86671,1,8,1:0:0:0:
260,197,86724,1,8,0:0:0:0:
256,192,86777,1,8,1:0:0:0:
256,192,86883,1,0,1:0:0:0:
256,192,87305,1,12,1:0:0:0:
256,192,88573,1,8,1:0:0:0:
256,192,88643,1,8,1:0:0:0:
256,192,88714,1,0,1:0:0:0:
