osu file format v14

[General]
AudioFilename: audio.mp3
AudioLeadIn: 0
PreviewTime: 51331
Countdown: 0
SampleSet: Normal
StackLeniency: 0.7
Mode: 1
LetterboxInBreaks: 0
WidescreenStoryboard: 0

[Editor]
Bookmarks: 679,7440,14201,14412,20961,27722,34482,37863,44623,51384,58144,64905,71665,78426,80116,87299
DistanceSpacing: 0.9
BeatDivisor: 4
GridSize: 32
TimelineZoom: 2.2

[Metadata]
Title:Megane-Go-Round (TV Size)
TitleUnicode:メガネゴーラウンド (TV Size)
Artist:Masayoshi ga Megane o Wasureta
ArtistUnicode:マサヨシがめがねを忘れた
Creator:Slyme
Version:Futsuu-Go-Round
Source:好きな子がめがねを忘れた
Tags:mari_0hara mari 0hara suki na ko ga megane wo wasureta the girl i like forgot her glasses sukimega gohands square enix flying dog glovision shouchiku manga jpop j-pop anime ending ed itou jazz pop japanese 小村楓 kaede komura 伊藤昌弘 masahiro ito 三重あい ai mie 若山詩音 shion wakayama オーイシマサヨシ oishi masayoshi
BeatmapID:4238061
BeatmapSetID:2028307

[Difficulty]
HPDrainRate:7
CircleSize:5
OverallDifficulty:4
ApproachRate:5
SliderMultiplier:1.4
SliderTickRate:1

[Events]
//Background and Video events
0,0,"The girl I like forgot her glasses (1).jpg",0,-100
Video,0,"output.mp4"
//Break Periods
//Storyboard Layer 0 (Background)
//Storyboard Layer 1 (Fail)
//Storyboard Layer 2 (Pass)
//Storyboard Layer 3 (Foreground)
//Storyboard Layer 4 (Overlay)
//Storyboard Sound Samples

[TimingPoints]
686,422.535211267606,4,1,0,70,1,0
897,-100,4,1,0,71,0,0
1108,-100,4,1,0,73,0,0
1425,-100,4,1,0,74,0,0
2376,-100,4,1,0,75,0,0
2587,-100,4,1,0,76,0,0
2798,-100,4,1,0,78,0,0
3115,-100,4,1,0,79,0,0
4066,-100,4,1,0,80,0,0
4277,-100,4,1,0,81,0,0
4488,-100,4,1,0,83,0,0
4805,-100,4,1,0,84,0,0
5333,-100,4,1,0,85,0,0
5756,-100,4,1,0,90,0,0
7446,-100,4,1,0,70,0,0
12728,-100,4,1,0,68,0,0
12939,-100,4,1,0,67,0,0
13150,-100,4,1,0,66,0,0
13362,-100,4,1,0,64,0,0
14207,-100,4,1,0,61,0,0
17587,-100,4,1,0,80,0,0
18009,-100,4,1,0,73,0,0
18221,-100,4,1,0,80,0,0
19277,-100,4,1,0,90,0,0
19488,-100,4,1,0,75,0,0
19700,-100,4,1,0,80,0,0
19911,-100,4,1,0,70,0,0
20333,-100,4,1,0,60,0,0
20545,-100,4,1,0,63,0,0
20967,-100,4,1,0,69,0,0
25826,-100,4,1,0,70,0,0
26249,-100,4,1,0,68,0,0
26460,-100,4,1,0,67,0,0
26671,-100,4,1,0,66,0,0
26883,-100,4,1,0,64,0,0
27728,-100,4,1,0,66,0,0
28150,-100,4,1,0,60,0,0
29418,-100,4,1,0,70,0,0
29840,-100,4,1,0,60,0,0
30052,-100,4,1,0,70,0,0
30474,-100,4,1,0,60,0,0
30897,-100,4,1,0,70,0,0
31531,-100,4,1,0,60,0,0
32798,-100,4,1,0,70,0,0
33221,-100,4,1,0,60,0,0
33432,-100,4,1,0,70,0,0
34488,-100,4,1,0,90,0,0
34805,-100,4,1,0,88,0,0
35122,-100,4,1,0,85,0,0
35333,-100,4,1,0,84,0,0
35650,-100,4,1,0,82,0,0
36178,-100,4,1,0,78,0,0
36601,-100,4,1,0,75,0,0
36812,-100,4,1,0,73,0,0
37024,-100,4,1,0,72,0,0
37869,-100,4,1,0,57,0,0
42939,-100,4,1,0,65,0,0
43784,-100,4,1,0,80,0,0
44101,-100,4,1,0,70,0,0
44418,-100,4,1,0,75,0,0
44629,-100,4,1,0,70,0,0
46319,-100,4,1,0,68,0,0
46531,-100,4,1,0,66,0,0
46742,-100,4,1,0,64,0,0
47164,-100,4,1,0,61,0,0
47376,-100,4,1,0,59,0,0
47587,-100,4,1,0,57,0,0
48009,-100,4,1,0,75,0,0
49700,-100,4,1,0,80,0,0
50545,-100,4,1,0,65,0,0
50967,-100,4,1,0,80,0,0
51390,-100,4,1,0,90,0,1
75474,-100,4,1,0,88,0,1
75686,-100,4,1,0,87,0,1
75897,-100,4,1,0,86,0,1
76319,-100,4,1,0,84,0,1
76531,-100,4,1,0,83,0,1
76742,-100,4,1,0,82,0,1
77164,-100,4,1,0,81,0,1
77587,-100,4,1,0,79,0,1
78432,-100,4,1,0,75,0,0
78855,-100,4,1,0,65,0,0
79700,-100,4,1,0,62,0,0
79911,-100,4,1,0,68,0,0
80122,-100,4,1,0,72,0,0
80756,-100,4,1,0,55,0,0
81812,-100,4,1,0,70,0,0
82024,-100,4,1,0,71,0,0
82235,-100,4,1,0,73,0,0
82552,-100,4,1,0,74,0,0
83502,-100,4,1,0,75,0,0
83714,-100,4,1,0,76,0,0
83925,-100,4,1,0,78,0,0
84242,-100,4,1,0,79,0,0
85193,-100,4,1,0,80,0,0
85404,-100,4,1,0,81,0,0
85615,-100,4,1,0,83,0,0
85932,-100,4,1,0,84,0,0
86460,-100,4,1,0,85,0,0
86671,-100,4,1,0,82,0,0
86883,-100,4,1,0,80,0,0
87305,-100,4,1,0,85,0,0
88573,-100,4,1,0,55,0,0

[HitObjects]
256,192,686,5,12,1:0:0:0:
256,192,897,1,0,1:0:0:0:
64,64,1108,1,0,1:0:0:0:
256,192,1425,1,8,1:0:0:0:
256,192,1742,1,0,1:0:0:0:
256,192,1953,1,8,1:0:0:0:
64,64,2376,1,0,1:0:0:0:
256,192,2587,1,8,1:0:0:0:
64,64,2798,1,0,1:0:0:0:
256,192,3115,1,8,1:0:0:0:
256,192,3432,1,0,1:0:0:0:
256,192,3643,1,8,1:0:0:0:
64,64,4066,1,0,1:0:0:0:
64,64,4277,1,0,1:0:0:0:
448,64,4488,1,8,1:0:0:0:
64,64,4805,1,0,1:0:0:0:
256,192,5122,1,0,1:0:0:0:
256,192,5333,1,8,1:0:0:0:
256,192,5756,1,4,1:0:0:0:
256,192,6073,1,12,1:0:0:0:
64,320,6390,1,12,1:0:0:0:
256,192,6601,1,4,1:0:0:0:
256,192,7446,1,12,1:0:0:0:
256,192,7869,1,0,1:0:0:0:
256,192,8291,1,8,1:0:0:0:
448,64,8502,1,8,1:0:0:0:
64,64,8714,1,0,1:0:0:0:
256,192,8925,1,8,1:0:0:0:
256,192,9347,1,8,1:0:0:0:
448,64,9559,1,8,1:0:0:0:
256,192,9981,1,8,1:0:0:0:
64,64,10193,1,0,1:0:0:0:
64,64,10404,1,0,1:0:0:0:
256,192,10615,1,8,1:0:0:0:
256,192,11038,1,8,1:0:0:0:
256,192,11249,1,0,1:0:0:0:
256,192,11671,1,8,1:0:0:0:
64,64,11883,1,0,1:0:0:0:
64,64,12094,1,0,1:0:0:0:
256,192,12305,1,8,1:0:0:0:
256,192,12728,1,8,1:0:0:0:
256,192,12939,1,8,1:0:0:0:
64,64,13150,1,0,1:0:0:0:
256,192,13362,1,8,1:0:0:0:
182,186,14207,1,12,1:0:0:0:
64,64,14418,1,0,1:0:0:0:
256,192,14629,1,8,1:0:0:0:
256,192,15052,1,8,1:0:0:0:
64,64,15263,1,0,1:0:0:0:
256,192,15474,1,8,1:0:0:0:
256,192,15897,1,8,1:0:0:0:
256,192,16319,1,0,1:0:0:0:
256,192,16531,1,8,1:0:0:0:
256,192,17164,1,8,1:0:0:0:
64,64,17376,1,0,1:0:0:0:
256,192,17587,1,12,1:0:0:0:
64,64,18009,1,0,1:0:0:0:
256,192,18221,1,12,1:0:0:0:
382,210,19277,1,12,1:0:0:0:
256,192,19488,1,12,1:0:0:0:
256,192,19700,1,12,1:0:0:0:
256,192,19911,1,12,1:0:0:0:
64,64,20333,1,0,1:0:0:0:
256,192,20545,1,8,1:0:0:0:
256,192,20967,1,0,1:0:0:0:
256,192,21390,1,8,1:0:0:0:
256,192,21812,1,8,1:0:0:0:
256,192,22024,1,8,1:0:0:0:
64,64,22235,1,0,1:0:0:0:
256,192,22446,1,8,1:0:0:0:
256,192,22869,1,0,1:0:0:0:
256,192,23080,1,8,1:0:0:0:
256,192,23502,1,8,1:0:0:0:
256,192,23714,1,0,1:0:0:0:
64,64,24136,1,0,1:0:0:0:
448,320,24347,1,12,1:0:0:0:
64,64,24559,1,0,1:0:0:0:
256,192,24981,1,8,1:0:0:0:
256,192,25404,1,8,1:0:0:0:
64,64,25615,1,0,1:0:0:0:
256,192,25826,1,8,1:0:0:0:
64,64,26249,1,0,1:0:0:0:
256,192,26460,1,8,1:0:0:0:
64,64,26671,1,0,1:0:0:0:
256,192,26883,1,8,1:0:0:0:
182,186,27728,1,4,1:0:0:0:
256,192,28150,1,8,1:0:0:0:
256,192,28573,1,8,1:0:0:0:
256,192,28995,1,8,1:0:0:0:
256,192,29207,1,0,1:0:0:0:
256,192,29418,1,8,1:0:0:0:
256,192,29840,1,0,1:0:0:0:
256,192,30052,1,8,1:0:0:0:
256,192,30474,1,0,1:0:0:0:
256,192,30686,1,0,1:0:0:0:
256,192,30897,1,12,1:0:0:0:
256,192,31531,1,0,1:0:0:0:
256,192,31953,1,8,1:0:0:0:
256,192,32376,1,8,1:0:0:0:
448,64,32587,1,8,1:0:0:0:
256,192,32798,1,4,1:0:0:0:
64,64,33221,1,0,1:0:0:0:
256,192,33432,1,12,1:0:0:0:
448,320,34488,1,4,1:0:0:0:
261,194,34805,1,8,1:0:0:0:
263,197,35122,1,0,1:0:0:0:
261,194,35333,1,8,1:0:0:0:
263,197,35650,1,8,1:0:0:0:
261,187,36178,1,0,1:0:0:0:
262,190,36601,1,12,1:0:0:0:
266,192,36812,1,0,1:0:0:0:
261,194,37024,1,8,1:0:0:0:
262,190,37340,1,8,0:0:0:0:
266,192,37869,1,4,1:0:0:0:
448,64,38291,1,8,1:0:0:0:
270,202,38714,1,0,1:0:0:0:
270,202,38925,1,8,1:0:0:0:
64,64,39559,1,0,1:0:0:0:
270,202,39981,1,8,1:0:0:0:
271,207,40404,1,8,1:0:0:0:
270,202,40615,1,0,1:0:0:0:
270,202,40826,1,0,1:0:0:0:
266,192,41249,1,8,1:0:0:0:
261,194,41671,1,8,1:0:0:0:
297,196,41883,1,0,0:0:0:0:
266,203,42094,1,8,1:0:0:0:
64,64,42305,1,0,1:0:0:0:
271,207,42939,1,8,1:0:0:0:
271,202,43784,1,12,1:0:0:0:
275,202,44101,1,12,1:0:0:0:
275,202,44418,1,12,1:0:0:0:
266,205,44629,1,4,1:0:0:0:
448,64,45263,1,8,1:0:0:0:
64,64,45474,1,0,1:0:0:0:
448,64,45897,1,8,1:0:0:0:
272,199,46319,1,0,1:0:0:0:
64,64,46531,1,0,1:0:0:0:
448,64,46742,1,8,1:0:0:0:
448,64,47164,1,8,1:0:0:0:
64,64,47376,1,0,1:0:0:0:
64,64,47587,1,0,1:0:0:0:
270,198,48009,1,12,1:0:0:0:
64,320,48643,1,4,1:0:0:0:
264,198,49277,1,12,1:0:0:0:
272,199,49700,1,4,1:0:0:0:
272,199,50545,1,4,1:0:0:0:
270,198,50967,1,12,1:0:0:0:
256,192,51390,1,12,1:0:0:0:
64,64,51601,1,0,1:0:0:0:
64,64,51812,1,0,1:0:0:0:
256,192,52024,1,0,1:0:0:0:
256,192,52235,1,8,1:0:0:0:
256,192,52657,1,8,1:0:0:0:
64,64,52869,1,0,1:0:0:0:
64,64,53080,1,0,1:0:0:0:
256,192,53291,1,0,1:0:0:0:
256,192,53502,1,8,1:0:0:0:
256,192,53925,1,8,1:0:0:0:
64,64,54136,1,8,1:0:0:0:
64,64,54347,1,0,1:0:0:0:
64,64,54559,1,0,1:0:0:0:
256,192,54770,1,8,1:0:0:0:
256,192,55193,1,8,1:0:0:0:
64,64,55404,1,0,1:0:0:0:
256,192,55826,1,8,1:0:0:0:
256,192,56038,1,8,1:0:0:0:
64,64,56249,1,0,1:0:0:0:
256,192,56671,1,8,1:0:0:0:
256,192,56883,1,0,1:0:0:0:
256,192,57094,1,8,1:0:0:0:
64,64,57305,1,0,1:0:0:0:
256,192,58150,1,12,1:0:0:0:
256,192,58362,1,0,1:0:0:0:
256,192,58573,1,0,1:0:0:0:
64,64,58784,1,0,1:0:0:0:
256,192,58995,1,8,1:0:0:0:
448,64,59418,1,8,1:0:0:0:
64,64,59629,1,0,1:0:0:0:
64,64,59840,1,0,1:0:0:0:
256,192,60052,1,0,1:0:0:0:
64,64,60263,1,8,1:0:0:0:
256,192,60686,1,8,1:0:0:0:
64,64,60897,1,0,1:0:0:0:
64,64,61108,1,0,1:0:0:0:
256,192,61319,1,8,1:0:0:0:
64,320,61531,1,0,1:0:0:0:
256,192,61953,1,8,1:0:0:0:
448,64,62164,1,8,1:0:0:0:
64,320,62376,1,0,1:0:0:0:
64,64,62798,1,0,1:0:0:0:
64,64,63009,1,0,1:0:0:0:
448,320,63221,1,8,1:0:0:0:
256,192,63643,1,8,1:0:0:0:
448,64,63855,1,8,1:0:0:0:
64,64,64066,1,0,1:0:0:0:
256,192,64911,1,12,1:0:0:0:
64,64,65122,1,0,1:0:0:0:
64,64,65333,1,0,1:0:0:0:
256,192,65545,1,0,1:0:0:0:
256,192,65756,1,8,1:0:0:0:
256,192,66178,1,8,1:0:0:0:
64,64,66390,1,0,1:0:0:0:
64,64,66601,1,0,1:0:0:0:
256,192,66812,1,0,1:0:0:0:
256,192,67024,1,8,1:0:0:0:
256,192,67446,1,8,1:0:0:0:
64,64,67657,1,0,1:0:0:0:
64,64,67869,1,8,1:0:0:0:
64,64,68080,1,8,1:0:0:0:
256,192,68291,1,0,1:0:0:0:
256,192,68714,1,8,1:0:0:0:
256,192,68925,1,0,1:0:0:0:
256,192,69347,1,8,1:0:0:0:
256,192,69559,1,8,1:0:0:0:
64,64,69770,1,0,1:0:0:0:
256,192,69981,1,8,1:0:0:0:
64,64,70404,1,0,1:0:0:0:
448,64,70615,1,8,1:0:0:0:
64,64,70826,1,0,1:0:0:0:
448,320,71671,1,12,1:0:0:0:
256,192,72094,1,0,1:0:0:0:
256,192,72305,1,8,1:0:0:0:
64,64,72516,1,0,1:0:0:0:
64,64,72939,1,0,1:0:0:0:
64,64,73150,1,0,1:0:0:0:
448,64,73362,1,8,1:0:0:0:
256,192,73573,1,8,1:0:0:0:
256,192,73784,1,0,1:0:0:0:
256,192,74207,1,8,1:0:0:0:
64,64,74418,1,0,1:0:0:0:
256,192,74629,1,0,1:0:0:0:
256,192,74840,1,0,1:0:0:0:
448,320,75052,1,12,1:0:0:0:
256,192,75474,1,0,1:0:0:0:
64,64,75686,1,0,1:0:0:0:
256,192,75897,1,8,1:0:0:0:
64,64,76319,1,0,1:0:0:0:
256,192,76531,1,8,1:0:0:0:
64,64,76742,1,0,1:0:0:0:
256,192,76953,1,8,1:0:0:0:
64,64,77164,1,0,1:0:0:0:
256,192,77587,1,8,1:0:0:0:
256,192,78432,1,4,1:0:0:0:
256,192,78855,1,8,1:0:0:0:
256,192,79277,1,0,1:0:0:0:
256,192,79700,1,8,1:0:0:0:
448,64,79911,1,8,1:0:0:0:
64,64,80122,1,0,1:0:0:0:
64,64,80756,1,0,1:0:0:0:
256,192,80967,1,8,1:0:0:0:
256,192,81812,1,4,1:0:0:0:
256,192,82024,1,8,1:0:0:0:
64,64,82235,1,0,1:0:0:0:
448,64,82552,1,8,1:0:0:0:
256,192,82869,1,0,1:0:0:0:
256,192,83080,1,8,1:0:0:0:
256,192,83502,1,12,1:0:0:0:
64,64,83714,1,0,1:0:0:0:
256,192,83925,1,8,1:0:0:0:
256,192,84242,1,0,1:0:0:0:
448,64,84559,1,8,1:0:0:0:
64,64,84770,1,0,1:0:0:0:
64,320,85193,1,4,1:0:0:0:
64,64,85404,1,8,1:0:0:0:
256,192,85615,1,0,1:0:0:0:
256,192,85932,1,8,1:0:0:0:
448,64,86249,1,8,1:0:0:0:
64,64,86460,1,8,1:0:0:0:
256,192,86671,1,0,1:0:0:0:
256,192,86883,1,8,0:0:0:0:
256,192,87305,1,12,1:0:0:0:
