osu file format v14

[General]
AudioFilename: audio.mp3
AudioLeadIn: 0
PreviewTime: 206014
Countdown: 0
SampleSet: Drum
StackLeniency: 0.7
Mode: 0
LetterboxInBreaks: 0
WidescreenStoryboard: 1

[Editor]
Bookmarks: 670,11704,28256,50325,61359,83428,105497,116532,127566,138601,182738,207566,229635,251704
DistanceSpacing: 0.6
BeatDivisor: 4
GridSize: 32
TimelineZoom: 1

[Metadata]
Title:Scream
TitleUnicode:Scream ~万魔殿パンデモニウム:煉獄編~
Artist:Masayoshi Soken
ArtistUnicode:祖堅正慶
Creator:Heroine
Version:Insane
Source:ファイナルファンタジーXIV: 暁月の終焉
Tags:AKINO english vocals japanese metal rock final fantasy xiv xiv: ff 14 Takafumi Imamura 今村貴文 endwalker some hero some_hero
BeatmapID:4227475
BeatmapSetID:2028756

[Difficulty]
HPDrainRate:6
CircleSize:4
OverallDifficulty:8
ApproachRate:8.7
SliderMultiplier:2.3
SliderTickRate:1

[Events]
//Background and Video events
0,0,"t.jpg",0,0
//Break Periods
2,204835,206059
//Storyboard Layer 0 (Background)
//Storyboard Layer 1 (Fail)
//Storyboard Layer 2 (Pass)
//Storyboard Layer 3 (Foreground)
//Storyboard Layer 4 (Overlay)
//Storyboard Sound Samples

[TimingPoints]
670,689.655172413793,4,3,1,60,1,0
670,-80,4,3,1,60,0,0
11704,-125,4,2,1,45,0,0
22738,-86.9565217391304,4,2,1,60,0,0
28256,-80,4,3,1,65,0,0
50152,-80,4,3,1,25,0,0
50325,-80,4,3,2,50,0,0
51704,-166.666666666667,4,3,2,50,0,0
61359,-80,4,3,3,75,0,1
83256,-80,4,3,0,75,0,1
83428,-80,4,3,1,70,0,0
104922,-80,4,3,1,45,0,0
105497,-80,4,3,1,55,0,0
106359,-90.9090909090909,4,3,1,55,0,0
115325,-90.9090909090909,4,3,0,35,0,0
115497,-90.9090909090909,4,3,1,55,0,0
116532,-80,4,3,1,65,0,0
117221,-90.9090909090909,4,3,1,65,0,0
118601,-45.4545454545455,4,3,1,65,0,0
119980,-90.9090909090909,4,3,1,65,0,0
124118,-45.4545454545455,4,3,1,65,0,0
125152,-90.9090909090909,4,3,1,65,0,0
127394,-90.9090909090909,4,3,1,25,0,0
127566,-66.6666666666667,4,3,2,50,0,0
127911,-90.9090909090909,4,3,2,50,0,0
128256,-125,4,3,2,50,0,0
128601,-90.9090909090909,4,3,2,50,0,0
128945,-125,4,3,2,50,0,0
129290,-90.9090909090909,4,3,2,50,0,0
129635,-125,4,3,2,50,0,0
129980,-90.9090909090909,4,3,2,50,0,0
130325,-66.6666666666667,4,3,2,50,0,0
130669,-90.9090909090909,4,3,2,50,0,0
131014,-125,4,3,2,50,0,0
131359,-90.9090909090909,4,3,2,50,0,0
131703,-125,4,3,2,50,0,0
132048,-90.9090909090909,4,3,2,50,0,0
132393,-125,4,3,2,50,0,0
132738,-90.9090909090909,4,3,2,50,0,0
133083,-66.6666666666667,4,3,2,50,0,0
137221,-133.333333333333,4,3,2,50,0,0
137738,-133.333333333333,4,3,1,60,0,0
138601,-74.0740740740741,4,3,0,75,0,1
138773,-74.0740740740741,4,3,3,75,0,1
160669,-68.9655172413793,4,3,3,75,0,1
163601,-52.6315789473684,4,3,3,75,0,1
164118,-68.9655172413793,4,3,3,75,0,1
166359,-47.6190476190476,4,3,3,75,0,1
166876,-68.9655172413793,4,3,3,75,0,1
167394,-52.6315789473684,4,3,3,75,0,1
171704,-68.9655172413793,4,3,3,75,0,1
176876,-50,4,3,3,75,0,1
177221,-55.5555555555556,4,3,3,75,0,1
177394,-74.0740740740741,4,3,3,75,0,1
177738,-68.9655172413793,4,3,3,75,0,1
182738,-133.333333333333,4,3,3,70,0,0
182911,-133.333333333333,4,2,0,50,0,0
206704,-133.333333333333,4,2,1,60,0,0
207049,-200,4,2,1,60,0,0
207566,-66.6666666666667,4,3,0,75,0,1
207738,-66.6666666666667,4,3,3,75,0,1
229635,-66.6666666666667,4,3,3,80,0,1
232738,-50,4,3,3,80,0,1
233083,-66.6666666666667,4,3,3,80,0,1
251704,-100,4,3,0,15,0,0

[Colours]
Combo1 : 162,196,185
Combo2 : 176,106,155
Combo3 : 137,106,196
Combo4 : 149,168,196
Combo5 : 252,238,209
Combo6 : 157,251,239

[HitObjects]
126,85,670,5,4,1:1:0:0:
286,161,842,1,4,1:2:0:0:
172,152,1014,5,0,0:0:0:0:
260,98,1187,1,0,1:2:0:0:
69,137,1359,5,8,0:2:0:0:
291,241,1532,2,0,P|255:236|220:227,1,71.875,0|0,0:0|1:2,0:0:0:0:
243,316,1876,37,0,1:2:0:0:
114,239,2049,1,2,0:3:0:0:
343,290,2221,5,0,0:0:0:0:
167,354,2394,1,0,1:2:0:0:
402,348,2566,6,0,B|436:346|436:346|472:334,1,71.875,0|10,0:0|0:1,0:0:0:0:
448,109,3428,5,0,1:2:0:0:
420,178,3601,1,0,1:2:0:0:
351,55,3773,37,0,0:0:0:0:
416,23,3945,1,0,1:2:0:0:
354,134,4118,5,8,0:2:0:0:
190,80,4291,2,0,P|225:71|261:65,1,71.875,0|0,0:0|1:2,0:0:0:0:
160,145,4635,5,0,1:2:0:0:
89,37,4808,1,2,0:3:0:0:
237,144,4980,5,0,0:0:0:0:
99,211,5153,1,0,1:2:0:0:
35,176,5325,37,0,0:0:0:0:
191,80,5497,1,10,0:2:0:0:
170,226,5670,5,2,2:2:0:0:
119,291,5842,2,0,B|83:286|83:286|48:277,1,71.875,6|2,2:2|2:2,0:0:0:0:
309,223,6187,5,0,1:2:0:0:
406,350,6359,1,0,1:2:0:0:
275,293,6532,5,0,0:0:0:0:
395,277,6704,1,0,1:2:0:0:
449,176,6876,37,8,0:2:0:0:
315,360,7049,2,0,B|279:365|244:374,1,71.875,0|0,0:0|1:2,0:0:0:0:
119,291,7394,5,0,1:2:0:0:
147,358,7566,1,2,0:3:0:0:
28,229,7738,5,0,0:0:0:0:
0,296,7910,1,0,1:2:0:0:
156,155,8083,6,0,B|161:191|161:191|170:226,1,71.875,0|10,0:0|0:1,0:0:0:0:
406,101,8945,37,0,1:2:0:0:
275,35,9118,1,0,1:2:0:0:
375,33,9290,5,0,0:0:0:0:
475,133,9463,1,0,1:2:0:0:
251,201,9635,5,8,0:2:0:0:
325,220,9807,2,0,P|355:199|381:174,1,71.875,0|0,0:0|1:2,0:0:0:0:
220,105,10152,6,0,B|217:147|217:147|224:175,1,71.875,0|2,1:2|0:3,0:0:0:0:
349,290,10497,1,0,0:0:0:0:
303,148,10669,37,0,1:2:0:0:
170,227,10842,1,0,0:0:0:0:
283,332,11014,5,8,0:2:0:0:
468,374,11187,5,2,0:1:0:0:
489,365,11359,5,10,1:1:0:0:
510,356,11532,37,2,3:1:0:0:
505,283,11704,6,0,B|461:268|461:268|415:266,1,92,4|2,1:1|3:3,0:0:0:0:
415,266,12221,1,0,1:2:0:0:
209,347,12394,1,8,0:2:0:0:
156,295,12566,2,0,L|165:249,1,46,0|0,0:0|3:2,0:0:0:0:
259,202,12911,2,0,P|214:212|168:218,1,92,2|0,2:3|0:0,0:0:0:0:
316,260,13428,1,0,3:2:0:0:
351,195,13601,2,0,B|350:169|350:169|339:142,1,46,0|8,3:2|0:2,0:0:0:0:
67,72,14463,5,2,3:2:0:0:
129,110,14635,2,0,L|171:92,2,46,2|0|2,2:3|0:0|0:2,0:0:0:0:
110,140,15152,2,0,B|149:124|149:124|197:107,1,92,8|2,0:2|3:2,0:0:0:0:
196,107,15669,1,2,2:3:0:0:
321,66,15842,2,0,P|325:43|327:20,1,46,2|0,0:2|0:0,0:0:0:0:
395,108,16187,2,0,P|401:85|405:63,1,46,0|0,3:2|3:2,0:0:0:0:
461,162,16532,2,0,P|470:140|477:118,1,46,8|2,0:2|0:3,0:0:0:0:
512,229,16876,1,2,3:2:0:0:
512,229,16963,1,0,0:0:0:0:
512,229,17049,1,0,0:0:0:0:
380,279,17221,6,0,P|335:283|289:286,1,92,6|2,3:2|0:3,0:0:0:0:
421,346,17911,2,0,P|466:350|512:353,1,92,8|0,0:2|3:2,0:0:0:0:
290,287,18428,1,2,2:3:0:0:
342,348,18601,1,2,0:2:0:0:
342,348,18773,1,0,0:0:0:0:
224,314,18945,2,0,B|235:341|235:341|236:359,1,46,0|0,3:2|3:2,0:0:0:0:
101,276,19290,2,0,P|97:341|38:372,1,138,8|0,0:2|0:0,0:0:0:0:
141,214,19980,38,0,L|186:204,2,46,2|2|0,3:2|2:3|0:0,0:0:0:0:
101,276,20497,1,2,0:2:0:0:
225,315,20669,2,0,B|248:313|248:313|270:305,1,46,8|0,0:2|0:0,0:0:0:0:
352,326,21014,2,0,P|350:303|342:280,1,46,2|2,3:2|2:3,0:0:0:0:
394,159,21359,2,0,P|348:161|305:177,1,92,2|0,0:2|3:2,0:0:0:0:
445,220,21876,1,0,3:2:0:0:
340,82,22049,2,0,P|318:73|297:64,1,46,14|2,0:2|0:2,0:0:0:0:
422,80,22394,2,0,P|412:59|403:37,1,46,2|0,3:3|0:0,0:0:0:0:
306,177,22738,6,0,P|251:209|246:272,1,132.250002522469,4|0,1:1|0:0,0:0:0:0:
254,355,23256,2,0,P|285:346|310:324,2,66.1250012612343,0|8|0,0:0|0:2|0:0,0:0:0:0:
230,345,23687,1,0,0:0:0:0:
208,339,23773,2,0,L|115:362,1,66.1250012612343,0|2,3:2|0:3,0:0:0:0:
391,335,24118,2,0,P|372:273|314:243,1,132.250002522469,0|4,0:0|3:2,0:0:0:0:
158,273,24635,1,0,3:2:0:0:
158,273,24721,1,0,0:0:0:0:
158,273,24807,2,0,B|117:280|117:280|75:302,1,66.1250012612343,8|0,0:2|0:0,0:0:0:0:
315,244,25152,2,0,P|307:211|302:179,1,66.1250012612343,2|0,0:3|0:0,0:0:0:0:
117,125,25497,6,0,P|179:129|198:188,1,132.250002522469,0|0,1:2|0:0,0:0:0:0:
36,113,26014,2,0,P|45:81|67:57,2,66.1250012612343,0|8|0,0:0|0:2|0:0,0:0:0:0:
46,137,26445,1,0,0:0:0:0:
52,159,26531,2,0,B|48:186|48:186|36:202|36:202|29:252,1,66.1250012612343,6|0,0:1|0:0,0:0:0:0:
77,260,26876,5,0,3:2:0:0:
199,188,27049,1,0,3:2:0:0:
74,268,27221,37,0,1:2:0:0:
73,272,27394,5,0,3:2:0:0:
252,307,27566,6,0,B|270:304|270:304|280:312|280:312|264:305|264:305|259:350,1,66.1250012612343,0|8,1:2|0:1,0:0:0:0:
252,307,27911,6,0,L|211:299,1,33.0625006306172,4|0,1:3|0:0,0:0:0:0:
356,332,28083,2,0,L|397:340,1,33.0625006306172,8|0,1:3|0:0,0:0:0:0:
252,307,28256,37,6,1:1:0:0:
392,257,28428,1,0,0:0:0:0:
222,214,28601,1,0,1:2:0:0:
222,214,28687,1,0,1:2:0:0:
222,214,28773,1,0,1:2:0:0:
282,161,28945,2,0,P|276:125|268:90,1,71.875,8|0,0:2|1:2,0:0:0:0:
213,0,29290,1,0,0:0:0:0:
168,77,29463,2,0,B|244:98|217:121|321:129,1,143.75,2|0,1:1|1:2,0:0:0:0:
388,29,29980,6,0,B|378:66|378:66|381:109,1,71.875,0|0,1:2|1:2,0:0:0:0:
448,137,30325,1,8,0:2:0:0:
291,45,30497,1,0,0:0:0:0:
381,184,30669,2,0,B|400:238|400:238|403:288,1,107.8125,2|0,0:1|0:0,0:0:0:0:
403,288,31014,6,0,P|395:326|394:359,1,71.875,2|0,1:1|0:0,0:0:0:0:
484,311,31359,1,0,1:2:0:0:
484,311,31445,1,0,1:2:0:0:
484,311,31532,1,0,1:2:0:0:
293,348,31704,1,8,0:2:0:0:
325,336,31876,1,0,1:2:0:0:
189,281,32049,1,0,0:0:0:0:
127,240,32221,2,0,B|91:248|91:248|56:252,1,71.875,2|0,1:1|0:0,0:0:0:0:
278,219,32566,5,0,1:2:0:0:
192,285,32738,1,0,1:2:0:0:
183,136,32911,1,2,1:1:0:0:
228,168,33083,1,8,0:2:0:0:
314,78,33256,1,0,0:0:0:0:
348,190,33428,2,0,P|358:226|362:260,1,71.875,2|0,0:1|3:2,0:0:0:0:
102,18,33773,38,0,P|174:19|244:35,1,143.75,2|0,1:1|1:2,0:0:0:0:
243,34,34204,1,0,1:2:0:0:
243,34,34290,1,0,1:2:0:0:
86,106,34463,1,8,0:2:0:0:
18,47,34635,1,0,1:2:0:0:
183,136,34807,1,0,0:0:0:0:
70,138,34980,2,0,B|36:152|36:152|1:156,1,71.875,2|0,1:1|0:0,0:0:0:0:
251,208,35325,5,0,1:2:0:0:
186,238,35497,1,0,1:2:0:0:
156,173,35670,1,0,1:2:0:0:
221,143,35842,1,8,0:2:0:0:
221,143,36014,1,0,0:0:0:0:
348,225,36187,6,0,B|353:283|353:283|335:329,1,107.8125,2|0,0:1|0:0,0:0:0:0:
335,329,36532,2,0,B|265:331|260:366|184:352,1,143.75,2|0,1:1|1:2,0:0:0:0:
194,353,36963,5,0,1:2:0:0:
194,353,37049,1,0,1:2:0:0:
412,364,37221,1,8,0:2:0:0:
242,276,37394,1,0,1:2:0:0:
144,303,37566,1,0,0:0:0:0:
99,208,37738,2,0,P|132:225|170:234,1,71.875,2|0,1:1|0:0,0:0:0:0:
65,277,38083,1,2,1:1:0:0:
28,219,38256,2,0,B|19:182|19:182|20:148,1,71.875,2|0,1:1|1:2,0:0:0:0:
228,45,38601,38,0,P|238:80|240:116,1,71.875,10|0,0:1|0:0,0:0:0:0:
162,65,38945,1,2,0:1:0:0:
321,96,39118,1,2,3:3:0:0:
428,172,39290,6,0,B|389:181|354:171|354:171|325:195|287:200,1,143.75,6|0,1:1|1:2,0:0:0:0:
298,206,39721,1,0,1:2:0:0:
298,206,39807,2,0,P|315:237|325:271,1,71.875,2|10,1:1|0:1,0:0:0:0:
402,309,40152,1,0,1:2:0:0:
193,244,40325,1,2,0:1:0:0:
327,356,40497,6,0,P|259:333|187:328,1,143.75,2|2,1:1|1:1,0:0:0:0:
123,294,41014,2,0,B|100:327|100:327|91:357,1,71.875,2|0,1:1|1:2,0:0:0:0:
196,248,41359,1,10,0:1:0:0:
35,173,41532,1,0,0:0:0:0:
86,229,41704,1,2,0:3:0:0:
107,158,41876,1,2,0:3:0:0:
37,177,42049,1,2,1:3:0:0:
250,148,42221,5,2,0:1:0:0:
200,93,42394,1,0,1:2:0:0:
200,93,42480,1,0,1:2:0:0:
200,93,42566,1,2,1:1:0:0:
345,42,42738,1,10,0:1:0:0:
343,114,42911,2,0,P|335:150|333:185,1,71.875,0|2,1:2|0:1,0:0:0:0:
462,96,43256,2,0,B|440:124|440:124|425:157,1,71.875,2|4,1:1|1:2,0:0:0:0:
458,228,43601,1,0,1:2:0:0:
375,325,43773,38,0,P|306:345|239:322,1,143.75,2|10,1:1|0:1,0:0:0:0:
339,262,44290,1,0,0:0:0:0:
405,353,44463,6,0,B|458:343|458:343|527:367,1,107.8125,2|0,0:1|0:0,0:0:0:0:
508,360,44807,1,2,1:1:0:0:
240,322,44980,6,0,B|231:285|231:285|226:251,1,71.875,2|0,0:1|1:2,0:0:0:0:
226,251,45238,1,0,1:2:0:0:
226,251,45325,1,2,1:1:0:0:
55,351,45497,1,10,0:1:0:0:
107,290,45670,2,0,P|103:254|95:219,1,71.875,0|2,1:2|0:1,0:0:0:0:
13,154,46014,2,0,B|9:189|9:189|1:224,1,71.875,2|0,1:1|0:0,0:0:0:0:
167,174,46359,5,2,1:1:0:0:
96,219,46532,1,2,1:1:0:0:
194,189,46704,1,0,1:2:0:0:
239,118,46876,37,10,0:1:0:0:
239,118,47049,2,0,P|235:82|234:46,1,71.875,0|2,0:0|0:3,0:0:0:0:
298,0,47394,1,2,0:3:0:0:
298,159,47566,6,0,B|314:248|289:220|303:310,1,143.75,2|0,1:3|1:2,0:0:0:0:
302,301,47997,1,0,1:2:0:0:
302,301,48083,1,2,1:1:0:0:
512,296,48256,1,10,0:1:0:0:
454,247,48428,2,0,B|415:250|415:250|385:263,1,71.875,0|2,1:2|0:1,0:0:0:0:
480,182,48773,1,6,1:1:0:0:
346,334,48945,5,2,2:2:0:0:
321,348,49635,5,2,2:2:0:0:
297,365,50152,37,0,3:2:0:0:
264,354,50238,1,2,3:3:0:0:
235,346,50325,1,6,1:1:0:0:
224,350,50497,5,0,1:2:0:0:
247,269,50670,1,0,0:0:0:0:
264,184,50842,1,0,0:0:0:0:
110,140,51014,5,8,0:1:0:0:
130,149,51187,1,0,0:0:0:0:
235,79,51359,5,0,0:0:0:0:
189,55,51532,1,0,0:0:0:0:
35,136,51704,38,0,L|38:170,2,34.4999989471436,8|0|0,0:1|0:0|0:0,0:0:0:0:
0,255,52221,2,0,L|13:286,1,34.4999989471436,0|8,0:0|0:1,0:0:0:0:
98,309,52566,5,0,0:0:0:0:
183,298,52738,5,8,0:2:0:0:
248,226,52911,5,8,0:2:0:0:
356,127,53083,37,8,0:1:0:0:
391,154,53256,1,0,0:0:0:0:
308,272,53428,5,0,0:0:0:0:
273,299,53601,1,0,0:0:0:0:
274,143,53773,5,8,0:1:0:0:
274,143,54118,2,0,B|271:125|271:125|267:109,1,34.4999989471436
129,81,54463,5,8,0:1:0:0:
166,57,54635,1,0,0:0:0:0:
92,165,54807,37,0,0:0:0:0:
55,141,54979,1,0,0:0:0:0:
171,229,55152,5,8,0:1:0:0:
114,177,55325,5,0,0:0:0:0:
197,120,55497,5,8,0:2:0:0:
109,36,55670,37,8,0:2:0:0:
44,167,55842,6,0,B|49:193|49:193|44:222|44:222|53:258|53:258|60:304,2,137.999995788574,10|10|10,0:1|0:1|0:1,0:0:0:0:
57,150,57394,1,0,0:0:0:0:
20,132,57566,1,0,0:0:0:0:
86,101,57738,1,0,0:0:0:0:
13,54,57911,5,10,0:1:0:0:
93,25,58083,1,0,0:0:0:0:
118,64,58256,1,0,0:0:0:0:
165,201,58428,5,10,0:1:0:0:
282,139,58601,37,8,0:1:0:0:
319,163,58773,1,0,0:0:0:0:
274,234,58946,1,8,0:2:0:0:
298,307,59118,1,8,0:2:0:0:
365,163,59291,5,8,0:2:0:0:
206,256,59463,5,8,0:2:0:0:
358,229,59635,5,8,0:1:0:0:
130,366,59808,37,8,0:1:0:0:
124,369,59894,1,0,0:0:0:0:
124,361,59980,1,2,3:3:0:0:
18,29,61359,53,6,1:1:0:0:
147,119,61532,2,0,B|216:121|207:165|296:137,1,143.75,4|0,1:1|1:2,0:0:0:0:
301,17,62049,2,0,B|267:35|267:35|247:61,1,71.875,8|0,0:1|0:0,0:0:0:0:
403,187,62394,1,2,1:1:0:0:
499,223,62566,2,0,P|486:152|484:80,1,143.75,2|0,1:1|0:0,0:0:0:0:
407,190,63083,2,0,P|402:225|390:259,1,71.875,0|0,1:2|0:0,0:0:0:0:
214,247,63428,2,0,B|208:287|208:287|217:316,1,71.875,8|0,0:2|0:0,0:0:0:0:
296,338,63773,5,0,0:0:0:0:
55,221,63945,1,0,0:0:0:0:
55,221,64032,1,0,0:0:0:0:
55,221,64118,1,2,1:1:0:0:
126,168,64290,2,0,P|124:132|118:96,1,71.875,0|0,1:2|0:0,0:0:0:0:
47,83,64635,1,0,1:2:0:0:
248,62,64807,2,0,B|321:61|323:97|408:75,1,143.75,8|2,0:1|1:1,0:0:0:0:
327,240,65325,69,2,1:1:0:0:
393,266,65497,1,0,0:0:0:0:
298,173,65670,5,0,0:0:0:0:
324,108,65842,1,0,1:2:0:0:
456,106,66014,69,0,0:0:0:0:
389,79,66187,1,8,0:2:0:0:
484,172,66359,5,0,0:0:0:0:
458,236,66532,2,0,P|464:272|469:307,1,71.875
166,303,66876,69,2,1:1:0:0:
225,356,67049,2,0,P|296:348|366:330,1,143.75,0|0,1:2|1:2,0:0:0:0:
169,306,67566,2,0,B|139:331|139:331|128:362,1,71.875,8|0,0:2|0:0,0:0:0:0:
207,238,67911,1,2,1:1:0:0:
65,203,68083,1,2,1:1:0:0:
272,279,68256,5,0,0:0:0:0:
272,279,68601,2,0,P|277:210|257:114,1,143.75,0|8,1:2|0:2,0:0:0:0:
204,76,69118,1,0,0:0:0:0:
132,117,69290,1,0,0:0:0:0:
328,101,69463,2,0,P|362:90|395:76,1,71.875,0|2,0:0|1:1,0:0:0:0:
395,168,69807,2,0,P|429:178|437:280,1,143.75,0|0,1:2|1:2,0:0:0:0:
129,232,70325,1,8,0:2:0:0:
69,289,70497,1,0,0:0:0:0:
255,226,70669,2,0,P|285:207|314:185,1,71.875,2|2,1:1|1:1,0:0:0:0:
314,185,71187,1,0,0:0:0:0:
139,335,71359,2,0,B|150:301|150:301|147:265,1,71.875,0|0,1:2|0:0,0:0:0:0:
52,213,71704,69,8,0:2:0:0:
52,213,71790,1,4,0:3:0:0:
52,213,71876,1,8,0:3:0:0:
233,307,72049,1,4,0:3:0:0:
233,307,72135,1,4,0:3:0:0:
233,307,72221,1,4,1:3:0:0:
128,132,72394,5,6,1:1:0:0:
203,106,72566,2,0,P|239:96|271:82,1,71.875,4|0,1:1|0:0,0:0:0:0:
324,14,72911,69,0,1:2:0:0:
405,44,73083,1,8,0:2:0:0:
319,154,73256,5,0,0:0:0:0:
270,82,73428,1,2,1:1:0:0:
402,130,73601,69,2,1:1:0:0:
453,183,73773,2,0,B|443:218|443:218|440:254,1,71.875
512,83,74118,2,0,B|502:48|502:48|499:12,1,71.875,0|0,1:2|0:0,0:0:0:0:
376,199,74463,2,0,P|305:211|233:211,1,143.75,8|0,0:2|0:0,0:0:0:0:
161,195,74980,1,0,0:0:0:0:
252,323,75152,5,2,1:1:0:0:
335,357,75325,2,0,B|333:318|333:318|319:287,1,71.875,0|0,1:2|0:0,0:0:0:0:
234,211,75669,1,0,1:2:0:0:
165,197,75842,2,0,P|137:263|147:333,1,143.75,8|2,0:2|1:1,0:0:0:0:
49,221,76359,2,0,P|32:189|18:156,1,71.875,2|0,1:1|0:0,0:0:0:0:
147,332,76704,1,0,0:0:0:0:
218,325,76876,2,0,B|304:318|289:346|372:323,1,143.75,0|8,1:2|0:2,0:0:0:0:
357,191,77394,2,0,B|330:215|330:215|317:248,1,71.875
512,0,77911,69,2,1:1:0:0:
453,46,78083,2,0,P|384:65|315:50,1,143.75,0|0,1:2|1:2,0:0:0:0:
254,81,78601,2,0,B|218:88|218:88|182:84,1,71.875,8|0,0:2|0:0,0:0:0:0:
315,136,78945,1,2,1:1:0:0:
154,169,79118,2,0,P|101:120|45:75,1,143.75,2|0,1:1|0:0,0:0:0:0:
108,26,79635,1,0,1:2:0:0:
0,151,79807,1,0,0:0:0:0:
89,217,79980,2,0,B|118:242|118:242|151:247,1,71.875,8|0,0:2|0:0,0:0:0:0:
241,164,80325,5,0,0:0:0:0:
373,199,80497,1,0,0:0:0:0:
373,199,80583,1,0,0:0:0:0:
373,199,80669,1,2,1:1:0:0:
447,158,80842,2,0,P|461:227|444:296,1,143.75,0|0,1:2|1:2,0:0:0:0:
300,238,81359,69,8,0:2:0:0:
368,280,81532,1,0,0:0:0:0:
249,342,81704,5,2,1:1:0:0:
181,384,81876,1,2,1:1:0:0:
237,235,82049,70,0,P|234:199|241:163,1,71.875,4|0,0:2|0:0,0:0:0:0:
376,162,82394,2,0,B|411:164|411:164|447:157,1,71.875,0|0,1:2|0:0,0:0:0:0:
170,138,82738,5,8,0:2:0:0:
170,138,82825,1,4,0:3:0:0:
170,138,82911,2,0,B|174:63|174:63|199:0,1,143.75,8|4,0:3|1:3,0:0:0:0:
206,5,83342,21,12,0:3:0:0:
206,5,83428,2,0,P|170:7|134:8,1,71.875,4|0,1:1|1:2,0:0:0:0:
258,78,83773,5,2,0:1:0:0:
328,78,83945,2,0,L|399:81,1,71.875,2|12,1:1|0:2,0:0:0:0:
170,138,84290,1,2,0:1:0:0:
99,141,84463,2,0,L|28:144,1,71.875,2|2,1:1|1:1,0:0:0:0:
264,89,84980,1,2,0:1:0:0:
332,106,85152,2,0,L|400:126,2,71.875,2|2|8,1:1|0:1|0:2,0:0:0:0:
164,126,85669,1,2,0:1:0:0:
94,112,85842,2,0,L|24:98,1,71.875,2|2,0:1|0:1,0:0:0:0:
179,336,86187,5,0,1:2:0:0:
296,303,86359,2,0,P|295:231|282:160,1,143.75,0|0,1:2|1:2,0:0:0:0:
113,189,86876,2,0,B|150:204|150:204|181:206,1,71.875,8|0,0:2|0:0,0:0:0:0:
320,33,87221,1,0,1:2:0:0:
258,80,87394,2,0,P|301:137|370:150,1,143.75,0|0,1:2|0:0,0:0:0:0:
385,218,87911,38,0,P|380:253|379:289,1,71.875,0|0,1:2|0:0,0:0:0:0:
489,213,88256,1,8,0:2:0:0:
502,142,88428,1,0,0:0:0:0:
370,150,88601,1,0,0:0:0:0:
249,5,88773,5,2,0:2:0:0:
249,5,88859,1,4,0:2:0:0:
249,5,88945,1,0,1:2:0:0:
226,96,89118,1,0,1:2:0:0:
204,183,89290,1,2,0:1:0:0:
136,201,89463,2,0,L|68:222,1,71.875,2|12,1:1|0:2,0:0:0:0:
304,218,89807,1,2,0:1:0:0:
373,202,89980,2,0,L|442:186,1,71.875,2|2,1:1|1:1,0:0:0:0:
201,195,90497,1,2,0:1:0:0:
139,229,90669,2,0,L|78:265,2,71.875,2|2|8,1:1|0:1|0:2,0:0:0:0:
307,205,91187,1,2,0:1:0:0:
371,173,91359,2,0,L|434:141,1,71.875,2|2,0:1|0:1,0:0:0:0:
369,249,91704,1,0,1:2:0:0:
240,235,91876,2,0,P|238:163|271:100,1,143.75,0|0,1:2|1:2,0:0:0:0:
195,68,92394,6,0,B|159:49|159:49|128:43,1,71.875,8|0,0:2|0:0,0:0:0:0:
72,88,92738,1,0,1:2:0:0:
271,101,92911,2,0,P|307:94|342:85,1,71.875,0|0,1:2|0:0,0:0:0:0:
126,148,93256,1,0,0:0:0:0:
62,201,93428,2,0,B|48:239|48:239|32:266,1,71.875,0|0,1:2|0:0,0:0:0:0:
232,365,93773,5,8,0:2:0:0:
136,333,93945,1,0,0:0:0:0:
232,202,94118,37,4,0:3:0:0:
136,233,94290,1,0,0:0:0:0:
291,283,94463,5,4,1:1:0:0:
468,205,94635,1,0,1:2:0:0:
322,208,94807,5,2,0:1:0:0:
393,175,94980,1,2,1:1:0:0:
470,351,95152,5,12,0:2:0:0:
499,278,95325,1,2,0:1:0:0:
325,351,95497,37,2,1:1:0:0:
398,382,95669,1,2,1:1:0:0:
397,276,95842,5,2,0:0:0:0:
397,276,96187,2,0,P|361:276|325:280,1,71.875,2|2,1:1|0:1,0:0:0:0:
46,300,96532,6,0,B|121:317|101:342|179:347,1,143.75,8|2,0:2|0:1,0:0:0:0:
171,249,97049,2,0,P|173:213|185:179,1,71.875,2|0,0:1|1:2,0:0:0:0:
118,161,97394,6,0,B|79:170|79:170|47:167,1,71.875,0|0,1:2|0:0,0:0:0:0:
255,204,97738,1,0,1:2:0:0:
171,110,97911,37,8,0:2:0:0:
240,275,98083,1,0,0:0:0:0:
327,181,98256,5,0,1:2:0:0:
438,100,98428,2,0,P|404:113|369:122,1,71.875,0|0,1:2|0:0,0:0:0:0:
496,231,98773,6,0,B|500:194|500:194|511:161,1,71.875,0|0,0:0|1:2,0:0:0:0:
298,114,99118,1,0,0:0:0:0:
224,23,99290,5,8,0:2:0:0:
371,122,99463,1,0,0:0:0:0:
234,137,99635,37,0,0:0:0:0:
334,36,99807,1,0,0:0:0:0:
334,36,99894,1,0,0:0:0:0:
334,36,99980,1,0,1:2:0:0:
151,40,100152,1,0,1:2:0:0:
239,188,100325,5,2,0:1:0:0:
307,202,100497,2,0,L|377:213,1,71.875,2|12,1:1|0:2,0:0:0:0:
165,111,100842,1,2,0:1:0:0:
96,93,101014,2,0,L|27:75,1,71.875,2|2,1:1|1:1,0:0:0:0:
247,178,101532,1,2,0:1:0:0:
317,175,101704,2,0,L|387:169,2,71.875,2|2|8,1:1|0:1|0:2,0:0:0:0:
157,121,102221,1,2,0:1:0:0:
85,120,102394,2,0,L|13:119,1,71.875,2|2,0:1|0:1,0:0:0:0:
0,188,102738,6,0,B|-6:229|-6:229|3:258,1,71.875,2|0,1:2|1:2,0:0:0:0:
120,184,103083,1,0,0:0:0:0:
291,318,103256,2,0,P|292:282|286:246,1,71.875,2|8,1:2|0:2,0:0:0:0:
217,264,103601,1,2,0:2:0:0:
219,339,103773,1,0,1:2:0:0:
364,304,103945,2,0,B|372:342|372:342|368:375,1,71.875,2|0,1:2|0:0,0:0:0:0:
154,304,104290,5,2,0:2:0:0:
287,247,104463,1,2,1:2:0:0:
273,384,104635,37,2,0:2:0:0:
235,191,104807,2,0,L|241:143,2,47.9166666666667,10|10|10,0:1|0:3|0:3,0:0:0:0:
355,214,105152,5,14,0:3:0:0:
426,211,105267,5,14,0:3:0:0:
469,154,105382,5,10,0:3:0:0:
476,147,105497,38,0,P|475:110|466:75,1,71.875,4|0,1:1|1:2,0:0:0:0:
394,42,105842,1,0,1:2:0:0:
394,42,105928,1,0,1:2:0:0:
394,42,106014,1,0,1:2:0:0:
241,144,106187,1,8,0:2:0:0:
132,86,106359,2,0,B|165:75|165:75|193:77,1,63.2500019302369,0|0,1:2|0:0,0:0:0:0:
260,40,106704,1,0,1:2:0:0:
78,35,106876,1,2,0:2:0:0:
171,150,107049,1,0,3:2:0:0:
110,184,107221,2,0,P|79:176|49:165,1,63.2500019302369,0|0,1:2|1:2,0:0:0:0:
218,254,107566,1,8,0:2:0:0:
218,254,108256,5,0,1:1:0:0:
237,187,108428,1,0,1:2:0:0:
153,283,108601,1,0,1:2:0:0:
153,283,108687,1,0,1:2:0:0:
153,283,108773,1,0,1:2:0:0:
267,308,108945,1,8,0:2:0:0:
406,222,109118,2,0,B|436:210|436:210|466:203,1,63.2500019302369,0|0,1:2|0:0,0:0:0:0:
437,292,109463,2,0,P|441:323|441:354,1,63.2500019302369,0|2,1:2|0:2,0:0:0:0:
333,207,109807,5,0,3:2:0:0:
512,268,109980,1,0,1:2:0:0:
512,268,110325,1,8,0:2:0:0:
474,200,110497,1,0,0:0:0:0:
357,278,110669,1,0,1:3:0:0:
384,156,110842,1,8,1:2:0:0:
333,207,111014,2,0,P|280:172|239:124,1,126.500003860474,0|0,1:1|1:0,0:0:0:0:
239,124,111445,5,0,1:2:0:0:
239,124,111532,1,0,1:2:0:0:
176,191,111704,1,8,0:2:0:0:
108,170,111876,2,0,P|113:138|123:108,1,63.2500019302369,0|0,1:2|0:0,0:0:0:0:
52,261,112221,2,0,B|55:297|55:297|69:320,1,63.2500019302369,0|2,1:2|0:2,0:0:0:0:
142,308,112566,1,0,3:2:0:0:
13,193,112738,1,0,1:2:0:0:
123,239,112911,1,0,1:2:0:0:
9,357,113083,38,0,L|258:313,1,253.000007720947,8|0,0:2|1:1,0:0:0:0:
439,315,113945,1,0,1:2:0:0:
265,320,114118,1,0,1:2:0:0:
265,320,114204,1,0,1:2:0:0:
265,320,114290,1,0,1:2:0:0:
335,361,114463,1,8,0:2:0:0:
412,251,114635,2,0,B|378:257|378:257|353:271,1,63.2500019302369,0|0,1:2|0:0,0:0:0:0:
481,242,114980,2,0,P|470:179|462:116,1,126.500003860474,0|8,1:2|3:2,0:0:0:0:
510,65,115497,1,0,1:2:0:0:
398,179,115669,1,0,1:2:0:0:
333,149,115842,2,0,B|326:115|326:115|329:86,1,63.2500019302369,12|0,0:2|0:0,0:0:0:0:
256,141,116187,2,0,P|224:146|193:149,1,63.2500019302369,8|8,1:2|1:2,0:0:0:0:
8,186,116532,6,0,B|51:202|84:192|84:192|108:216|148:220,1,143.75,6|0,1:1|1:0,0:0:0:0:
142,219,116963,1,0,1:2:0:0:
142,219,117049,1,2,1:1:0:0:
129,309,117221,1,10,0:1:0:0:
129,309,117394,1,0,1:2:0:0:
62,334,117566,6,0,P|33:347|2:351,1,63.2500019302369,2|2,0:1|1:1,0:0:0:0:
83,363,118083,2,0,P|52:368|20:364,1,63.2500019302369,2|2,1:1|1:1,0:0:0:0:
62,353,118601,6,0,B|30:348|30:348|2:335,1,63.2500019302369,10|0,0:1|0:0,0:0:0:0:
213,368,118945,37,2,0:3:0:0:
279,338,119118,1,2,0:3:0:0:
351,330,119290,1,2,1:3:0:0:
422,346,119463,1,2,0:1:0:0:
512,230,119635,5,0,1:2:0:0:
512,230,119721,1,0,1:2:0:0:
512,230,119807,1,2,1:1:0:0:
477,150,119980,2,0,B|448:136|448:136|417:132,1,63.2500019302369,10|0,0:1|1:2,0:0:0:0:
347,165,120325,2,0,P|343:196|348:227,1,63.2500019302369,2|2,0:1|1:1,0:0:0:0:
424,224,120669,1,4,1:2:0:0:
270,184,120842,1,0,1:2:0:0:
224,234,121014,2,0,P|244:293|299:322,1,126.500003860474,2|10,1:1|0:1,0:0:0:0:
165,309,121532,5,0,0:0:0:0:
96,306,121704,2,0,B|89:326|89:326|73:347|73:347|70:364,1,63.2500019302369,2|2,0:1|0:3,0:0:0:0:
300,322,122049,5,2,1:1:0:0:
348,267,122221,1,2,0:1:0:0:
202,168,122394,37,0,1:2:0:0:
202,168,122480,1,0,1:2:0:0:
202,168,122566,1,2,1:1:0:0:
292,217,122738,1,10,0:1:0:0:
292,217,122911,1,0,1:2:0:0:
342,162,123083,6,0,P|370:148|401:144,1,63.2500019302369,2|2,0:1|1:1,0:0:0:0:
321,133,123601,2,0,P|351:127|383:131,1,63.2500019302369,2|2,1:1|1:1,0:0:0:0:
342,143,124118,6,0,B|373:147|373:147|401:160,1,63.2500019302369,10|0,0:1|0:0,0:0:0:0:
208,32,124463,1,2,0:3:0:0:
272,63,124635,1,2,0:3:0:0:
147,71,124807,1,2,1:3:0:0:
82,43,124980,1,2,0:1:0:0:
16,112,125152,6,0,P|25:142|27:173,1,63.2500019302369,0|2,1:2|1:1,0:0:0:0:
209,284,125497,1,10,0:1:0:0:
229,211,125669,2,0,P|166:223|107:245,1,126.500003860474,0|6,1:2|1:1,0:0:0:0:
209,284,126359,1,0,1:2:0:0:
260,330,126532,2,0,P|290:339|321:342,1,63.2500019302369,0|0,1:2|0:0,0:0:0:0:
512,297,126876,37,14,2:2:0:0:
512,297,127049,1,4,1:3:0:0:
446,249,127221,1,8,0:3:0:0:
403,304,127394,1,4,3:3:0:0:
433,347,127566,6,0,B|423:318|423:318|427:296|427:296|414:265,1,86.2500032901765,6|0,1:1|1:2,0:0:0:0:
301,249,127911,2,0,P|271:238|239:234,1,63.2500019302369
415,265,128256,2,0,P|404:244|390:226,1,46,8|0,0:1|0:0,0:0:0:0:
240,234,128601,2,0,P|208:231|177:235,1,63.2500019302369
391,227,128945,2,0,P|376:208|359:193,1,46,8|0,0:1|0:0,0:0:0:0:
177,235,129290,2,0,P|145:239|115:249,1,63.2500019302369
360,194,129635,2,0,P|340:181|319:172,1,46,8|0,0:1|0:0,0:0:0:0:
116,249,129980,2,0,P|86:260|60:277,1,63.2500019302369,8|8,0:2|0:2,0:0:0:0:
0,384,130325,6,0,B|10:355|10:355|6:333|6:333|18:302,1,86.2500032901765,10|0,0:1|0:0,0:0:0:0:
132,286,130669,2,0,P|161:275|193:271,1,63.2500019302369
18,302,131014,2,0,P|28:281|42:263,1,46,8|0,0:1|0:0,0:0:0:0:
193,271,131359,2,0,P|224:268|255:272,1,63.2500019302369
42,264,131704,2,0,P|56:245|73:230,1,46,8|0,0:1|0:0,0:0:0:0:
256,272,132049,2,0,P|287:276|317:286,1,63.2500019302369
73,231,132394,2,0,P|92:218|113:209,1,46,8|0,0:1|0:0,0:0:0:0:
317,286,132738,2,0,P|346:297|372:314,1,63.2500019302369,8|8,0:2|0:2,0:0:0:0:
471,170,133083,5,10,0:1:0:0:
512,195,133256,2,0,B|482:200|482:200|464:215|464:215|432:220,1,86.2500032901765
381,97,133773,1,10,0:1:0:0:
345,106,133946,2,0,B|374:111|374:111|392:126|392:126|424:131,1,86.2500032901765
488,1,134463,1,10,0:1:0:0:
512,13,134636,2,0,B|482:18|482:18|464:33|464:33|432:38,1,86.2500032901765
284,144,135152,37,10,0:1:0:0:
259,189,135669,5,10,0:1:0:0:
190,150,135842,5,8,0:1:0:0:
161,124,136014,1,0,0:0:0:0:
181,57,136187,1,8,0:2:0:0:
181,57,136359,1,8,0:2:0:0:
114,22,136532,5,8,0:2:0:0:
253,67,136704,37,8,0:2:0:0:
94,131,136876,5,8,0:1:0:0:
238,0,137049,5,8,0:1:0:0:
157,64,137221,6,0,P|95:43|36:17,1,129.375004935265,2|0,3:3|1:2,0:0:0:0:
36,17,137825,1,0,1:2:0:0:
36,17,137911,1,8,0:2:0:0:
282,93,138083,2,0,P|261:101|241:108,1,43.1250016450883,12|0,1:3|0:0,0:0:0:0:
335,148,138428,1,8,1:1:0:0:
512,0,138601,5,14,1:1:0:0:
316,5,138773,2,0,P|364:65|439:80,1,155.250000592232,4|0,1:1|1:2,0:0:0:0:
242,107,139290,6,0,P|204:116|165:117,1,77.6250002961159,8|0,0:2|0:0,0:0:0:0:
218,218,139635,1,2,1:1:0:0:
148,205,139807,2,0,P|113:222|75:230,1,77.6250002961159,2|0,1:1|0:0,0:0:0:0:
68,302,140325,2,0,P|38:326|4:344,1,77.6250002961159,0|0,1:2|0:0,0:0:0:0:
328,266,140669,69,8,0:2:0:0:
389,227,140842,2,0,B|409:193|409:193|418:155,1,77.6250002961159
469,240,141187,1,0,0:0:0:0:
284,106,141359,1,2,1:1:0:0:
344,45,141532,2,0,P|420:53|491:24,1,155.250000592232,0|0,1:2|1:2,0:0:0:0:
350,126,142049,2,0,P|311:134|275:146,1,77.6250002961159,8|0,0:2|0:0,0:0:0:0:
99,16,142394,5,2,1:1:0:0:
91,93,142566,2,0,B|63:126|63:126|51:158,1,77.6250002961159,2|0,1:1|0:0,0:0:0:0:
121,183,142911,69,0,0:0:0:0:
4,88,143083,1,0,1:2:0:0:
160,120,143256,5,0,0:0:0:0:
159,243,143428,2,0,P|226:278|302:268,1,155.250000592232,8|0,0:2|0:0,0:0:0:0:
207,189,143945,69,0,0:0:0:0:
207,189,144032,1,0,0:0:0:0:
207,189,144118,1,2,1:1:0:0:
110,300,144290,2,0,P|110:338|120:376,1,77.6250002961159,0|0,1:2|0:0,0:0:0:0:
303,269,144635,6,0,B|302:231|302:231|312:192,1,77.6250002961159,0|8,1:2|0:2,0:0:0:0:
384,166,145152,2,0,P|410:138|444:118,1,77.6250002961159,2|2,1:1|1:1,0:0:0:0:
503,162,145497,69,0,0:0:0:0:
350,42,145669,1,0,0:0:0:0:
424,17,145842,5,0,1:2:0:0:
424,17,146187,1,8,0:2:0:0:
329,114,146359,1,0,0:0:0:0:
265,12,146532,1,0,0:0:0:0:
222,68,146704,70,0,P|232:105|238:143,1,77.6250002961159,0|2,0:0|1:1,0:0:0:0:
180,214,147049,2,0,B|268:224|241:260|326:255,1,155.250000592232,0|0,1:2|1:2,0:0:0:0:
334,262,147480,1,0,0:0:0:0:
334,262,147566,2,0,B|377:266|377:266|409:276,1,77.6250002961159,8|0,0:2|0:1,0:0:0:0:
190,302,147911,1,2,1:1:0:0:
304,363,148083,2,0,P|342:356|378:343,1,77.6250002961159,2|4,1:1|0:2,0:0:0:0:
409,276,148428,1,0,0:0:0:0:
230,360,148601,5,0,1:2:0:0:
135,346,148773,1,0,0:0:0:0:
262,295,148945,69,8,0:2:0:0:
70,375,149118,1,8,0:3:0:0:
29,255,149290,5,4,0:3:0:0:
122,274,149463,1,4,1:3:0:0:
180,214,149635,69,6,1:1:0:0:
154,149,149807,2,0,P|125:77|122:0,1,155.250000592232,4|0,1:1|1:2,0:0:0:0:
192,19,150325,6,0,B|218:47|218:47|236:82,1,77.6250002961159,8|0,0:2|0:0,0:0:0:0:
48,77,150669,1,2,1:1:0:0:
302,102,150842,2,0,P|263:107|225:114,1,77.6250002961159,2|0,1:1|0:0,0:0:0:0:
353,154,151187,1,0,0:0:0:0:
266,223,151359,2,0,B|185:237|205:273|121:273,1,155.250000592232,0|12,1:2|0:2,0:0:0:0:
213,327,151876,2,0,B|252:334|252:334|287:349,1,77.6250002961159,2|0,0:3|0:0,0:0:0:0:
342,306,152221,69,0,0:0:0:0:
152,364,152394,1,2,1:1:0:0:
353,378,152566,5,0,1:2:0:0:
487,318,152738,2,0,P|451:303|413:295,1,77.6250002961159,0|0,0:0|1:2,0:0:0:0:
435,375,153083,69,8,0:2:0:0:
498,245,153256,2,0,B|492:207|492:207|477:170,1,77.6250002961159,0|2,0:0|1:1,0:0:0:0:
398,225,153601,2,0,P|367:201|338:175,1,77.6250002961159,2|0,1:1|0:0,0:0:0:0:
282,218,153945,1,0,0:0:0:0:
415,137,154118,5,0,1:2:0:0:
391,71,154290,1,0,0:0:0:0:
293,74,154463,70,0,P|279:110|274:148,1,77.6250002961159,12|0,0:2|0:0,0:0:0:0:
207,83,154807,2,0,B|193:47|193:47|188:9,1,77.6250002961159
282,218,155152,5,2,1:1:0:0:
247,282,155325,2,0,P|177:316|100:317,1,155.250000592232,0|0,1:2|1:2,0:0:0:0:
18,213,155842,70,0,B|55:220|55:220|89:240,1,77.6250002961159,8|0,0:2|0:0,0:0:0:0:
309,325,156187,1,2,1:1:0:0:
345,261,156359,2,0,P|384:247|415:227,1,77.6250002961159,2|0,1:1|0:0,0:0:0:0:
454,299,156704,1,0,0:0:0:0:
247,281,156876,2,0,P|231:205|225:128,1,155.250000592232,0|8,1:2|0:2,0:0:0:0:
290,80,157394,1,0,0:0:0:0:
362,125,157566,1,0,0:0:0:0:
302,164,157738,1,0,0:0:0:0:
142,52,157911,5,6,1:1:0:0:
320,12,158083,1,2,1:2:0:0:
267,66,158256,1,2,0:2:0:0:
208,20,158428,1,2,1:2:0:0:
403,98,158601,2,0,B|409:139|409:139|411:176,1,77.6250002961159,8|0,0:2|0:0,0:0:0:0:
226,129,158945,70,0,B|190:130|151:109|151:109|111:127|63:128,1,155.250000592232,6|0,1:2|0:0,0:2:0:0:
0,219,159463,1,0,0:0:0:0:
57,272,159635,5,2,1:1:0:0:
57,272,159980,2,0,B|98:261|98:261|133:259,1,77.6250002961159,8|8,0:1|0:3,0:0:0:0:
9,327,160325,1,2,3:1:0:0:
16,335,160411,1,0,3:2:0:0:
16,335,160497,1,4,0:3:0:0:
308,336,160669,69,6,1:1:0:0:
341,272,160842,2,0,B|327:246|334:215|334:215|318:288|229:327,1,166.750005088806,4|0,1:1|1:2,0:0:0:0:
405,233,161359,6,0,P|414:214|428:198,2,41.6875012722016,8|0|0,0:2|0:0|0:0,0:0:0:0:
334,215,161704,1,2,1:1:0:0:
278,305,161876,70,0,P|218:296|193:242,1,125.062503816605,2|0,1:1|2:0,0:0:0:0:
193,242,162221,2,0,P|212:212|233:241,1,83.3750025444031,4|0,0:2|1:2,0:0:0:0:
123,191,162566,2,0,P|98:157|89:117,1,83.3750025444031,0|8,0:0|0:2,0:0:0:0:
98,46,162911,1,0,0:0:0:0:
178,144,163083,1,0,0:0:0:0:
71,239,163256,1,0,0:0:0:0:
171,72,163428,5,2,1:1:0:0:
282,176,163601,2,0,B|327:155|327:155|326:146|326:146|282:50,1,163.874995624065,0|0,1:2|2:0,0:0:0:0:
282,50,163945,69,0,1:2:0:0:
373,70,164118,2,0,B|409:95|409:95|448:104,1,83.3750025444031,8|0,0:2|0:0,0:0:0:0:
479,189,164463,1,2,1:1:0:0:
421,349,164635,1,2,1:1:0:0:
512,303,164807,1,0,0:0:0:0:
380,237,164980,5,0,0:0:0:0:
326,155,165152,2,0,B|303:137|286:148|286:148|311:153|330:176,1,83.3750025444031,4|0,1:2|0:0,0:0:0:0:
480,232,165497,2,0,B|507:221|506:200|506:200|489:220|459:224,1,83.3750025444031,12|0,0:2|0:0,0:0:0:0:
340,332,165842,2,0,B|335:360|353:370|353:370|345:345|356:318,1,83.3750025444031,6|0,0:1|0:0,0:0:0:0:
269,220,166187,69,2,1:1:0:0:
214,176,166359,2,0,B|158:263|158:263|264:251|264:251|270:208,1,241.499992630005,0|0,1:2|1:2,0:0:0:0:
342,137,166876,1,12,0:2:0:0:
342,137,166963,1,0,0:0:0:0:
342,137,167049,2,0,P|309:122|310:157,1,83.3750025444031,0|2,0:0|1:1,0:0:0:0:
214,176,167394,2,0,P|167:204|113:200,1,109.24999708271,2|4,1:1|0:2,0:0:0:0:
352,211,167738,5,0,0:0:0:0:
149,126,167911,2,0,B|138:102|138:102|134:74,2,54.6249985413552,2|0|0,1:3|2:3|1:3,0:0:0:0:
332,194,168256,69,10,0:1:0:0:
248,134,168428,1,0,0:0:0:0:
324,123,168601,5,0,0:0:0:0:
235,208,168773,1,0,0:0:0:0:
365,211,168945,69,2,1:1:0:0:
365,211,169032,1,0,0:0:0:0:
365,211,169118,1,0,1:2:0:0:
206,160,169290,1,0,0:0:0:0:
336,81,169463,5,0,1:2:0:0:
226,262,169635,1,10,0:1:0:0:
426,145,169807,69,0,0:0:0:0:
231,87,169980,1,0,1:2:0:0:
288,166,170152,5,0,1:2:0:0:
149,106,170325,1,2,0:1:0:0:
260,69,170497,69,0,0:0:0:0:
108,169,170669,1,0,1:2:0:0:
176,0,170842,5,0,0:0:0:0:
141,212,171014,1,14,0:1:0:0:
141,212,171101,1,4,0:3:0:0:
141,212,171187,1,8,0:3:0:0:
16,30,171359,2,0,B|26:71|16:95|16:95|28:113|34:139,1,109.24999708271,4|4,0:3|1:3,0:0:0:0:
26,174,171618,1,12,0:3:0:0:
0,210,171704,70,2,B|16:231|16:231|26:266|26:266|73:278|73:278|80:333|80:333|75:347|75:347|19:362|19:362|-1:328,1,250.125007633209,4|0,1:2|1:2,0:1:0:0:
119,292,172394,1,10,0:1:0:0:
229,333,172566,2,0,P|269:343|306:361,1,83.3750025444031,0|2,0:0|1:1,0:0:0:0:
306,270,172911,2,0,B|266:236|266:236|267:228|267:228|355:163,1,166.750005088806,2|0,1:1|0:0,0:0:0:0:
446,171,173428,6,0,B|441:196|422:205|422:205|435:182|433:155,1,83.3750025444031,4|0,1:2|0:0,0:0:0:0:
352,165,173773,1,8,0:2:0:0:
327,93,173945,1,0,0:0:0:0:
392,43,174118,1,0,0:0:0:0:
299,84,174290,1,0,0:0:0:0:
203,150,174463,69,2,1:1:0:0:
58,181,174635,2,0,B|62:163|62:163|112:144|112:144|156:168|218:146,1,166.750005088806,0|0,1:2|1:2,0:0:0:0:
65,273,175152,6,0,B|90:268|99:249|99:249|76:262|49:260,1,83.3750025444031,14|0,0:1|0:0,0:0:0:0:
159,80,175497,69,2,1:1:0:0:
59,0,175669,2,0,B|49:46|49:46|51:53|51:53|159:80,1,166.750005088806,2|0,1:1|0:0,0:0:0:0:
231,20,176187,6,0,B|245:41|238:61|238:61|231:35|210:17,1,83.3750025444031,4|0,1:2|0:0,0:0:0:0:
296,219,176532,2,0,B|265:227|253:211|253:211|276:220|304:210,1,83.3750025444031,12|0,0:2|0:0,0:0:0:0:
329,87,176876,2,0,B|316:123|286:129|286:129|314:114|320:71,1,115,6|0,0:1|0:0,0:0:0:0:
449,11,177221,1,0,1:2:0:0:
502,101,177394,2,0,P|517:32|449:11,1,155.250000592232,0|0,1:2|1:2,0:0:0:0:
329,87,177911,69,10,0:1:0:0:
434,178,178083,1,0,0:0:0:0:
296,219,178256,5,2,1:1:0:0:
160,80,178428,2,0,B|146:143|146:143|118:158|118:158|105:183|105:183|108:189|108:189|127:222,1,166.750005088806,2|0,1:1|0:0,0:0:0:0:
84,306,178945,70,0,P|50:298|73:272,1,83.3750025444031,4|0,1:2|0:0,0:0:0:0:
126,220,179290,2,0,P|166:227|206:240,1,83.3750025444031,12|0,0:1|0:0,0:0:0:0:
175,307,179635,5,2,0:3:0:0:
33,198,179807,1,2,0:3:0:0:
206,241,179980,69,2,1:2:0:0:
84,306,180152,1,2,1:2:0:0:
126,220,180325,5,2,0:2:0:0:
248,301,180497,2,0,B|268:340|268:340|274:379,1,83.3750025444031,2|8,1:2|0:2,0:0:0:0:
142,375,180842,69,0,0:0:0:0:
278,234,181014,1,2,1:3:0:0:
394,229,181187,6,0,P|435:234|476:231,1,83.3750025444031,0|4,1:2|0:2,0:0:0:0:
476,230,181704,1,0,1:2:0:0:
344,288,181876,69,0,0:0:0:0:
344,288,181963,1,0,0:0:0:0:
344,288,182049,1,8,0:2:0:0:
512,202,182221,2,0,B|467:211|467:211|434:229,1,83.3750025444031,8|0,0:3|0:0,0:0:0:0:
443,303,182566,37,4,1:3:0:0:
425,148,182738,2,0,P|361:135|297:131,1,129.375004935265,4|0,1:1|3:2,0:0:0:0:
289,41,183428,2,0,P|353:54|417:58,1,129.375004935265,10|0,0:2|3:2,0:0:0:0:
298,131,184118,2,0,P|277:126|255:122,2,43.1250016450883,2|0|0,3:3|0:0|3:2,0:0:0:0:
269,211,184635,1,0,3:2:0:0:
200,182,184807,2,0,P|178:185|157:190,1,43.1250016450883,10|0,0:2|0:0,0:0:0:0:
130,263,185152,2,0,P|111:274|94:287,1,43.1250016450883,2|2,3:2|3:3,0:0:0:0:
271,215,185497,6,0,P|247:274|247:339,1,129.375004935265,2|0,1:2|3:2,0:0:0:0:
325,267,186187,2,0,B|348:271|348:271|368:272,1,43.1250016450883,8|0,0:2|0:0,0:0:0:0:
428,216,186532,1,0,3:2:0:0:
247,339,186704,2,0,L|290:334,2,43.1250016450883,0|2|0,3:2|3:3|0:0,0:0:0:0:
178,350,187221,1,0,3:2:0:0:
130,263,187394,2,0,L|87:258,1,43.1250016450883,0|8,3:2|0:2,0:0:0:0:
110,335,187738,2,0,P|124:350|142:362,1,43.1250016450883,0|0,0:0|3:2,0:0:0:0:
43,348,188083,1,2,3:3:0:0:
214,251,188256,6,0,P|171:253|129:262,1,86.2500032901765,6|0,1:2|3:2,0:0:0:0:
263,189,188773,1,0,3:2:0:0:
263,189,188945,2,0,P|222:174|180:166,1,86.2500032901765,10|0,0:2|3:2,0:0:0:0:
331,150,189462,1,0,3:2:0:0:
331,150,189635,2,0,P|299:120|263:96,1,86.2500032901765,2|0,3:3|3:2,0:0:0:0:
408,140,190152,1,0,3:2:0:0:
408,140,190325,2,0,P|400:119|391:100,1,43.1250016450883,10|0,0:2|0:0,0:0:0:0:
484,152,190669,2,0,P|483:130|478:109,1,43.1250016450883,2|2,3:2|3:3,0:0:0:0:
353,225,191014,38,0,P|274:258|200:301,1,172.500006580353,2|8,1:2|0:2,0:0:0:0:
244,357,191876,2,0,L|286:362,1,43.1250016450883,0|0,0:0|3:2,0:0:0:0:
200,302,192221,2,0,L|157:307,1,43.1250016450883,0|2,3:2|3:3,0:0:0:0:
256,258,192566,1,0,0:0:0:0:
235,191,192738,1,0,3:2:0:0:
99,261,192911,6,0,P|79:269|58:275,2,43.1250016450883,0|8|0,3:2|0:2|0:0,0:0:0:0:
149,205,193428,1,0,3:2:0:0:
62,167,193601,1,2,3:3:0:0:
149,205,193773,2,0,P|210:185|273:170,1,129.375004935265,6|0,1:2|3:2,0:0:0:0:
311,99,194463,2,0,L|305:56,1,43.1250016450883,10|0,0:2|0:0,0:0:0:0:
384,72,194807,2,0,L|384:28,1,43.1250016450883,0|0,3:2|3:2,0:0:0:0:
439,152,195152,6,0,P|429:193|426:236,1,86.2500032901765,2|0,3:3|3:2,0:0:0:0:
498,257,195669,1,0,3:2:0:0:
328,245,195842,2,0,P|308:250|286:252,1,43.1250016450883,10|0,0:2|0:0,0:0:0:0:
380,309,196187,2,0,P|361:319|340:326,1,43.1250016450883,2|2,3:2|3:3,0:0:0:0:
231,370,196532,6,0,P|192:350|150:339,1,86.2500032901765,2|0,1:2|3:2,0:0:0:0:
88,372,197049,1,0,3:2:0:0:
197,279,197221,1,10,0:2:0:0:
126,270,197394,2,0,L|117:227,1,43.1250016450883,2|0,0:0|3:2,0:0:0:0:
206,191,197738,2,0,L|197:148,2,43.1250016450883,2|2|0,3:2|3:3|0:0,0:0:0:0:
281,195,198256,1,2,3:2:0:0:
319,128,198428,1,0,3:2:0:0:
356,186,198601,2,0,P|421:179|484:166,1,129.375004935265,10|2,0:2|3:3,0:0:0:0:
331,255,199290,38,0,B|287:273|287:273|257:298,1,86.2500032901765,4|0,1:2|3:2,0:0:0:0:
223,363,199807,1,0,3:2:0:0:
295,362,199980,2,0,L|337:355,1,43.1250016450883,8|0,0:2|0:0,0:0:0:0:
409,337,200325,1,0,3:2:0:0:
409,337,200497,1,0,3:2:0:0:
258,298,200669,1,2,3:3:0:0:
189,293,200842,2,0,P|146:287|103:283,1,86.2500032901765,0|0,0:0|3:2,0:0:0:0:
373,254,201359,2,0,P|436:252|484:293,1,129.375004935265,10|2,0:2|3:2,0:0:0:0:
311,194,202049,6,0,L|302:151,1,43.1250016450883,0|0,1:2|0:0,0:0:0:0:
185,74,202394,2,2,P|181:95|162:104,1,43.1250016450883,0|0,3:2|3:2,0:1:0:0:
36,113,202738,1,10,0:2:0:0:
36,113,202911,2,0,B|34:86|34:86|59:83,1,43.1250016450883,0|0,0:0|3:2,0:0:0:0:
163,105,203256,6,2,L|172:190,1,86.2500032901765,2|0,3:2|0:0,0:2:0:0:
145,310,203773,1,2,3:2:0:0:
183,233,203945,1,0,3:2:0:0:
46,211,204118,1,8,0:2:0:0:
61,295,204291,1,0,0:0:0:0:
113,244,204463,1,2,3:2:0:0:
123,173,204635,1,2,3:1:0:0:
256,192,206704,5,0,1:2:0:0:
256,192,206790,1,0,1:2:0:0:
256,192,206876,1,8,0:2:0:0:
497,89,207049,2,0,L|469:96,1,28.75,12|0,1:3|3:0,0:0:0:0:
512,0,207394,5,8,1:1:0:0:
343,203,207566,1,14,1:1:0:0:
271,66,207738,5,4,1:1:0:0:
417,171,207911,1,0,0:0:0:0:
296,138,208083,69,0,1:2:0:0:
382,7,208256,1,8,0:2:0:0:
381,86,208428,5,0,0:0:0:0:
246,0,208601,1,2,1:1:0:0:
444,50,208773,69,2,1:1:0:0:
219,126,208945,2,0,B|151:132|155:165|101:173,1,129.375004935265,0|0,0:0|2:0,0:0:0:0:
100,173,209290,6,0,B|51:172|51:172|14:164,1,86.2500032901765,0|0,1:2|0:0,0:0:0:0:
152,227,209635,1,8,0:2:0:0:
4,305,209807,69,0,0:0:0:0:
230,209,209980,1,4,0:2:0:0:
230,209,210066,1,2,2:2:0:0:
230,209,210152,1,0,0:0:0:0:
82,254,210325,5,2,1:1:0:0:
242,309,210497,1,0,1:2:0:0:
99,330,210842,70,0,P|138:347|180:352,1,86.2500032901765,0|8,1:2|0:2,0:0:0:0:
275,279,211187,2,0,B|258:324|258:324|253:362,1,86.2500032901765,0|2,0:0|1:1,0:0:0:0:
352,315,211532,6,0,P|353:228|333:145,1,172.500006580353,2|0,1:1|0:0,0:0:0:0:
219,99,212049,1,2,1:1:0:0:
262,156,212221,69,0,0:0:0:0:
385,53,212394,1,10,0:1:0:0:
268,44,212566,5,0,0:0:0:0:
449,8,212738,1,2,0:1:0:0:
403,129,212911,69,0,0:0:0:0:
327,0,213083,1,2,1:1:0:0:
271,49,213256,6,0,P|217:83|90:127,1,172.500006580353,0|0,1:2|1:2,0:0:0:0:
11,172,213773,2,0,B|56:180|56:180|92:197,1,86.2500032901765,8|0,0:2|0:0,0:0:0:0:
252,267,214118,69,2,1:1:0:0:
182,331,214290,2,0,P|141:344|99:350,1,86.2500032901765,2|0,1:1|0:0,0:0:0:0:
198,193,214635,1,0,0:0:0:0:
324,279,214807,1,0,1:2:0:0:
271,190,214980,1,0,0:0:0:0:
363,217,215152,2,0,B|409:222|409:222|449:220,1,86.2500032901765,8|0,0:2|0:0,0:0:0:0:
485,154,215497,5,0,0:0:0:0:
392,316,215669,2,0,P|358:342|317:356,1,86.2500032901765,0|2,0:0|1:1,0:0:0:0:
316,267,216014,2,0,P|348:212|399:172,1,129.375004935265,0|0,1:2|2:0,0:0:0:0:
399,172,216359,1,0,1:2:0:0:
305,124,216532,2,0,B|322:84|322:84|330:31,1,86.2500032901765,8|0,0:2|0:0,0:0:0:0:
399,10,216876,1,2,1:1:0:0:
238,76,217049,70,0,B|154:53|159:110|76:130,1,172.500006580353,2|0,1:1|0:0,0:0:0:0:
34,61,217566,1,0,1:2:0:0:
207,150,217738,5,0,0:0:0:0:
0,135,217911,1,8,0:2:0:0:
0,135,217997,1,4,0:3:0:0:
0,135,218083,1,8,0:3:0:0:
109,9,218256,69,4,0:3:0:0:
109,9,218342,1,4,0:3:0:0:
109,9,218428,1,4,1:3:0:0:
93,233,218601,1,6,1:1:0:0:
142,310,218773,6,0,B|202:291|220:339|313:287,1,172.500006580353,4|0,1:1|1:2,0:0:0:0:
287,158,219290,2,0,B|254:191|254:191|241:227,1,86.2500032901765,8|0,0:2|0:0,0:0:0:0:
360,173,219635,1,2,1:1:0:0:
228,117,219807,1,2,1:1:0:0:
373,251,219980,69,0,0:0:0:0:
438,286,220152,2,0,P|476:267|512:243,1,86.2500032901765,0|0,0:0|1:2,0:0:0:0:
385,101,220497,6,0,P|421:125|440:164,1,86.2500032901765,0|12,0:0|0:2,0:0:0:0:
362,31,220842,1,0,0:0:0:0:
495,99,221014,1,2,3:2:0:0:
495,99,221101,1,2,2:2:0:0:
495,99,221187,1,0,0:0:0:0:
315,90,221359,69,2,1:1:0:0:
158,136,221532,2,0,B|248:123|225:185|333:191,1,172.500006580353,2|0,1:1|1:2,0:0:0:0:
213,229,222049,6,0,B|229:274|229:274|257:300,1,86.2500032901765,8|0,0:2|0:0,0:0:0:0:
99,181,222394,1,2,1:1:0:0:
92,110,222566,2,0,P|86:67|77:24,1,86.2500032901765,2|0,1:1|0:0,0:0:0:0:
158,136,222911,1,0,0:0:0:0:
397,67,223083,2,0,P|354:72|314:89,1,86.2500032901765,2|0,1:1|0:0,0:0:0:0:
257,300,223428,2,0,B|281:255|281:255|287:219,1,86.2500032901765,14|0,0:1|0:0,0:0:0:0:
221,201,223773,69,2,0:1:0:0:
380,297,223945,1,0,0:0:0:0:
454,291,224118,6,0,P|457:250|475:183,1,86.2500032901765,2|0,1:1|1:2,0:0:0:0:
351,365,224463,2,0,P|345:324|349:255,1,86.2500032901765,0|0,0:0|1:2,0:0:0:0:
240,219,224807,2,0,P|227:133|233:47,1,172.500006580353,8|2,0:2|1:1,0:0:0:0:
152,68,225325,2,0,B|131:112|131:112|107:141,1,86.2500032901765,2|0,1:1|0:0,0:0:0:0:
301,88,225669,1,0,0:0:0:0:
36,141,225842,2,0,P|23:181|21:224,1,86.2500032901765,0|0,1:2|0:0,0:0:0:0:
176,376,226187,70,0,B|150:303|184:319|163:247,1,129.375004935265,12|0,0:2|2:0,0:0:0:0:
164,248,226532,2,0,B|167:204|167:204|178:163,1,86.2500032901765
245,329,226876,5,6,1:1:0:0:
83,275,227049,1,2,1:2:0:0:
241,257,227221,69,2,0:2:0:0:
87,384,227394,1,2,1:2:0:0:
176,376,227566,5,8,0:2:0:0:
306,288,227738,1,0,0:0:0:0:
476,281,227911,70,2,B|432:287|432:287|392:303,1,86.2500032901765,6|0,1:2|1:2,0:1:0:0:
364,366,228256,1,2,0:2:0:0:
436,216,228428,1,0,0:0:0:0:
479,364,228601,1,6,1:2:0:0:
479,364,228945,2,0,P|496:331|460:326,1,86.2500032901765,8|8,0:1|0:3,0:0:0:0:
393,303,229290,2,0,P|398:260|390:217,1,86.2500032901765,2|4,3:1|0:3,0:0:0:0:
390,218,229549,5,8,3:3:0:0:
390,218,229635,1,6,1:1:0:0:
366,201,229980,70,0,B|303:199|303:199|285:185|285:185|279:182|279:182|240:188,1,129.375004935265,0|0,1:2|2:0,0:0:0:0:
242,188,230325,2,0,P|209:163|236:141,1,86.2500032901765,8|0,0:2|0:0,0:0:0:0:
284,274,230669,5,2,1:1:0:0:
235,141,230842,2,0,B|208:103|228:99|206:57,1,86.2500032901765,2|0,0:1|1:2,0:0:0:0:
140,109,231187,69,0,0:0:0:0:
140,109,231359,2,2,B|75:113|75:113|69:110|69:110|100:42,1,129.375004935265,4|0,1:2|2:0,0:1:0:0:
92,57,231704,6,0,P|69:7|33:19,1,86.2500032901765,10|0,0:1|0:0,0:0:0:0:
235,141,232049,2,0,P|237:92|224:52,1,86.2500032901765,6|0,1:1|0:0,1:0:0:0:
169,178,232394,69,2,1:1:0:0:
342,48,232566,1,0,0:0:0:0:
398,110,232738,6,2,B|435:117|475:97|475:97|421:124|406:171,1,172.5,0|0,1:2|2:0,0:1:0:0:
410,160,233083,2,0,P|365:161|364:223,1,86.2500032901765,10|0,0:1|0:0,0:0:0:0:
485,171,233428,69,2,1:1:0:0:
407,250,233601,2,2,B|378:304|378:304|371:306|371:306|275:265,1,172.500006580353,6|0,0:2|0:0,0:1:0:0:
266,340,234118,5,4,1:2:0:0:
321,383,234290,1,0,0:0:0:0:
198,244,234463,69,12,0:2:0:0:
207,169,234635,2,0,P|239:148|235:185,1,86.2500032901765,8|0,0:3|1:2,0:0:0:0:
201,248,234980,6,0,B|194:288|166:303|166:303|152:273,1,86.2500032901765,8|4,0:3|1:2,0:0:0:0:
0,302,235325,2,0,P|42:309|79:331,1,86.2500032901765,2|0,0:1|1:2,0:0:0:0:
26,384,235669,69,0,0:0:0:0:
18,230,235842,1,10,0:1:0:0:
77,185,236014,2,0,B|84:149|84:149|80:142|80:142|43:119,1,86.2500032901765,0|2,0:0|1:1,0:0:0:0:
251,73,236359,1,2,0:1:0:0:
92,63,236532,2,0,B|110:72|110:72|161:98|161:98|172:100|172:100|258:71,1,172.500006580353,4|2,1:2|1:1,1:0:0:0:
356,83,237049,2,0,P|351:42|313:26,1,86.2500032901765,0|10,0:0|0:1,0:0:0:0:
417,128,237394,5,2,0:1:0:0:
251,73,237566,1,0,1:2:0:0:
486,97,237738,69,0,0:0:0:0:
486,97,237825,1,0,0:0:0:0:
486,97,237911,1,6,1:1:0:0:
353,160,238083,1,0,0:0:0:0:
420,53,238256,5,0,1:2:0:0:
259,169,238428,1,0,0:0:0:0:
479,167,238600,69,10,0:1:0:0:
314,26,238773,1,0,0:0:0:0:
210,227,238945,6,0,P|173:211|184:173,1,86.2500032901765,2|2,1:1|0:1,0:0:0:0:
153,335,239290,2,4,B|128:364|128:364|81:346|81:346|62:366|62:366|8:385,1,172.500006580353,4|4,1:2|1:3,1:0:0:0:
3,166,239807,69,8,0:3:0:0:
191,181,239980,1,10,0:1:0:0:
191,181,240066,1,4,0:3:0:0:
191,181,240152,1,8,0:3:0:0:
133,367,240325,5,6,0:1:0:0:
82,200,240497,1,4,1:3:0:0:
82,200,240583,1,12,0:3:0:0:
82,200,240669,1,6,1:1:0:0:
157,254,240842,70,0,P|185:222|190:180,1,86.2500032901765,0|0,0:0|1:2,0:0:0:0:
125,51,241187,2,2,P|98:81|124:111,1,86.2500032901765,4|8,0:3|0:2,0:1:0:0:
195,84,241532,6,0,B|209:62|209:62|213:45|213:45|239:5,1,86.2500032901765,8|4,0:3|1:3,0:0:0:0:
124,111,241876,1,10,0:1:0:0:
356,110,242049,1,2,1:1:0:0:
356,110,242221,2,0,P|314:122|275:140,1,86.2500032901765,0|6,0:0|1:3,0:0:0:0:
355,185,242566,69,8,0:3:0:0:
444,50,242738,1,10,0:1:0:0:
218,87,242911,1,2,0:1:0:0:
275,36,243083,1,4,1:2:0:0:
275,36,243169,1,8,2:0:0:0:
446,152,243342,1,8,2:0:0:0:
446,152,243428,2,0,P|453:194|443:235,1,86.2500032901765,6|8,1:1|0:3,0:0:0:0:
342,355,243773,6,2,B|294:340|294:340|292:334|292:334|306:302,1,86.2500032901765,4|0,1:3|0:0,0:1:0:0:
418,304,244118,1,14,0:1:0:0:
469,350,244290,1,0,0:0:0:0:
254,355,244463,1,2,1:1:0:0:
209,295,244635,2,0,P|188:293|167:284,2,43.1250016450883,2|10|2,0:1|2:0|1:2,0:0:0:0:
304,306,244980,1,0,0:0:0:0:
205,143,245152,70,2,B|173:146|146:126|146:126|196:170|209:221,1,172.500006580353,4|12,1:2|0:2,0:1:0:0:
366,205,245669,1,2,0:0:0:0:
236,43,245842,6,0,B|211:46|197:61|197:61|205:37|236:31,1,86.2500032901765,4|4,1:2|0:1,0:0:0:0:
369,209,246187,1,6,1:1:0:0:
422,158,246359,2,0,P|413:116|383:86,1,86.2500032901765,0|0,0:0|1:2,0:0:0:0:
236,43,246704,1,2,0:1:0:0:
215,213,246876,70,2,B|243:263|243:263|242:274|242:274|160:342,1,172.500006580353,10|4,0:1|1:2,1:0:0:0:
9,334,247394,2,0,P|24:294|66:287,1,86.2500032901765,0|4,0:0|1:3,0:0:0:0:
163,341,247738,6,0,B|181:366|181:366|208:373|208:373|194:360|190:347,1,86.2500032901765,8|4,0:3|1:3,0:0:0:0:
146,260,248083,1,2,0:0:0:0:
63,285,248256,2,0,P|54:328|49:371,1,86.2500032901765,10|0,0:1|0:0,0:0:0:0:
149,264,248601,2,0,P|172:227|177:185,1,86.2500032901765,2|0,1:1|0:0,0:0:0:0:
120,141,248945,69,2,1:2:0:0:
284,231,249118,1,2,1:2:0:0:
189,111,249290,5,2,0:2:0:0:
95,211,249463,1,2,1:2:0:0:
252,153,249635,69,8,0:2:0:0:
200,37,249807,1,0,0:2:0:0:
335,169,249980,6,0,B|350:205|381:241,1,86.2500032901765,2|0,1:2|0:0,0:0:0:0:
511,150,250325,2,0,B|467:159|467:159|432:181,1,86.2500032901765,6|0,1:1|0:0,0:0:0:0:
178,185,250669,69,2,0:2:0:0:
389,248,250842,1,0,0:0:0:0:
389,248,250928,1,0,3:2:0:0:
389,248,251014,1,10,1:2:0:0:
127,247,251187,6,0,P|199:275|303:272,1,172.500006580353,4|0,3:3|0:0,0:0:0:0:
256,192,251704,69,6,3:2:0:0:
256,192,251790,12,4,254549,1:1:0:0:
