osu file format v14

[General]
AudioFilename: audio.mp3
AudioLeadIn: 0
PreviewTime: 206014
Countdown: 0
SampleSet: Drum
StackLeniency: 0.7
Mode: 0
LetterboxInBreaks: 0
WidescreenStoryboard: 1

[Editor]
Bookmarks: 670,11704,28256,50325,61359,83428,105497,116532,127566,138601,182738,207566,229635,251704
DistanceSpacing: 0.6
BeatDivisor: 4
GridSize: 32
TimelineZoom: 1

[Metadata]
Title:Scream
TitleUnicode:Scream ~万魔殿パンデモニウム:煉獄編~
Artist:Masayoshi Soken
ArtistUnicode:祖堅正慶
Creator:Heroine
Version:Hard
Source:ファイナルファンタジーXIV: 暁月の終焉
Tags:AKINO english vocals japanese metal rock final fantasy xiv xiv: ff 14 Takafumi Imamura 今村貴文 endwalker some hero some_hero
BeatmapID:4227621
BeatmapSetID:2028756

[Difficulty]
HPDrainRate:5
CircleSize:4
OverallDifficulty:6.5
ApproachRate:8
SliderMultiplier:2.5
SliderTickRate:1

[Events]
//Background and Video events
0,0,"t.jpg",0,0
//Break Periods
2,11904,21988
2,50325,55092
2,86214,88368
2,91732,93023
2,97249,99403
2,102767,104057
2,127766,132333
2,182938,193023
2,204835,205954
//Storyboard Layer 0 (Background)
//Storyboard Layer 1 (Fail)
//Storyboard Layer 2 (Pass)
//Storyboard Layer 3 (Foreground)
//Storyboard Layer 4 (Overlay)
//Storyboard Sound Samples

[TimingPoints]
670,689.655172413793,4,3,1,60,1,0
11704,-100,4,2,1,45,0,0
22738,-133.333333333333,4,2,1,60,0,0
28256,-100,4,3,1,65,0,0
50152,-100,4,3,1,25,0,0
50325,-100,4,3,2,50,0,0
61359,-90.9090909090909,4,3,3,75,0,1
83256,-90.9090909090909,4,3,0,75,0,1
83428,-90.9090909090909,4,3,1,70,0,0
104922,-90.9090909090909,4,3,1,45,0,0
105497,-125,4,3,1,55,0,0
115325,-125,4,3,0,35,0,0
115497,-125,4,3,1,55,0,0
116532,-100,4,3,1,65,0,0
127394,-100,4,3,1,25,0,0
127566,-125,4,3,2,50,0,0
133773,-111.111111111111,4,3,2,50,0,0
134463,-100,4,3,2,50,0,0
135152,-90.9090909090909,4,3,2,50,0,0
137738,-90.9090909090909,4,3,1,60,0,0
138601,-90.9090909090909,4,3,0,75,0,1
138773,-90.9090909090909,4,3,3,75,0,1
182738,-90.9090909090909,4,3,3,70,0,0
182911,-90.9090909090909,4,2,0,50,0,0
193773,-133.333333333333,4,2,0,50,0,0
206704,-133.333333333333,4,2,1,60,0,0
207566,-90.9090909090909,4,3,0,75,0,1
207738,-90.9090909090909,4,3,3,75,0,1
229635,-90.9090909090909,4,3,3,80,0,1
251704,-100,4,3,0,15,0,0

[Colours]
Combo1 : 162,196,185
Combo2 : 176,106,155
Combo3 : 137,106,196
Combo4 : 149,168,196
Combo5 : 252,238,209
Combo6 : 157,251,239

[HitObjects]
67,306,670,5,4,1:1:0:0:
124,236,842,2,0,P|185:227|246:210,1,125,4|0,1:2|1:2,0:0:0:0:
325,243,1359,1,8,0:2:0:0:
448,136,1704,1,0,1:2:0:0:
390,78,1876,2,0,P|328:86|267:103,1,125,0|0,1:2|0:0,0:0:0:0:
205,57,2394,2,0,B|174:55|174:55|144:44,1,62.5,0|0,1:2|0:0,0:0:0:0:
191,140,2738,5,10,0:1:0:0:
445,306,3428,5,0,1:2:0:0:
388,236,3600,2,0,P|327:227|266:210,1,125,0|0,1:2|1:2,0:0:0:0:
199,258,4118,2,0,P|194:293|193:320,1,62.5,8|0,0:2|0:0,0:0:0:0:
128,227,4463,1,0,1:2:0:0:
128,227,4635,2,0,B|127:196|127:196|122:164,1,62.5,0|2,1:2|0:3,0:0:0:0:
190,113,4980,37,0,0:0:0:0:
190,113,5152,2,0,P|193:143|202:173,1,62.5,0|0,1:2|0:0,0:0:0:0:
138,52,5497,2,0,P|109:39|78:32,1,62.5,10|2,0:2|2:2,0:0:0:0:
222,41,5842,2,0,P|246:22|268:0,1,62.5,6|2,2:2|2:2,0:0:0:0:
343,54,6187,5,0,1:2:0:0:
361,137,6359,2,0,P|422:122|479:95,1,125,0|0,1:2|1:2,0:0:0:0:
478,17,6876,1,8,0:2:0:0:
443,195,7221,1,0,1:2:0:0:
443,195,7394,2,0,B|444:229|444:229|449:256,1,62.5,0|2,1:2|0:3,0:0:0:0:
451,334,7738,1,0,0:0:0:0:
380,356,7911,1,0,1:2:0:0:
380,356,8083,1,0,0:0:0:0:
294,297,8256,6,0,P|229:284|171:273,1,125,10|0,0:1|0:0,0:0:0:0:
48,105,8945,5,0,1:2:0:0:
131,148,9118,2,0,P|137:86|129:24,1,125,0|0,1:2|1:2,0:0:0:0:
220,33,9635,2,0,B|225:69|225:69|236:92,1,62.5,8|0,0:2|0:0,0:0:0:0:
314,96,9980,1,0,1:2:0:0:
348,29,10152,1,0,1:2:0:0:
487,89,10497,1,0,0:0:0:0:
487,89,10669,1,0,1:2:0:0:
487,89,10842,1,0,0:0:0:0:
449,153,11014,38,0,P|418:144|387:141,1,62.5,8|2,0:2|0:1,0:0:0:0:
350,208,11359,2,0,B|360:236|360:236|359:243|359:243|314:258,1,62.5,10|2,1:1|3:1,0:0:0:0:
256,192,11704,5,4,1:1:0:0:
185,324,22738,6,0,P|170:256|153:187,2,140.625005364418,4|2|2,1:1|0:2|3:2,0:0:0:0:
261,360,23945,1,2,0:3:0:0:
301,298,24118,2,0,L|293:251,1,46.8750017881394,2|0,0:2|0:0,0:0:0:0:
372,261,24463,2,0,L|379:214,1,46.8750017881394,4|0,3:2|3:2,0:0:0:0:
309,163,24807,2,0,P|276:161|239:149,2,70.3125026822091,8|2|2,0:2|0:3|0:3,0:0:0:0:
380,215,25497,6,0,B|382:165|400:161|391:66,1,140.625005364418,2|2,1:2|0:0,0:0:0:0:
325,27,26187,2,0,P|279:39|233:48,1,93.7500035762788,8|6,0:2|0:1,0:0:0:0:
181,102,26704,1,0,0:0:0:0:
101,80,26876,1,2,3:2:0:0:
55,141,27049,1,0,3:2:0:0:
93,202,27221,2,0,B|94:230|94:230|91:248,1,46.8750017881394,0|0,1:2|3:2,0:0:0:0:
123,321,27566,38,0,B|138:333|138:333|147:319|147:319|169:325,1,46.8750017881394,2|8,1:2|0:1,0:0:0:0:
49,316,27911,6,0,B|33:303|33:303|24:317|24:317|2:311,1,46.8750017881394,4|8,1:3|1:3,0:0:0:0:
79,384,28256,5,6,1:1:0:0:
223,274,28601,1,0,1:2:0:0:
223,274,28687,1,0,1:2:0:0:
223,274,28773,1,0,1:2:0:0:
298,300,28945,2,0,P|296:332|295:363,2,62.5,8|0|0,0:2|1:2|0:0,0:0:0:0:
348,244,29463,1,2,1:1:0:0:
512,81,30669,6,0,B|449:61|452:88|388:59,1,125,2|2,0:1|1:1,0:0:0:0:
331,20,31187,2,0,B|342:51|342:51|343:80,1,62.5,0|0,0:0|1:2,0:0:0:0:
343,80,31445,1,0,1:2:0:0:
343,80,31532,1,0,1:2:0:0:
282,150,31704,1,8,0:2:0:0:
209,102,31876,1,0,1:2:0:0:
149,154,32049,1,0,0:0:0:0:
149,154,32221,1,2,1:1:0:0:
366,317,32911,37,2,1:1:0:0:
427,273,33083,1,8,0:2:0:0:
393,201,33256,1,0,0:0:0:0:
311,222,33428,2,0,P|280:230|250:236,1,62.5,2|0,0:1|3:2,0:0:0:0:
211,176,33773,6,0,P|207:239|196:300,1,125,2|0,1:1|1:2,0:0:0:0:
196,300,34204,1,0,1:2:0:0:
196,300,34290,1,0,1:2:0:0:
130,348,34463,1,8,0:2:0:0:
64,318,34635,2,0,P|58:287|57:256,2,62.5,0|0|2,1:2|0:0|1:1,0:0:0:0:
149,52,36187,6,0,B|214:58|214:58|279:86,1,125,2|2,0:1|1:1,0:0:0:0:
335,33,36704,2,0,P|320:64|312:101,1,62.5,0|0,0:0|1:2,0:0:0:0:
313,91,36963,1,0,1:2:0:0:
313,91,37049,1,0,1:2:0:0:
383,161,37221,1,8,0:2:0:0:
428,97,37394,2,0,B|461:98|461:98|489:92,2,62.5,0|0|2,1:2|0:0|1:1,0:0:0:0:
269,225,38083,5,2,1:1:0:0:
269,225,38256,1,2,1:1:0:0:
209,273,38428,1,0,1:2:0:0:
135,240,38601,2,0,P|104:246|73:253,1,62.5,10|0,0:1|0:0,0:0:0:0:
72,174,38945,2,0,P|41:167|10:160,1,62.5,2|2,0:1|3:3,0:0:0:0:
96,86,39290,38,0,P|186:67|275:94,1,187.5,6|2,1:1|1:1,0:0:0:0:
362,82,39980,1,10,0:1:0:0:
362,82,40152,1,0,1:2:0:0:
412,145,40325,2,0,P|400:175|396:206,1,62.5,2|2,0:1|1:1,0:0:0:0:
274,254,40842,2,0,P|256:279|244:308,1,62.5,2|2,1:1|1:1,0:0:0:0:
437,229,41359,2,0,P|409:285|380:341,1,125,10|2,0:1|0:3,0:0:0:0:
311,359,41876,1,2,0:3:0:0:
244,308,42049,1,2,1:3:0:0:
171,321,42221,6,0,P|168:290|161:259,1,62.5,2|0,0:1|1:2,0:0:0:0:
67,132,42738,1,10,0:1:0:0:
67,131,42911,2,0,P|60:194|49:255,1,125,0|2,1:2|1:1,0:0:0:0:
162,259,43428,2,0,L|229:242,1,62.5,4|0,1:2|1:2,0:0:0:0:
266,170,43773,2,0,L|249:103,1,62.5,2|0,1:1|0:0,0:0:0:0:
346,56,44118,2,0,L|413:73,1,62.5,10|0,0:1|0:0,0:0:0:0:
450,144,44463,2,0,B|418:202|418:202|414:261,1,125,2|2,0:1|1:1,0:2:0:0:
489,289,44980,6,0,P|428:306|373:335,1,125,2|2,0:1|1:1,0:0:0:0:
312,377,45497,2,0,P|282:365|252:356,1,62.5,10|0,0:1|1:2,0:0:0:0:
217,283,45842,1,2,0:1:0:0:
281,250,46014,1,2,1:1:0:0:
123,217,46359,5,2,1:1:0:0:
123,217,46532,2,0,P|100:238|73:254,1,62.5,2|0,1:1|1:2,0:0:0:0:
43,182,46876,2,0,L|62:122,1,62.5,10|0,0:1|0:0,0:0:0:0:
90,51,47221,1,2,0:3:0:0:
90,51,47394,1,2,0:3:0:0:
175,104,47566,38,0,P|237:98|298:85,2,125,2|0|10,1:3|1:2|0:1,0:0:0:0:
216,177,48428,1,0,1:2:0:0:
287,201,48601,2,0,B|318:199|318:199|345:184,1,62.5,2|6,0:1|1:1,0:0:0:0:
432,125,48945,5,2,2:2:0:0:
142,287,55842,5,10,0:1:0:0:
181,268,56532,5,10,0:1:0:0:
232,245,57221,37,10,0:1:0:0:
299,215,57911,5,10,0:1:0:0:
478,126,58428,5,10,0:1:0:0:
478,126,58601,2,0,B|477:95|477:95|472:63,1,62.5,8|0,0:1|0:0,0:0:0:0:
408,171,58945,6,0,B|409:202|409:202|413:233,1,62.5,8|8,0:2|0:2,0:0:0:0:
348,123,59290,37,8,0:2:0:0:
275,113,59463,5,8,0:2:0:0:
204,150,59635,5,8,0:1:0:0:
144,217,59807,6,0,P|114:228|84:235,1,62.5,8|2,0:1|3:3,0:0:0:0:
95,244,61359,5,6,1:1:0:0:
136,312,61532,2,0,P|202:300|243:247,1,137.500004196167,4|0,1:1|1:2,0:0:0:0:
194,184,62049,5,8,0:1:0:0:
112,86,62394,1,2,1:1:0:0:
154,21,62566,1,2,1:1:0:0:
286,21,62911,1,0,0:0:0:0:
317,93,63083,1,0,1:2:0:0:
317,93,63256,1,0,0:0:0:0:
394,66,63428,2,0,P|379:34|369:1,2,68.7500020980836,8|0|0,0:2|0:0|0:0,0:0:0:0:
435,249,64118,69,2,1:1:0:0:
357,247,64290,2,0,P|312:295|333:357,1,137.500004196167,0|0,1:2|1:2,0:0:0:0:
406,352,64807,5,8,0:1:0:0:
229,274,65152,1,2,1:1:0:0:
176,319,65325,1,2,1:1:0:0:
55,260,65669,1,0,0:0:0:0:
0,306,65842,1,0,1:2:0:0:
122,174,66187,2,0,P|114:140|104:107,1,68.7500020980836,8|0,0:2|0:0,0:0:0:0:
193,156,66532,2,0,P|185:122|175:90,1,68.7500020980836
232,43,66876,69,2,1:1:0:0:
305,98,67049,2,0,P|372:100|432:67,1,137.500004196167,0|0,1:2|1:2,0:0:0:0:
441,154,67566,2,0,P|428:187|421:220,1,68.7500020980836,8|0,0:2|0:0,0:0:0:0:
413,299,67911,1,2,1:1:0:0:
443,371,68083,5,2,1:1:0:0:
443,371,68256,1,0,0:0:0:0:
240,336,68601,1,0,1:2:0:0:
37,301,68945,1,8,0:2:0:0:
37,301,69118,2,0,P|70:292|100:276,1,68.7500020980836
177,265,69463,2,0,B|171:231|171:231|152:201,1,68.7500020980836,0|2,0:0|1:1,0:0:0:0:
78,197,69807,1,0,1:2:0:0:
300,228,70152,69,0,1:2:0:0:
370,256,70325,2,0,P|437:241|499:214,1,137.500004196167,8|2,0:2|1:1,0:0:0:0:
512,136,70842,1,2,1:1:0:0:
361,49,71187,1,0,0:0:0:0:
361,49,71359,1,0,1:2:0:0:
296,91,71532,2,0,B|281:127|281:127|278:156,1,68.7500020980836,0|8,0:0|0:2,0:0:0:0:
277,156,71790,1,4,0:3:0:0:
277,156,71876,1,8,0:3:0:0:
160,278,72221,5,4,1:3:0:0:
160,278,72307,1,0,0:0:0:0:
160,278,72394,1,6,1:1:0:0:
82,241,72566,2,0,P|59:176|28:115,1,137.500004196167,4|0,1:1|1:2,0:0:0:0:
132,66,73083,2,0,P|133:100|128:134,1,68.7500020980836,8|0,0:2|0:0,0:0:0:0:
176,191,73428,69,2,1:1:0:0:
241,233,73601,1,2,1:1:0:0:
384,180,73945,1,0,0:0:0:0:
390,108,74118,1,0,1:2:0:0:
243,24,74463,2,0,P|141:36|48:80,1,206.250006294251,8|0,0:2|0:0,0:0:0:0:
16,156,75152,5,2,1:1:0:0:
16,156,75325,2,0,P|25:190|28:224,1,68.7500020980836,0|0,1:2|0:0,0:0:0:0:
87,269,75669,1,0,1:2:0:0:
87,269,75842,2,0,B|62:299|62:299|49:326,1,68.7500020980836,8|0,0:2|0:0,0:0:0:0:
0,384,76187,69,2,1:1:0:0:
0,384,76359,1,2,1:1:0:0:
204,347,76704,1,0,0:0:0:0:
204,347,76876,1,0,1:2:0:0:
409,303,77221,2,0,P|382:203|372:100,1,206.250006294251,8|0,0:2|0:0,0:0:0:0:
401,35,77911,6,0,P|432:47|467:51,1,68.7500020980836,2|0,1:1|1:2,0:0:0:0:
248,0,78428,2,0,P|216:12|181:16,1,68.7500020980836,0|8,1:2|0:2,0:0:0:0:
143,167,78945,1,2,1:1:0:0:
66,170,79118,2,0,B|34:157|34:157|0:153,1,68.7500020980836,2|0,1:1|0:0,0:0:0:0:
13,239,79463,1,0,0:0:0:0:
57,303,79635,2,0,P|121:325|190:330,2,137.500004196167,0|8|0,1:2|0:2|0:0,0:0:0:0:
219,252,80669,69,2,1:1:0:0:
219,252,80842,1,0,1:2:0:0:
293,276,81014,1,0,0:0:0:0:
324,206,81187,2,0,P|317:172|315:138,2,68.7500020980836,0|8|0,1:2|0:2|0:0,0:0:0:0:
397,232,81704,1,2,1:1:0:0:
397,232,81876,2,0,P|446:185|504:149,1,137.500004196167,2|0,1:1|0:0,0:0:0:0:
505,69,82394,5,0,1:2:0:0:
353,21,82738,1,8,0:2:0:0:
353,21,82825,1,4,0:3:0:0:
353,21,82911,1,8,0:3:0:0:
219,149,83256,1,4,1:3:0:0:
219,149,83342,1,12,0:3:0:0:
219,149,83428,2,0,B|181:157|181:157|151:156,1,68.7500020980836,4|0,1:1|1:2,0:0:0:0:
95,96,83773,21,2,0:1:0:0:
95,96,83945,1,2,1:1:0:0:
16,226,84290,5,2,0:1:0:0:
16,226,84462,1,2,1:1:0:0:
16,226,84635,1,2,1:1:0:0:
123,320,84980,5,2,0:1:0:0:
154,313,85152,1,2,1:1:0:0:
133,285,85325,1,2,0:1:0:0:
241,183,85669,37,2,0:1:0:0:
241,129,85841,1,2,0:1:0:0:
288,159,86014,1,2,0:1:0:0:
417,288,89118,5,0,1:2:0:0:
417,288,89290,1,2,0:1:0:0:
417,288,89462,1,2,1:1:0:0:
471,166,89807,5,2,0:1:0:0:
464,135,89979,1,2,1:1:0:0:
436,156,90152,1,2,1:1:0:0:
323,196,90496,5,2,0:1:0:0:
269,196,90668,1,2,1:1:0:0:
299,149,90841,1,2,0:1:0:0:
166,68,91187,37,2,0:1:0:0:
89,57,91359,1,2,0:1:0:0:
119,125,91532,1,2,0:1:0:0:
235,318,93773,5,10,0:2:0:0:
299,349,93945,2,2,B|282:309|282:309|288:286|286:255|286:255|265:215,1,137.500004196167,0|0,0:0|0:0,0:1:0:0:
293,149,94463,6,0,B|331:157|331:157|361:156,1,68.7500020980836,4|0,1:1|1:2,0:0:0:0:
417,96,94808,5,2,0:1:0:0:
417,96,94980,1,2,1:1:0:0:
496,226,95325,37,2,0:1:0:0:
496,226,95497,1,2,1:1:0:0:
496,226,95670,1,2,1:1:0:0:
389,320,96015,5,2,0:1:0:0:
358,313,96187,1,2,1:1:0:0:
379,285,96360,1,2,0:1:0:0:
271,183,96704,5,2,0:1:0:0:
271,129,96876,1,2,0:1:0:0:
224,159,97049,1,2,0:1:0:0:
95,288,100153,5,0,1:2:0:0:
95,288,100325,1,2,0:1:0:0:
95,288,100497,1,2,1:1:0:0:
41,166,100842,37,2,0:1:0:0:
48,135,101014,1,2,1:1:0:0:
76,156,101187,1,2,1:1:0:0:
189,196,101531,5,2,0:1:0:0:
243,196,101703,1,2,1:1:0:0:
213,149,101876,1,2,0:1:0:0:
346,68,102222,5,2,0:1:0:0:
423,57,102394,1,2,0:1:0:0:
394,128,102567,1,2,0:1:0:0:
185,209,104807,6,0,L|178:163,2,45.8333347320557,10|10|10,0:1|0:3|0:3,0:0:0:0:
226,236,105152,2,0,L|219:281,2,45.8333347320557,14|14|10,0:3|0:3|0:3,0:0:0:0:
265,211,105497,38,0,B|324:205|298:228|383:215,1,100,4|0,1:1|1:2,0:0:0:0:
450,192,106014,1,0,1:2:0:0:
390,132,106187,1,8,0:2:0:0:
441,77,106359,2,0,B|463:89|463:89|491:94,1,50,0|0,1:2|0:0,0:0:0:0:
388,21,106704,1,0,1:2:0:0:
388,21,106876,1,2,0:2:0:0:
388,21,107049,1,0,3:2:0:0:
319,66,107221,1,0,1:2:0:0:
319,66,107394,2,0,P|294:60|269:57,1,50,0|8,1:2|0:2,0:0:0:0:
0,274,108256,6,0,B|-6:333|17:307|4:392,1,100,0|0,1:1|1:2,0:0:0:0:
76,282,108773,1,0,1:2:0:0:
141,336,108946,1,8,0:2:0:0:
141,336,109118,2,0,B|163:323|163:323|191:319,1,50,0|0,1:2|0:0,0:0:0:0:
237,250,109463,1,0,1:2:0:0:
105,158,109808,1,0,3:2:0:0:
152,96,109980,2,0,L|201:87,1,50,0|0,1:2|0:0,0:0:0:0:
274,130,110324,2,0,L|323:121,1,50,8|0,0:2|0:0,0:0:0:0:
403,110,110669,1,0,1:3:0:0:
352,157,110842,1,8,1:2:0:0:
436,202,111014,5,0,1:1:0:0:
436,202,111359,2,0,B|447:228|447:228|446:249,1,50,0|0,1:0|1:2,0:0:0:0:
385,295,111704,1,8,0:2:0:0:
316,261,111876,1,0,1:2:0:0:
190,336,112221,1,0,1:2:0:0:
127,291,112394,2,0,L|78:304,1,50,2|0,0:2|3:2,0:0:0:0:
185,246,112738,2,0,L|233:259,1,50,0|0,1:2|1:2,0:0:0:0:
141,184,113083,1,8,0:2:0:0:
280,34,113773,5,0,1:1:0:0:
207,65,113945,1,0,1:2:0:0:
266,112,114118,2,0,B|291:126|291:126|312:127,1,50,0|0,1:2|1:2,0:0:0:0:
390,173,114463,1,8,0:2:0:0:
430,111,114635,1,0,1:2:0:0:
352,7,114980,1,0,1:2:0:0:
266,112,115325,1,8,3:2:0:0:
196,141,115497,2,0,B|171:137|171:137|149:127,1,50,0|0,1:2|1:2,0:0:0:0:
68,168,115842,2,0,B|43:172|43:172|21:182,1,50,12|0,0:2|0:0,0:0:0:0:
0,261,116187,1,8,1:2:0:0:
0,261,116359,1,8,1:2:0:0:
68,323,116532,37,6,1:1:0:0:
109,259,116704,2,0,P|137:245|167:239,1,62.5,0|0,0:0|1:0,0:0:0:0:
179,321,117049,5,2,1:1:0:0:
235,275,117221,2,0,P|259:256|288:243,1,62.5,10|0,0:1|1:2,0:0:0:0:
338,317,117566,5,2,0:1:0:0:
364,246,117738,2,0,P|384:222|409:203,1,62.5,2|0,1:1|0:0,0:0:0:0:
483,265,118083,5,2,1:1:0:0:
478,189,118255,2,0,P|492:161|512:137,1,62.5,2|0,1:1|0:0,0:0:0:0:
462,78,118601,38,0,B|334:104|334:104|212:124,1,250,10|2,0:1|1:3,0:0:0:0:
126,158,119463,5,2,0:1:0:0:
190,199,119635,2,0,P|203:227|209:257,1,62.5,0|2,1:2|1:1,0:0:0:0:
124,250,119980,5,10,0:1:0:0:
78,306,120152,2,0,P|59:330|46:359,1,62.5,0|2,1:2|0:1,0:0:0:0:
140,353,120497,5,2,1:1:0:0:
215,346,120669,2,0,B|246:346|246:346|275:334,1,62.5,4|0,1:2|1:2,0:0:0:0:
348,317,121014,2,0,P|347:285|343:254,1,62.5,2|0,1:1|0:0,0:0:0:0:
306,185,121359,1,10,0:1:0:0:
306,185,121532,1,0,0:0:0:0:
369,138,121704,38,0,B|393:143|393:143|430:117|492:120,1,125,2|2,0:1|1:1,0:0:0:0:
469,194,122221,2,0,P|453:221|445:251,1,62.5,2|0,0:1|1:2,0:0:0:0:
359,246,122566,5,2,1:1:0:0:
293,279,122738,2,0,P|272:302|257:329,1,62.5,10|0,0:1|1:2,0:0:0:0:
181,321,123083,5,2,0:1:0:0:
109,339,123255,2,0,P|83:357|64:381,1,62.5,2|0,1:1|0:0,0:0:0:0:
0,333,123601,5,2,1:1:0:0:
42,271,123773,1,2,1:1:0:0:
0,113,124118,37,10,0:1:0:0:
76,171,124290,1,0,0:0:0:0:
76,171,124463,2,0,B|79:139|79:139|74:108,1,62.5,2|2,0:3|0:3,0:0:0:0:
129,47,124807,2,0,B|175:49|165:52|193:50|172:53|186:51|214:54|186:52|253:58,1,125,2|0,1:3|1:2,0:0:0:0:
304,151,125325,1,2,1:1:0:0:
304,151,125411,1,0,0:0:0:0:
304,151,125497,1,10,0:1:0:0:
373,192,125669,2,0,B|419:189|409:187|437:189|416:186|430:188|458:185|430:187|497:180,1,125,0|6,1:2|1:1,0:0:0:0:
512,109,126187,6,0,P|506:78|505:47,2,62.5,0|0|0,0:0|1:2|1:2,0:0:0:0:
442,277,126876,5,14,2:2:0:0:
376,309,127049,1,4,1:3:0:0:
316,257,127221,5,8,0:3:0:0:
360,192,127394,1,4,3:3:0:0:
300,100,127566,37,6,1:1:0:0:
253,313,133083,6,0,B|237:284|237:284|258:247|258:247|244:225,1,100,10|0,0:1|0:0,0:0:0:0:
255,317,133773,6,0,B|266:292|266:292|266:279|266:279|240:247|240:247|250:205,1,112.499996566773,10|0,0:1|0:0,0:0:0:0:
258,321,134463,6,0,B|255:270|255:270|284:240|284:240|282:222|282:222|285:188,1,125,10|0,0:1|0:0,0:0:0:0:
262,328,135152,38,0,B|273:295|273:295|258:267|258:267|232:238|232:238|241:186,1,137.500004196167,10|0,0:1|0:0,0:0:0:0:
183,136,135669,2,0,B|146:148|146:148|111:138,1,68.7500020980836,10|8,0:1|0:1,0:0:0:0:
43,143,136014,5,0,0:0:0:0:
5,206,136187,1,8,0:2:0:0:
50,263,136359,1,8,0:2:0:0:
118,227,136532,1,8,0:2:0:0:
118,227,136704,1,8,0:2:0:0:
187,285,136876,1,8,0:1:0:0:
187,285,137049,1,8,0:1:0:0:
455,67,137738,5,0,1:2:0:0:
455,67,137825,1,0,1:2:0:0:
455,67,137911,1,8,0:2:0:0:
383,107,138083,1,12,1:3:0:0:
478,267,138428,5,8,1:1:0:0:
405,285,138601,1,14,1:1:0:0:
454,337,138773,2,0,P|390:314|322:301,1,137.500004196167,4|0,1:1|1:2,0:0:0:0:
261,239,139290,2,0,P|229:254|197:265,1,68.7500020980836,8|0,0:2|0:0,0:0:0:0:
211,183,139635,1,2,1:1:0:0:
287,152,139807,2,0,P|351:129|419:116,1,137.500004196167,2|0,1:1|0:0,0:0:0:0:
453,42,140325,1,0,1:2:0:0:
453,42,140497,1,0,0:0:0:0:
383,9,140669,1,8,0:2:0:0:
80,335,141359,5,2,1:1:0:0:
28,287,141532,2,0,P|15:219|27:152,1,137.500004196167,0|0,1:2|1:2,0:0:0:0:
113,88,142049,2,0,P|125:155|113:222,1,137.500004196167,8|2,0:2|1:1,0:0:0:0:
167,284,142566,1,2,1:1:0:0:
234,239,142738,2,0,L|244:170,1,68.7500020980836
329,278,143083,2,0,L|318:209,1,68.7500020980836,0|0,1:2|0:0,0:0:0:0:
406,295,143428,2,0,B|336:307|358:348|281:364,1,137.500004196167,8|0,0:2|0:0,0:0:0:0:
113,222,144118,5,2,1:1:0:0:
136,145,144290,2,0,P|204:139|269:118,1,137.500004196167,0|0,1:2|1:2,0:0:0:0:
339,146,144807,2,0,B|350:181|350:181|346:212,1,68.7500020980836,8|0,0:2|0:0,0:0:0:0:
278,247,145152,1,2,1:1:0:0:
214,216,145325,1,2,1:1:0:0:
61,159,145669,1,0,0:0:0:0:
30,223,145842,1,0,1:2:0:0:
134,346,146187,2,0,P|202:360|267:381,1,137.500004196167,8|0,0:2|0:0,0:0:0:0:
342,365,146704,70,0,B|340:328|340:328|327:298,1,68.7500020980836,0|2,0:0|1:1,0:0:0:0:
379,239,147049,1,0,1:2:0:0:
418,297,147221,2,0,P|449:311|481:321,1,68.7500020980836,0|0,0:0|1:2,0:0:0:0:
512,254,147566,1,8,0:2:0:0:
413,127,147911,1,2,1:1:0:0:
351,83,148083,2,0,B|315:88|315:88|285:101,1,68.7500020980836,2|4,1:1|0:2,0:0:0:0:
273,178,148428,5,0,0:0:0:0:
198,186,148601,1,0,1:2:0:0:
138,141,148773,1,0,0:0:0:0:
75,180,148945,2,0,P|86:212|94:245,1,68.7500020980836,8|8,0:2|0:3,0:0:0:0:
42,306,149290,69,4,0:3:0:0:
106,353,149463,1,4,1:3:0:0:
187,312,149635,5,6,1:1:0:0:
265,326,149807,2,0,P|318:320|399:297,1,137.500004196167,4|0,1:1|1:2,0:0:0:0:
470,341,150325,2,0,P|498:280|478:215,1,137.500004196167,8|2,0:2|1:1,0:0:0:0:
410,185,150842,2,0,B|373:203|373:203|353:222,1,68.7500020980836,2|0,1:1|0:0,0:0:0:0:
179,142,151359,1,0,1:2:0:0:
331,15,151704,1,12,0:2:0:0:
331,15,152049,2,0,P|339:49|336:83,1,68.7500020980836
263,67,152394,69,2,1:1:0:0:
180,23,152566,2,0,P|112:34|59:76,1,137.500004196167,0|0,1:2|1:2,0:0:0:0:
28,142,153083,2,0,P|35:176|41:210,1,68.7500020980836,8|0,0:2|0:0,0:0:0:0:
111,254,153428,1,2,1:1:0:0:
111,254,153601,1,2,1:1:0:0:
243,287,153945,1,0,0:0:0:0:
207,365,154118,2,0,P|172:367|138:372,1,68.7500020980836,0|0,1:2|0:0,0:0:0:0:
297,342,154463,2,0,B|385:328|328:307|454:281,1,137.500004196167,12|0,0:2|0:0,0:0:0:0:
490,303,154980,6,0,B|504:338|504:338|502:369,1,68.7500020980836,0|2,0:0|1:1,0:0:0:0:
433,373,155325,1,0,1:2:0:0:
315,208,155669,1,0,1:2:0:0:
374,160,155842,2,0,P|405:176|438:187,1,68.7500020980836,8|0,0:2|0:0,0:0:0:0:
480,117,156187,1,2,1:1:0:0:
441,53,156359,1,2,1:1:0:0:
277,34,156704,1,0,0:0:0:0:
219,87,156876,1,0,1:2:0:0:
208,252,157221,70,0,P|143:271|74:270,1,137.500004196167,8|0,0:2|0:0,0:0:0:0:
12,214,157738,1,0,0:0:0:0:
93,167,157911,5,6,1:1:0:0:
124,98,158083,1,2,1:2:0:0:
88,31,158256,1,2,0:2:0:0:
15,53,158428,2,0,P|8:87|0:121,1,68.7500020980836,2|8,1:2|0:2,0:0:0:0:
233,154,158945,2,0,B|226:120|226:120|218:86,1,68.7500020980836,6|0,1:2|0:0,0:2:0:0:
275,30,159290,2,0,B|307:41|307:41|340:51,1,68.7500020980836
362,133,159635,2,0,B|335:155|335:155|310:178,1,68.7500020980836,2|0,1:1|0:0,0:0:0:0:
258,242,159980,69,8,0:1:0:0:
258,242,160152,1,8,0:3:0:0:
360,326,160325,1,2,3:1:0:0:
360,326,160411,1,0,3:2:0:0:
360,326,160497,1,4,0:3:0:0:
360,326,160583,1,0,0:0:0:0:
360,326,160669,6,0,B|400:298|428:253|428:253|408:323|440:369,1,206.250006294251,6|0,1:1|1:2,0:0:0:0:
511,303,161359,1,8,0:2:0:0:
511,303,161532,2,0,P|514:268|513:234,1,68.7500020980836,0|2,0:0|1:1,0:0:0:0:
452,169,161876,2,0,B|401:144|401:144|366:184|366:184|351:185|351:185|315:166,1,137.500004196167,2|4,1:1|0:2,0:0:0:0:
216,298,162566,2,0,L|185:312,2,34.3750010490418,0|0|8,0:0|0:0|0:2,0:0:0:0:
220,223,162911,1,0,0:0:0:0:
149,232,163083,1,0,0:0:0:0:
93,186,163256,1,0,0:0:0:0:
133,130,163428,70,0,B|51:169|51:169|47:263|47:263|-27:274,1,206.250006294251,2|0,1:1|1:2,0:0:0:0:
89,320,164118,2,0,P|123:323|156:332,1,68.7500020980836,8|0,0:2|0:0,0:0:0:0:
241,314,164463,1,2,1:1:0:0:
296,365,164635,2,0,B|272:324|272:324|296:295|296:295|264:238,1,137.500004196167,2|0,1:1|0:0,0:0:0:0:
197,209,165152,2,0,P|225:231|259:242,1,68.7500020980836,4|0,1:2|0:0,0:0:0:0:
325,196,165497,1,12,0:2:0:0:
284,132,165669,1,0,0:0:0:0:
349,83,165842,1,6,0:1:0:0:
349,83,166014,1,0,0:0:0:0:
281,14,166187,5,2,1:1:0:0:
351,0,166359,2,0,B|321:-9|321:-9|259:63|259:63|194:51,1,137.500004196167,0|0,1:2|1:2,0:0:0:0:
169,57,166876,2,0,P|176:90|177:124,1,68.7500020980836,12|0,0:2|0:0,0:0:0:0:
120,185,167221,1,2,1:1:0:0:
120,185,167394,2,0,B|112:203|112:203|135:227|135:227|211:211|211:211|261:260,1,137.500004196167,2|0,1:1|0:0,0:0:0:0:
196,286,167911,2,0,L|100:308,1,68.7500020980836,2|0,1:3|2:3,0:0:0:0:
79,360,168256,1,10,0:1:0:0:
79,360,168428,1,0,0:0:0:0:
187,378,168601,1,0,0:0:0:0:
187,378,168773,1,0,0:0:0:0:
276,318,168945,70,0,B|306:298|306:298|338:293,1,68.7500020980836,2|0,1:1|1:2,0:0:0:0:
212,265,169290,2,0,B|224:234|224:234|222:199,1,68.7500020980836,0|0,0:0|1:2,0:0:0:0:
297,170,169635,2,0,B|317:195|317:195|349:211,1,68.7500020980836,10|0,0:1|0:0,0:0:0:0:
222,198,169980,1,0,1:2:0:0:
149,215,170152,1,0,1:2:0:0:
89,163,170325,1,2,0:1:0:0:
95,88,170497,1,0,0:0:0:0:
150,35,170669,2,0,P|166:65|198:73,1,68.7500020980836,0|0,1:2|0:0,0:0:0:0:
255,21,171014,1,14,0:1:0:0:
255,21,171101,1,4,0:3:0:0:
255,21,171187,1,8,0:3:0:0:
337,34,171359,2,0,B|319:65|319:65|317:78|325:93|325:93|267:169,1,137.500004196167,4|4,0:3|1:2,0:0:0:0:
210,179,171876,6,0,B|281:178|281:178|346:166,1,137.500004196167,0|0,0:0|1:2,0:0:0:0:
414,197,172394,2,0,B|422:233|422:233|417:264,1,68.7500020980836,10|0,0:1|0:0,0:0:0:0:
344,331,172738,1,2,1:1:0:0:
276,300,172911,1,2,1:1:0:0:
143,351,173256,1,0,0:0:0:0:
69,351,173428,2,0,B|35:360|35:360|0:357,1,68.7500020980836,4|0,1:2|0:0,0:0:0:0:
110,283,173773,2,0,B|119:249|119:249|138:220,1,68.7500020980836,8|0,0:2|0:0,0:0:0:0:
53,222,174118,2,0,P|26:165|1:58,1,137.500004196167,0|2,0:0|1:1,0:0:0:0:
102,15,174635,70,0,B|99:69|99:69|69:96,1,68.7500020980836,0|0,1:2|0:0,0:0:0:0:
160,118,174980,1,0,1:2:0:0:
227,79,175152,1,14,0:1:0:0:
227,79,175325,1,0,0:0:0:0:
302,120,175497,1,2,1:1:0:0:
376,142,175669,2,0,B|431:59|431:59|438:59|438:59|480:81,1,137.500004196167,2|0,1:1|0:0,0:0:0:0:
497,143,176187,2,0,P|481:174|473:208,1,68.7500020980836,4|0,1:2|0:0,0:0:0:0:
509,271,176532,2,0,P|473:248|404:319,1,137.500004196167,12|6,0:2|0:1,0:0:0:0:
229,356,177221,5,0,1:2:0:0:
187,294,177394,1,0,1:2:0:0:
211,151,177738,2,0,B|240:126|240:126|254:99,1,68.7500020980836,0|10,1:2|0:1,0:0:0:0:
202,35,178083,1,0,0:0:0:0:
128,83,178256,1,2,1:1:0:0:
52,79,178428,2,0,B|77:108|77:108|131:131|131:131|135:138|135:138|139:192,1,137.500004196167,2|0,1:1|0:0,0:0:0:0:
94,230,178945,2,0,P|59:233|26:240,1,68.7500020980836,4|0,1:2|0:0,0:0:0:0:
148,287,179290,1,12,0:1:0:0:
148,287,179463,1,0,0:0:0:0:
80,349,179635,1,2,0:3:0:0:
80,349,179807,1,2,0:3:0:0:
164,378,179980,69,2,1:2:0:0:
234,353,180152,1,2,1:2:0:0:
303,326,180325,1,2,0:2:0:0:
357,273,180497,2,0,P|341:242|329:210,2,68.7500020980836,2|8|0,1:2|0:2|0:0,0:0:0:0:
432,290,181014,5,2,1:3:0:0:
244,196,181359,69,4,0:2:0:0:
496,242,181704,5,0,1:2:0:0:
329,210,182049,69,8,0:2:0:0:
378,125,182221,2,0,B|340:124|340:124|311:135,1,68.7500020980836,8|0,0:3|0:0,0:0:0:0:
424,187,182566,1,4,1:3:0:0:
501,166,182738,1,4,1:1:0:0:
200,140,193773,37,6,1:2:0:0:
200,140,193945,1,0,0:0:0:0:
262,187,194118,2,0,P|309:178|355:172,1,93.7500035762788,0|10,0:0|0:2,0:0:0:0:
421,225,194635,1,0,0:0:0:0:
300,348,194980,1,0,3:2:0:0:
235,309,195152,2,0,P|211:309|188:311,1,46.8750017881394,2|0,3:3|0:0,0:0:0:0:
127,354,195497,1,0,3:2:0:0:
71,286,195669,2,0,B|55:306|55:306|51:327,1,46.8750017881394,0|10,3:2|0:2,0:0:0:0:
312,140,196532,5,2,1:2:0:0:
312,140,196704,1,0,0:0:0:0:
249,187,196877,2,0,P|202:178|156:172,1,93.7500035762788,0|10,3:2|0:2,0:0:0:0:
94,107,197394,2,0,L|89:60,1,46.8750017881394,2|0,0:0|3:2,0:0:0:0:
151,11,197739,1,2,3:2:0:0:
151,11,197911,2,0,B|195:22|195:22|243:25,1,93.7500035762788,2|2,3:3|3:2,0:0:0:0:
321,19,198428,2,0,P|326:42|333:65,1,46.8750017881394,0|10,3:2|0:2,0:0:0:0:
402,127,198773,2,0,P|407:104|414:81,2,46.8750017881394,0|0|2,0:0|0:0|3:3,0:0:0:0:
438,195,199290,5,4,1:2:0:0:
215,293,199807,1,0,3:2:0:0:
280,332,199980,1,8,0:2:0:0:
198,157,200669,37,2,3:3:0:0:
378,3,201359,6,0,P|356:55|347:91,1,93.7500035762788,10|0,0:2|0:0,0:0:0:0:
273,118,201876,1,2,3:2:0:0:
273,118,202738,6,0,P|299:183|311:252,1,140.625005364418,10|2,0:2|3:2,0:0:0:0:
311,252,203773,6,0,P|292:296|282:341,1,93.7500035762788,2|8,3:2|0:2,0:0:0:0:
282,340,204463,37,2,3:2:0:0:
224,384,204635,1,2,3:1:0:0:
68,325,206704,5,0,1:2:0:0:
75,333,206790,1,0,1:2:0:0:
75,333,206876,1,8,0:2:0:0:
138,295,207049,2,0,B|122:249|122:249|98:209,1,93.7500035762788,12|8,1:3|1:1,0:0:0:0:
31,173,207566,37,14,1:1:0:0:
111,106,207738,2,0,P|142:112|179:114,1,68.7500020980836,4|0,1:1|0:0,0:0:0:0:
238,164,208083,5,0,1:2:0:0:
308,125,208256,1,8,0:2:0:0:
304,50,208428,69,0,0:0:0:0:
393,17,208601,1,2,1:1:0:0:
393,17,208773,2,0,P|387:50|380:84,1,68.7500020980836,2|0,1:1|0:0,0:0:0:0:
438,155,209118,1,0,0:0:0:0:
388,221,209290,2,0,B|353:219|353:219|320:208,1,68.7500020980836,0|0,1:2|0:0,0:0:0:0:
294,287,209635,2,0,P|259:289|226:295,1,68.7500020980836,8|0,0:2|0:0,0:0:0:0:
160,350,209980,1,4,0:2:0:0:
105,301,210152,1,0,0:0:0:0:
132,218,210325,5,2,1:1:0:0:
132,218,210497,2,0,P|115:151|105:83,1,137.500004196167,0|0,1:2|1:2,0:0:0:0:
31,104,211014,70,0,B|23:143|23:143|9:168,1,68.7500020980836,8|0,0:2|0:0,0:0:0:0:
0,255,211359,1,2,1:1:0:0:
0,255,211532,1,2,1:1:0:0:
62,225,211704,2,0,P|96:218|131:216,1,68.7500020980836
226,191,212049,2,0,P|259:197|294:199,1,68.7500020980836,2|0,1:1|0:0,0:0:0:0:
363,229,212394,6,0,B|346:301|346:301|351:384,1,137.500004196167,10|2,0:1|0:1,0:0:0:0:
442,372,212911,1,0,0:0:0:0:
442,372,212997,1,0,0:0:0:0:
442,372,213083,1,2,1:1:0:0:
496,319,213256,2,0,P|484:286|478:252,1,68.7500020980836,0|0,1:2|0:0,0:0:0:0:
391,282,213601,69,0,1:2:0:0:
320,309,213773,2,0,B|286:297|286:297|253:291,1,68.7500020980836,8|0,0:2|0:0,0:0:0:0:
282,198,214118,5,2,1:1:0:0:
210,171,214290,2,0,P|145:191|77:199,1,137.500004196167,2|0,1:1|0:0,0:0:0:0:
26,133,214807,70,0,P|53:111|83:94,1,68.7500020980836,0|0,1:2|0:0,0:0:0:0:
163,67,215152,1,8,0:2:0:0:
237,93,215325,1,0,0:0:0:0:
305,60,215497,1,0,0:0:0:0:
305,60,215669,2,0,L|373:66,1,68.7500020980836,0|2,0:0|1:1,0:0:0:0:
451,77,216014,2,0,B|451:115|451:115|444:145,1,68.7500020980836,0|0,1:2|0:0,0:0:0:0:
368,202,216359,5,0,1:2:0:0:
413,267,216532,1,8,0:2:0:0:
413,267,216704,1,0,0:0:0:0:
344,330,216876,1,2,1:1:0:0:
280,365,217049,2,0,P|214:348|146:340,1,137.500004196167,2|0,1:1|0:0,0:0:0:0:
101,271,217566,69,0,1:2:0:0:
180,252,217738,1,0,0:0:0:0:
125,189,217911,1,8,0:2:0:0:
125,189,217997,1,4,0:3:0:0:
125,189,218083,1,8,0:3:0:0:
227,53,218428,1,4,1:3:0:0:
227,53,218514,1,0,0:0:0:0:
227,53,218600,1,6,1:1:0:0:
285,98,218773,6,0,P|294:130|307:162,1,68.7500020980836,4|0,1:1|0:0,0:0:0:0:
380,23,219118,2,0,B|375:57|375:57|375:91,1,68.7500020980836,0|8,1:2|0:2,0:0:0:0:
502,0,219463,2,0,P|479:26|460:54,1,68.7500020980836,0|2,0:0|1:1,0:0:0:0:
489,135,219807,2,0,P|503:202|511:270,1,137.500004196167,2|0,1:1|0:0,0:0:0:0:
464,328,220325,2,0,B|429:329|429:329|396:320,1,68.7500020980836,0|0,1:2|0:0,0:0:0:0:
358,384,220669,2,0,B|358:289|321:327|337:213,1,137.500004196167,12|2,0:2|3:2,0:0:0:0:
333,250,221101,69,2,2:2:0:0:
333,250,221187,1,0,0:0:0:0:
273,349,221359,1,2,1:1:0:0:
233,285,221532,2,0,P|199:275|167:264,1,68.7500020980836,2|0,1:1|0:0,0:0:0:0:
114,174,221876,1,0,1:2:0:0:
74,237,222049,2,0,P|40:244|7:252,1,68.7500020980836,8|0,0:2|0:0,0:0:0:0:
2,321,222394,2,0,B|5:359|5:359|22:386,1,68.7500020980836,2|2,1:1|1:1,0:0:0:0:
120,377,222738,6,0,P|133:305|163:230,1,137.500004196167,0|2,0:0|1:1,0:0:0:0:
233,215,223256,2,0,P|223:182|216:148,1,68.7500020980836,0|14,0:0|0:1,0:0:0:0:
299,175,223601,1,0,0:0:0:0:
299,175,223773,2,0,B|301:142|301:142|309:107,1,68.7500020980836,2|0,0:1|0:0,0:0:0:0:
392,84,224118,69,2,1:1:0:0:
413,191,224290,2,0,P|450:248|505:288,1,137.500004196167,0|0,1:2|1:2,0:0:0:0:
512,200,224807,2,0,P|515:165|512:131,1,68.7500020980836,8|0,0:2|0:0,0:0:0:0:
447,268,225152,1,2,1:1:0:0:
447,268,225325,2,0,P|443:302|446:336,1,68.7500020980836,2|0,1:1|0:0,0:0:0:0:
377,373,225669,1,0,0:0:0:0:
290,324,225842,2,0,P|225:304|157:292,1,137.500004196167,0|12,1:2|0:2,0:0:0:0:
272,231,226359,2,0,B|309:230|309:230|339:222,1,68.7500020980836
208,182,226704,5,0,0:0:0:0:
266,107,226876,1,6,1:1:0:0:
266,107,227049,1,2,1:2:0:0:
178,61,227221,1,2,0:2:0:0:
178,61,227394,1,2,1:2:0:0:
109,89,227566,2,0,P|101:123|89:155,1,68.7500020980836,8|0,0:2|0:0,0:0:0:0:
13,189,227911,69,6,1:2:0:0:
221,193,228256,1,2,0:2:0:0:
0,233,228601,5,6,1:2:0:0:
214,279,228945,69,8,0:1:0:0:
214,279,229118,1,8,0:3:0:0:
300,260,229290,1,2,3:1:0:0:
300,260,229376,1,0,0:0:0:0:
300,260,229463,1,4,0:3:0:0:
300,260,229549,1,8,3:3:0:0:
300,260,229635,6,0,P|368:250|436:245,3,137.500004196167,6|0|8|2,1:1|1:2|0:2|1:1,0:0:0:0:
216,354,231014,2,0,P|148:344|80:339,3,137.500004196167,0|4|10|6,1:2|1:2|0:1|1:1,0:0:0:0:
33,260,232221,1,0,0:0:0:0:
33,260,232394,2,0,B|64:251|64:251|100:248,1,68.7500020980836,2|0,1:1|0:0,0:0:0:0:
143,186,232738,2,2,B|117:166|117:166|116:160|116:160|131:118,1,68.7500020980836,0|0,1:2|0:0,0:1:0:0:
175,73,233083,2,0,B|206:62|206:62|211:65|211:65|237:101,1,68.7500020980836,10|0,0:1|0:0,0:0:0:0:
263,162,233428,2,0,B|254:193|254:193|249:197|249:197|205:199,1,68.7500020980836,2|6,1:1|0:2,0:0:0:0:
338,195,233773,70,0,P|365:218|466:245,1,137.500004196167,0|4,0:0|1:2,0:0:0:0:
500,148,234290,2,0,B|460:157|460:157|435:169,2,68.7500020980836,0|12|8,0:0|0:2|0:3,0:0:0:0:
512,71,234807,1,0,1:2:0:0:
446,32,234980,1,8,0:3:0:0:
360,59,235152,6,0,B|334:75|322:94|322:94|298:81|298:81|281:118|208:147,1,137.500004196167,4|0,1:2|1:2,0:0:0:0:
185,155,235669,1,0,0:0:0:0:
151,215,235842,2,0,B|222:200|222:200|228:279,1,137.500004196167,10|2,0:1|1:1,0:0:0:0:
168,324,236359,2,0,P|134:318|102:306,1,68.7500020980836,2|4,0:1|1:2,0:0:0:0:
24,283,236704,1,0,0:0:0:0:
24,283,236876,2,0,B|29:252|29:252|41:217,1,68.7500020980836,2|0,1:1|0:0,0:0:0:0:
25,137,237221,2,0,B|30:168|30:168|37:172|37:172|150:148,1,137.500004196167,10|0,0:1|1:2,0:0:0:0:
132,151,237652,69,0,0:0:0:0:
132,151,237738,1,0,0:0:0:0:
214,203,237911,1,6,1:1:0:0:
214,203,238083,1,0,0:0:0:0:
259,130,238256,2,0,B|294:138|294:138|326:139,1,68.7500020980836,0|0,1:2|0:0,0:0:0:0:
372,205,238601,2,0,B|346:228|346:228|344:233|344:233|362:272,1,68.7500020980836,10|0,0:1|0:0,0:0:0:0:
299,319,238945,5,2,1:1:0:0:
237,278,239118,1,2,0:1:0:0:
171,318,239290,69,4,1:2:0:0:
109,359,239463,1,0,0:0:0:0:
51,292,239635,5,4,1:3:0:0:
51,292,239807,1,8,0:3:0:0:
113,225,239980,69,10,0:1:0:0:
113,225,240066,1,4,0:3:0:0:
113,225,240152,1,8,0:3:0:0:
47,173,240325,1,6,0:1:0:0:
119,107,240497,5,4,1:3:0:0:
119,107,240583,1,12,0:3:0:0:
119,107,240669,2,0,P|186:119|253:136,3,137.500004196167,6|0|8|4,1:1|1:2|0:2|1:3,0:0:0:0:
400,59,242049,2,0,P|457:97|511:138,3,137.500004196167,2|6|10|4,1:1|1:3|0:1|1:2,0:0:0:0:
463,216,243256,69,0,0:0:0:0:
463,216,243342,1,8,2:0:0:0:
463,216,243428,2,0,B|410:211|410:211|379:255|329:248,1,137.500004196167,6|4,1:1|1:3,0:0:0:0:
254,222,243945,2,0,B|268:252|268:252|261:269|261:269|278:314,2,68.7500020980836,0|14|0,0:0|0:1|0:0,0:0:0:0:
184,211,244463,1,2,1:1:0:0:
133,265,244635,1,2,0:1:0:0:
37,138,244980,5,0,0:0:0:0:
37,138,245152,1,4,1:2:0:0:
87,75,245325,2,0,B|120:88|120:88|153:90,1,68.7500020980836,0|12,0:0|0:2,0:0:0:0:
225,95,245669,2,0,P|258:82|291:79,2,68.7500020980836,2|4|4,0:0|1:2|0:1,0:0:0:0:
166,164,246187,70,0,B|145:229|145:229|140:234|140:234|66:254,1,137.500004196167,6|0,1:1|1:2,0:0:0:0:
17,310,246704,1,2,0:1:0:0:
17,310,246876,2,2,P|2:343|22:376,1,68.7500020980836,10|0,0:1|0:0,1:0:0:0:
89,358,247221,2,0,L|227:332,1,137.500004196167,4|4,1:2|1:3,0:0:0:0:
273,263,247738,6,0,B|284:245|284:245|288:245|288:245|349:279,1,68.7500020980836,8|4,0:3|1:3,0:0:0:0:
388,313,248083,1,2,0:0:0:0:
397,236,248256,1,10,0:1:0:0:
450,178,248428,1,0,0:0:0:0:
450,178,248601,2,0,P|449:161|452:144,2,34.3750010490418,2|0|0,1:1|0:0|0:0,0:0:0:0:
394,79,248945,70,0,B|356:77|356:77|326:65,1,68.7500020980836,2|2,1:2|1:2,0:0:0:0:
263,111,249290,1,2,0:2:0:0:
337,161,249463,2,0,B|302:144|302:144|280:122,1,68.7500020980836,2|8,1:2|0:2,0:0:0:0:
99,226,249980,1,2,1:2:0:0:
137,45,250325,5,6,1:1:0:0:
165,260,250669,1,2,0:2:0:0:
66,28,251014,69,10,1:2:0:0:
140,72,251187,1,4,3:3:0:0:
256,192,251704,5,6,3:2:0:0:
