osu file format v14

[General]
AudioFilename: audio.mp3
AudioLeadIn: 0
PreviewTime: 111396
Countdown: 0
SampleSet: Soft
StackLeniency: 0.7
Mode: 0
LetterboxInBreaks: 0
WidescreenStoryboard: 1

[Editor]
DistanceSpacing: 1.3
BeatDivisor: 4
GridSize: 8
TimelineZoom: 1.3

[Metadata]
Title:Metal - Brute Justice Mode
TitleUnicode:メタル:ブルートジャスティスモード ~機工城アレキサンダー:律動編~
Artist:Masayoshi Soken
ArtistUnicode:Masayoshi Soken
Creator:Arf
Version:Warpy's Insane
Source:FINAL FANTASY XIV
Tags:rfandomization ff14 ffxiv ファイナルファンタジーXIV 祖堅正慶 a realm reborn arr hw alexander eight savage a8s raid boss theme primal sentai jazz locus remix english video game shinenite warpyc charlotte [r] ron raphalge
BeatmapID:1219829
BeatmapSetID:522233

[Difficulty]
HPDrainRate:5.5
CircleSize:3.5
OverallDifficulty:8
ApproachRate:8.5
SliderMultiplier:1.7
SliderTickRate:1

[Events]
//Background and Video events
0,0,"bgalex.jpg",0,0
//Break Periods
//Storyboard Layer 0 (Background)
//Storyboard Layer 1 (Fail)
//Storyboard Layer 2 (Pass)
//Storyboard Layer 3 (Foreground)
//Storyboard Layer 4 (Overlay)
//Storyboard Sound Samples

[TimingPoints]
3438,422.535211267606,4,2,0,65,1,0
6607,-100,4,2,0,45,0,0
6818,-100,4,2,0,65,0,0
8085,-100,4,2,0,30,0,0
8508,-100,4,2,0,65,0,0
8719,-100,4,2,0,30,0,0
8930,-100,4,2,0,65,0,0
16642,-100,4,2,0,45,0,0
28578,-66.6666666666667,4,2,0,65,0,0
29635,-133.333333333333,4,2,0,65,0,0
30268,-133.333333333333,4,2,0,45,0,0
30480,-100,4,2,0,45,0,0
40621,-133.333333333333,4,2,0,30,0,0
41043,-66.6666666666667,4,2,0,45,0,0
41466,-100,4,2,0,45,0,0
43156,-133.333333333333,4,2,0,45,0,0
44001,-100,4,2,0,45,0,0
55832,-133.333333333333,4,2,0,70,0,0
56888,-133.333333333333,4,2,0,45,0,0
57522,-100,4,2,0,45,0,0
69142,-66.6666666666667,4,2,0,65,0,0
70198,-133.333333333333,4,2,0,65,0,0
70832,-133.333333333333,4,2,0,45,0,0
71043,-100,4,2,0,45,0,0
81184,-100,4,2,0,65,0,0
84142,-66.6666666666667,4,2,0,65,0,0
84564,-76.9230769230769,4,2,0,65,0,1
96395,-100,4,2,0,65,0,0
96818,-66.6666666666667,4,2,0,65,0,0
98085,-76.9230769230769,4,2,0,65,0,1
110339,-66.6666666666667,4,2,0,65,0,1
110762,-76.9230769230769,4,2,0,65,0,1
111607,-100,4,2,0,65,0,0
112029,-66.6666666666667,4,2,0,65,0,0
112452,-100,4,2,0,65,0,0
113297,-100,4,2,0,30,0,0
113719,-100,4,2,0,40,0,0
114142,-100,4,2,0,50,0,0
114565,-100,4,2,0,65,0,0
115409,-66.6666666666667,4,2,0,65,0,0
116043,-100,4,2,0,65,0,0
118790,-66.6666666666667,4,2,0,65,0,0
119212,-100,4,2,0,65,0,0
120058,-100,4,2,0,30,0,0
120480,-100,4,2,0,40,0,0
120903,-100,4,2,0,50,0,0
121325,-100,4,2,0,65,0,0
122170,-66.6666666666667,4,2,0,65,0,0
122804,-100,4,2,0,65,0,0
125128,-100,4,2,0,35,0,0
125339,-100,4,2,0,65,0,0
126607,-76.9230769230769,4,2,0,65,0,0
126818,-100,4,2,0,35,0,0
127029,-100,4,2,0,65,0,0
128297,-76.9230769230769,4,2,0,65,0,0
128508,-100,4,2,0,35,0,0
128930,-100,4,2,0,65,0,0

[Colours]
Combo1 : 255,255,79
Combo2 : 48,172,6
Combo3 : 213,0,0
Combo4 : 128,0,64
Combo5 : 0,58,117

[HitObjects]
84,176,58,5,4,3:0:0:0:
108,181,163,1,4,3:0:0:0:
133,180,269,1,4,3:0:0:0:
158,176,374,1,4,3:0:0:0:
181,167,480,2,0,P|266:153|348:168,1,170,4|0,3:0|0:0,0:0:0:0:
256,192,1008,12,0,3015,3:0:0:0:
284,346,3438,6,0,P|272:298|280:257,1,85,8|0,3:0|3:0,3:0:0:0:
301,108,5128,2,0,P|313:156|305:197,1,85,8|0,3:0|3:0,3:0:0:0:
126,323,5762,2,0,L|126:283,4,21.25,8|8|8|8|4,3:0|3:0|3:0|3:0|3:0,3:0:0:0:
198,124,6184,1,4,3:0:0:0:
297,288,6396,1,4,0:3:0:0:
326,290,6501,1,4,0:3:0:0:
354,281,6607,1,8,0:3:0:0:
512,161,6818,6,0,P|469:160|426:176,1,85,8|0,3:0|3:0,3:0:0:0:
501,343,7241,1,4,3:0:0:0:
484,82,7452,1,8,3:0:0:0:
281,216,7663,1,4,3:0:0:0:
434,223,7874,1,8,3:0:0:0:
339,40,8086,5,8,3:0:0:0:
260,158,8297,1,8,3:0:0:0:
448,115,8508,1,4,3:0:0:0:
248,61,8719,1,8,3:0:0:0:
334,277,8931,1,4,3:0:0:0:
378,8,9142,6,8,L|378:49,4,21.25,8|8|8|8|4,3:0|3:0|3:0|3:0|3:0,3:0:0:0:
423,277,9565,1,4,3:0:0:0:
194,131,9776,2,0,L|145:131,1,42.5,4|4,3:0|3:0,3:0:0:0:
162,318,10198,6,0,B|203:250|203:250|280:192,1,170,4|4,3:1|3:0,0:0:0:0:
468,141,10832,2,0,B|427:209|427:209|350:267,1,170,8|4,3:0|3:0,0:0:0:0:
277,88,11466,1,4,3:0:0:0:
82,283,11888,6,0,B|91:240|91:240|49:117,1,170,8|4,3:0|3:0,0:0:0:0:
166,34,12522,2,0,B|157:77|157:77|199:200,1,170,8|4,3:0|3:0,0:0:0:0:
59,22,13156,1,4,3:0:0:0:
146,278,13578,6,0,B|231:263|231:263|316:281,1,170,8|4,3:0|3:0,0:0:0:0:
473,356,14212,2,0,B|388:371|388:371|303:353,1,170,8|4,3:0|3:0,0:0:0:0:
396,162,14846,1,4,3:0:0:0:
318,223,15269,5,4,3:0:0:0:
318,223,15375,1,4,3:0:0:0:
390,74,15585,1,4,3:0:0:0:
390,74,15691,1,4,3:0:0:0:
477,219,15903,1,4,0:3:0:0:
316,128,16114,2,0,P|387:166|465:127,1,170,4|4,3:1|3:0,3:0:0:0:
462,130,16642,1,8,3:0:0:0:
462,130,16748,1,8,3:0:0:0:
424,256,16959,6,0,P|386:263|338:252,1,85,8|0,3:0|0:0,0:0:0:0:
285,90,17381,2,0,P|310:118|324:165,1,85,4|8,3:0|3:0,0:0:0:0:
211,293,17804,2,0,P|222:256|256:221,1,85,8|0,3:0|0:0,0:0:0:0:
254,222,18121,1,8,3:0:0:0:
254,222,18227,1,4,3:0:0:0:
420,237,18438,6,0,L|418:331,1,85,8|2,3:0|0:0,0:0:0:0:
378,154,18860,2,0,P|419:145|488:172,2,85,8|4|8,3:0|3:0|3:0,0:0:0:0:
230,226,19494,2,0,P|164:249|49:203,1,170,8|4,3:0|3:0,0:0:0:0:
221,144,20128,1,0,3:0:0:0:
221,144,20234,1,0,3:0:0:0:
221,144,20338,6,0,P|234:208|212:253,1,85,8|0,3:0|3:0,0:0:0:0:
139,101,20761,2,0,P|187:57|237:54,1,85,4|0,3:0|0:0,0:0:0:0:
143,193,21184,2,0,P|81:172|53:130,1,85,8|4,3:0|3:0,0:0:0:0:
68,159,21501,1,8,3:0:0:0:
68,159,21607,1,4,3:0:0:0:
254,144,21818,6,0,P|262:189|256:237,1,85,8|2,3:0|0:0,0:0:0:0:
198,331,22241,2,0,P|156:327|91:333,2,85,8|4|8,3:0|3:0|3:0,0:0:0:0:
355,373,22874,1,8,3:0:0:0:
396,379,22979,1,0,0:0:0:0:
437,367,23085,1,0,0:0:0:0:
468,339,23190,1,0,0:0:0:0:
485,301,23296,1,4,3:0:0:0:
483,259,23402,1,0,0:0:0:0:
464,221,23507,1,0,0:0:0:0:
430,196,23613,1,0,0:0:0:0:
388,184,23719,6,0,P|345:187|306:217,1,85,8|0,3:0|0:0,0:0:0:0:
245,329,24142,2,0,P|288:326|327:296,1,85,4|0,3:0|0:0,0:0:0:0:
192,243,24565,2,0,P|149:246|110:276,1,85,8|0,3:0|0:0,0:0:0:0:
115,269,24881,1,8,3:0:0:0:
115,269,24987,1,4,3:0:0:0:
15,180,25198,6,0,P|10:137|15:93,1,85,8|2,3:0|0:0,0:0:0:0:
180,91,25621,2,0,P|185:134|180:178,2,85,8|4|8,3:0|3:0|3:0,0:0:0:0:
94,206,26255,2,0,P|139:257|251:235,1,170,8|4,3:0|3:0,0:0:0:0:
265,220,26783,1,0,0:0:0:0:
280,180,26888,1,0,0:0:0:0:
188,56,27100,6,0,P|176:95|189:161,1,85,8|0,3:0|0:0,0:0:0:0:
347,228,27522,2,0,P|319:198|255:176,1,85,4|0,3:0|0:0,0:0:0:0:
115,274,27945,2,0,P|154:264|205:220,1,85,8|0,3:0|0:0,0:0:0:0:
190,239,28262,1,8,3:0:0:0:
190,239,28367,1,4,3:0:0:0:
410,173,28578,6,0,P|443:184|465:203,1,63.7500024318696,4|0,0:0|0:0,0:0:0:0:
292,314,29001,2,0,P|285:279|290:251,1,63.7500024318696,4|0,0:0|0:0,0:0:0:0:
473,349,29423,2,0,P|446:372|419:381,1,63.7500024318696,4|0,0:0|0:0,0:0:0:0:
392,279,29635,6,0,B|349:225|381:184|385:179|389:175|421:134|378:74,1,191.250007295609,4|0,3:0|0:0,0:0:0:0:
255,56,30480,6,0,P|184:75|126:68,1,127.5,8|0,3:0|0:0,0:0:0:0:
71,20,30903,1,4,3:0:0:0:
20,186,31114,1,8,3:0:0:0:
20,186,31325,2,0,P|91:167|149:174,1,127.5,8|0,3:0|0:0,0:0:0:0:
204,222,31748,1,4,3:0:0:0:
357,169,31959,5,8,3:0:0:0:
357,169,32170,2,0,P|369:219|349:309,1,127.5,8|0,0:3|0:0,0:0:0:0:
290,333,32593,1,4,3:0:0:0:
98,371,32804,1,8,3:0:0:0:
98,371,33015,2,0,P|86:321|106:231,1,127.5,8|0,3:0|0:0,0:0:0:0:
165,207,33438,1,4,3:0:0:0:
388,333,33649,5,8,3:0:0:0:
388,333,33860,2,0,P|306:338|257:323,1,127.5,8|0,3:0|0:0,0:0:0:0:
224,259,34283,1,4,3:0:0:0:
140,120,34494,1,8,3:0:0:0:
140,120,34705,2,0,P|222:115|271:130,1,127.5,8|0,3:0|0:0,0:0:0:0:
304,194,35128,1,4,3:0:0:0:
416,50,35339,5,8,3:0:0:0:
416,50,35550,2,0,L|403:189,1,127.5,8|0,3:0|0:0,0:0:0:0:
445,243,35973,1,4,3:0:0:0:
328,356,36184,1,8,3:0:0:0:
141,268,36396,5,8,3:0:0:0:
150,217,36501,1,0,0:0:0:0:
189,183,36607,1,4,3:0:0:0:
329,96,36818,1,4,3:0:0:0:
320,146,36923,1,0,0:0:0:0:
281,181,37029,1,8,3:0:0:0:
69,48,37241,6,0,P|128:38|208:65,1,127.5,8|0,3:0|0:0,0:0:0:0:
249,107,37663,1,4,0:3:0:0:
134,229,37874,1,8,3:0:0:0:
134,229,38085,2,0,P|193:239|273:212,1,127.5,8|0,3:0|0:0,0:0:0:0:
314,170,38507,1,4,0:3:0:0:
442,69,38718,5,8,3:0:0:0:
442,69,38931,2,0,P|421:114|433:201,1,127.5,8|0,3:0|0:0,0:0:0:0:
477,249,39353,1,4,0:3:0:0:
329,84,39565,2,0,P|335:120|327:176,1,85,8|0,3:0|0:0,0:0:0:0:
141,25,39987,1,4,3:0:0:0:
371,0,40198,1,8,3:0:0:0:
279,235,40410,1,8,3:0:0:0:
278,30,40621,6,0,L|278:132,1,95.6250036478044,4|0,3:1|0:0,0:0:0:0:
312,171,41043,6,0,B|375:162|375:162|450:175,1,127.500004863739,4|8,3:0|3:0,0:0:0:0:
332,297,41466,1,4,3:0:0:0:
188,150,41677,1,0,0:0:0:0:
192,355,41888,1,4,3:0:0:0:
341,147,42100,1,0,0:0:0:0:
90,254,42311,1,4,3:0:0:0:
362,349,42522,1,4,3:0:0:0:
390,301,42628,1,4,3:0:0:0:
389,245,42734,1,4,3:0:0:0:
178,66,42945,1,0,0:0:0:0:
183,370,43156,6,0,L|183:222,1,127.500004863739,4|4,0:0|3:0,0:0:0:0:
183,242,43684,1,4,3:0:0:0:
183,242,43790,1,8,3:0:0:0:
267,121,44001,6,0,P|316:102|408:112,1,127.5,8|0,3:0|0:0,0:0:0:0:
424,118,44424,2,0,P|417:164|428:209,1,85,4|0,3:0|0:0,0:0:0:0:
512,329,44846,2,0,P|463:348|371:338,1,127.5,8|0,3:0|0:0,0:0:0:0:
355,332,45269,2,0,P|362:286|351:241,1,85,4|0,3:0|0:0,0:0:0:0:
209,204,45691,6,0,P|192:265|222:333,1,127.5,8|0,3:0|0:0,0:0:0:0:
245,341,46114,2,0,P|267:289|268:250,1,85,4|0,3:0|0:0,0:0:0:0:
240,128,46536,2,0,P|195:82|121:74,1,127.5,8|0,3:0|0:0,0:0:0:0:
103,90,46959,2,0,P|137:135|170:155,1,85,4|0,3:0|0:0,0:0:0:0:
293,188,47381,6,0,P|340:182|382:159,1,85,8|0,3:0|0:0,0:0:0:0:
448,115,47699,1,8,0:3:0:0:
448,115,47804,2,0,P|401:121|359:144,1,85,4|0,0:3|0:0,0:0:0:0:
213,188,48226,2,0,P|166:182|124:159,1,85,8|0,3:0|0:0,0:0:0:0:
58,115,48543,1,8,0:3:0:0:
58,115,48649,2,0,P|105:121|147:144,1,85,4|0,0:3|0:0,0:0:0:0:
254,308,49071,6,0,L|254:204,1,85,8|0,3:0|0:0,0:0:0:0:
254,111,49388,1,8,0:3:0:0:
254,111,49494,2,0,L|254:215,1,85,4|0,0:3|0:0,0:0:0:0:
381,354,49917,5,8,3:0:0:0:
426,331,50022,1,0,0:0:0:0:
448,284,50128,1,4,3:0:0:0:
429,88,50339,1,4,3:0:0:0:
384,111,50444,1,0,0:0:0:0:
362,158,50550,1,8,3:0:0:0:
277,301,50762,6,0,P|233:254|213:194,1,127.5,8|0,3:0|0:0,0:0:0:0:
221,158,51184,2,0,P|263:165|313:155,1,85,4|0,3:0|0:0,0:0:0:0:
416,66,51607,2,0,P|459:112|479:172,1,127.5,8|0,3:0|0:0,0:0:0:0:
471,208,52029,2,0,P|429:201|379:211,1,85,4|0,3:0|0:0,0:0:0:0:
268,323,52452,6,0,L|362:314,1,85,8|0,3:0|0:0,0:0:0:0:
445,294,52768,1,8,0:3:0:0:
445,294,52874,2,0,L|350:285,1,85,4|0,0:3|0:0,0:0:0:0:
268,170,53297,2,0,L|362:179,1,85,8|0,3:0|0:0,0:0:0:0:
445,199,53613,1,8,0:3:0:0:
445,199,53719,2,0,L|350:208,1,85,4|0,3:3|3:0,3:0:0:0:
147,267,54142,5,4,3:0:0:0:
138,216,54247,1,4,3:0:0:0:
143,166,54353,1,4,3:0:0:0:
162,118,54458,1,4,3:0:0:0:
193,78,54564,1,4,3:0:0:0:
326,206,54776,1,4,3:0:0:0:
59,146,54987,1,4,3:0:0:0:
311,37,55198,1,4,3:0:0:0:
171,274,55410,1,4,3:0:0:0:
147,0,55621,1,4,3:0:0:0:
261,279,55832,6,0,P|174:357|80:270,1,255.000009727478,4|0,0:0|0:0,0:0:0:0:
181,137,56888,5,8,3:0:0:0:
343,278,57100,1,4,3:0:0:0:
147,363,57311,1,4,3:0:0:0:
148,325,57416,1,4,3:0:0:0:
148,287,57522,6,0,P|155:244|193:197,1,85,4|0,3:0|0:0,0:0:0:0:
340,176,57945,2,0,P|299:191|239:182,1,85,4|8,3:0|3:0,0:0:0:0:
141,65,58367,2,0,P|174:92|196:148,1,85,8|0,3:0|0:0,0:0:0:0:
193,129,58684,1,8,3:0:0:0:
193,129,58790,1,4,3:0:0:0:
337,249,59001,6,0,L|335:155,1,85,8|2,3:0|0:0,0:0:0:0:
295,332,59423,2,0,P|336:341|405:314,2,85,8|4|8,3:0|3:0|3:0,0:0:0:0:
162,248,60057,2,0,P|96:225|-19:271,1,170,8|4,3:0|3:0,0:0:0:0:
168,330,60691,1,0,3:0:0:0:
168,330,60797,1,0,3:0:0:0:
168,330,60902,6,0,P|168:263|151:229,1,85,4|0,3:0|0:0,0:0:0:0:
17,172,61324,2,0,P|75:205|112:207,1,85,4|8,3:0|3:0,0:0:0:0:
233,125,61747,2,0,P|174:158|154:190,1,85,8|0,3:0|3:0,0:0:0:0:
164,170,62064,1,8,3:0:0:0:
164,170,62170,1,4,3:0:0:0:
337,217,62381,6,0,P|395:183|415:151,1,85,0|2,0:0|0:0,0:0:0:0:
245,210,62804,2,0,P|251:249|284:292,2,85,8|4|8,3:0|3:0|3:0,0:0:0:0:
361,54,63438,1,8,3:0:0:0:
403,58,63543,1,0,0:0:0:0:
440,79,63649,1,0,0:0:0:0:
467,110,63754,1,0,0:0:0:0:
480,151,63860,1,4,3:0:0:0:
477,194,63966,1,0,0:0:0:0:
458,232,64071,1,0,0:0:0:0:
428,260,64177,1,0,0:0:0:0:
389,276,64283,6,0,B|342:283|299:241,1,85,4|0,3:0|0:0,0:0:0:0:
289,81,64705,2,0,B|319:117|304:175,1,85,4|0,3:0|0:0,0:0:0:0:
172,263,65128,2,0,B|188:217|246:201,1,85,8|0,3:0|0:0,0:0:0:0:
231,205,65445,1,8,3:0:0:0:
231,205,65550,1,4,3:0:0:0:
395,127,65762,6,0,P|403:87|389:27,1,85,8|2,3:0|0:0,0:0:0:0:
229,50,66184,2,0,P|221:90|235:150,2,85,8|4|8,3:0|3:0|3:0,0:0:0:0:
313,182,66818,2,0,P|240:221|152:195,1,170,8|4,3:0|3:0,0:0:0:0:
127,172,67346,1,0,0:0:0:0:
111,132,67452,1,0,0:0:0:0:
256,26,67663,6,0,P|301:60|315:94,1,85,4|0,0:3|0:0,0:0:0:0:
196,194,68085,2,0,P|202:138|225:108,1,85,4|8,0:3|0:3,0:0:0:0:
370,161,68508,2,0,P|318:182|281:178,1,85,8|0,0:3|0:0,0:0:0:0:
290,180,68825,1,8,0:3:0:0:
290,180,68930,1,4,0:3:0:0:
509,248,69142,6,0,B|498:217|498:217|476:195,1,63.7500024318696,4|0,0:0|0:0,0:0:0:0:
382,379,69564,2,0,B|414:385|414:385|446:376,1,63.7500024318696,4|0,0:0|0:0,0:0:0:0:
333,200,69987,2,0,B|312:224|312:224|304:256,1,63.7500024318696,4|0,0:0|0:0,0:0:0:0:
407,278,70198,6,0,B|461:188|370:188|423:86,1,191.250007295609,8|0,3:0|0:0,3:0:0:0:
211,118,71043,5,4,3:0:0:0:
219,159,71149,1,0,0:0:0:0:
243,193,71255,1,0,0:0:0:0:
287,37,71466,1,4,3:0:0:0:
413,139,71677,1,4,3:0:0:0:
405,98,71783,1,0,0:0:0:0:
381,64,71888,2,0,P|339:55|279:74,1,85,4|0,3:0|0:0,0:0:0:0:
152,160,72311,2,4,P|194:169|254:150,1,85,4|0,3:0|0:0,0:0:0:0:
70,71,72734,5,4,3:0:0:0:
35,95,72839,1,0,0:0:0:0:
14,132,72945,1,0,0:0:0:0:
162,77,73156,1,4,3:0:0:0:
154,234,73367,1,4,3:0:0:0:
189,210,73472,1,0,0:0:0:0:
210,173,73579,2,0,P|239:126|274:94,1,85,4|0,3:0|0:0,0:0:0:0:
298,252,74001,2,0,P|269:299|234:331,1,85,4|0,3:0|0:0,0:0:0:0:
351,160,74424,5,4,3:0:0:0:
375,125,74529,1,0,0:0:0:0:
381,83,74635,1,0,0:0:0:0:
252,205,74846,1,4,3:0:0:0:
200,36,75057,1,4,3:0:0:0:
176,71,75162,1,0,0:0:0:0:
170,113,75268,2,0,P|173:161|162:197,1,85,4|0,3:0|0:0,0:0:0:0:
92,370,75691,2,0,P|88:321|99:285,1,85,4|0,3:0|0:0,0:0:0:0:
247,145,76114,5,4,3:0:0:0:
202,350,76325,1,8,3:0:0:0:
35,207,76536,1,4,3:0:0:0:
299,270,76748,1,8,3:0:0:0:
51,334,76959,1,4,3:0:0:0:
91,319,77065,1,4,3:0:0:0:
130,304,77170,1,8,3:0:0:0:
268,178,77381,1,4,3:0:0:0:
228,193,77487,1,4,3:0:0:0:
189,208,77592,1,8,3:0:0:0:
34,216,77804,5,4,3:0:0:0:
47,175,77910,1,0,0:0:0:0:
83,154,78015,1,0,0:0:0:0:
38,336,78227,1,4,3:0:0:0:
208,258,78438,1,4,3:0:0:0:
195,299,78544,1,0,0:0:0:0:
159,320,78649,2,0,P|113:303|82:265,1,85,4|8,3:0|3:0,0:0:0:0:
295,297,79072,2,0,P|341:314|372:352,1,85,4|8,3:0|3:0,0:0:0:0:
204,235,79494,5,4,3:0:0:0:
190,194,79600,1,0,0:0:0:0:
201,153,79705,1,0,0:0:0:0:
299,315,79917,1,4,3:0:0:0:
391,151,80128,1,4,3:0:0:0:
405,192,80234,1,0,0:0:0:0:
394,233,80339,2,0,P|366:277|322:295,1,85,4|8,3:0|3:0,0:0:0:0:
303,122,80762,2,0,P|331:78|375:60,1,85,4|8,3:0|3:0,0:0:0:0:
241,240,81184,5,8,3:0:0:0:
209,269,81290,1,8,3:0:0:0:
168,283,81396,1,4,3:0:0:0:
125,281,81501,1,4,3:0:0:0:
88,259,81607,1,4,3:0:0:0:
259,384,81818,1,8,3:0:0:0:
264,212,82029,1,8,3:0:0:0:
296,183,82135,1,8,3:0:0:0:
337,169,82241,1,4,3:0:0:0:
380,171,82346,1,4,3:0:0:0:
417,193,82452,1,4,3:0:0:0:
356,368,82663,5,8,3:0:0:0:
353,325,82769,1,8,3:0:0:0:
350,282,82874,2,0,L|346:190,1,85,8|8,3:0|3:0,0:0:0:0:
233,54,83297,2,0,L|237:146,1,85,4|0,3:0|3:0,0:0:0:0:
269,375,83719,1,4,3:0:0:0:
235,348,83825,1,4,3:0:0:0:
195,331,83931,1,4,3:0:0:0:
153,323,84036,1,4,3:0:0:0:
108,327,84142,2,0,P|25:301|-10:236,1,127.500004863739,6|0,3:0|0:0,0:0:0:0:
78,70,84565,5,8,3:0:0:0:
126,54,84670,1,0,0:0:0:0:
174,70,84776,1,0,0:0:0:0:
18,175,84987,1,4,0:3:0:0:
174,281,85199,1,8,3:0:0:0:
126,297,85304,1,0,0:0:0:0:
78,281,85410,1,0,0:0:0:0:
249,171,85621,1,8,3:0:0:0:
249,171,85726,1,8,3:0:0:0:
249,171,85832,2,0,P|261:209|252:279,1,110.499994941712,4|0,3:0|0:0,0:0:0:0:
386,373,86254,6,0,P|359:323|363:267,1,110.499994941712,8|0,3:0|0:0,0:0:0:0:
361,270,86571,1,8,3:0:0:0:
361,270,86677,1,4,3:0:0:0:
512,150,86888,1,8,3:0:0:0:
464,341,87099,1,12,3:0:0:0:
271,298,87311,1,8,3:0:0:0:
271,298,87416,1,8,3:0:0:0:
271,298,87522,2,0,P|235:252|230:191,1,110.499994941712,4|0,3:0|0:0,0:0:0:0:
322,52,87945,5,8,3:0:0:0:
336,99,88050,1,0,0:0:0:0:
328,149,88156,1,0,0:0:0:0:
216,0,88367,1,4,3:0:0:0:
120,161,88579,1,8,3:0:0:0:
105,114,88684,1,0,0:0:0:0:
113,64,88790,1,0,0:0:0:0:
237,233,89001,1,8,3:0:0:0:
237,233,89107,1,8,3:0:0:0:
237,233,89212,2,0,P|277:245|351:232,1,110.499994941712,4|0,3:0|0:0,0:0:0:0:
497,154,89635,6,0,P|457:142|372:162,1,110.499994941712,8|0,3:0|0:0,0:0:0:0:
390,152,89952,1,8,3:0:0:0:
390,152,90058,1,4,3:0:0:0:
347,322,90269,1,8,3:0:0:0:
512,279,90480,1,4,3:0:0:0:
287,193,90691,1,8,3:0:0:0:
287,193,90797,1,8,3:0:0:0:
287,193,90903,2,0,P|281:140|305:80,1,110.499994941712,4|0,3:0|0:0,0:0:0:0:
361,281,91325,5,8,3:0:0:0:
354,331,91431,1,0,0:0:0:0:
331,376,91536,1,0,0:0:0:0:
287,193,91748,1,4,3:0:0:0:
241,376,91959,1,8,3:0:0:0:
218,331,92064,1,0,0:0:0:0:
211,281,92170,1,0,0:0:0:0:
333,122,92381,1,8,3:0:0:0:
333,122,92487,1,8,3:0:0:0:
333,122,92593,2,0,P|288:114|223:123,1,110.499994941712,4|0,3:0|0:0,0:0:0:0:
67,190,93015,6,0,P|129:202|178:195,1,110.499994941712,8|0,3:0|0:0,0:0:0:0:
175,195,93332,1,8,3:0:0:0:
175,195,93438,1,4,3:0:0:0:
251,69,93649,1,8,3:0:0:0:
102,92,93860,1,4,3:0:0:0:
310,178,94072,1,8,3:0:0:0:
310,178,94177,1,8,3:0:0:0:
310,178,94283,2,0,P|332:130|326:60,1,110.499994941712,4|0,3:0|0:0,0:0:0:0:
238,238,94705,5,8,3:0:0:0:
231,288,94811,1,0,0:0:0:0:
240,338,94917,1,0,0:0:0:0:
163,156,95128,1,4,3:0:0:0:
85,338,95339,1,8,3:0:0:0:
94,288,95445,1,0,0:0:0:0:
87,238,95551,1,0,0:0:0:0:
171,115,95762,1,8,3:0:0:0:
171,115,95867,1,8,3:0:0:0:
171,115,95973,1,4,3:0:0:0:
355,203,96184,6,0,B|238:190,1,110.499994941712,4|0,3:0|0:0,0:0:0:0:
167,27,96607,1,8,3:0:0:0:
425,42,96818,2,0,P|447:105|432:163,1,127.500004863739,6|0,3:0|0:0,0:0:0:0:
259,235,97240,2,4,L|321:219,1,63.7500024318696,4|4,3:0|3:0,3:0:0:0:
330,303,97452,2,4,L|392:319,1,63.7500024318696,4|4,3:0|3:0,3:0:0:0:
342,139,97663,2,4,L|404:123,1,63.7500024318696,4|4,3:0|3:0,3:0:0:0:
413,207,97875,2,4,L|475:223,1,63.7500024318696,4|4,3:0|3:0,3:0:0:0:
252,314,98086,5,8,3:0:0:0:
192,319,98191,1,0,0:0:0:0:
135,300,98297,1,0,0:0:0:0:
320,205,98508,1,4,3:0:0:0:
146,91,98719,1,8,3:0:0:0:
204,83,98824,1,0,0:0:0:0:
262,103,98930,1,8,3:0:0:0:
83,188,99142,1,8,3:0:0:0:
83,188,99248,1,8,3:0:0:0:
83,188,99353,2,0,P|64:142|56:75,1,110.499994941712,4|0,3:0|0:0,0:0:0:0:
164,5,99776,5,8,0:3:0:0:
288,168,99987,1,8,3:0:0:0:
288,168,100093,1,8,3:0:0:0:
288,168,100198,2,0,L|289:287,1,110.499994941712,4|0,3:0|0:0,0:0:0:0:
433,376,100621,2,0,L|433:263,1,110.499994941712,8|0,3:0|0:0,0:0:0:0:
433,265,100938,1,8,3:0:0:0:
433,265,101043,1,4,3:0:0:0:
324,172,101255,1,0,0:0:0:0:
204,342,101466,5,8,3:0:0:0:
259,363,101572,1,0,0:0:0:0:
317,352,101677,1,0,0:0:0:0:
139,245,101888,1,4,3:0:0:0:
321,143,102100,1,8,3:0:0:0:
266,122,102206,1,0,0:0:0:0:
208,133,102311,1,8,3:0:0:0:
399,245,102522,1,8,3:0:0:0:
399,245,102628,1,8,3:0:0:0:
399,245,102734,1,4,3:0:0:0:
498,92,102945,6,0,B|498:148|498:148|478:217,1,110.499994941712,0|8,0:0|3:0,0:0:0:0:
334,277,103367,1,8,3:0:0:0:
334,277,103473,1,8,3:0:0:0:
334,277,103579,2,0,B|332:217|332:217|353:159,1,110.499994941712,4|0,3:0|0:0,0:0:0:0:
470,297,104001,1,8,3:0:0:0:
313,365,104212,1,8,3:0:0:0:
313,365,104318,1,8,3:0:0:0:
313,365,104424,2,0,B|257:372|257:372|200:362,1,110.499994941712,4|0,3:0|0:0,0:0:0:0:
46,288,104846,5,8,3:0:0:0:
21,233,104952,1,0,0:0:0:0:
22,173,105058,1,0,0:0:0:0:
187,306,105269,1,4,3:0:0:0:
275,113,105480,1,8,3:0:0:0:
300,168,105586,1,0,0:0:0:0:
299,228,105692,1,8,3:0:0:0:
133,98,105902,1,8,3:0:0:0:
133,98,106008,1,8,3:0:0:0:
133,98,106114,2,0,P|139:144|168:207,1,110.499994941712,4|0,3:0|0:0,0:0:0:0:
266,36,106536,5,8,3:0:0:0:
429,162,106748,1,8,3:0:0:0:
429,162,106853,1,8,3:0:0:0:
429,162,106959,2,0,P|374:154|315:168,1,110.499994941712,4|0,3:0|0:0,0:0:0:0:
500,246,107381,1,8,3:0:0:0:
325,327,107593,1,8,3:0:0:0:
325,327,107698,1,8,3:0:0:0:
325,327,107804,2,0,P|377:338|442:322,1,110.499994941712,4|0,3:0|0:0,0:0:0:0:
228,244,108227,5,8,3:0:0:0:
217,186,108332,1,0,0:0:0:0:
227,127,108438,1,0,0:0:0:0:
349,295,108649,1,4,3:0:0:0:
474,129,108860,1,8,3:0:0:0:
485,187,108965,1,0,0:0:0:0:
475,246,109071,1,8,3:0:0:0:
357,46,109283,1,8,3:0:0:0:
357,46,109388,1,8,3:0:0:0:
357,46,109494,1,4,3:0:0:0:
349,295,109705,6,0,L|353:159,1,110.499994941712,8|0,3:0|0:0,0:0:0:0:
344,378,110128,1,8,3:0:0:0:
512,195,110339,6,0,P|452:144|391:126,1,127.500004863739,6|0,3:0|0:0,0:0:0:0:
221,179,110762,1,4,3:0:0:0:
271,210,110867,1,4,3:0:0:0:
329,208,110973,1,4,3:0:0:0:
376,173,111078,1,4,3:0:0:0:
395,118,111184,1,4,3:0:0:0:
379,61,111290,1,4,3:0:0:0:
335,23,111395,1,4,3:0:0:0:
277,18,111501,1,4,3:0:0:0:
225,45,111607,1,4,3:0:0:0:
88,232,112029,6,0,B|150:247|150:247|225:234,1,127.500004863739,6|0,3:0|0:0,0:0:0:0:
423,150,112452,1,4,3:0:0:0:
438,189,112557,1,4,3:0:0:0:
445,231,112663,1,4,3:0:0:0:
443,273,112768,1,4,3:0:0:0:
432,314,112874,1,4,3:0:0:0:
304,237,113085,1,0,3:0:0:0:
397,105,113297,5,4,3:0:0:0:
293,147,113508,1,4,3:0:0:0:
301,17,113719,1,4,3:0:0:0:
376,187,113931,1,4,3:0:0:0:
172,162,114142,1,4,3:0:0:0:
383,23,114353,1,4,3:0:0:0:
431,283,114565,1,4,3:0:0:0:
158,248,114776,1,4,3:0:0:0:
462,205,114987,1,4,3:0:0:0:
228,359,115409,6,0,B|192:283|232:236|273:187|230:107,1,255.000009727478,6|0,0:0|0:0,0:0:0:0:
105,171,116043,1,8,3:0:0:0:
327,126,116254,2,0,P|333:173|328:216,1,85,4|0,3:0|0:0,0:0:0:0:
93,357,116677,5,4,3:0:0:0:
58,318,116782,1,8,3:0:0:0:
41,271,116888,1,8,3:0:0:0:
41,220,116993,1,4,3:0:0:0:
60,173,117099,1,8,3:0:0:0:
222,23,117311,2,0,B|226:64|226:64|217:123,1,85,4|0,3:0|0:0,0:0:0:0:
145,273,117734,1,8,3:0:0:0:
145,273,117839,1,8,3:0:0:0:
145,273,117945,1,4,3:0:0:0:
303,152,118156,1,8,3:0:0:0:
321,350,118367,1,4,3:0:0:0:
390,30,118790,6,0,P|400:93|395:168,1,127.500004863739,6|0,3:0|0:0,0:0:0:0:
260,264,119212,1,4,3:0:0:0:
243,224,119318,1,4,3:0:0:0:
241,181,119424,1,4,3:0:0:0:
249,139,119529,1,4,3:0:0:0:
272,103,119635,1,4,3:0:0:0:
377,207,119846,1,0,0:0:0:0:
490,104,120058,5,4,3:0:0:0:
373,127,120269,1,4,3:0:0:0:
460,231,120480,1,4,3:0:0:0:
412,44,120691,1,4,3:0:0:0:
237,183,120903,1,4,3:0:0:0:
425,320,121114,1,4,3:0:0:0:
282,96,121325,1,4,3:0:0:0:
145,331,121536,1,4,3:0:0:0:
373,127,121747,1,4,3:0:0:0:
329,346,122170,6,0,P|371:255|265:284,1,255.000009727478,6|0,3:0|0:0,0:0:0:0:
434,373,122804,1,8,3:0:0:0:
185,323,123015,2,0,P|177:267|185:211,1,85,4|0,3:0|0:0,0:0:0:0:
249,26,123438,5,4,3:0:0:0:
83,190,123649,1,4,3:0:0:0:
252,355,123860,1,4,3:0:0:0:
414,186,124072,2,0,B|372:180|372:180|322:186,1,85,4|0,3:0|0:0,0:0:0:0:
136,267,124494,1,4,3:0:0:0:
165,297,124599,1,4,3:0:0:0:
203,315,124705,1,4,3:0:0:0:
245,319,124810,1,4,3:0:0:0:
287,315,124917,2,0,P|328:299|368:264,1,85,4|8,3:0|3:0,0:0:0:0:
259,127,125339,5,4,3:0:0:0:
287,315,125550,1,8,3:0:0:0:
387,102,125762,1,8,3:0:0:0:
179,240,125973,1,4,3:0:0:0:
448,299,126184,1,8,3:0:0:0:
220,85,126396,1,4,3:0:0:0:
348,383,126607,2,0,P|361:328|357:267,1,110.499994941712,8|2,0:3|0:3,0:3:0:0:
161,235,127029,5,4,3:0:0:0:
352,91,127241,1,8,3:0:0:0:
380,337,127452,1,8,3:0:0:0:
215,112,127663,1,4,3:0:0:0:
480,244,127874,1,4,3:0:0:0:
480,244,127979,1,4,3:0:0:0:
480,244,128085,1,4,3:0:0:0:
165,318,128297,2,0,P|219:300|281:297,1,110.499994941712,8|2,3:0|0:3,0:0:0:0:
230,135,128931,5,4,3:0:0:0:
272,296,129142,1,4,0:3:0:0:
272,296,129247,1,4,0:3:0:0:
272,296,129353,1,4,3:0:0:0:
29,113,129565,1,8,3:0:0:0:
316,65,129776,1,4,3:0:0:0:
175,352,129987,2,0,B|126:279|176:226|230:167|169:79,1,255,6|0,3:0|0:0,0:0:0:0:
