osu file format v14

[General]
AudioFilename: audio.mp3
AudioLeadIn: 0
PreviewTime: 111396
Countdown: 0
SampleSet: Soft
StackLeniency: 0.7
Mode: 0
LetterboxInBreaks: 0
WidescreenStoryboard: 1

[Editor]
Bookmarks: 23085,63860
DistanceSpacing: 1.1
BeatDivisor: 8
GridSize: 4
TimelineZoom: 1.9

[Metadata]
Title:Metal - Brute Justice Mode
TitleUnicode:メタル:ブルートジャスティスモード ~機工城アレキサンダー:律動編~
Artist:Masayoshi Soken
ArtistUnicode:Masayoshi Soken
Creator:Arf
Version:Savage
Source:FINAL FANTASY XIV
Tags:rfandomization ff14 ffxiv ファイナルファンタジーXIV 祖堅正慶 a realm reborn arr hw alexander eight savage a8s raid boss theme primal sentai jazz locus remix english video game shinenite warpyc charlotte [r] ron raphalge
BeatmapID:1109111
BeatmapSetID:522233

[Difficulty]
HPDrainRate:6
CircleSize:4
OverallDifficulty:8.2
ApproachRate:9
SliderMultiplier:2.7
SliderTickRate:1

[Events]
//Background and Video events
0,0,"bgalex.jpg",0,0
//Break Periods
//Storyboard Layer 0 (Background)
//Storyboard Layer 1 (Fail)
//Storyboard Layer 2 (Pass)
//Storyboard Layer 3 (Foreground)
//Storyboard Layer 4 (Overlay)
//Storyboard Sound Samples

[TimingPoints]
3438,422.535211267606,4,2,0,65,1,0
16959,-125,4,2,0,45,0,0
28579,-50,4,2,0,45,0,0
29635,-125,4,2,0,45,0,0
30480,-153.846153846154,4,2,0,45,0,0
31747,-111.111111111111,4,2,0,45,0,0
32170,-153.846153846154,4,2,0,45,0,0
38508,-111.111111111111,4,2,0,45,0,0
38931,-153.846153846154,4,2,0,45,0,0
40621,-133.333333333333,4,2,0,45,0,0
41043,-66.6666666666667,4,2,0,45,0,0
42522,-153.846153846154,4,2,0,45,0,0
43579,-111.111111111111,4,2,0,45,0,0
44001,-125,4,2,0,45,0,0
45269,-111.111111111111,4,2,0,45,0,0
45691,-125,4,2,0,45,0,0
51607,-153.846153846154,4,2,0,45,0,0
52029,-125,4,2,0,45,0,0
53297,-153.846153846154,4,2,0,45,0,0
53719,-125,4,2,0,45,0,0
69142,-50,4,2,0,45,0,0
70198,-125,4,2,0,45,0,0
71043,-100,4,2,0,45,0,0
84142,-50,4,2,0,45,0,0
84564,-83.3333333333333,4,2,0,65,0,1
96395,-100,4,2,0,65,0,0
96818,-50,4,2,0,65,0,0
97241,-100,4,2,0,65,0,0
98085,-83.3333333333333,4,2,0,65,0,1
110339,-50,4,2,0,65,0,1
110762,-83.3333333333333,4,2,0,65,0,1
111607,-200,4,2,0,65,0,0
112029,-66.6666666666667,4,2,0,65,0,0
113086,-66.6666666666667,4,2,0,35,0,0
113508,-66.6666666666667,4,2,0,45,0,0
113931,-66.6666666666667,4,2,0,55,0,0
114353,-66.6666666666667,4,2,0,65,0,0
114987,-200,4,2,0,65,0,0
115410,-66.6666666666667,4,2,0,65,0,0
115832,-66.6666666666667,4,2,0,65,0,0
118367,-200,4,2,0,65,0,0
118790,-66.6666666666667,4,2,0,65,0,0
119212,-83.3333333333333,4,2,0,65,0,0
119846,-83.3333333333333,4,2,0,35,0,0
120269,-83.3333333333333,4,2,0,45,0,0
120691,-83.3333333333333,4,2,0,55,0,0
121114,-83.3333333333333,4,2,0,65,0,0
121748,-200,4,2,0,65,0,0
122170,-66.6666666666667,4,2,0,65,0,0
122593,-83.3333333333333,4,2,0,65,0,0
125128,-83.3333333333333,4,2,0,65,0,0
128931,-66.6666666666667,4,2,0,65,0,0

[Colours]
Combo1 : 255,255,79
Combo2 : 48,172,6
Combo3 : 213,0,0
Combo4 : 128,0,64
Combo5 : 0,58,117

[HitObjects]
113,129,58,5,4,3:0:0:0:
182,160,163,1,4,3:0:0:0:
256,179,269,1,4,3:0:0:0:
332,160,374,1,4,3:0:0:0:
401,129,479,1,4,0:3:0:0:
256,192,691,12,0,3015,3:0:0:0:
256,83,3438,5,8,3:0:0:0:
255,83,5128,1,8,3:0:0:0:
255,83,5762,2,0,L|224:54,4,33.75,8|8|8|8|4,3:0|3:0|3:0|3:0|3:0,0:0:0:0:
340,159,6184,1,4,3:0:0:0:
272,303,6396,1,4,3:0:0:0:
213,252,6501,1,4,3:0:0:0:
186,178,6607,1,8,3:0:0:0:
278,45,6818,5,8,3:0:0:0:
213,252,7029,1,0,3:3:0:0:
140,115,7241,1,4,3:0:0:0:
349,175,7452,1,8,3:0:0:0:
140,115,7663,2,0,P|82:130|25:182,1,135,4|8,3:0|3:0,0:0:0:0:
155,277,8086,1,0,3:0:0:0:
140,115,8297,1,0,3:0:0:0:
311,286,8508,5,4,3:0:0:0:
286,70,8719,1,8,3:0:0:0:
111,197,8931,1,4,3:0:0:0:
317,173,9142,2,0,L|371:167,4,33.75,8|8|8|8|4,3:0|3:0|3:0|3:0|3:0,0:0:0:0:
110,196,9565,1,4,3:0:0:0:
355,173,9776,1,4,3:0:0:0:
355,173,9881,1,4,3:0:0:0:
29,274,10198,6,0,P|5:149|114:86,1,270,4|4,0:3|0:3,0:0:0:0:
397,86,10832,2,0,P|506:149|483:274,1,270,8|0,0:3|0:0,0:0:0:0:
324,265,11466,1,4,0:3:0:0:
397,86,11677,1,0,0:0:0:0:
324,265,11888,6,0,P|256:358|194:247,1,270,8|4,0:3|0:3,0:0:0:0:
190,101,12522,2,0,P|258:8|320:119,1,270,8|0,0:3|0:0,0:0:0:0:
255,296,13156,1,4,0:3:0:0:
259,79,13367,1,0,0:0:0:0:
187,224,13579,5,8,0:3:0:0:
152,296,13684,1,0,0:0:0:0:
189,368,13790,1,0,0:0:0:0:
119,168,14001,1,8,0:3:0:0:
325,224,14212,1,8,0:3:0:0:
360,296,14317,1,0,0:0:0:0:
323,368,14423,1,0,0:0:0:0:
393,168,14635,1,0,0:3:0:0:
255,296,14846,1,4,0:3:0:0:
119,168,15058,1,0,0:0:0:0:
40,369,15269,5,4,3:0:0:0:
40,369,15374,1,4,3:0:0:0:
226,160,15586,1,4,3:0:0:0:
226,160,15691,1,4,3:0:0:0:
329,327,15903,1,0,0:0:0:0:
136,211,16114,2,0,P|145:88|286:73,1,270,8|4,3:0|3:0,0:0:0:0:
270,63,16959,6,0,L|256:176,1,108,8|0,0:3|0:0,0:0:0:0:
256,170,17276,1,8,0:3:0:0:
256,170,17381,1,4,3:0:0:0:
234,331,17593,1,8,3:0:0:0:
263,177,17804,1,8,3:0:0:0:
234,331,18015,2,0,B|181:349|181:349|128:351,1,108,8|4,0:3|3:0,0:0:0:0:
366,302,18438,5,8,3:0:0:0:
366,302,18860,1,8,3:0:0:0:
256,170,19072,1,4,3:0:0:0:
418,126,19283,1,8,3:0:0:0:
213,247,19494,2,0,P|156:260|101:235,1,108,8|0,3:0|0:0,0:0:0:0:
371,41,19917,2,0,P|428:28|483:53,1,108,4|0,3:0|3:0,0:0:0:0:
402,274,20339,6,0,P|349:249|321:195,1,108,8|4,3:0|3:0,0:0:0:0:
324,208,20656,1,8,0:3:0:0:
324,208,20762,1,4,3:0:0:0:
242,348,20973,1,0,0:0:0:0:
402,274,21184,1,8,3:0:0:0:
244,161,21396,2,0,P|280:123|332:114,1,108,4|4,3:0|3:0,0:0:0:0:
222,279,21818,1,8,3:0:0:0:
222,279,22241,5,8,3:0:0:0:
50,208,22452,1,4,3:0:0:0:
222,279,22663,1,8,3:0:0:0:
50,208,22874,2,0,P|75:154|121:128,1,108,8|0,3:0|0:0,0:0:0:0:
189,113,23191,1,0,0:0:0:0:
264,112,23297,1,4,3:0:0:0:
334,138,23403,1,0,0:0:0:0:
402,169,23508,1,0,0:0:0:0:
477,158,23614,1,0,0:0:0:0:
455,229,23719,5,8,3:0:0:0:
455,304,23825,1,0,0:0:0:0:
489,371,23931,1,0,0:0:0:0:
255,192,24142,1,4,3:0:0:0:
57,229,24353,1,0,0:0:0:0:
57,304,24459,1,0,0:0:0:0:
23,371,24565,1,8,3:0:0:0:
203,330,24776,5,0,0:0:0:0:
255,316,24881,1,8,3:0:0:0:
309,330,24987,1,4,3:0:0:0:
307,115,25198,1,8,3:0:0:0:
255,129,25303,1,0,0:0:0:0:
201,115,25409,1,2,0:0:0:0:
255,316,25621,5,8,3:0:0:0:
307,115,25832,1,4,3:0:0:0:
167,215,26043,1,8,3:0:0:0:
136,225,26149,1,0,0:0:0:0:
103,226,26255,1,8,3:0:0:0:
307,115,26466,1,0,0:0:0:0:
338,105,26572,1,0,0:0:0:0:
371,104,26678,1,4,3:0:0:0:
512,138,26888,1,0,0:0:0:0:
209,153,27100,5,8,3:0:0:0:
139,123,27205,1,0,0:0:0:0:
103,55,27311,1,0,0:0:0:0:
255,21,27522,1,4,3:0:0:0:
409,55,27734,1,0,0:0:0:0:
373,123,27840,1,0,0:0:0:0:
303,153,27945,1,8,3:0:0:0:
92,186,28156,2,0,L|45:197,4,27,0|0|8|0|4,0:0|0:0|3:0|0:0|3:0,0:0:0:0:
252,105,28579,6,0,B|323:104|323:104|382:127,1,135,4|0,0:0|0:0,0:0:0:0:
246,303,29001,2,0,B|175:304|175:304|115:280,1,135,4|0,3:0|0:0,0:0:0:0:
252,105,29424,2,0,L|252:267,1,135,4|0,3:0|0:0,0:0:0:0:
246,303,29635,6,0,B|322:230|179:166|261:96,1,216,4|0,3:0|0:0,0:0:0:0:
289,91,30110,2,0,L|318:89,5,27
366,88,30480,6,0,P|395:122|404:213,1,131.624993974686,8|4,0:3|0:3,0:0:0:0:
396,240,30903,1,4,3:0:0:0:
276,201,31114,1,8,3:0:0:0:
239,323,31325,2,0,P|200:341|112:332,1,131.624993974686,8|0,0:3|0:0,0:0:0:0:
53,256,31747,6,0,P|109:235|166:251,1,121.499996292114,4|8,3:0|3:0,0:0:0:0:
317,342,32170,6,0,P|356:360|412:356,1,87.749995983124,8|0,0:3|0:0,0:0:0:0:
439,356,32487,1,0,0:3:0:0:
472,335,32593,1,4,3:0:0:0:
420,198,32804,1,8,3:0:0:0:
276,133,33015,2,0,B|226:128|186:175,1,87.749995983124,8|0,0:3|0:0,0:0:0:0:
347,171,33438,2,0,P|354:120|335:78,1,87.749995983124,4|8,3:0|3:0,0:0:0:0:
184,297,33860,6,0,P|247:320|317:305,1,131.624993974686,8|0,0:3|0:0,0:0:0:0:
337,296,34283,1,4,3:0:0:0:
255,191,34494,1,8,3:0:0:0:
306,68,34705,2,0,P|359:108|385:175,1,131.624993974686,8|0,0:3|0:0,0:0:0:0:
388,196,35128,1,4,3:0:0:0:
255,191,35339,1,8,3:0:0:0:
206,68,35550,2,0,P|152:108|126:175,1,131.624993974686,8|0,0:3|0:3,0:0:0:0:
124,196,35973,1,4,3:0:0:0:
255,191,36184,1,8,3:0:0:0:
197,286,36396,5,8,3:0:0:0:
128,314,36501,1,0,0:0:0:0:
54,302,36607,1,4,3:0:0:0:
315,286,36818,1,4,0:3:0:0:
384,314,36923,1,0,0:0:0:0:
458,302,37029,1,8,3:0:0:0:
323,176,37241,6,0,P|268:182|217:238,1,131.624993974686,8|0,0:3|0:0,0:0:0:0:
216,266,37663,1,4,0:3:0:0:
337,315,37874,1,8,3:0:0:0:
255,179,38086,2,0,L|180:68,1,131.624993974686,8|0,0:3|0:0,0:0:0:0:
88,63,38508,6,0,L|161:174,1,121.499996292114,4|8,0:3|3:0,0:0:0:0:
372,218,38931,6,0,L|313:133,1,87.749995983124,8|0,0:3|0:0,0:0:0:0:
300,112,39248,1,0,0:0:0:0:
279,78,39353,1,4,0:3:0:0:
166,194,39565,1,8,3:0:0:0:
279,78,39776,1,8,0:3:0:0:
255,291,39987,1,4,3:0:0:0:
439,230,40198,1,8,3:0:0:0:
234,181,40409,1,8,3:0:0:0:
439,230,40621,6,0,P|434:301|370:373,1,151.875005793572,0|0,0:0|0:0,0:0:0:0:
344,367,41043,6,0,L|151:295,1,202.500007724762,4|8,3:0|3:0,0:0:0:0:
154,296,41466,1,4,3:0:0:0:
356,248,41677,1,8,0:3:0:0:
122,223,41888,1,4,3:0:0:0:
389,321,42099,1,8,0:3:0:0:
105,372,42311,1,4,3:0:0:0:
389,321,42522,1,4,3:0:0:0:
427,313,42628,1,4,3:0:0:0:
465,305,42734,1,4,3:0:0:0:
188,286,42945,1,8,0:3:0:0:
374,193,43156,6,0,P|341:136|284:106,1,131.624993974686,4|0,3:0|0:0,0:0:0:0:
323,87,43579,1,4,3:0:0:0:
362,71,43684,1,4,3:0:0:0:
401,53,43790,1,8,3:0:0:0:
200,22,44001,6,0,P|149:46|117:95,1,108,8|0,0:3|0:0,0:0:0:0:
111,120,44318,1,8,0:3:0:0:
114,152,44424,1,4,3:0:0:0:
224,134,44635,1,8,0:3:0:0:
278,230,44846,2,0,P|337:219|385:132,1,162,8|0,0:3|0:0,0:0:0:0:
397,38,45269,6,0,P|337:48|292:102,1,121.499996292114,4|0,3:0|0:0,0:0:0:0:
277,230,45691,6,0,P|259:287|214:319,1,108,8|8,0:3|0:3,0:0:0:0:
186,321,46008,1,8,0:3:0:0:
148,315,46114,1,4,3:0:0:0:
115,198,46325,1,8,0:3:0:0:
227,151,46536,2,0,B|283:144|283:144|343:153,1,108,8|0,0:3|0:0,0:0:0:0:
115,198,46959,2,0,B|59:205|59:205|-1:196,1,108,4|8,3:3|0:3,0:0:0:0:
79,50,47381,6,0,P|146:59|184:87,1,108,8|0,0:3|0:0,0:0:0:0:
206,114,47698,1,8,0:3:0:0:
216,156,47804,1,4,3:0:0:0:
254,269,48015,1,8,0:3:0:0:
297,154,48227,2,0,P|319:95|359:70,1,108,8|0,0:3|0:0,0:0:0:0:
396,60,48543,1,8,0:3:0:0:
439,60,48649,1,4,3:0:0:0:
497,188,48860,1,8,0:3:0:0:
402,294,49072,2,0,L|289:353,1,108,8|0,0:3|0:0,0:0:0:0:
110,294,49494,2,0,L|223:353,1,108,4|0,3:0|0:0,0:0:0:0:
450,354,49917,5,8,3:0:0:0:
402,294,50023,1,0,0:0:0:0:
358,232,50128,1,4,3:0:0:0:
154,232,50339,1,4,3:0:0:0:
110,294,50444,1,0,0:0:0:0:
62,354,50550,1,8,3:0:0:0:
256,293,50762,6,0,L|257:178,1,108,8|0,0:3|0:0,0:0:0:0:
258,136,51079,1,8,0:3:0:0:
259,87,51184,1,4,3:0:0:0:
105,141,51396,1,8,0:3:0:0:
180,309,51607,6,0,P|214:358|290:367,1,131.624993974686,8|0,0:3|0:0,0:0:0:0:
374,358,52029,6,0,P|352:309|306:279,1,108,4|0,3:0|0:0,0:0:0:0:
180,309,52452,6,0,P|128:295|93:255,1,108,8|0,0:3|0:0,0:0:0:0:
82,213,52769,1,8,0:3:0:0:
94,171,52874,1,4,3:3:0:0:
163,51,53086,1,8,0:3:0:0:
292,114,53297,6,0,B|361:122|361:122|429:103,1,131.624993974686,8|0,0:3|0:0,0:0:0:0:
478,20,53719,6,0,P|411:4|371:17,1,108,4|0,3:0|0:0,0:0:0:0:
292,114,54142,5,4,3:0:0:0:
253,176,54248,1,4,3:0:0:0:
184,206,54353,1,4,3:0:0:0:
142,269,54459,1,4,3:0:0:0:
149,340,54565,1,4,3:0:0:0:
253,176,54776,1,4,3:0:0:0:
359,340,54987,1,4,3:0:0:0:
88,139,55198,1,4,3:0:0:0:
424,139,55410,1,4,3:0:0:0:
254,369,55621,1,4,3:0:0:0:
256,18,55832,5,6,3:0:0:0:
256,192,56043,12,4,57100,3:0:0:0:
110,129,57522,5,4,3:0:0:0:
183,108,57628,1,0,0:0:0:0:
257,120,57734,1,0,0:0:0:0:
391,221,57945,1,4,3:0:0:0:
261,300,58156,1,8,3:0:0:0:
187,312,58261,1,0,0:0:0:0:
114,291,58367,1,8,3:0:0:0:
284,222,58579,2,0,B|334:213|334:213|419:224,1,108,0|4,0:0|3:0,0:0:0:0:
187,312,59001,5,8,3:0:0:0:
187,312,59424,1,8,3:0:0:0:
256,78,59635,1,8,3:0:0:0:
101,105,59846,1,4,3:0:0:0:
365,198,60057,2,0,P|418:206|469:190,1,108,8|0,3:0|3:0,0:0:0:0:
146,198,60480,2,0,P|93:207|42:190,1,108,4|0,3:0|0:0,0:0:0:0:
184,101,60903,5,4,3:0:0:0:
256,78,61008,1,0,0:0:0:0:
327,102,61114,1,0,0:0:0:0:
469,190,61325,1,4,3:0:0:0:
328,283,61536,1,8,3:0:0:0:
256,306,61641,1,0,0:0:0:0:
185,282,61747,1,8,3:0:0:0:
43,190,61959,2,0,L|174:155,1,108,0|4,3:0|3:0,0:0:0:0:
387,92,62381,5,8,0:3:0:0:
387,92,62804,1,8,3:0:0:0:
411,304,63015,1,4,3:0:0:0:
508,144,63227,1,8,3:0:0:0:
472,355,63438,6,0,P|417:382|368:373,1,108,8|0,3:0|0:0,0:0:0:0:
305,339,63755,1,0,0:0:0:0:
249,288,63860,1,4,3:0:0:0:
182,251,63966,1,0,0:0:0:0:
106,239,64072,1,0,0:0:0:0:
32,254,64177,1,0,0:0:0:0:
53,181,64283,5,4,3:0:0:0:
67,101,64388,1,0,0:0:0:0:
39,24,64494,1,0,0:0:0:0:
249,14,64705,1,4,3:0:0:0:
404,163,64916,1,8,3:0:0:0:
390,243,65021,1,0,0:0:0:0:
418,320,65127,1,8,3:0:0:0:
281,77,65339,5,4,3:0:0:0:
236,49,65444,1,0,0:0:0:0:
182,52,65550,1,4,0:3:0:0:
207,292,65761,1,8,0:3:0:0:
252,320,65866,1,0,0:0:0:0:
306,317,65972,1,4,3:0:0:0:
182,52,66184,5,8,3:0:0:0:
306,317,66396,1,4,3:0:0:0:
317,115,66607,1,8,3:0:0:0:
315,93,66712,1,0,0:0:0:0:
313,71,66818,1,8,3:0:0:0:
184,291,67029,1,0,0:0:0:0:
186,313,67134,1,0,0:0:0:0:
188,335,67240,1,4,3:0:0:0:
374,359,67452,1,0,0:0:0:0:
318,163,67663,5,8,3:0:0:0:
260,105,67769,1,0,0:0:0:0:
184,76,67874,1,0,0:0:0:0:
39,211,68086,1,4,3:0:0:0:
179,359,68297,1,8,3:0:0:0:
255,330,68402,1,0,0:0:0:0:
313,272,68508,1,8,3:0:0:0:
260,105,68719,2,0,L|242:84,4,27,0|0|8|0|4,0:0|0:0|3:0|0:0|3:0,0:0:0:0:
395,281,69142,6,0,B|336:304|336:304|265:303,1,135,4|0,0:0|0:0,0:0:0:0:
129,128,69564,2,0,B|189:104|189:104|260:105,1,135,4|0,3:0|0:0,0:0:0:0:
265,303,69987,2,0,L|265:141,1,135,4|0,3:0|0:0,0:0:0:0:
259,105,70198,6,0,B|340:178|277:236|192:242|276:312,1,216,4|0,3:0|0:3,0:0:0:0:
293,308,70674,2,0,L|322:306,5,27
233,311,71043,6,0,L|95:319,1,135,4|0,3:0|0:0,0:0:0:0:
301,211,71466,2,0,L|439:203,1,135,4|4,3:0|3:0,0:0:0:0:
206,147,71888,2,0,L|68:155,1,135,4|0,3:0|0:0,0:0:0:0:
274,47,72311,2,0,L|412:39,1,135,4|0,3:0|0:0,0:0:0:0:
500,234,72734,5,4,3:3:0:0:
409,39,72945,1,0,3:3:0:0:
424,261,73156,1,4,3:3:0:0:
334,62,73367,1,4,3:3:0:0:
352,286,73579,1,4,3:3:0:0:
261,82,73790,1,8,3:3:0:0:
282,314,74001,1,4,3:3:0:0:
189,105,74212,1,8,3:3:0:0:
141,343,74424,6,0,B|175:278|175:278|228:228,1,135,4|0,3:0|0:0,0:0:0:0:
374,43,74846,2,0,B|339:107|339:107|286:157,1,135,4|4,3:0|3:0,0:0:0:0:
108,76,75269,2,0,B|172:110|172:110|222:163,1,135,4|0,3:0|0:0,0:0:0:0:
407,310,75691,2,0,B|342:275|342:275|292:222,1,135,4|0,3:0|0:0,0:0:0:0:
108,76,76114,5,4,3:0:0:0:
300,230,76325,1,8,3:0:0:0:
194,72,76536,1,4,3:0:0:0:
242,290,76748,1,8,3:0:0:0:
288,75,76959,1,4,3:0:0:0:
288,75,77065,1,4,3:0:0:0:
288,75,77170,1,8,3:0:0:0:
191,354,77381,1,4,3:0:0:0:
191,354,77487,1,4,3:0:0:0:
191,354,77593,1,8,3:0:0:0:
26,188,77804,5,4,3:0:0:0:
250,286,78015,1,0,0:0:0:0:
35,150,78227,1,4,3:0:0:0:
269,252,78438,1,4,3:0:0:0:
45,109,78649,1,4,3:0:0:0:
290,215,78860,1,8,3:0:0:0:
53,68,79072,1,4,3:0:0:0:
310,179,79283,1,8,3:0:0:0:
53,68,79494,5,4,3:0:0:0:
296,22,79705,1,0,0:0:0:0:
55,106,79917,1,4,3:0:0:0:
307,60,80128,1,4,3:0:0:0:
59,148,80339,1,4,3:0:0:0:
319,100,80550,1,8,3:0:0:0:
60,190,80762,1,4,3:0:0:0:
330,140,80973,1,8,3:0:0:0:
227,349,81184,6,0,P|217:367|195:385,3,33.75,8|0|8|0,3:0|0:0|3:0|0:0,0:0:0:0:
255,313,81395,1,4,3:0:0:0:
255,313,81501,1,4,3:0:0:0:
255,313,81607,1,4,3:0:0:0:
191,164,81818,1,8,3:0:0:0:
53,155,82029,1,8,3:0:0:0:
17,204,82135,1,8,3:0:0:0:
11,264,82240,1,4,3:0:0:0:
37,318,82346,1,4,3:0:0:0:
92,341,82451,1,4,3:0:0:0:
252,344,82663,1,8,3:0:0:0:
438,191,82874,6,0,P|361:185|317:224,1,135,8|8,3:0|3:0,0:0:0:0:
261,266,83191,1,8,0:3:0:0:
192,291,83297,1,12,0:3:0:0:
119,280,83402,1,8,0:3:0:0:
61,234,83507,1,8,0:3:0:0:
33,167,83613,1,8,0:3:0:0:
41,94,83719,1,4,0:3:0:0:
83,34,83824,1,4,0:3:0:0:
150,2,83930,1,4,0:3:0:0:
223,7,84036,1,4,0:3:0:0:
283,56,84142,6,0,P|393:124|521:90,1,270,4|0,3:0|0:0,0:0:0:0:
406,2,84564,5,8,0:3:0:0:
385,196,84776,1,0,0:0:0:0:
375,269,84881,1,0,0:0:0:0:
366,341,84987,1,4,0:3:0:0:
146,341,85198,1,8,0:3:0:0:
137,269,85304,1,0,0:0:0:0:
127,196,85409,1,0,0:0:0:0:
170,31,85621,6,0,P|231:55|278:136,1,161.999995056153,0|12,0:3|3:3,0:0:0:0:
228,292,86043,1,0,0:0:0:0:
125,162,86255,1,8,3:0:0:0:
278,135,86466,1,8,3:0:0:0:
333,124,86572,1,8,3:0:0:0:
389,114,86677,1,4,3:0:0:0:
462,214,86888,1,0,0:0:0:0:
335,36,87100,5,8,3:0:0:0:
278,34,87205,1,0,0:0:0:0:
225,57,87311,1,0,0:0:0:0:
193,104,87417,1,8,3:0:0:0:
187,160,87522,1,4,3:0:0:0:
255,294,87734,1,0,0:0:0:0:
104,240,87945,5,8,3:0:0:0:
70,166,88050,1,0,0:0:0:0:
100,90,88156,1,0,0:0:0:0:
254,42,88367,1,4,3:0:0:0:
412,90,88579,1,8,3:0:0:0:
442,166,88685,1,0,0:0:0:0:
408,240,88790,1,0,0:0:0:0:
255,294,89001,5,8,3:0:0:0:
399,366,89212,1,4,3:0:0:0:
281,213,89424,2,0,P|209:225|170:300,1,161.999995056153,0|8,0:0|3:0,0:0:0:0:
125,143,89846,1,0,0:0:0:0:
116,78,89952,1,8,3:0:0:0:
109,13,90058,1,4,3:0:0:0:
134,207,90269,1,8,3:0:0:0:
269,118,90480,5,4,3:0:0:0:
333,113,90586,1,0,0:0:0:0:
394,131,90691,1,8,3:0:0:0:
436,180,90797,1,8,3:0:0:0:
442,244,90903,1,4,3:0:0:0:
320,350,91114,1,0,0:0:0:0:
436,180,91325,5,8,3:0:0:0:
465,113,91431,1,0,0:0:0:0:
495,46,91537,1,0,0:0:0:0:
333,53,91748,1,4,3:0:0:0:
235,204,91959,1,8,3:0:0:0:
264,271,92065,1,0,0:0:0:0:
294,338,92171,1,0,0:0:0:0:
403,245,92381,5,8,3:0:0:0:
403,245,92487,1,8,3:0:0:0:
403,245,92593,2,0,P|381:167|310:120,1,161.999995056153,4|0,3:0|0:0,0:0:0:0:
212,77,93015,1,8,3:0:0:0:
370,39,93227,1,0,0:0:0:0:
432,23,93332,1,8,3:0:0:0:
495,7,93438,1,4,3:0:0:0:
458,164,93649,1,8,3:0:0:0:
269,79,93860,5,4,3:0:0:0:
212,77,93965,1,0,0:0:0:0:
159,100,94071,1,8,3:0:0:0:
127,147,94177,1,8,3:0:0:0:
121,203,94282,1,4,3:0:0:0:
189,350,94494,1,0,0:0:0:0:
333,277,94705,5,8,3:0:0:0:
339,204,94811,1,0,0:0:0:0:
331,131,94917,1,0,0:0:0:0:
257,5,95128,1,4,3:0:0:0:
175,131,95339,1,8,3:0:0:0:
167,204,95445,1,0,0:0:0:0:
173,277,95551,1,0,0:0:0:0:
262,142,95762,5,8,3:0:0:0:
262,142,95867,1,8,3:0:0:0:
262,142,95973,2,0,P|227:64|149:46,1,161.999995056153,4|4,3:0|3:0,0:0:0:0:
63,140,96396,1,0,0:0:0:0:
262,142,96607,1,8,3:0:0:0:
312,158,96712,1,8,0:3:0:0:
349,195,96818,6,0,P|360:338|244:372,1,270,6|0,3:0|0:0,0:0:0:0:
114,285,97241,6,0,L|71:290,3,33.75,4|4|4|4,3:3|3:3|3:3|3:3,0:0:0:0:
172,227,97452,2,0,L|215:222,3,33.75,4|4|4|4,3:3|3:3|3:3|3:3,0:0:0:0:
97,204,97663,2,0,L|54:209,3,33.75,4|4|4|4,3:3|3:3|3:3|3:3,0:0:0:0:
155,146,97874,2,0,L|198:141,3,33.75,4|4|4|4,3:3|3:3|3:3|3:3,0:0:0:0:
54,131,98086,6,0,P|100:60|186:46,1,161.999995056153,4|0,1:0|0:0,0:0:0:0:
243,55,98403,1,0,0:0:0:0:
301,97,98508,2,0,P|350:158|433:160,1,161.999995056153,4|8,3:0|3:0,0:0:0:0:
392,73,98825,1,0,0:0:0:0:
392,73,98931,2,0,L|323:244,1,161.999995056153,8|8,3:0|3:0,0:0:0:0:
304,291,99248,1,8,3:0:0:0:
278,358,99353,1,4,3:0:0:0:
132,286,99565,1,0,0:0:0:0:
331,223,99776,6,0,L|493:174,1,161.999995056153,8|8,0:3|3:0,0:0:0:0:
406,158,100093,1,8,3:0:0:0:
326,146,100198,1,4,3:0:0:0:
97,216,100410,1,0,0:0:0:0:
177,204,100515,1,0,0:0:0:0:
257,192,100621,1,8,3:0:0:0:
445,286,100832,1,0,0:0:0:0:
372,275,100938,1,8,3:0:0:0:
303,250,101043,1,4,3:0:0:0:
257,192,101149,1,0,0:0:0:0:
244,119,101255,1,0,0:0:0:0:
382,40,101466,5,8,3:0:0:0:
409,116,101572,1,0,0:0:0:0:
382,191,101677,1,0,0:0:0:0:
257,294,101888,1,4,3:0:0:0:
130,191,102100,1,8,3:0:0:0:
103,116,102205,1,0,0:0:0:0:
130,40,102311,1,8,3:0:0:0:
258,138,102522,5,8,3:0:0:0:
245,210,102628,1,8,3:0:0:0:
210,274,102734,2,0,P|132:331|65:332,1,161.999995056153,4|0,3:0|0:0,0:0:0:0:
158,83,103156,2,0,P|236:26|303:25,1,161.999995056153,8|8,3:0|3:0,0:0:0:0:
371,32,103473,1,8,3:0:0:0:
435,66,103579,1,4,3:0:0:0:
245,210,103790,1,0,0:0:0:0:
172,220,103896,1,0,0:0:0:0:
100,230,104001,1,8,3:0:0:0:
298,327,104212,1,8,3:0:0:0:
339,266,104318,1,8,3:0:0:0:
344,192,104424,1,4,3:0:0:0:
313,126,104529,1,0,0:0:0:0:
253,84,104635,1,0,0:0:0:0:
80,88,104846,5,8,3:0:0:0:
125,155,104952,1,0,0:0:0:0:
172,220,105058,1,0,0:0:0:0:
255,339,105269,1,4,3:0:0:0:
340,220,105480,1,8,3:0:0:0:
387,155,105586,1,0,0:0:0:0:
432,88,105692,1,8,3:0:0:0:
279,49,105903,1,8,3:0:0:0:
252,116,106008,1,8,3:0:0:0:
250,189,106114,2,0,P|266:277|336:318,1,161.999995056153,4|0,3:0|0:0,0:0:0:0:
250,189,106536,6,0,L|89:167,1,161.999995056153,8|8,3:0|3:0,0:0:0:0:
12,155,106853,1,8,3:0:0:0:
60,88,106959,2,0,L|221:110,1,161.999995056153,4|0,3:0|0:0,0:0:0:0:
296,123,107276,1,0,0:0:0:0:
354,165,107381,2,0,P|338:257|290:303,1,161.999995056153,8|8,3:0|3:0,0:0:0:0:
219,333,107698,1,8,3:0:0:0:
284,384,107804,2,0,L|454:367,1,161.999995056153,4|0,3:0|0:0,0:0:0:0:
446,145,108227,5,8,3:0:0:0:
397,80,108332,1,0,0:0:0:0:
320,52,108438,1,0,0:0:0:0:
256,200,108649,1,4,3:0:0:0:
66,145,108860,1,8,3:0:0:0:
115,80,108965,1,0,0:0:0:0:
192,52,109071,1,8,3:0:0:0:
256,200,109283,5,8,3:0:0:0:
256,272,109388,1,8,3:0:0:0:
256,345,109494,1,4,3:0:0:0:
124,278,109705,1,8,3:0:0:0:
256,200,109917,2,0,P|334:165|410:180,1,161.999995056153,0|8,0:0|3:0,0:0:0:0:
470,214,110234,1,0,0:0:0:0:
481,292,110339,6,0,P|343:346|225:318,1,270,4|0,3:0|0:0,0:0:0:0:
0,181,110762,1,4,3:0:0:0:
60,129,110867,1,4,3:0:0:0:
140,129,110973,1,4,3:0:0:0:
214,161,111078,1,4,3:0:0:0:
287,196,111184,1,4,3:0:0:0:
366,213,111290,1,4,3:0:0:0:
443,194,111395,1,4,3:0:0:0:
506,143,111501,1,4,3:0:0:0:
497,62,111607,6,0,P|442:32|394:31,1,101.25,4|0,3:0|0:0,0:0:0:0:
336,77,112029,6,0,P|407:144|506:143,1,202.500007724762,4|0,3:0|0:0,0:0:0:0:
423,270,112452,1,4,3:0:0:0:
341,254,112557,1,4,3:0:0:0:
259,281,112663,1,4,3:0:0:0:
187,307,112768,1,4,3:0:0:0:
114,286,112874,1,4,3:0:0:0:
95,70,113086,5,0,3:0:0:0:
254,44,113297,1,4,3:0:0:0:
90,145,113508,1,4,3:0:0:0:
295,109,113719,1,4,3:0:0:0:
84,219,113931,1,4,3:0:0:0:
335,175,114142,1,4,3:0:0:0:
80,295,114353,1,4,3:0:0:0:
375,239,114565,1,4,3:0:0:0:
75,368,114776,1,4,3:0:0:0:
416,301,114987,6,0,L|523:275,1,101.25,4|0,3:0|0:0,0:0:0:0:
416,301,115410,6,0,L|214:350,1,202.500007724762,4|0,3:0|0:0,0:0:0:0:
56,227,115832,6,0,L|261:181,1,202.500007724762,0|8,0:0|3:0,0:0:0:0:
332,163,116149,1,0,0:0:0:0:
411,144,116255,1,4,3:0:0:0:
416,301,116466,1,0,0:0:0:0:
188,132,116677,5,4,3:0:0:0:
188,132,116783,1,8,3:0:0:0:
155,361,116994,1,4,3:0:0:0:
155,361,117100,1,8,3:0:0:0:
383,282,117311,1,4,3:0:0:0:
318,232,117417,1,0,0:0:0:0:
253,182,117522,1,0,0:0:0:0:
112,74,117734,1,8,3:0:0:0:
188,100,117839,1,8,3:0:0:0:
269,104,117945,1,4,3:0:0:0:
346,82,118050,1,0,0:0:0:0:
409,30,118156,1,8,3:0:0:0:
419,209,118367,6,0,P|423:260|455:315,1,101.25,4|0,3:0|0:0,0:0:0:0:
445,304,118790,6,0,P|336:303|253:348,1,202.500007724762,4|0,3:0|0:0,0:0:0:0:
72,345,119212,1,4,3:0:0:0:
138,314,119318,1,4,3:0:0:0:
186,259,119424,1,4,3:0:0:0:
192,186,119529,1,4,3:0:0:0:
173,115,119635,1,4,3:0:0:0:
373,76,119846,5,0,0:0:0:0:
214,50,120057,1,4,3:0:0:0:
378,151,120268,1,4,3:0:0:0:
173,115,120479,1,4,3:0:0:0:
384,225,120691,1,4,3:0:0:0:
133,181,120902,1,4,3:0:0:0:
388,301,121113,1,4,3:0:0:0:
93,245,121325,1,4,3:0:0:0:
393,374,121536,1,4,3:0:0:0:
50,311,121748,6,0,P|21:272|28:207,1,101.25,4|0,3:0|0:0,0:0:0:0:
84,158,122170,6,0,P|142:219|132:336,1,202.500007724762,4|0,3:0|0:0,0:0:0:0:
1,135,122593,6,0,P|57:81|138:91,1,161.999995056153,0|8,0:0|3:0,0:0:0:0:
196,129,122910,1,0,0:0:0:0:
257,167,123015,2,0,P|335:175|391:120,1,161.999995056153,4|0,3:0|0:0,0:0:0:0:
135,89,123438,5,4,3:0:0:0:
362,365,123649,1,4,3:0:0:0:
391,120,123860,1,4,3:0:0:0:
106,334,124072,2,0,P|67:283|69:171,1,161.999995056153,4|0,3:0|0:0,0:0:0:0:
267,31,124494,1,4,3:0:0:0:
295,98,124600,1,4,3:0:0:0:
295,170,124705,1,4,3:0:0:0:
261,234,124811,1,4,3:0:0:0:
196,269,124917,1,4,3:0:0:0:
196,269,125339,5,4,3:0:0:0:
354,97,125550,1,8,3:0:0:0:
422,320,125762,1,8,3:0:0:0:
224,134,125973,1,4,3:0:0:0:
450,185,126185,1,8,3:0:0:0:
292,356,126396,1,4,3:0:0:0:
194,45,126607,1,8,3:0:0:0:
101,137,127029,5,4,3:0:0:0:
259,308,127240,1,8,3:0:0:0:
327,85,127452,1,8,3:0:0:0:
127,268,127663,1,4,3:0:0:0:
194,45,127875,1,4,3:0:0:0:
194,45,127980,1,4,3:0:0:0:
194,45,128086,1,4,3:0:0:0:
99,372,128297,1,4,3:0:0:0:
194,278,128931,6,0,B|299:279|299:279|396:219,1,202.500007724762,4|0,3:0|0:0,0:0:0:0:
381,227,129247,1,0,0:0:0:0:
381,227,129353,1,4,3:0:0:0:
130,214,129565,1,8,3:0:0:0:
393,139,129776,1,4,3:0:0:0:
67,110,129987,2,0,B|93:74|93:74|109:82|109:82|116:67|116:67|131:79|131:79|139:61|139:61|155:75|155:75|163:56|163:56|180:69|180:69|188:52|188:52|204:66|204:66|212:48|212:48|228:62|228:62|235:45|235:45|250:58|250:58|257:42|257:42|273:55|273:55|277:41|277:41|290:53|290:53|301:37|301:37|314:49|314:49|321:35|321:35|340:48|340:48|342:34|342:34|359:46|359:46|424:77|504:13,1,607.500023174287,4|0,3:0|0:0,0:0:0:0:
