osu file format v14

[General]
AudioFilename: audio.mp3
AudioLeadIn: 0
PreviewTime: 111396
Countdown: 0
SampleSet: Soft
StackLeniency: 0.7
Mode: 0
LetterboxInBreaks: 0
WidescreenStoryboard: 1

[Editor]
DistanceSpacing: 1.3
BeatDivisor: 4
GridSize: 4
TimelineZoom: 1.3

[Metadata]
Title:Metal - Brute Justice Mode
TitleUnicode:メタル:ブルートジャスティスモード ~機工城アレキサンダー:律動編~
Artist:Masayoshi Soken
ArtistUnicode:Masayoshi Soken
Creator:Arf
Version:Normal
Source:FINAL FANTASY XIV
Tags:rfandomization ff14 ffxiv ファイナルファンタジーXIV 祖堅正慶 a realm reborn arr hw alexander eight savage a8s raid boss theme primal sentai jazz locus remix english video game shinenite warpyc charlotte [r] ron raphalge
BeatmapID:1219827
BeatmapSetID:522233

[Difficulty]
HPDrainRate:4
CircleSize:3
OverallDifficulty:4.5
ApproachRate:5.5
SliderMultiplier:1.3
SliderTickRate:1

[Events]
//Background and Video events
0,0,"bgalex.jpg",0,0
//Break Periods
//Storyboard Layer 0 (Background)
//Storyboard Layer 1 (Fail)
//Storyboard Layer 2 (Pass)
//Storyboard Layer 3 (Foreground)
//Storyboard Layer 4 (Overlay)
//Storyboard Sound Samples

[TimingPoints]
3438,422.535211267606,4,2,0,65,1,0
84564,-100,4,2,0,65,0,1
96395,-100,4,2,0,65,0,0
98085,-100,4,2,0,65,0,1
111607,-100,4,2,0,65,0,0

[Colours]
Combo1 : 255,255,79
Combo2 : 48,172,6
Combo3 : 213,0,0
Combo4 : 128,0,64
Combo5 : 0,58,117

[HitObjects]
179,138,58,6,0,L|112:129,2,65,4|4|4,3:0|3:0|3:0,0:0:0:0:
256,192,903,12,0,2592,0:0:0:0:
177,89,3438,6,0,L|168:156,1,65,8|0,3:0|0:0,0:0:0:0:
108,212,3860,2,0,L|125:278,1,65,0|0,0:0|0:0,0:0:0:0:
147,356,4283,1,0,0:0:0:0:
313,330,4705,2,0,L|383:317,1,65,0|0,0:0|0:0,0:0:0:0:
386,233,5128,6,0,L|322:244,1,65,8|0,3:0|0:0,0:0:0:0:
239,261,5550,1,0,0:0:0:0:
79,205,5973,2,0,P|61:241|58:275,2,65,4|4|4,3:0|3:0|3:0,0:0:0:0:
155,54,6818,6,0,L|223:72,1,65,8|0,3:0|3:3,0:0:0:0:
260,143,7241,2,0,L|192:161,1,65,4|8,3:0|3:0,0:0:0:0:
115,182,7663,1,4,3:0:0:0:
158,345,8086,2,0,B|193:341|193:341|229:319,1,65,0|0,3:0|3:0,0:0:0:0:
275,263,8508,6,0,B|300:247|300:247|335:243,1,65,4|8,3:0|3:0,0:0:0:0:
420,247,8931,2,0,P|397:183|329:158,1,130,4|4,3:0|3:0,0:0:0:0:
175,142,9776,1,4,3:0:0:0:
76,278,10198,6,0,P|126:317|198:305,1,130,4|4,0:3|0:3,0:0:0:0:
256,258,10832,2,0,P|319:251|369:290,1,130,8|0,0:3|0:0,0:0:0:0:
372,375,11466,2,0,P|410:369|437:342,1,65,4|0,0:3|0:0,0:0:0:0:
466,276,11888,6,0,B|448:180|448:180|461:136,1,130,8|4,0:3|0:3,0:0:0:0:
396,90,12522,2,0,B|300:108|300:108|268:98,1,130,8|0,0:3|0:0,0:0:0:0:
187,68,13156,1,4,0:3:0:0:
212,235,13579,6,0,L|85:260,1,130,8|8,0:3|0:3,0:0:0:0:
76,344,14212,2,0,L|203:319,1,130,8|0,0:3|0:3,0:0:0:0:
285,298,14846,2,0,B|320:289|342:269,1,65,4|0,0:3|0:0,0:0:0:0:
344,184,15269,6,0,P|403:210|429:269,2,130,4|4|8,3:0|3:0|3:0,0:0:0:0:
187,142,16536,1,4,3:0:0:0:
325,42,16959,6,0,B|359:90|359:90|437:122,1,130,8|4,0:3|3:0,0:0:0:0:
506,140,17593,1,8,3:0:0:0:
489,222,17804,2,0,L|472:294,1,65,8|8,3:0|0:3,0:0:0:0:
312,333,18438,1,8,3:0:0:0:
151,280,18860,6,0,L|79:295,2,65,8|4|8,3:0|3:0|3:0,0:0:0:0:
235,272,19494,2,0,P|219:231|193:208,1,65,8|0,3:0|0:0,0:0:0:0:
120,202,19917,2,0,P|130:171|151:146,1,65,4|0,3:0|3:0,0:0:0:0:
233,126,20339,6,0,P|187:69|121:66,1,130,8|4,3:0|3:0,0:0:0:0:
51,79,20973,1,0,0:0:0:0:
43,163,21184,2,0,P|46:207|57:237,1,65,8|4,3:0|3:0,0:0:0:0:
221,230,21818,1,8,3:0:0:0:
330,361,22241,6,0,B|361:370|361:370|400:369,2,65,8|4|8,3:0|3:0|3:0,0:0:0:0:
263,309,22874,2,0,B|286:221|286:221|275:170,1,130,8|4,3:0|3:0,0:0:0:0:
313,17,23719,6,0,P|348:30|395:34,1,65,8|0,3:0|0:0,0:0:0:0:
457,54,24142,2,0,P|465:85|467:117,1,65,4|8,0:3|3:0,0:0:0:0:
420,187,24564,1,8,0:3:0:0:
470,255,24776,2,0,P|468:287|459:318,1,65,0|4,0:3|3:0,0:0:0:0:
390,367,25198,1,8,3:0:0:0:
222,350,25621,6,0,L|153:328,1,65,8|4,3:0|3:0,0:0:0:0:
79,303,26043,1,8,3:0:0:0:
146,250,26255,2,0,L|215:228,1,65,8|0,3:0|0:0,0:0:0:0:
214,146,26677,2,0,L|152:165,1,65,4|0,3:0|0:0,0:0:0:0:
72,195,27100,6,0,P|73:131|122:85,1,130,8|4,3:0|3:0,0:0:0:0:
198,61,27734,1,0,0:0:0:0:
276,28,27945,2,0,P|281:61|272:102,1,65,8|0,3:0|0:0,0:0:0:0:
198,248,28579,6,0,B|225:270|255:278|255:278|302:266|314:245,1,130,4|4,0:0|3:0,0:0:0:0:
255,88,29424,1,4,3:0:0:0:
195,28,29635,2,0,P|257:4|320:32,1,130,4|0,3:0|0:0,0:0:0:0:
434,146,30480,6,0,L|420:280,1,130,8|4,0:3|3:0,0:0:0:0:
411,359,31114,1,8,3:0:0:0:
332,328,31325,2,0,B|303:312|303:312|244:309,1,65,8|0,0:3|0:0,0:0:0:0:
187,295,31748,2,0,B|155:293|155:293|126:277,1,65,4|0,3:0|0:0,0:0:0:0:
109,195,32170,6,0,B|174:195|174:195|233:170,1,130,8|4,0:3|3:0,0:0:0:0:
300,116,32804,1,8,3:0:0:0:
363,60,33015,2,0,P|380:97|355:179,1,130,8|4,0:3|3:0,0:0:0:0:
380,349,33860,6,0,P|320:352|264:298,1,130,8|4,0:3|3:0,0:0:0:0:
243,228,34494,1,8,3:0:0:0:
226,145,34705,2,0,P|178:103|114:104,1,130,8|4,0:3|3:0,0:0:0:0:
68,266,35550,6,0,P|115:307|179:306,1,130,8|4,0:3|3:0,0:0:0:0:
254,266,36184,1,8,3:0:0:0:
320,212,36396,2,0,L|327:141,1,65,8|4,3:0|3:0,0:0:0:0:
410,130,36818,2,0,L|403:194,1,65,4|8,0:3|3:0,0:0:0:0:
377,274,37240,6,0,B|327:325|327:325|311:394,1,130,8|4,0:3|0:3,0:0:0:0:
232,359,37874,1,8,3:0:0:0:
152,328,38086,2,0,B|177:261|177:261|165:192,1,130,8|4,0:3|0:3,0:0:0:0:
296,94,38931,6,0,B|271:161|271:161|281:218,1,130,8|4,0:3|0:3,0:0:0:0:
328,288,39564,2,0,P|356:253|366:218,1,65,8|8,3:0|0:3,0:0:0:0:
387,153,39987,1,4,3:0:0:0:
459,196,40198,1,8,3:0:0:0:
384,349,40621,6,0,L|250:356,1,130,0|4,0:0|3:0,0:0:0:0:
112,263,41466,1,4,3:0:0:0:
66,192,41677,1,8,0:3:0:0:
70,107,41888,2,0,P|107:97|148:100,1,65,4|8,3:0|0:3,0:0:0:0:
213,125,42311,6,0,P|215:85|207:56,2,65,4|4|4,3:0|3:0|3:0,0:0:0:0:
205,209,42945,1,8,0:3:0:0:
193,292,43156,2,0,P|247:283|286:203,1,130,4|4,3:0|3:0,0:0:0:0:
347,65,44001,6,0,L|365:195,1,130,8|4,0:3|3:0,0:0:0:0:
375,277,44635,1,8,0:3:0:0:
402,356,44846,2,0,B|368:362|368:362|327:347,1,65,8|0,0:3|0:0,0:0:0:0:
259,322,45269,2,0,B|225:316|225:316|196:326,1,65,4|0,3:0|0:0,0:0:0:0:
128,376,45691,6,0,P|114:313|147:259,1,130,8|4,0:3|3:0,0:0:0:0:
221,219,46325,1,8,0:3:0:0:
232,135,46536,2,0,B|168:115|168:115|99:121,1,130,8|4,0:3|3:3,0:0:0:0:
239,17,47381,6,0,L|368:30,1,130,8|4,0:3|3:0,0:0:0:0:
452,41,48015,1,8,0:3:0:0:
421,119,48227,2,0,L|291:105,1,130,8|4,0:3|3:0,0:0:0:0:
199,247,49072,6,0,L|328:260,1,130,8|4,0:3|3:0,0:0:0:0:
412,270,49706,1,8,3:0:0:0:
364,340,49917,2,0,B|330:349|330:349|303:375,1,65,8|4,3:0|3:0,0:0:0:0:
224,375,50339,2,0,B|202:354|202:354|168:345,1,65,4|8,3:0|3:0,0:0:0:0:
116,280,50762,6,0,B|95:213|95:213|86:175|116:140,1,130,8|4,0:3|3:0,0:0:0:0:
170,101,51396,1,8,0:3:0:0:
253,88,51607,2,0,B|314:78|314:78|384:84,1,130,8|4,0:3|3:0,0:0:0:0:
230,8,52452,6,0,L|90:32,1,130,8|4,0:3|3:3,0:0:0:0:
19,50,53086,1,8,0:3:0:0:
48,129,53297,2,0,P|69:188|52:265,1,130,8|4,0:3|3:0,0:0:0:0:
214,317,54142,6,0,B|232:346|232:346|269:368,2,65,4|4|4,3:0|3:0|3:0,0:0:0:0:
202,232,54776,1,4,3:0:0:0:
215,148,54987,2,0,P|179:149|147:165,2,65,4|4|4,3:0|3:0|3:0,0:0:0:0:
298,162,55621,1,4,3:0:0:0:
287,245,55832,6,0,P|377:186|296:78,1,260,6|0,3:0|0:0,0:0:0:0:
177,184,57100,1,4,3:0:0:0:
64,60,57522,6,0,P|91:78|136:91,1,65,4|0,3:0|0:0,0:0:0:0:
205,104,57945,1,4,3:0:0:0:
288,88,58156,2,0,P|319:79|351:81,1,65,8|8,3:0|3:0,0:0:0:0:
432,107,58579,2,0,P|392:157|315:158,1,130,0|8,0:0|3:0,0:0:0:0:
237,305,59424,6,0,P|264:324|313:328,2,65,8|8|4,3:0|3:0|3:0,0:0:0:0:
164,260,60058,2,0,P|133:236|97:227,1,65,8|0,3:0|3:0,0:0:0:0:
105,144,60480,2,0,P|135:133|160:112,1,65,4|0,3:0|0:0,0:0:0:0:
212,45,60903,6,0,L|286:57,1,65,4|0,3:0|0:0,0:0:0:0:
359,68,61325,1,4,3:0:0:0:
443,82,61536,2,0,P|433:112|410:136,1,65,8|8,3:0|3:0,0:0:0:0:
329,163,61959,2,0,P|381:216|443:214,1,130,0|8,3:0|0:3,0:0:0:0:
297,318,62804,6,0,B|262:322|262:322|225:344,2,65,8|4|8,3:0|3:0|3:0,0:0:0:0:
381,321,63438,2,0,P|354:257|286:233,1,130,8|4,3:0|3:0,0:0:0:0:
133,215,64283,6,0,L|125:141,1,65,4|0,3:0|0:0,0:0:0:0:
163,74,64705,1,4,3:0:0:0:
248,54,64917,2,0,L|241:118,1,65,8|8,3:0|0:3,0:0:0:0:
234,202,65339,2,0,P|295:183|323:107,1,130,4|8,3:0|0:3,0:0:0:0:
163,74,66184,6,0,L|84:88,2,65,8|4|8,3:0|3:0|3:0,0:0:0:0:
246,61,66818,2,0,P|278:55|318:29,1,65,8|0,3:0|0:0,0:0:0:0:
364,101,67241,2,0,P|348:129|342:161,1,65,4|0,3:0|0:0,0:0:0:0:
344,245,67663,6,0,L|275:253,1,65,8|0,3:0|0:0,0:0:0:0:
194,259,68086,1,4,3:0:0:0:
230,334,68297,2,0,L|299:342,1,65,8|8,3:0|3:0,0:0:0:0:
378,349,68719,1,8,0:3:0:0:
479,213,69142,6,0,B|454:157|454:157|401:112,1,130,4|4,0:0|3:0,0:0:0:0:
273,2,69987,1,4,3:0:0:0:
277,86,70198,2,0,B|301:141|301:141|354:186,1,130,4|0,3:0|0:3,0:0:0:0:
452,324,71043,6,0,P|414:344|330:306,1,130,4|4,3:0|3:0,0:0:0:0:
167,313,71888,2,0,P|111:342|51:321,1,130,4|4,3:0|3:0,0:0:0:0:
93,156,72734,2,0,P|151:131|166:58,1,130,4|4,3:3|3:3,0:0:0:0:
338,71,73579,2,0,P|356:131|414:156,1,130,4|4,3:3|3:3,0:0:0:0:
335,306,74424,5,4,3:0:0:0:
166,306,74846,1,4,3:0:0:0:
166,136,75269,1,4,3:0:0:0:
335,136,75691,1,4,3:0:0:0:
320,304,76114,6,0,B|256:288|256:288|183:306,1,130,4|4,3:0|3:0,0:0:0:0:
27,334,76959,2,0,L|41:263,1,65,4|8,3:0|3:0,0:0:0:0:
74,193,77381,2,0,L|61:129,1,65,4|8,3:0|3:0,0:0:0:0:
44,46,77804,6,0,P|103:58|144:122,1,130,4|4,3:0|3:0,0:0:0:0:
223,260,78649,2,0,P|259:312|321:326,1,130,4|4,3:0|3:0,0:0:0:0:
440,206,79494,2,0,B|357:138|357:138|311:125,1,130,4|4,3:0|3:0,0:0:0:0:
165,131,80339,2,0,B|143:137|143:137|60:205,1,130,4|4,3:0|3:0,0:0:0:0:
136,355,81184,6,0,B|190:380|256:330|256:330|322:380|377:355,1,260,8|8,3:0|3:0,0:0:0:0:
395,187,82452,2,0,P|396:154|387:123,1,65,4|8,3:0|3:0,0:0:0:0:
377,39,82874,2,0,B|322:14|256:64|256:64|190:14|136:39,1,260,8|4,3:0|0:3,0:0:0:0:
81,199,84142,1,4,3:0:0:0:
210,309,84565,6,0,L|201:392,2,65,8|0|4,0:3|0:0|0:3,0:0:0:0:
217,224,85198,2,0,P|239:161|297:129,1,130,8|0,0:3|0:3,0:0:0:0:
374,115,85832,1,12,3:3:0:0:
319,50,86043,6,0,L|189:35,1,130,0|8,0:0|3:0,0:0:0:0:
105,28,86677,2,0,P|110:64|131:97,1,65,4|0,3:0|0:0,0:0:0:0:
197,131,87099,2,0,B|252:144|252:144|318:195,1,130,8|4,3:0|3:0,0:0:0:0:
460,266,87945,6,0,P|492:212|476:145,1,130,8|4,3:0|3:0,0:0:0:0:
413,96,88579,2,0,L|281:55,1,130,8|8,3:0|3:0,0:0:0:0:
208,33,89212,1,4,3:0:0:0:
197,117,89424,6,0,L|321:155,1,130,0|0,0:0|0:0,0:0:0:0:
371,223,90058,2,0,P|342:238|301:232,1,65,4|8,3:0|3:0,0:0:0:0:
226,242,90480,2,0,P|193:240|165:255,1,65,4|8,3:0|3:0,0:0:0:0:
107,316,90903,1,4,3:0:0:0:
82,155,91325,6,0,B|105:115|105:115|190:77,1,130,8|4,3:0|3:0,0:0:0:0:
263,103,91959,2,0,B|240:143|240:143|155:181,1,130,8|8,3:0|3:0,0:0:0:0:
104,237,92593,1,4,3:0:0:0:
163,297,92804,6,0,B|239:331|239:331|262:371,1,130,0|0,0:0|0:0,0:0:0:0:
347,365,93438,2,0,L|378:308,1,65,4|8,3:0|3:0,0:0:0:0:
420,235,93860,2,0,P|383:224|345:232,1,65,4|8,3:0|3:0,0:0:0:0:
274,247,94283,1,4,3:0:0:0:
354,98,94705,6,0,L|484:84,1,130,8|4,3:0|3:0,0:0:0:0:
470,0,95339,2,0,L|340:14,1,130,8|8,3:0|3:0,0:0:0:0:
256,26,95973,1,4,3:0:0:0:
172,38,96184,6,0,P|201:90|274:111,1,130,4|8,3:0|3:0,0:0:0:0:
348,95,96818,1,6,3:0:0:0:
329,263,97241,2,0,B|309:297|309:297|234:237|160:298,1,195,4|4,3:3|3:3,0:0:0:0:
117,361,98086,6,0,P|149:376|196:373,2,65,4|0|4,1:0|0:0|3:0,0:0:0:0:
60,299,98719,2,0,B|42:262|46:217,1,65,8|8,3:0|3:0,0:0:0:0:
94,166,99142,2,0,P|102:118|92:88,1,65,8|4,3:0|3:0,0:0:0:0:
109,18,99565,6,0,B|191:-5|191:-5|247:8,1,130,0|8,0:0|3:0,0:0:0:0:
287,71,100198,1,4,3:0:0:0:
350,126,100410,2,0,B|391:136|391:136|474:113,1,130,0|0,0:0|0:0,0:0:0:0:
505,191,101043,1,4,3:0:0:0:
446,348,101466,6,0,L|309:325,1,130,8|4,3:0|3:0,0:0:0:0:
233,324,102100,2,0,L|104:345,1,130,8|8,3:0|3:0,0:0:0:0:
21,359,102734,1,4,3:0:0:0:
52,280,102945,6,0,B|72:207|72:207|80:176|55:137,1,130,0|8,0:0|3:0,0:0:0:0:
40,73,103579,1,4,3:0:0:0:
124,71,103790,2,0,B|146:86|176:77|176:77|249:57,1,130,0|8,0:0|3:0,0:0:0:0:
328,28,104423,1,4,3:0:0:0:
273,188,104846,6,0,P|336:199|395:152,1,130,8|4,3:0|3:0,0:0:0:0:
435,93,105480,2,0,P|470:145|459:208,1,130,8|8,3:0|3:0,0:0:0:0:
401,270,106114,2,0,B|368:281|329:279,1,65,4|0,3:0|0:0,0:0:0:0:
252,272,106536,6,0,P|268:328|339:363,1,130,8|4,3:0|3:0,0:0:0:0:
412,361,107170,2,0,P|467:330|487:270,1,130,0|8,0:0|3:0,0:0:0:0:
484,185,107804,1,4,3:0:0:0:
321,140,108227,6,0,B|263:173|263:173|174:184,1,130,8|4,3:0|3:0,0:0:0:0:
169,102,108860,2,0,B|227:69|227:69|316:58,1,130,8|8,3:0|3:0,0:0:0:0:
374,64,109494,1,4,3:0:0:0:
418,135,109705,6,0,L|402:267,1,130,8|8,3:0|3:0,0:0:0:0:
355,334,110339,2,0,L|286:338,1,65,4|0,3:0|0:0,0:0:0:0:
205,333,110762,2,0,B|231:290|197:241|197:241|171:203|197:149,1,195,4|4,3:0|3:0,0:0:0:0:
252,84,111607,6,0,P|183:66|128:102,1,130,4|4,3:0|3:0,0:0:0:0:
76,154,112240,2,0,B|73:193|73:193|83:230,1,65,0|4,0:0|3:0,0:0:0:0:
101,300,112663,1,4,3:0:0:0:
248,219,113086,6,0,P|301:196|385:230,1,130,0|4,3:0|3:0,0:0:0:0:
425,276,113719,1,4,3:0:0:0:
469,348,113931,2,0,P|505:295|498:232,1,130,4|4,3:0|3:0,0:0:0:0:
453,160,114565,1,4,3:0:0:0:
313,61,114987,6,0,L|180:77,1,130,4|4,3:0|3:0,0:0:0:0:
160,159,115621,2,0,L|230:151,1,65,0|0,0:0|0:0,0:0:0:0:
262,227,116043,2,0,L|197:234,1,65,8|4,3:0|3:0,0:0:0:0:
115,255,116466,6,0,P|139:296|220:318,1,130,0|0,0:0|0:0,0:0:0:0:
299,315,117100,1,8,3:0:0:0:
366,264,117311,2,0,L|375:125,1,130,4|8,3:0|3:0,0:0:0:0:
384,50,117945,1,4,3:0:0:0:
465,198,118367,6,0,L|456:327,1,130,4|4,3:0|3:0,0:0:0:0:
377,361,119001,2,0,B|315:370|315:370|227:356,1,130,0|4,0:0|3:0,0:0:0:0:
191,298,119635,1,4,3:0:0:0:
242,231,119846,6,0,B|304:222|304:222|392:236,1,130,0|4,0:0|3:0,0:0:0:0:
455,236,120480,1,4,3:0:0:0:
417,160,120691,2,0,B|359:121|359:121|325:71,1,130,4|4,3:0|3:0,0:0:0:0:
279,0,121325,1,4,3:0:0:0:
237,162,121748,6,0,P|223:221|150:263,1,130,4|4,3:0|3:0,0:0:0:0:
156,176,122381,2,0,P|159:135|174:110,1,65,0|0,0:0|0:0,0:0:0:0:
218,45,122804,2,0,P|263:71|346:65,1,130,8|0,3:0|0:0,0:0:0:0:
423,58,123438,5,4,3:0:0:0:
473,129,123649,1,4,3:0:0:0:
389,135,123860,1,4,3:0:0:0:
308,158,124071,2,0,B|318:210|381:234|424:215|424:215|438:270|391:328,1,260,4|4,3:0|3:0,0:0:0:0:
228,328,125339,6,0,L|187:383,2,65,4|8|8,3:0|3:0|3:0,0:0:0:0:
241,244,125973,2,0,L|188:205,2,65,4|8|4,3:0|3:0|3:0,0:0:0:0:
309,293,126607,1,8,3:0:0:0:
446,194,127029,6,0,L|487:139,2,65,4|8|8,3:0|3:0|3:0,0:0:0:0:
433,278,127663,2,0,L|485:316,2,65,4|4|4,3:0|3:0|3:0,0:0:0:0:
365,229,128297,1,4,3:0:0:0:
143,42,128931,5,4,3:0:0:0:
146,211,129353,1,4,3:0:0:0:
206,152,129565,1,8,3:0:0:0:
275,199,129776,1,4,3:0:0:0:
280,114,129987,2,0,P|203:68|124:140,1,195,4|0,3:0|0:0,0:0:0:0:
