osu file format v14

[General]
AudioFilename: audio.mp3
AudioLeadIn: 0
PreviewTime: 111396
Countdown: 0
SampleSet: Soft
StackLeniency: 0.7
Mode: 0
LetterboxInBreaks: 0
WidescreenStoryboard: 1

[Editor]
DistanceSpacing: 1.2
BeatDivisor: 4
GridSize: 4
TimelineZoom: 1.3

[Metadata]
Title:Metal - Brute Justice Mode
TitleUnicode:メタル:ブルートジャスティスモード ~機工城アレキサンダー:律動編~
Artist:Masayoshi Soken
ArtistUnicode:Masayoshi Soken
Creator:Arf
Version:Hard
Source:FINAL FANTASY XIV
Tags:rfandomization ff14 ffxiv ファイナルファンタジーXIV 祖堅正慶 a realm reborn arr hw alexander eight savage a8s raid boss theme primal sentai jazz locus remix english video game shinenite warpyc charlotte [r] ron raphalge
BeatmapID:1218955
BeatmapSetID:522233

[Difficulty]
HPDrainRate:5
CircleSize:3.5
OverallDifficulty:6
ApproachRate:7.7
SliderMultiplier:1.6
SliderTickRate:1

[Events]
//Background and Video events
0,0,"bgalex.jpg",0,0
//Break Periods
//Storyboard Layer 0 (Background)
//Storyboard Layer 1 (Fail)
//Storyboard Layer 2 (Pass)
//Storyboard Layer 3 (Foreground)
//Storyboard Sound Samples

[TimingPoints]
3438,422.535211267606,4,2,0,65,1,0
29635,-133.333333333333,4,2,0,65,0,0
30480,-100,4,2,0,65,0,0
70198,-133.333333333333,4,2,0,65,0,0
71043,-100,4,2,0,65,0,0
84564,-100,4,2,0,65,0,1
96395,-100,4,2,0,65,0,0
98085,-100,4,2,0,65,0,1
111607,-100,4,2,0,65,0,0
113086,-100,4,2,0,35,0,0
113508,-100,4,2,0,45,0,0
113931,-100,4,2,0,55,0,0
114353,-100,4,2,0,65,0,0
119846,-100,4,2,0,35,0,0
120269,-100,4,2,0,45,0,0
120691,-100,4,2,0,55,0,0
121114,-100,4,2,0,65,0,0
125128,-100,4,2,0,65,0,0

[Colours]
Combo1 : 255,255,79
Combo2 : 48,172,6
Combo3 : 213,0,0
Combo4 : 128,0,64
Combo5 : 0,58,117

[HitObjects]
186,137,58,6,0,L|120:129,4,40,4|4|4|4|4,3:0|3:0|3:0|3:0|3:0,0:0:0:0:
256,192,903,12,0,3015,3:0:0:0:
274,114,3438,6,0,P|314:130|356:129,1,80,8|0,3:0|0:0,0:0:0:0:
445,118,3860,1,0,0:0:0:0:
384,43,4071,1,0,0:0:0:0:
350,130,4283,1,0,0:0:0:0:
161,166,4705,5,0,0:0:0:0:
183,72,4916,1,0,0:0:0:0:
261,16,5128,2,0,P|280:60|276:99,1,80,8|0,3:0|0:0,0:0:0:0:
269,186,5550,1,0,0:0:0:0:
316,284,5762,1,8,3:0:0:0:
316,284,5867,1,8,3:0:0:0:
316,284,5973,2,0,L|226:269,1,80,4|4,3:0|3:0,0:0:0:0:
142,251,6396,1,4,3:0:0:0:
142,251,6501,1,4,3:0:0:0:
142,251,6607,1,8,3:0:0:0:
215,154,6818,5,8,3:0:0:0:
121,130,7029,1,0,3:3:0:0:
193,66,7241,2,0,P|232:65|270:80,1,80,4|8,3:0|3:0,0:0:0:0:
356,120,7663,2,0,L|340:209,1,80,4|8,3:0|3:0,0:0:0:0:
324,293,8086,1,0,3:0:0:0:
399,351,8297,1,0,3:0:0:0:
324,293,8508,5,4,3:0:0:0:
232,322,8719,1,8,3:0:0:0:
217,226,8931,2,0,P|234:189|298:140,1,120,4|8,3:0|3:0,0:0:0:0:
343,138,9353,2,0,L|252:83,1,80,4|4,3:0|3:0,0:0:0:0:
189,51,9776,1,4,3:0:0:0:
423,273,10198,6,0,P|357:265|306:189,1,160,4|4,0:3|0:3,0:0:0:0:
206,192,10832,2,0,P|165:258|89:272,1,160,8|0,0:3|0:0,0:0:0:0:
114,179,11466,1,4,0:3:0:0:
40,117,11677,1,0,0:0:0:0:
133,82,11888,6,0,B|214:68|214:68|299:83,1,160,8|4,0:3|0:3,0:0:0:0:
374,149,12522,2,0,B|293:163|293:163|208:148,1,160,8|0,0:3|0:0,0:0:0:0:
133,82,13156,1,4,0:3:0:0:
110,175,13367,1,0,0:0:0:0:
165,253,13579,6,0,L|222:242,2,40,8|0|0,0:3|0:0|0:0,0:0:0:0:
74,266,14001,1,8,0:3:0:0:
22,191,14212,2,0,L|-7:157,2,40,8|0|0,0:3|0:0|0:0,0:0:0:0:
74,266,14635,1,0,0:3:0:0:
154,318,14846,2,0,P|208:340|232:340,1,80,4|0,0:3|0:0,0:0:0:0:
357,307,15269,6,0,L|312:285,1,40,4|4,3:0|3:0,0:0:0:0:
304,175,15586,2,0,L|339:192,1,40,4|4,3:0|3:0,0:0:0:0:
428,230,15903,1,0,0:0:0:0:
408,136,16114,2,0,B|421:25|421:25|464:-11,1,160,8|4,3:0|3:0,0:0:0:0:
163,16,16959,6,0,L|206:101,1,80,8|0,0:3|0:0,0:0:0:0:
273,139,17381,2,0,L|223:214,1,80,4|8,3:0|3:0,0:0:0:0:
172,283,17804,1,8,3:0:0:0:
266,298,18015,1,8,0:3:0:0:
76,268,18438,1,8,3:0:0:0:
76,268,18860,5,8,3:0:0:0:
113,179,19072,1,4,3:0:0:0:
76,89,19283,1,8,3:0:0:0:
170,70,19494,2,0,L|277:50,1,80,8|0,3:0|0:0,0:0:0:0:
325,127,19917,2,0,L|218:147,1,80,4|0,3:0|3:0,0:0:0:0:
150,149,20339,6,0,P|163:190|201:224,1,80,8|4,3:0|3:0,0:0:0:0:
282,245,20762,2,0,B|272:280|214:318,1,80,4|0,3:0|0:0,0:0:0:0:
129,334,21184,1,8,3:0:0:0:
47,282,21396,1,4,3:0:0:0:
210,382,21818,1,8,3:0:0:0:
210,382,22241,5,8,3:0:0:0:
282,318,22452,1,4,3:0:0:0:
210,254,22663,1,8,3:0:0:0:
276,185,22874,2,0,B|329:162|329:162|408:164,1,120,8|0,3:0|0:0,0:0:0:0:
436,181,23297,1,4,3:0:0:0:
360,264,23508,1,0,0:0:0:0:
285,193,23719,5,8,3:0:0:0:
285,193,23825,1,0,0:0:0:0:
285,193,23930,2,0,B|251:211|251:211|226:245,1,80,0|4,0:0|3:0,0:0:0:0:
265,333,24353,2,0,L|325:332,2,40,0|0|8,0:0|0:0|3:0,0:0:0:0:
168,335,24776,2,0,L|85:340,1,80,0|4,0:0|3:0,0:0:0:0:
43,254,25198,2,0,L|122:249,1,80,8|0,3:0|0:0,0:0:0:0:
219,247,25621,5,8,3:0:0:0:
250,156,25832,1,4,3:0:0:0:
238,60,26043,2,0,L|209:33,2,40,8|0|8,3:0|0:0|3:0,0:0:0:0:
329,90,26466,2,0,L|369:83,2,40,0|0|4,0:0|0:0|3:0,0:0:0:0:
250,156,26888,1,0,0:0:0:0:
342,181,27100,5,8,3:0:0:0:
342,181,27205,1,0,0:0:0:0:
342,181,27311,2,0,P|364:214|374:252,1,80,0|4,0:0|3:0,0:0:0:0:
304,318,27734,2,0,L|252:304,2,40,0|0|8,0:0|0:0|3:0,0:0:0:0:
397,330,28156,2,0,P|433:306|452:274,1,80,0|4,0:0|3:0,0:0:0:0:
427,130,28579,5,4,0:0:0:0:
255,44,29001,1,4,3:0:0:0:
85,130,29424,1,4,3:0:0:0:
144,204,29635,6,0,B|201:230|250:209|250:209|291:191|368:224,1,210.000008010865,4|0,3:0|0:0,0:0:0:0:
394,227,30480,6,0,L|340:344,1,120,8|4,0:3|0:3,0:0:0:0:
297,352,30903,1,4,3:0:0:0:
201,342,31114,1,8,3:0:0:0:
136,270,31325,2,0,B|179:199|179:199|213:181,1,120,8|0,0:3|0:0,0:0:0:0:
259,172,31748,2,0,L|189:114,1,80,4|0,3:0|0:0,0:0:0:0:
133,49,32170,6,0,P|189:25|269:53,1,120,8|0,0:3|0:3,0:0:0:0:
285,64,32593,1,4,3:0:0:0:
371,104,32804,1,8,3:0:0:0:
465,118,33015,2,0,L|446:248,1,120,8|0,0:3|0:0,0:0:0:0:
436,286,33438,2,0,L|341:272,1,80,4|8,3:0|3:0,0:0:0:0:
260,275,33860,6,0,L|138:283,1,120,8|0,0:3|0:0,0:0:0:0:
91,284,34283,1,4,3:0:0:0:
36,204,34494,1,8,3:0:0:0:
131,198,34705,2,0,L|253:190,1,120,8|0,0:3|0:0,0:0:0:0:
299,186,35128,1,4,3:0:0:0:
342,100,35339,1,8,3:0:0:0:
247,106,35550,6,0,L|125:114,1,120,8|0,0:3|0:3,0:0:0:0:
79,118,35973,1,4,3:0:0:0:
25,38,36184,1,8,3:0:0:0:
127,37,36396,1,8,3:0:0:0:
127,37,36501,1,0,0:0:0:0:
127,37,36607,1,4,3:0:0:0:
87,126,36818,1,4,0:3:0:0:
87,126,36923,1,0,0:0:0:0:
87,126,37029,1,8,3:0:0:0:
105,210,37241,6,0,B|155:275|155:275|207:294,1,120,8|0,0:3|0:0,0:0:0:0:
238,289,37663,1,4,0:3:0:0:
331,267,37874,1,8,3:0:0:0:
354,174,38085,2,0,B|289:124|289:124|275:88,1,120,8|0,0:3|0:0,0:0:0:0:
254,45,38508,2,0,L|216:126,1,80,4|8,0:3|3:0,0:0:0:0:
141,172,38931,6,0,P|186:209|252:209,1,120,8|0,0:3|0:0,0:0:0:0:
292,202,39353,1,4,0:3:0:0:
304,106,39565,1,8,3:0:0:0:
399,117,39776,1,8,0:3:0:0:
397,217,39987,1,4,3:0:0:0:
397,217,40198,2,0,L|487:212,1,80,8|8,3:0|3:0,0:0:0:0:
444,305,40621,6,0,L|320:311,1,120,0|0,0:0|0:0,0:0:0:0:
276,314,41043,1,4,3:0:0:0:
371,59,41466,1,4,3:0:0:0:
259,72,41677,1,8,0:3:0:0:
327,160,41888,1,4,3:0:0:0:
215,173,42099,1,8,0:3:0:0:
284,261,42311,5,4,3:0:0:0:
335,168,42522,1,4,3:0:0:0:
335,168,42628,1,4,3:0:0:0:
335,168,42734,1,4,3:0:0:0:
394,249,42945,1,8,0:3:0:0:
442,150,43156,2,0,P|414:95|359:59,1,120,4|0,3:0|0:0,0:0:0:0:
319,54,43579,2,0,L|309:9,2,40,4|4|8,3:0|3:0|3:0,0:0:0:0:
335,168,44001,6,0,B|250:186|250:186|201:181,1,120,8|8,0:3|0:3,0:0:0:0:
174,160,44424,1,4,3:0:0:0:
85,123,44635,1,8,0:3:0:0:
86,221,44846,2,0,B|104:306|104:306|99:355,1,120,8|0,0:3|0:0,0:0:0:0:
83,384,45269,2,0,L|172:371,1,80,4|0,3:0|0:0,0:0:0:0:
257,360,45691,6,0,B|238:286|169:276,1,120,8|8,0:3|0:3,0:0:0:0:
130,275,46114,1,4,3:0:0:0:
73,197,46325,1,8,0:3:0:0:
168,194,46536,2,0,L|304:190,1,120,8|0,0:3|0:0,0:0:0:0:
334,169,46959,2,0,L|267:123,1,80,4|8,3:3|0:3,0:0:0:0:
192,65,47381,5,8,0:3:0:0:
284,38,47593,2,0,B|290:-3,2,40,0|8|4,0:0|0:3|3:0,0:0:0:0:
268,124,48015,1,8,0:3:0:0:
359,93,48227,1,8,0:3:0:0:
366,189,48438,2,0,B|326:217,2,40,0|8|4,0:0|0:3|3:0,0:0:0:0:
452,147,48860,1,8,0:3:0:0:
452,147,49072,6,0,B|464:189|464:189|450:240,1,80,8|0,0:3|0:0,0:0:0:0:
376,316,49494,2,0,B|364:274|364:274|373:238,1,80,4|0,3:0|0:0,0:0:0:0:
462,232,49917,1,8,3:0:0:0:
462,232,50022,1,0,0:0:0:0:
462,232,50128,1,4,3:0:0:0:
391,165,50339,1,4,3:0:0:0:
391,165,50444,1,0,0:0:0:0:
391,165,50550,1,8,3:0:0:0:
287,187,50762,6,0,B|201:209|201:209|157:198,1,120,8|8,0:3|0:3,0:0:0:0:
125,185,51184,1,4,3:0:0:0:
62,111,51396,1,8,0:3:0:0:
155,88,51607,2,0,L|281:59,1,120,8|0,0:3|0:0,0:0:0:0:
319,53,52029,2,0,L|297:132,1,80,4|0,3:0|0:0,0:0:0:0:
272,223,52452,6,0,P|328:222|376:184,1,120,8|8,0:3|0:3,0:0:0:0:
393,138,52874,1,4,3:3:0:0:
297,130,53086,1,8,0:3:0:0:
272,223,53297,2,0,B|240:297|240:297|204:325,1,120,8|0,0:3|0:0,0:0:0:0:
166,344,53719,2,0,L|86:324,1,80,4|0,3:0|0:0,0:0:0:0:
41,249,54142,5,4,3:0:0:0:
41,249,54247,1,4,3:0:0:0:
41,249,54353,2,0,L|1:260,2,40,4|4|4,3:0|3:0|3:0,0:0:0:0:
133,223,54776,1,4,3:0:0:0:
56,141,54987,1,4,3:0:0:0:
167,119,55198,1,4,3:0:0:0:
116,7,55410,1,4,3:0:0:0:
243,24,55621,1,4,3:0:0:0:
167,119,55832,5,6,3:0:0:0:
256,192,55938,12,4,57100,3:0:0:0:
387,95,57522,5,4,3:0:0:0:
387,95,57628,1,0,0:0:0:0:
387,95,57733,2,0,P|344:120|321:153,1,80,0|4,0:0|3:0,0:0:0:0:
285,235,58156,1,8,3:0:0:0:
285,235,58262,1,0,0:0:0:0:
285,235,58367,1,8,3:0:0:0:
305,337,58579,2,0,P|265:334|228:318,1,80,0|4,0:0|3:0,0:0:0:0:
285,235,59001,1,8,3:0:0:0:
285,235,59424,5,8,3:0:0:0:
204,182,59635,1,8,3:0:0:0:
286,132,59846,1,4,3:0:0:0:
202,84,60058,2,0,L|121:64,1,80,8|0,3:0|3:0,0:0:0:0:
224,7,60480,2,0,L|301:26,1,80,4|0,3:0|0:0,0:0:0:0:
395,46,60903,5,4,3:0:0:0:
395,46,61008,1,0,0:0:0:0:
395,46,61114,2,0,P|368:95|335:116,1,80,0|4,0:0|3:0,0:0:0:0:
266,150,61536,1,8,3:0:0:0:
266,150,61642,1,0,0:0:0:0:
266,150,61748,1,8,3:0:0:0:
273,245,61959,2,0,P|284:280|324:322,1,80,0|4,3:0|3:0,0:0:0:0:
398,348,62381,1,8,0:3:0:0:
398,348,62804,5,8,3:0:0:0:
420,255,63015,1,4,3:0:0:0:
327,282,63227,1,8,3:0:0:0:
240,240,63438,2,0,B|247:157|247:157|278:115,1,120,8|0,3:0|0:0,0:0:0:0:
295,87,63860,2,0,L|241:68,2,40,4|0|0,3:0|0:0|0:0,0:0:0:0:
386,116,64283,5,4,3:0:0:0:
386,116,64388,1,0,0:0:0:0:
386,116,64494,2,0,P|377:155|394:213,1,80,0|4,0:0|3:0,0:0:0:0:
431,276,64916,2,0,L|476:269,2,40,8|0|8,3:0|0:0|3:0,0:0:0:0:
335,289,65339,2,0,B|296:285|296:285|257:298,1,80,4|4,3:0|0:3,0:0:0:0:
168,335,65762,2,0,L|167:243,1,80,8|0,0:3|0:0,0:0:0:0:
164,159,66184,5,8,3:0:0:0:
232,90,66396,1,4,3:0:0:0:
139,63,66607,2,0,L|178:22,2,40,8|0|8,3:0|0:0|3:0,0:0:0:0:
43,65,67029,2,0,L|14:37,2,40,0|0|4,0:0|0:0|3:0,0:0:0:0:
97,144,67452,1,0,0:0:0:0:
45,224,67663,5,8,3:0:0:0:
45,224,67769,1,0,0:0:0:0:
45,224,67874,1,0,0:0:0:0:
141,231,68086,1,4,3:0:0:0:
105,152,68297,1,8,3:0:0:0:
105,152,68403,1,0,0:0:0:0:
105,152,68508,1,8,3:0:0:0:
192,150,68719,2,0,L|277:154,1,80,0|4,0:0|3:0,0:0:0:0:
413,163,69142,5,4,0:0:0:0:
253,320,69565,1,4,3:0:0:0:
470,372,69987,1,4,3:0:0:0:
380,273,70198,6,0,B|316:253|308:192|308:192|300:130|239:121,1,210.000008010865,4|0,3:0|0:0,0:0:0:0:
207,103,71043,6,0,L|127:69,1,80,4|0,3:0|0:0,0:0:0:0:
182,180,71466,2,0,L|88:165,1,80,4|4,3:0|3:0,0:0:0:0:
183,265,71888,2,0,L|96:273,1,80,4|0,3:0|0:0,0:0:0:0:
209,342,72311,2,0,L|132:375,1,80,4|0,3:0|0:0,0:0:0:0:
46,384,72734,6,0,L|13:311,1,80,4|0,3:3|3:3,0:0:0:0:
135,373,73156,2,0,L|119:294,1,80,4|4,3:3|3:3,0:0:0:0:
222,374,73579,2,0,L|230:288,1,80,4|8,3:3|3:3,0:0:0:0:
312,384,74001,2,0,L|345:311,1,80,4|8,3:3|3:3,0:0:0:0:
384,223,74424,5,4,3:0:0:0:
241,94,74846,1,4,3:0:0:0:
108,233,75269,1,4,3:0:0:0:
248,362,75691,1,4,3:0:0:0:
298,176,76114,5,4,3:0:0:0:
160,310,76536,1,4,3:0:0:0:
345,358,76959,1,4,3:0:0:0:
345,358,77065,1,4,3:0:0:0:
345,358,77170,1,8,3:0:0:0:
280,287,77381,1,4,3:0:0:0:
280,287,77487,1,4,3:0:0:0:
280,287,77592,1,8,3:0:0:0:
373,262,77804,6,0,P|427:253|456:258,1,80,4|0,3:0|0:0,0:0:0:0:
321,192,78227,2,0,P|361:156|395:144,1,80,4|4,3:0|3:0,0:0:0:0:
236,154,78649,2,0,P|251:102|281:72,1,80,4|8,3:0|3:0,0:0:0:0:
140,161,79072,2,0,P|127:116|139:58,1,80,4|8,3:0|3:0,0:0:0:0:
203,17,79494,6,0,L|110:0,1,80,4|0,3:0|0:0,0:0:0:0:
209,121,79917,2,0,L|134:164,1,80,4|4,3:0|3:0,0:0:0:0:
289,200,80339,2,0,L|260:282,1,80,4|8,3:0|3:0,0:0:0:0:
403,224,80762,2,0,L|420:305,1,80,4|8,3:0|3:0,0:0:0:0:
355,373,81184,5,8,3:0:0:0:
260,359,81395,1,4,3:0:0:0:
260,359,81501,1,4,3:0:0:0:
260,359,81607,2,0,B|250:367|250:367|225:378,2,40,4|0|8,3:0|0:0|3:0,0:0:0:0:
323,286,82029,1,8,3:0:0:0:
256,219,82240,1,4,3:0:0:0:
256,219,82346,1,4,3:0:0:0:
256,219,82452,2,0,B|231:230|231:230|221:238,2,40,4|0|8,3:0|0:0|3:0,0:0:0:0:
358,194,82874,6,0,P|323:138|263:114,1,120,8|8,3:0|0:3,0:0:0:0:
225,106,83297,2,0,P|179:96|141:50,1,80,12|0,0:3|0:0,0:0:0:0:
225,10,83719,2,0,L|266:4,3,40,4|4|4|4,0:3|0:3|0:3|0:3,0:0:0:0:
313,4,84142,2,0,B|353:15|353:15|426:15,1,80,4|0,3:0|0:0,0:0:0:0:
483,93,84565,6,0,P|469:131|472:185,1,80,8|0,0:3|0:0,0:0:0:0:
472,265,84987,1,4,0:3:0:0:
450,358,85198,1,8,0:3:0:0:
450,358,85304,1,0,0:0:0:0:
450,358,85410,2,0,L|368:329,1,80,0|0,0:0|0:3,0:0:0:0:
300,269,85832,1,12,3:3:0:0:
343,183,86043,1,0,0:0:0:0:
246,183,86255,6,0,B|205:200|198:254,1,80,8|8,3:0|3:0,0:0:0:0:
209,339,86677,2,0,P|170:358|114:349,1,80,4|0,3:0|0:0,0:0:0:0:
95,270,87100,1,8,3:0:0:0:
43,189,87311,2,0,L|1:199,2,40,0|8|4,0:0|3:0|3:0,0:0:0:0:
137,169,87734,1,0,0:0:0:0:
237,202,87945,5,8,3:0:0:0:
237,202,88050,1,0,0:0:0:0:
237,202,88156,2,0,P|212:246|180:267,1,80,0|4,0:0|3:0,0:0:0:0:
145,177,88579,1,8,3:0:0:0:
145,177,88684,1,0,0:0:0:0:
145,177,88790,1,0,0:0:0:0:
76,94,89001,2,0,L|26:92,2,40,8|0|4,3:0|0:0|3:0,0:0:0:0:
172,93,89424,1,0,0:0:0:0:
266,76,89635,6,0,P|305:65|340:46,1,80,8|0,3:0|0:0,0:0:0:0:
432,20,90057,2,0,P|434:62|418:107,1,80,4|8,3:0|3:0,0:0:0:0:
361,171,90480,1,4,3:0:0:0:
444,218,90691,2,0,L|488:189,2,40,8|8|4,3:0|3:0|3:0,0:0:0:0:
365,272,91114,1,0,0:0:0:0:
269,272,91325,5,8,3:0:0:0:
269,272,91431,1,0,0:0:0:0:
269,272,91536,2,0,P|277:316|303:347,1,80,0|4,0:0|3:0,0:0:0:0:
373,280,91959,1,8,3:0:0:0:
373,280,92065,1,0,0:0:0:0:
373,280,92170,1,0,0:0:0:0:
448,224,92381,2,0,L|477:257,2,40,8|8|4,3:0|3:0|3:0,0:0:0:0:
385,150,92804,1,0,0:0:0:0:
365,56,93015,6,0,P|327:72|295:126,1,80,8|0,3:0|0:0,0:0:0:0:
279,194,93438,2,0,P|253:224|216:239,1,80,4|8,3:0|3:0,0:0:0:0:
130,281,93860,1,4,3:0:0:0:
46,328,94072,2,0,L|6:305,2,40,8|8|0,3:0|3:0|0:0,0:0:0:0:
130,370,94494,1,0,0:0:0:0:
222,343,94705,5,8,3:0:0:0:
222,343,94811,1,0,0:0:0:0:
222,343,94916,2,0,L|309:366,1,80,0|4,0:0|3:0,0:0:0:0:
394,327,95339,1,8,3:0:0:0:
394,327,95445,1,0,0:0:0:0:
394,327,95550,1,0,0:0:0:0:
473,271,95762,2,0,L|517:283,2,40,8|8|4,3:0|3:0|3:0,0:0:0:0:
379,247,96184,1,4,3:0:0:0:
285,224,96396,6,0,P|318:171|351:152,1,80,0|8,0:0|3:0,0:0:0:0:
425,142,96818,2,0,L|349:64,1,80,6|0,3:0|0:0,0:0:0:0:
301,17,97241,2,0,L|349:2,3,40,4|4|4|4,3:3|3:3|3:3|3:3,0:0:0:0:
386,11,97663,2,0,L|434:-4,3,40,4|4|4|4,3:3|3:3|3:3|3:3,0:0:0:0:
470,5,98086,6,0,P|453:73|459:98,1,80,4|0,1:0|0:0,0:0:0:0:
482,173,98508,1,4,3:0:0:0:
508,265,98719,2,0,P|505:306|491:353,1,80,8|8,3:0|3:0,0:0:0:0:
403,345,99142,1,8,3:0:0:0:
403,345,99248,1,8,3:0:0:0:
403,345,99353,1,4,3:0:0:0:
405,246,99565,1,0,0:0:0:0:
328,188,99776,6,0,L|225:199,1,80,8|8,0:3|3:0,0:0:0:0:
168,205,100198,1,4,3:0:0:0:
73,218,100409,2,0,B|97:250|97:250|114:293,1,80,0|8,0:0|3:0,0:0:0:0:
69,373,100832,2,0,L|30:375,2,40,0|8|4,0:0|3:0|3:0,0:0:0:0:
163,355,101255,1,0,0:0:0:0:
251,319,101466,5,8,3:0:0:0:
251,319,101572,1,0,0:0:0:0:
251,319,101677,2,0,P|297:306|328:278,1,80,0|4,0:0|3:0,0:0:0:0:
250,221,102099,1,8,3:0:0:0:
250,221,102205,1,0,0:0:0:0:
250,221,102310,1,8,3:0:0:0:
171,165,102522,2,0,L|130:181,2,40,8|8|4,3:0|3:0|3:0,0:0:0:0:
251,115,102945,1,0,0:0:0:0:
173,58,103156,6,0,P|117:44|67:54,1,80,8|8,3:0|3:0,0:0:0:0:
10,91,103579,1,4,3:0:0:0:
79,157,103790,1,0,0:0:0:0:
26,236,104001,2,0,L|-17:226,2,40,8|0|8,3:0|0:0|3:0,0:0:0:0:
117,254,104424,2,0,B|157:260|157:260|209:251,1,80,4|0,3:0|0:0,0:0:0:0:
287,224,104846,5,8,3:0:0:0:
287,224,104952,1,0,0:0:0:0:
287,224,105057,2,0,P|290:271|271:319,1,80,0|4,0:0|3:0,0:0:0:0:
204,261,105480,1,8,3:0:0:0:
204,261,105586,1,0,0:0:0:0:
204,261,105691,1,8,3:0:0:0:
162,174,105903,2,0,L|99:189,2,40,8|8|4,3:0|3:0|3:0,0:0:0:0:
255,154,106325,1,0,0:0:0:0:
348,132,106536,6,0,P|386:139|430:175,1,80,8|8,3:0|3:0,0:0:0:0:
469,244,106959,1,4,3:0:0:0:
379,277,107170,2,0,P|340:268|307:246,1,80,0|8,0:0|3:0,0:0:0:0:
233,184,107593,2,0,L|247:146,2,40,8|8|4,3:0|3:0|3:0,0:0:0:0:
199,273,108015,1,0,0:0:0:0:
115,251,108227,5,8,3:0:0:0:
115,251,108332,1,0,0:0:0:0:
115,251,108438,2,0,P|68:227|54:186,1,80,0|4,0:0|3:0,0:0:0:0:
148,160,108860,1,8,3:0:0:0:
148,160,108966,1,0,0:0:0:0:
148,160,109072,1,8,3:0:0:0:
243,147,109283,2,0,L|278:186,2,40,8|8|4,3:0|3:0|3:0,0:0:0:0:
179,80,109705,1,8,3:0:0:0:
85,56,109917,6,0,P|56:85|44:142,1,80,0|8,0:0|3:0,0:0:0:0:
68,214,110339,2,0,P|80:251|58:319,1,80,4|0,3:0|0:0,0:0:0:0:
49,384,110762,2,0,L|99:376,3,40,4|4|4|4,3:0|3:0|3:0|3:0,0:0:0:0:
131,356,111184,2,0,L|181:348,3,40,4|4|4|4,3:0|3:0|3:0|3:0,0:0:0:0:
218,340,111607,6,0,P|277:351|340:329,1,120,4|0,3:0|0:0,0:0:0:0:
375,310,112029,2,0,L|383:200,1,80,4|0,3:0|0:0,0:0:0:0:
386,134,112452,1,4,3:0:0:0:
386,134,112557,1,4,3:0:0:0:
386,134,112663,2,0,L|431:132,2,40,4|4|4,3:0|3:0|3:0,0:0:0:0:
289,142,113086,6,0,L|202:159,1,80,0|4,3:0|3:0,0:0:0:0:
177,247,113508,2,0,L|264:230,1,80,4|4,3:0|3:0,0:0:0:0:
355,210,113931,1,4,3:0:0:0:
324,300,114142,1,4,3:0:0:0:
255,231,114353,1,4,3:0:0:0:
228,323,114564,1,4,3:0:0:0:
324,300,114776,1,4,3:0:0:0:
422,355,114987,6,0,P|490:326|513:286,1,120,4|0,3:0|0:0,0:0:0:0:
502,239,115410,2,0,L|477:133,1,80,4|0,3:0|0:0,0:0:0:0:
442,74,115832,1,0,0:0:0:0:
355,32,116043,1,8,3:0:0:0:
335,126,116255,1,4,3:0:0:0:
239,115,116466,1,0,0:0:0:0:
269,206,116677,6,0,P|272:283|202:331,1,160,4|8,3:0|3:0,0:0:0:0:
121,325,117311,1,4,3:0:0:0:
121,325,117417,1,0,0:0:0:0:
121,325,117522,1,0,0:0:0:0:
142,231,117734,1,8,3:0:0:0:
142,231,117839,1,8,3:0:0:0:
142,231,117945,1,4,3:0:0:0:
213,297,118156,1,8,3:0:0:0:
306,318,118367,6,0,P|321:271|308:197,1,120,4|0,3:0|0:0,0:0:0:0:
276,167,118790,2,0,P|268:120|279:88,1,80,4|0,3:0|0:0,0:0:0:0:
352,30,119212,1,4,3:0:0:0:
352,30,119318,1,4,3:0:0:0:
352,30,119423,2,0,L|395:26,2,40,4|4|4,3:0|3:0|3:0,0:0:0:0:
255,36,119846,6,0,P|213:37|172:25,1,80,0|4,0:0|3:0,0:0:0:0:
97,81,120269,2,0,P|98:123|86:164,1,80,4|0,3:0|0:0,0:0:0:0:
37,241,120691,1,4,3:0:0:0:
47,336,120903,1,4,3:0:0:0:
138,243,121114,1,4,3:0:0:0:
130,339,121325,1,4,3:0:0:0:
234,263,121536,1,4,3:0:0:0:
209,356,121748,6,0,P|267:355|319:306,1,120,4|0,3:0|0:0,0:0:0:0:
336,274,122170,2,0,P|368:246|423:238,1,80,4|0,3:0|0:0,0:0:0:0:
499,237,122593,1,0,0:0:0:0:
443,149,122804,2,0,P|368:94|294:94,1,160,8|0,3:0|0:0,0:0:0:0:
202,116,123438,5,4,3:0:0:0:
267,225,123649,1,4,3:0:0:0:
153,284,123860,1,4,3:0:0:0:
88,175,124071,1,4,3:0:0:0:
345,265,124494,1,4,3:0:0:0:
345,265,124599,1,4,3:0:0:0:
345,265,124705,2,0,B|334:286|334:286|316:309,2,40,4|4|4,3:0|3:0|3:0,0:0:0:0:
364,59,125339,6,0,L|447:48,2,80,4|8|8,3:0|3:0|3:0,0:0:0:0:
306,136,125973,2,0,L|223:125,2,80,4|8|4,3:0|3:0|3:0,0:0:0:0:
401,150,126607,1,8,3:0:0:0:
272,287,127029,6,0,L|367:279,2,80,4|8|8,3:0|3:0|3:0,0:0:0:0:
175,293,127663,1,4,3:0:0:0:
217,207,127874,1,4,3:0:0:0:
217,207,127980,1,4,3:0:0:0:
217,207,128086,1,4,3:0:0:0:
272,287,128297,1,4,3:0:0:0:
217,47,128931,5,4,3:0:0:0:
267,231,129353,1,4,3:0:0:0:
234,321,129565,1,8,3:0:0:0:
329,309,129776,1,4,3:0:0:0:
352,215,129987,2,0,P|258:144|182:236,1,240,4|0,3:0|0:0,0:0:0:0:
