osu file format v14

[General]
AudioFilename: audio.mp3
AudioLeadIn: 0
PreviewTime: 111396
Countdown: 0
SampleSet: Soft
StackLeniency: 0.7
Mode: 0
LetterboxInBreaks: 0
WidescreenStoryboard: 1

[Editor]
DistanceSpacing: 1
BeatDivisor: 4
GridSize: 4
TimelineZoom: 1.3

[Metadata]
Title:Metal - Brute Justice Mode
TitleUnicode:メタル:ブルートジャスティスモード ~機工城アレキサンダー:律動編~
Artist:Masayoshi Soken
ArtistUnicode:Masayoshi Soken
Creator:Arf
Version:Easy
Source:FINAL FANTASY XIV
Tags:rfandomization ff14 ffxiv ファイナルファンタジーXIV 祖堅正慶 a realm reborn arr hw alexander eight savage a8s raid boss theme primal sentai jazz locus remix english video game shinenite warpyc charlotte [r] ron raphalge
BeatmapID:1219929
BeatmapSetID:522233

[Difficulty]
HPDrainRate:2
CircleSize:2.5
OverallDifficulty:2
ApproachRate:3
SliderMultiplier:1
SliderTickRate:1

[Events]
//Background and Video events
0,0,"bgalex.jpg",0,0
//Break Periods
//Storyboard Layer 0 (Background)
//Storyboard Layer 1 (Fail)
//Storyboard Layer 2 (Pass)
//Storyboard Layer 3 (Foreground)
//Storyboard Layer 4 (Overlay)
//Storyboard Sound Samples

[TimingPoints]
3438,422.535211267606,4,2,0,65,1,0
84564,-100,4,2,0,65,0,1
96395,-100,4,2,0,65,0,0
98085,-100,4,2,0,65,0,1
111607,-100,4,2,0,65,0,0
113086,-100,4,2,0,35,0,0
113508,-100,4,2,0,45,0,0
113931,-100,4,2,0,55,0,0
114353,-100,4,2,0,65,0,0
119846,-100,4,2,0,35,0,0
120269,-100,4,2,0,45,0,0
120691,-100,4,2,0,55,0,0
121114,-100,4,2,0,65,0,0

[Colours]
Combo1 : 255,255,79
Combo2 : 48,172,6
Combo3 : 213,0,0
Combo4 : 128,0,64
Combo5 : 0,58,117

[HitObjects]
304,282,57,6,0,P|256:270|207:283,1,100,4|4,3:0|3:0,0:0:0:0:
114,320,902,2,0,B|112:195|3:113|3:113|94:-11|242:44,1,500,0|0,0:0|0:0,0:0:0:0:
343,73,3438,6,0,L|450:63,2,100,8|0|0,3:0|0:0|0:0,0:0:0:0:
242,80,4705,1,0,0:0:0:0:
175,154,5128,2,0,P|220:177|282:172,1,100,8|0,3:0|0:0,0:0:0:0:
365,151,5973,2,0,P|365:200|342:244,1,100,4|4,3:0|3:0,0:0:0:0:
305,337,6818,6,0,P|356:342|413:318,2,100,8|4|4,3:0|3:0|3:0,0:0:0:0:
209,307,8086,1,0,3:0:0:0:
119,263,8508,2,0,P|132:211|122:160,1,100,4|4,3:0|3:0,0:0:0:0:
37,115,9353,2,0,P|73:79|135:66,1,100,4|4,3:0|3:0,0:0:0:0:
219,76,10198,6,0,B|313:114|313:114|417:128,1,200,4|0,0:3|0:0,0:0:0:0:
488,192,11466,1,4,0:3:0:0:
410,256,11888,2,0,B|313:270|313:270|219:308,1,200,8|0,0:3|0:0,0:0:0:0:
119,313,13156,1,4,0:3:0:0:
147,219,13579,6,0,B|185:125|185:125|198:27,1,200,8|0,0:3|0:0,0:0:0:0:
98,35,14846,1,4,0:3:0:0:
40,116,15269,2,0,L|57:214,1,100,4|4,3:0|3:0,0:0:0:0:
73,313,16114,2,0,P|119:294|151:248,1,100,8|4,3:0|3:0,0:0:0:0:
173,157,16959,6,0,L|271:142,1,100,8|4,0:3|3:0,0:0:0:0:
369,120,17804,2,0,P|325:58|236:48,2,150,8|8|4,3:0|3:0|3:0,0:0:0:0:
338,215,19494,1,8,3:0:0:0:
437,201,19917,1,4,3:0:0:0:
398,293,20339,6,0,P|353:313|304:308,1,100,8|4,3:0|3:0,0:0:0:0:
232,239,21184,2,0,P|203:306|231:374,2,150,8|8|4,3:0|3:0|3:0,0:0:0:0:
319,190,22874,2,0,P|284:154|237:138,1,100,8|4,3:0|3:0,0:0:0:0:
139,156,23719,6,0,P|175:60|273:44,2,200,8|8|0,3:0|3:0|0:0,0:0:0:0:
158,254,25832,1,4,3:0:0:0:
196,346,26255,2,0,L|306:336,1,100,8|4,3:0|3:0,0:0:0:0:
395,327,27100,5,8,3:0:0:0:
333,248,27522,1,4,3:0:0:0:
333,147,27945,2,0,B|367:81|367:81|449:38,1,150,8|4,3:0|0:0,0:0:0:0:
434,146,29001,1,4,0:3:0:0:
389,235,29423,2,0,L|325:240,1,50,4|4,0:0|0:0,0:0:0:0:
140,303,30480,6,0,P|143:248|167:205,1,100,8|4,0:3|3:0,0:0:0:0:
241,146,31325,1,8,0:3:0:0:
301,66,31748,1,4,3:0:0:0:
199,58,32170,2,0,L|90:49,1,100,8|4,0:3|3:0,0:0:0:0:
0,39,33015,1,8,0:3:0:0:
35,132,33438,1,4,3:0:0:0:
54,230,33860,6,0,P|101:204|132:155,1,100,8|4,0:3|3:0,0:0:0:0:
136,67,34705,2,0,L|236:76,1,100,8|4,0:3|3:0,0:0:0:0:
335,81,35550,2,0,B|308:125|318:184,1,100,8|4,0:3|3:0,0:0:0:0:
352,271,36396,1,8,3:0:0:0:
446,239,36818,1,4,0:3:0:0:
439,338,37241,6,0,P|402:370|352:381,1,100,8|4,0:3|0:3,0:0:0:0:
257,350,38086,2,0,B|208:337|208:337|143:341,1,100,8|4,0:3|0:3,0:0:0:0:
59,328,38931,2,0,L|49:228,1,100,8|4,0:3|0:3,0:0:0:0:
40,128,39776,2,0,P|91:138|144:186,1,100,8|8,0:3|3:0,0:0:0:0:
162,260,40621,5,0,0:0:0:0:
261,255,41043,2,0,B|315:251|315:251|357:234,2,100,4|4|4,3:0|3:0|3:0,0:0:0:0:
171,209,42311,1,4,3:0:0:0:
139,114,42733,1,4,3:0:0:0:
106,19,43156,2,0,B|160:18|160:18|204:40,1,100,4|4,3:0|3:0,0:0:0:0:
272,109,44001,6,0,L|330:19,2,100,8|4|8,0:3|3:0|0:3,0:0:0:0:
223,198,45269,1,4,3:0:0:0:
226,297,45691,2,0,P|274:282|312:238,1,100,8|4,0:3|3:0,0:0:0:0:
348,155,46536,1,8,0:3:0:0:
335,54,46959,1,4,3:3:0:0:
433,38,47381,6,0,B|443:89|443:89|475:140,1,100,8|4,0:3|3:0,0:0:0:0:
502,224,48227,2,0,B|492:275|492:275|460:326,1,100,8|4,0:3|3:0,0:0:0:0:
389,378,49071,2,0,B|349:350|349:350|320:307,1,100,8|4,0:3|3:0,0:0:0:0:
290,212,49916,1,8,3:0:0:0:
203,252,50339,1,4,3:0:0:0:
118,201,50762,6,0,P|104:248|114:296,2,100,8|4|8,0:3|3:0|0:3,0:0:0:0:
169,115,52029,1,4,3:0:0:0:
268,110,52452,2,0,L|392:104,1,100,8|4,0:3|3:3,0:0:0:0:
467,101,53297,1,8,0:3:0:0:
418,13,53719,1,4,3:0:0:0:
317,17,54142,6,0,L|217:21,1,100,4|4,3:0|3:0,0:0:0:0:
117,25,54987,1,4,3:0:0:0:
169,110,55410,1,4,3:0:0:0:
173,211,55832,2,0,P|158:281|106:173,1,300,6|4,3:0|3:0,0:0:0:0:
169,110,57522,6,0,L|268:121,1,100,4|4,3:0|3:0,0:0:0:0:
367,131,58367,2,0,P|357:77|275:21,2,150,8|8|8,3:0|3:0|3:0,0:0:0:0:
334,226,60058,1,8,3:0:0:0:
433,220,60480,1,4,3:0:0:0:
389,310,60903,6,0,L|287:318,1,100,4|4,3:0|3:0,0:0:0:0:
189,325,61748,2,0,B|117:358|117:358|38:367,2,150,8|8|4,3:0|0:3|3:0,0:0:0:0:
232,235,63438,2,0,B|222:182|222:182|191:147,1,100,8|4,3:0|3:0,0:0:0:0:
94,122,64283,6,0,P|159:52|269:83,2,200,4|8|0,3:0|0:3|0:0,0:0:0:0:
86,221,66396,1,4,3:0:0:0:
78,320,66818,2,0,P|130:311|172:271,1,100,8|4,3:0|3:0,0:0:0:0:
212,193,67663,5,8,3:0:0:0:
311,178,68086,1,4,3:0:0:0:
410,178,68508,2,0,B|376:244|376:244|308:279,1,150,8|4,3:0|0:0,0:0:0:0:
208,277,69564,1,4,0:3:0:0:
114,312,69987,2,0,L|106:249,1,50,4|4,0:0|0:0,0:0:0:0:
178,75,71043,6,0,L|290:71,1,100,4|4,3:0|3:0,0:0:0:0:
332,155,71888,2,0,L|232:158,1,100,4|4,3:0|3:0,0:0:0:0:
183,246,72734,2,0,L|295:242,1,100,4|4,3:3|3:3,0:0:0:0:
337,326,73579,2,0,L|237:329,1,100,4|4,3:3|3:3,0:0:0:0:
136,332,74424,5,4,3:0:0:0:
96,240,74846,1,4,3:0:0:0:
110,140,75269,2,0,B|158:157|158:157|216:162,1,100,4|4,3:0|3:0,0:0:0:0:
307,160,76114,2,0,B|355:155|355:155|403:138,1,100,4|4,3:0|3:0,0:0:0:0:
491,89,76959,1,4,3:0:0:0:
493,188,77381,1,4,3:0:0:0:
451,278,77804,6,0,B|403:261|403:261|354:256,1,100,4|4,3:0|3:0,0:0:0:0:
254,262,78649,1,4,3:0:0:0:
306,347,79072,1,4,3:0:0:0:
206,334,79494,2,0,P|170:283|171:240,1,100,4|4,3:0|3:0,0:0:0:0:
218,160,80339,1,4,3:0:0:0:
317,149,80762,1,4,3:0:0:0:
406,193,81184,6,0,B|413:141|413:141|395:94,1,100,8|4,3:0|3:0,0:0:0:0:
305,53,82029,2,0,L|199:60,1,100,8|4,3:0|3:0,0:0:0:0:
106,78,82874,2,2,P|63:96|146:148,1,200,8|4,3:0|0:3,0:0:0:0:
228,115,84142,1,4,3:0:0:0:
286,196,84565,6,0,P|317:155|328:107,2,100,8|4|0,0:3|0:3|0:0,0:0:0:0:
187,211,85832,1,12,3:3:0:0:
129,292,86254,2,0,B|173:322|173:322|226:334,1,100,8|4,3:0|3:0,0:0:0:0:
322,334,87100,2,0,B|337:282|337:282|325:237,1,100,8|4,3:0|3:0,0:0:0:0:
305,139,87945,6,0,P|262:159|228:210,2,100,8|4|0,3:0|3:0|0:0,0:0:0:0:
404,129,89212,1,4,3:0:0:0:
378,225,89635,2,0,P|349:265|304:287,1,100,8|4,3:0|3:0,0:0:0:0:
203,283,90480,2,0,P|158:261|129:221,1,100,4|4,3:0|3:0,0:0:0:0:
176,132,91325,6,0,P|126:120|75:136,2,100,8|4|0,3:0|3:0|0:0,0:0:0:0:
271,162,92592,1,4,3:0:0:0:
363,123,93015,2,0,P|332:83|287:63,1,100,8|4,3:0|3:0,0:0:0:0:
187,64,93860,2,0,P|143:84|112:123,1,100,4|4,3:0|3:0,0:0:0:0:
68,214,94705,6,0,P|28:178|10:124,2,100,8|4|0,3:0|3:0|0:0,0:0:0:0:
163,242,95973,1,4,3:0:0:0:
254,282,96395,2,0,P|261:333|245:386,2,100,0|6|4,0:0|3:0|3:3,0:0:0:0:
250,183,97663,1,4,3:3:0:0:
157,136,98086,6,0,P|146:184|161:238,2,100,4|4|8,1:0|3:0|3:0,0:0:0:0:
216,56,99353,1,4,3:0:0:0:
316,58,99776,2,0,L|385:129,1,100,8|4,0:3|3:0,0:0:0:0:
452,203,100621,2,0,P|407:225|357:225,1,100,8|4,3:0|3:0,0:0:0:0:
256,217,101466,6,0,P|263:263|296:307,2,100,8|4|8,3:0|3:0|3:0,0:0:0:0:
271,118,102734,1,4,3:0:0:0:
184,72,103156,2,0,L|80:76,1,100,8|4,3:0|3:0,0:0:0:0:
71,175,104001,2,0,L|170:171,1,100,8|4,3:0|3:0,0:0:0:0:
271,170,104846,6,0,P|246:104|208:78,2,100,8|4|8,3:0|3:0|3:0,0:0:0:0:
231,262,106114,1,4,3:0:0:0:
159,332,106536,2,0,L|59:333,1,100,8|4,3:0|3:0,0:0:0:0:
48,233,107381,2,0,L|148:234,1,100,8|4,3:0|3:0,0:0:0:0:
235,283,108227,6,0,P|279:312|332:316,2,100,8|4|0,3:0|3:0|0:0,0:0:0:0:
215,185,109494,1,4,3:0:0:0:
249,90,109916,2,0,L|369:69,1,100,0|4,0:0|3:0,0:0:0:0:
411,150,110762,2,0,L|291:171,1,100,4|4,3:0|3:0,0:0:0:0:
215,185,111607,5,4,3:0:0:0:
120,228,112029,2,0,P|146:314|248:371,1,200,4|4,3:0|3:0,0:0:0:0:
336,351,113297,2,0,P|372:317|392:272,2,100,4|4|4,3:0|3:0|3:0,0:0:0:0:
294,259,114565,1,4,3:0:0:0:
354,179,114987,5,4,3:0:0:0:
420,104,115409,2,0,P|331:82|257:162,1,200,4|4,3:0|3:0,0:0:0:0:
245,248,116677,2,0,B|263:298|256:355,2,100,4|8|0,3:0|3:0|0:0,0:0:0:0:
185,167,117945,1,4,3:0:0:0:
96,119,118367,5,4,3:0:0:0:
31,196,118790,2,0,P|67:285|161:306,1,200,4|4,3:0|3:0,0:0:0:0:
255,275,120058,2,0,P|266:321|304:369,2,100,4|0|0,3:0|0:0|0:0,0:0:0:0:
231,177,121325,1,4,3:0:0:0:
222,77,121748,5,4,3:0:0:0:
320,70,122170,2,0,P|402:121|422:217,1,200,4|4,3:0|3:0,0:0:0:0:
406,315,123438,2,0,L|472:321,3,50,4|0|4|0,3:0|0:0|0:0|0:0,0:0:0:0:
204,155,125339,6,0,L|42:185,2,150,4|4|8,3:0|3:0|3:0,0:0:0:0:
304,156,127029,2,0,L|452:183,2,150,4|4|4,3:0|3:0|3:0,0:0:0:0:
156,126,128931,5,4,3:0:0:0:
63,86,129353,2,0,P|114:34|188:32,1,150,4|4,3:0|3:0,0:0:0:0:
