osu file format v14

[General]
AudioFilename: audio.mp3
AudioLeadIn: 0
PreviewTime: 66227
Countdown: 0
SampleSet: Soft
StackLeniency: 0.7
Mode: 0
LetterboxInBreaks: 0
WidescreenStoryboard: 1

[Editor]
Bookmarks: 3415,26272,46272,66272,89129,94843,123414,146272,169129
DistanceSpacing: 3.1
BeatDivisor: 4
GridSize: 16
TimelineZoom: 1

[Metadata]
Title:Insatiable
TitleUnicode:貪欲
Artist:Masayoshi Soken
ArtistUnicode:祖堅正慶
Creator:Heroine
Version:Insane
Source:ファイナルファンタジーXIV: 漆黒のヴィランズ
Tags:Don'yoku Greedy Mad [Mad] Some Hero Some_Hero final fantasy xiv ff14 shadowbringers shadow bringers shikkoku no villains ffxiv english japanese rock jrock j-rock video game ost
BeatmapID:4300244
BeatmapSetID:1910845

[Difficulty]
HPDrainRate:5
CircleSize:4
OverallDifficulty:7
ApproachRate:8.5
SliderMultiplier:1.4
SliderTickRate:1

[Events]
//Background and Video events
0,0,"shadowbringers.jpg",0,0
//Break Periods
2,123614,127575
2,143628,145610
//Storyboard Layer 0 (Background)
//Storyboard Layer 1 (Fail)
//Storyboard Layer 2 (Pass)
//Storyboard Layer 3 (Foreground)
//Storyboard Layer 4 (Overlay)
//Storyboard Sound Samples

[TimingPoints]
3415,357.142857142857,4,2,0,30,1,0
11272,-100,4,2,0,20,0,0
11629,-100,4,2,0,30,0,0
14843,-100,4,2,0,50,0,0
16272,-100,4,2,0,15,0,0
18236,-100,4,2,0,30,0,0
18414,-100,4,2,0,15,0,0
19129,-100,4,2,0,30,0,0
19486,-100,4,2,0,15,0,0
20557,-100,4,2,0,30,0,0
25914,-100,4,2,0,25,0,0
26272,-90.9090909090909,4,2,0,35,0,0
46272,-83.3333333333333,4,2,0,50,0,1
66272,-111.111111111111,4,2,0,50,0,0
66986,-111.111111111111,4,2,0,30,0,0
72343,-111.111111111111,4,2,0,5,0,0
72433,-111.111111111111,4,2,0,30,0,0
75022,-111.111111111111,4,2,0,25,0,0
75379,-111.111111111111,4,2,0,5,0,0
75469,-111.111111111111,4,2,0,30,0,0
76450,-111.111111111111,4,2,0,50,0,0
77700,-83.3333333333333,4,2,0,65,0,0
79039,-83.3333333333333,4,2,0,5,0,0
79307,-83.3333333333333,4,2,0,65,0,0
79397,-83.3333333333333,4,2,0,5,0,0
79486,-83.3333333333333,4,2,0,65,0,0
89129,-83.3333333333333,4,2,0,30,0,0
94486,-83.3333333333333,4,2,0,75,0,0
94843,-71.4285714285714,4,2,0,75,0,1
123414,-71.4285714285714,4,2,0,25,0,0
124397,-71.4285714285714,4,2,0,5,0,0
124858,357.142857142857,4,2,0,25,1,0
129143,346.820809248555,4,2,0,25,1,0
129143,-133.333333333333,4,2,0,25,0,0
130530,384.615384615385,4,2,0,25,1,0
131106,300,4,2,0,25,1,0
131106,-133.333333333333,4,2,0,25,0,0
131256,372.670807453416,4,2,0,25,1,0
132000,357.142857142857,4,2,0,25,1,0
135750,-80,4,2,0,25,0,0

[Colours]
Combo1 : 206,181,181
Combo2 : 244,168,149
Combo3 : 192,249,151
Combo4 : 226,186,225

[HitObjects]
227,275,3415,5,4,1:1:0:0:
273,198,3772,1,2,3:2:0:0:
230,279,4129,1,2,0:2:0:0:
276,202,4307,2,0,L|262:133,1,70,2|0,0:2|0:0,0:2:0:0:
215,66,4665,6,0,P|180:58|146:52,1,70,2|0,0:2|0:0,0:2:0:0:
287,30,5022,2,0,P|321:22|355:16,1,70,2|0,0:2|0:0,0:2:0:0:
218,70,5379,1,2,3:2:0:0:
263,134,5557,1,2,0:2:0:0:
331,98,5736,2,0,P|365:90|399:84,1,70,0|2,0:0|0:3,0:0:0:0:
96,241,6272,5,4,0:3:0:0:
50,164,6629,1,2,0:2:0:0:
99,245,6986,1,0,0:2:0:0:
53,168,7164,2,0,P|50:133|57:98,1,70,2|2,0:2|0:3,0:0:0:0:
129,83,7522,2,0,L|198:91,1,70,0|0,0:2|3:2,0:0:0:0:
219,160,7879,2,0,L|149:168,1,70,2|0,0:3|0:0,0:2:0:0:
241,236,8236,1,2,3:2:0:0:
308,200,8415,2,0,P|306:131|283:65,2,140,2|2|4,0:2|0:3|1:1,0:0:0:0:
70,345,9664,6,0,P|36:364|8:378,1,70,4|2,1:1|0:2,0:0:0:0:
141,352,10022,1,2,0:2:0:0:
308,201,10379,6,0,P|367:170|370:103,2,140,2|2|2,0:2|3:2|3:2,0:2:0:0:
218,159,11272,2,0,P|194:95|203:26,2,140,2|0|4,0:2|1:2|0:3,0:2:0:0:
256,192,12075,12,4,14843,1:1:0:0:
445,324,16272,5,0,1:2:0:0:
382,289,16450,1,4,0:3:0:0:
417,226,16629,1,4,0:3:0:0:
480,261,16807,1,4,0:3:0:0:
371,304,16986,2,0,P|303:316|233:311,2,140,4|4|0,0:3|0:3|1:2,0:0:0:0:
161,297,18236,6,0,P|126:303|93:315,1,70,0|4,1:2|0:3,0:0:0:0:
234,312,18593,1,4,0:3:0:0:
384,57,19129,5,0,3:2:0:0:
384,57,19218,1,0,3:2:0:0:
384,57,19307,2,0,P|418:50|451:38,1,70,0|4,1:2|0:3,0:0:0:0:
444,127,19664,1,4,0:3:0:0:
354,142,19843,2,0,P|285:134|216:141,2,140,4|4|6,0:3|0:3|1:2,0:0:0:0:
354,142,21093,2,0,P|345:176|340:211,1,70,0|0,1:2|0:0,0:0:0:0:
405,269,21450,2,0,P|413:235|418:200,1,70,8|0,3:2|0:0,0:0:0:0:
490,191,21807,1,0,3:2:0:0:
506,261,21986,1,4,1:3:0:0:
332,299,22164,2,0,P|265:277|196:269,1,140,4|4,1:3|0:3,0:0:0:0:
135,311,22700,6,0,B|145:344|145:344|152:378,1,70,4|8,0:3|3:2,0:0:0:0:
38,308,23057,1,4,0:3:0:0:
196,269,23414,2,0,P|201:202|214:130,1,140,0|0,1:1|0:0,0:0:0:0:
83,51,23950,2,0,P|105:77|136:93,1,70,4|0,1:3|0:0,0:0:0:0:
244,58,24307,1,8,0:0:0:0:
244,58,24664,1,0,3:0:0:0:
183,8,24843,1,4,0:3:0:0:
183,8,24932,1,4,0:3:0:0:
183,8,25022,1,4,1:3:0:0:
215,131,25200,2,0,P|217:165|221:200,1,70,0|0,3:0|1:0,0:0:0:0:
256,70,25557,2,0,P|258:35|262:0,1,70,2|4,3:3|0:0,0:0:0:0:
422,129,25914,1,4,1:2:0:0:
389,146,26004,1,0,3:0:0:0:
332,125,26093,1,2,0:3:0:0:
315,133,26183,1,2,0:3:0:0:
331,167,26272,6,0,P|406:152|482:142,1,154.000004699707,6|0,1:1|3:2,0:2:0:0:
464,219,26807,2,0,P|461:250|452:295,1,77.0000023498536,2|0,0:2|0:0,0:2:0:0:
372,353,27164,5,10,0:2:0:0:
284,309,27343,1,2,0:1:0:0:
193,356,27522,1,2,0:1:0:0:
50,304,27700,1,10,3:2:0:0:
50,304,27789,1,2,0:3:0:0:
50,304,27879,2,0,B|87:294|87:294|125:294,1,77.0000023498536,2|0,0:3|1:2,0:0:0:0:
193,250,28236,2,0,P|164:194|154:96,1,154.000004699707,0|0,1:2|3:2,0:0:0:0:
79,146,28772,2,0,P|41:135|3:129,1,77.0000023498536,2|2,3:1|3:1,0:0:0:0:
220,69,29129,6,0,P|295:62|358:103,1,154.000004699707,6|2,1:2|3:3,0:2:0:0:
365,176,29664,2,0,P|440:183|503:142,1,154.000004699707,2|2,1:3|3:1,0:2:0:0:
449,91,30200,1,2,1:1:0:0:
510,42,30379,1,2,3:1:0:0:
454,0,30557,2,0,P|418:6|374:9,1,77.0000023498536,4|0,1:3|3:2,0:0:0:0:
365,176,30914,1,2,3:3:0:0:
420,218,31092,2,0,P|456:211|500:208,1,77.0000023498536,4|0,1:3|3:2,0:0:0:0:
288,334,31450,1,2,0:1:0:0:
227,285,31629,1,2,3:1:0:0:
282,242,31807,2,0,P|318:248|362:251,1,77.0000023498536,2|4,3:1|1:1,0:0:0:0:
218,360,32164,6,0,P|204:311|201:205,1,154.000004699707,0|4,1:0|0:3,0:0:0:0:
201,209,32879,2,0,P|162:203|125:195,1,77.0000023498536,10|2,0:1|0:1,0:2:0:0:
263,159,33236,1,2,3:1:0:0:
109,69,33414,1,2,1:2:0:0:
181,83,33593,2,0,P|142:88|105:96,1,77.0000023498536,0|0,3:0|3:2,0:0:0:0:
237,30,33950,2,0,P|312:44|389:43,1,154.000004699707,4|10,3:3|0:1,0:2:0:0:
457,88,34486,1,2,0:1:0:0:
404,141,34664,1,2,0:1:0:0:
389,43,34843,5,0,1:2:0:0:
314,350,35379,2,0,P|328:278|273:229,1,154.000004699707,4|10,1:3|0:1,0:2:0:0:
218,177,35914,2,0,P|181:188|142:192,1,77.0000023498536,2|2,0:1|3:1,0:2:0:0:
273,229,36272,1,0,1:2:0:0:
316,167,36450,1,2,0:3:0:0:
130,339,36629,1,2,0:3:0:0:
185,286,36807,2,0,P|222:296|260:300,1,77.0000023498536,2|0,1:3|0:2,0:2:0:0:
80,282,37164,1,10,0:2:0:0:
146,96,37343,6,0,P|111:162|133:233,1,154.000004699707,14|4,0:1|1:1,0:2:0:0:
406,185,38236,2,0,P|401:146|385:111,1,77.0000023498536,0|0,3:2|0:0,0:0:0:0:
343,49,38593,1,2,0:1:0:0:
273,26,38772,1,2,0:1:0:0:
199,42,38950,1,2,3:1:0:0:
146,96,39129,1,2,1:2:0:0:
276,30,39307,1,0,0:0:0:0:
202,46,39486,1,2,0:2:0:0:
149,100,39664,2,0,P|137:136|137:175,1,77.0000023498536,2|0,1:2|0:0,0:2:0:0:
346,53,40022,1,2,3:1:0:0:
386,112,40200,1,2,1:1:0:0:
406,185,40379,1,10,0:1:0:0:
398,257,40557,6,0,P|392:191|406:103,1,154.000004699707,4|0,1:3|3:2,0:2:0:0:
475,138,41093,2,0,P|481:204|467:292,1,154.000004699707,4|2,1:3|0:1,0:2:0:0:
401,343,41629,2,0,L|325:359,1,77.0000023498536,2|2,0:1|0:1,0:2:0:0:
190,247,41986,1,2,1:2:0:0:
190,247,42075,1,4,0:3:0:0:
190,247,42164,1,0,3:0:0:0:
326,360,42343,1,0,3:2:0:0:
157,325,42522,2,0,P|102:274|110:200,1,154.000004699707,2|2,3:2|3:1,0:2:0:0:
242,310,43057,1,2,0:1:0:0:
215,384,43236,1,2,0:1:0:0:
110,201,43414,6,0,P|185:188|261:172,1,154.000004699707,4|0,1:1|1:2,0:2:0:0:
158,117,43950,2,0,P|81:111|4:108,1,154.000004699707,0|2,1:2|0:1,0:0:0:0:
104,35,44486,1,2,0:1:0:0:
176,21,44664,2,0,P|210:25|251:34,1,77.0000023498536,2|4,0:1|1:3,0:2:0:0:
362,60,45022,1,4,0:3:0:0:
435,15,45200,2,0,P|469:10|510:1,1,77.0000023498536,0|0,1:2|1:2,0:2:0:0:
438,108,45557,1,2,1:3:0:0:
367,145,45736,1,2,1:3:0:0:
365,64,45914,1,6,1:2:0:0:
441,112,46093,1,0,3:2:0:0:
433,187,46272,6,0,P|442:269|404:343,1,167.999994873047,6|0,1:1|1:2,0:2:0:0:
324,384,46807,2,0,P|312:299|351:225,1,167.999994873047,4|8,0:3|0:2,0:2:0:0:
433,187,47343,5,2,0:2:0:0:
294,168,47522,1,2,3:2:0:0:
290,290,47700,1,8,0:3:0:0:
371,307,47879,2,0,P|367:265|348:228,1,83.9999974365235,4|0,1:3|0:0,0:2:0:0:
304,84,48236,2,0,P|228:111|209:190,1,167.999994873047,4|4,0:3|3:2,0:2:0:0:
148,257,48772,1,2,0:2:0:0:
81,222,48950,1,0,0:0:0:0:
10,315,49129,6,0,P|51:318|93:326,1,83.9999974365235,2|0,1:2|0:0,0:2:0:0:
159,366,49486,1,2,3:3:0:0:
159,366,49664,2,0,P|242:357|326:354,1,167.999994873047,2|2,1:1|0:3,0:2:0:0:
292,279,50200,2,0,P|250:282|208:285,1,83.9999974365235,2|2,3:2|3:2,0:2:0:0:
393,312,50557,1,2,3:2:0:0:
457,281,50736,2,0,P|449:198|422:119,1,167.999994873047,0|2,1:2|1:1,0:0:0:0:
356,67,51272,1,0,3:0:0:0:
305,135,51450,1,0,1:2:0:0:
237,84,51629,1,2,3:2:0:0:
288,16,51807,1,0,0:0:0:0:
330,155,51986,6,0,P|246:162|167:189,1,167.999994873047,4|2,1:1|3:3,2:2:0:0:
92,256,52522,2,0,P|68:177|113:109,1,167.999994873047,2|0,1:1|1:2,0:2:0:0:
164,286,53057,1,2,0:2:0:0:
115,337,53236,2,0,P|74:345|34:357,2,83.9999974365235,2|2|0,3:2|1:1|1:2,0:0:0:0:
236,277,53772,1,0,1:2:0:0:
266,342,53950,2,0,P|348:342|411:289,1,167.999994873047,2|0,1:1|1:2,0:2:0:0:
372,228,54486,2,0,P|330:224|289:215,1,83.9999974365235,2|0,0:2|3:2,0:0:0:0:
479,172,54843,6,0,P|479:89|426:26,1,167.999994873047,2|0,1:2|0:0,0:2:0:0:
351,15,55379,2,0,P|309:19|268:28,1,83.9999974365235,2|0,1:1|0:0,0:2:0:0:
427,26,55736,1,0,1:2:0:0:
267,111,55914,1,2,0:2:0:0:
200,70,56093,2,0,B|154:65|154:65|117:56,1,83.9999974365235,2|10,0:2|3:2,0:0:0:0:
271,114,56450,2,0,P|303:190|252:252,2,167.999994873047,0|2|0,3:2|1:1|1:2,0:0:0:0:
117,57,57343,2,0,P|126:97|134:139,1,83.9999974365235,6|0,0:2|0:0,0:2:0:0:
38,232,57700,6,0,P|33:314|79:383,1,167.999994873047,4|0,1:1|0:0,0:2:0:0:
192,353,58236,2,0,P|167:328|116:315,1,83.9999974365235,0|0,1:2|0:0,0:0:0:0:
271,340,58593,1,2,0:3:0:0:
332,291,58772,1,2,0:2:0:0:
255,250,58950,1,2,0:2:0:0:
354,376,59129,1,2,1:1:0:0:
412,245,59307,2,0,P|406:162|404:78,2,167.999994873047,0|0|0,1:2|1:2|1:2,0:0:0:0:
335,211,60200,5,2,0:2:0:0:
475,125,60379,1,2,3:3:0:0:
255,250,60557,6,0,P|249:208|265:162,1,83.9999974365235,4|0,1:1|0:0,0:2:0:0:
325,290,60914,1,0,1:2:0:0:
261,168,61093,2,0,P|252:85|229:4,1,167.999994873047,2|4,3:1|1:3,0:0:0:0:
166,48,61629,2,0,P|154:88|157:129,1,83.9999974365235,2|2,0:2|0:2,0:2:0:0:
334,68,61986,1,2,1:1:0:0:
334,68,62075,1,4,0:3:0:0:
334,68,62164,1,0,1:2:0:0:
157,129,62343,1,2,1:3:0:0:
261,169,62522,6,0,P|327:190|426:153,1,167.999994873047,0|0,1:2|1:2,0:2:0:0:
464,101,63057,1,2,0:3:0:0:
512,178,63236,1,0,1:2:0:0:
417,160,63414,2,0,P|429:200|440:240,1,83.9999974365235,2|0,1:1|0:0,0:2:0:0:
411,384,63772,2,0,P|398:343|387:303,1,83.9999974365235,0|0,1:2|1:2,0:0:0:0:
260,169,64307,5,4,1:3:0:0:
387,304,64486,1,8,0:2:0:0:
316,310,64664,2,0,P|284:284|245:269,1,83.9999974365235,0|0,1:2|3:2,0:0:0:0:
191,148,65022,1,4,1:2:0:0:
123,126,65200,2,0,P|85:145|44:151,2,83.9999974365235,0|0|0,1:2|1:2|3:0,0:0:0:0:
331,198,65736,1,4,1:2:0:0:
175,76,65914,1,2,1:1:0:0:
373,0,66093,1,2,1:1:0:0:
355,180,66272,6,0,P|352:132|342:86,1,94.499997116089,4|2,1:1|3:2,0:0:0:0:
157,204,67700,2,0,P|160:252|170:298,2,94.499997116089,2|2|12,1:2|0:0|0:2,0:0:0:0:
101,116,68414,2,0,P|57:94|13:80,2,94.499997116089,2|2|0,0:2|0:0|3:2,0:0:0:0:
211,114,69129,2,0,P|251:87|285:55,2,94.499997116089,6|2|0,1:3|0:0|3:2,0:0:0:0:
101,116,70379,1,0,3:2:0:0:
157,204,70557,1,0,3:2:0:0:
211,114,70736,1,4,0:3:0:0:
96,128,70914,1,4,1:3:0:0:
169,202,71092,1,4,1:3:0:0:
203,103,71271,1,4,1:3:0:0:
94,140,71450,1,4,1:3:0:0:
181,198,71628,1,4,1:3:0:0:
193,94,71807,1,4,1:3:0:0:
281,161,71986,6,0,P|327:175|373:184,2,94.499997116089,2|2|0,1:2|3:2|3:2,0:0:0:0:
373,184,73414,2,0,P|418:170|464:161,2,94.499997116089,2|2|12,0:2|0:0|0:2,0:0:0:0:
316,251,74129,2,0,P|270:237|224:228,2,94.499997116089,2|2|4,0:0|0:0|0:3,0:0:0:0:
386,311,74843,2,0,B|375:349|375:349|371:372,1,62.9999980773926,2|4,1:2|1:3,0:2:0:0:
372,372,76450,5,8,0:2:0:0:
261,335,76629,1,8,0:2:0:0:
150,298,76807,1,8,0:2:0:0:
344,301,76986,2,0,P|390:296|431:318,1,94.499997116089,12|0,1:2|0:0,0:0:0:0:
431,318,77343,2,0,P|461:326|492:331,1,62.9999980773926,8|4,1:2|0:3,0:0:0:0:
264,338,77700,6,0,P|224:353|183:363,1,83.9999974365235,6|0,1:1|0:0,0:2:0:0:
344,301,78057,1,2,1:3:0:0:
309,224,78236,1,0,1:2:0:0:
427,152,78414,2,0,P|502:173|508:252,1,167.999994873047,12|2,0:2|0:3,0:2:0:0:
309,224,78950,6,0,P|293:186|290:144,1,83.9999974365235,0|0,1:2|0:0,0:0:0:0:
429,229,79307,2,0,P|470:234|508:251,1,83.9999974365235,0|0,1:2|3:2,0:0:0:0:
367,327,79664,2,0,P|341:360|307:384,2,83.9999974365235,0|14|8,1:2|0:2|0:2,0:0:0:0:
368,256,80200,1,0,1:2:0:0:
249,258,80379,1,8,0:2:0:0:
180,277,80557,6,0,P|98:286|29:332,1,167.999994873047,6|0,1:1|1:2,0:2:0:0:
235,330,81093,1,0,1:2:0:0:
193,207,81272,2,0,P|183:124|189:41,1,167.999994873047,12|2,0:2|0:3,0:2:0:0:
266,23,81807,2,0,P|276:106|270:189,1,167.999994873047,0|0,1:2|1:2,0:2:0:0:
269,189,82254,5,2,0:3:0:0:
269,189,82343,1,4,0:0:0:0:
368,151,82522,1,0,1:2:0:0:
415,94,82700,2,0,P|454:107|496:113,1,83.9999974365235,8|0,0:2|1:2,0:0:0:0:
266,23,83057,2,0,P|224:28|184:41,1,83.9999974365235,8|4,0:3|0:3,0:0:0:0:
403,22,83414,6,0,P|343:76|367:150,1,167.999994873047,6|0,1:1|1:2,0:2:0:0:
266,23,83950,1,0,1:2:0:0:
184,41,84129,2,0,P|124:99|53:143,1,167.999994873047,12|2,0:2|0:3,0:2:0:0:
244,96,84664,2,0,P|316:53|396:28,2,167.999994873047,0|0|12,1:2|1:2|0:2,0:2:0:0:
54,143,85557,1,10,0:2:0:0:
199,268,85736,1,0,1:2:0:0:
88,226,85914,1,8,0:2:0:0:
240,176,86093,1,0,1:2:0:0:
76,332,86272,6,0,P|40:353|9:381,1,83.9999974365235,6|0,1:1|0:0,0:2:0:0:
140,302,86629,1,0,1:2:0:0:
307,261,86807,1,0,1:2:0:0:
370,305,86986,2,0,P|450:324|508:384,1,167.999994873047,12|2,0:2|0:3,0:2:0:0:
281,358,87522,2,0,P|279:316|286:274,1,83.9999974365235,0|2,1:2|0:1,0:0:0:0:
458,195,87879,5,0,1:2:0:0:
458,195,87968,2,0,B|393:211|393:211|339:186,1,125.999996154785,4|0,3:2|1:2,0:0:0:0:
320,111,88414,1,8,0:2:0:0:
455,38,88593,1,0,1:2:0:0:
408,109,88772,1,8,1:3:0:0:
366,28,88950,1,4,3:2:0:0:
471,10,89129,2,0,P|491:6|511:0,1,41.9999987182618,4|0,1:3|0:0,0:0:0:0:
256,192,89307,12,2,94129,3:2:0:0:
266,357,94486,6,0,B|281:281|238:279|257:186,1,167.999994873047,2|4,0:1|1:1,0:2:0:0:
179,334,95022,1,0,1:2:0:0:
369,220,95200,1,0,1:2:0:0:
38,244,95379,2,0,P|84:258|129:279,1,97.9999970092774,0|0,1:2|1:2,0:0:0:0:
341,295,95736,1,0,1:2:0:0:
173,205,95914,1,0,1:2:0:0:
315,133,96093,5,0,1:2:0:0:
297,123,96182,1,0,3:3:0:0:
277,117,96272,2,0,P|203:116|133:136,1,146.999995513916,8|0,1:2|0:0,0:2:0:0:
91,150,96629,2,0,P|78:103|62:57,2,97.9999970092774,0|0|8,1:2|1:2|0:3,0:0:0:0:
129,279,97164,1,4,0:3:0:0:
389,170,97343,2,0,P|395:121|377:76,1,97.9999970092774,2|4,1:1|0:3,0:0:0:0:
350,52,97611,1,4,0:3:0:0:
326,41,97700,2,0,B|289:46|261:73|261:73|211:30|146:25,1,195.999994018555,14|4,1:1|0:3,0:2:0:0:
477,134,98236,6,0,P|497:90|490:37,1,97.9999970092774,0|8,1:2|0:3,0:0:0:0:
317,132,98593,1,4,0:3:0:0:
301,303,98772,1,4,0:3:0:0:
448,231,98950,1,0,1:2:0:0:
266,231,99129,2,0,P|194:245|129:278,1,146.999995513916,8|0,1:2|0:0,0:0:0:0:
95,301,99486,2,0,P|111:346|143:384,2,97.9999970092774,8|4|4,0:3|0:3|0:3,0:0:0:0:
131,115,100022,1,4,0:3:0:0:
358,143,100200,2,0,P|333:209|266:230,1,146.999995513916,2|0,1:1|3:2,0:0:0:0:
238,200,100557,6,0,B|221:125|267:139|240:57,1,146.999995513916,10|0,1:1|0:0,0:2:0:0:
239,56,100914,1,8,0:3:0:0:
166,289,101093,2,0,P|151:335|142:383,1,97.9999970092774,4|0,0:3|1:2,0:0:0:0:
285,312,101450,1,0,1:2:0:0:
311,168,101629,1,4,1:3:0:0:
337,25,101807,1,4,0:3:0:0:
337,25,101897,1,0,3:2:0:0:
337,25,101986,2,0,P|385:16|433:5,2,97.9999970092774,8|4|8,1:2|0:3|0:3,0:2:0:0:
247,63,102522,5,0,1:2:0:0:
85,21,102700,2,0,P|38:23|4:56,1,97.9999970092774,0|0,1:2|1:2,0:0:0:0:
314,172,103057,2,0,P|243:176|196:123,1,146.999995513916,2|4,1:1|0:3,0:2:0:0:
230,87,103414,2,0,P|278:78|325:67,1,97.9999970092774,10|0,1:1|0:0,0:2:0:0:
292,313,103772,1,0,3:2:0:0:
152,350,103950,2,0,P|98:303|103:232,1,146.999995513916,0|0,1:2|0:0,0:0:0:0:
152,208,104307,2,0,P|184:220|217:276,2,97.9999970092774,8|0|0,0:3|1:2|1:2,0:0:0:0:
0,310,104843,1,4,1:3:0:0:
366,243,105022,6,0,P|330:278|291:306,1,97.9999970092774,4|8,0:3|0:3,0:0:0:0:
438,273,105379,2,0,P|438:200|393:144,1,146.999995513916,8|0,1:1|0:0,0:0:0:0:
393,144,105736,1,8,1:2:0:0:
350,384,105914,2,0,P|326:340|283:302,1,97.9999970092774,10|0,1:1|0:0,0:0:0:0:
269,286,106182,1,0,1:2:0:0:
254,266,106272,2,0,B|268:223|246:167|246:167|265:132|272:69,1,195.999994018555,6|0,1:1|3:2,0:2:0:0:
158,229,106807,6,0,P|112:247|66:276,1,97.9999970092774,0|0,1:2|0:0,0:2:0:0:
271,77,107164,1,0,3:2:0:0:
189,34,107343,2,0,P|125:58|132:126,1,146.999995513916,12|0,0:1|0:0,0:0:0:0:
169,137,107700,2,0,B|197:134|221:139|221:139|243:124|276:111,1,97.9999970092774,0|0,1:2|0:0,0:0:0:0:
293,123,107968,1,0,3:0:0:0:
330,114,108057,2,0,P|374:135|395:178,1,97.9999970092774,4|8,1:2|1:3,0:0:0:0:
261,5,108414,1,0,3:2:0:0:
370,3,108593,1,4,0:3:0:0:
317,190,108772,6,0,P|272:206|246:246,1,97.9999970092774,2|4,1:1|0:3,0:0:0:0:
239,274,109039,1,8,0:3:0:0:
252,291,109129,2,0,B|267:321|267:321|261:357|261:357|272:386,1,97.9999970092774,6|0,1:1|0:0,0:2:0:0:
85,182,109486,1,2,3:3:0:0:
33,254,109664,2,0,P|35:308|90:338,1,97.9999970092774,0|0,1:2|0:0,0:2:0:0:
427,291,110022,1,0,3:0:0:0:
357,320,110200,2,0,P|359:265|504:222,1,195.999994018555,12|0,0:1|1:2,0:0:0:0:
260,167,110736,5,0,3:0:0:0:
251,145,110825,1,0,3:0:0:0:
245,121,110914,2,0,P|263:76|275:29,1,97.9999970092774,4|4,3:2|1:1,0:0:0:0:
155,116,111272,1,4,0:3:0:0:
344,13,111450,1,0,1:2:0:0:
192,192,111629,2,0,P|126:223|94:287,1,146.999995513916,2|0,3:1|3:0,0:0:0:0:
130,315,111986,6,0,B|193:326|210:299|242:234|317:249,1,195.999994018555,4|2,1:2|0:3,0:0:0:0:
384,292,112522,2,0,P|378:340|358:384,1,97.9999970092774,0|12,1:2|0:2,0:0:0:0:
290,359,112879,1,0,3:0:0:0:
464,297,113057,1,0,1:2:0:0:
500,235,113236,2,0,P|503:187|496:138,1,97.9999970092774,8|4,0:2|1:2,0:0:0:0:
424,100,113593,2,0,P|420:148|427:197,1,97.9999970092774,8|0,0:2|1:2,0:0:0:0:
305,247,113950,1,0,1:2:0:0:
225,110,114129,1,8,0:2:0:0:
271,51,114307,2,0,P|305:86|312:134,1,97.9999970092774,0|8,1:2|0:3,0:0:0:0:
130,141,114664,5,8,0:2:0:0:
126,106,114754,1,8,0:2:0:0:
93,98,114843,2,0,P|64:139|32:176,1,97.9999970092774,4|0,1:2|0:0,0:0:0:0:
8,213,115111,1,0,3:2:0:0:
0,239,115200,2,0,B|14:292|-5:286|14:354,1,97.9999970092774,4|0,3:1|1:2,0:0:0:0:
193,265,115557,1,8,0:2:0:0:
88,300,115736,1,0,1:2:0:0:
217,370,115914,1,6,0:3:0:0:
223,231,116093,2,0,P|216:182|216:133,1,97.9999970092774,8|4,0:2|3:2,0:0:0:0:
303,286,116450,1,0,3:2:0:0:
322,293,116539,1,0,3:0:0:0:
344,283,116629,2,0,P|350:234|350:185,1,97.9999970092774,8|4,0:2|3:3,0:0:0:0:
144,215,116986,1,8,0:2:0:0:
91,377,117164,1,4,0:3:0:0:
293,146,117343,1,4,0:3:0:0:
140,121,117522,5,4,0:3:0:0:
101,130,117611,1,4,0:3:0:0:
74,163,117700,2,0,P|57:225|79:276,1,97.9999970092774,6|0,1:1|0:0,0:2:0:0:
242,225,118057,1,2,3:3:0:0:
179,56,118236,1,0,1:2:0:0:
345,93,118414,2,0,P|396:94|509:3,1,195.999994018555,12|0,0:2|3:2,0:0:0:0:
387,18,118950,2,0,P|340:3|291:0,1,97.9999970092774,8|0,0:2|1:2,0:0:0:0:
384,179,119307,2,0,P|430:164|479:161,1,97.9999970092774,8|0,0:2|3:2,0:0:0:0:
310,232,119664,1,0,1:2:0:0:
345,93,119843,1,8,0:2:0:0:
393,269,120022,1,0,1:2:0:0:
276,146,120200,2,0,P|229:160|180:163,1,97.9999970092774,2|4,1:3|0:3,0:0:0:0:
473,268,120557,6,0,P|424:346|333:327,1,195.999994018555,4|0,1:2|1:2,0:2:0:0:
172,287,121093,1,4,1:3:0:0:
289,223,121272,2,0,P|336:230|373:262,1,97.9999970092774,12|0,1:1|0:0,0:2:0:0:
334,328,121629,1,0,1:2:0:0:
145,295,121808,2,0,P|116:333|113:382,1,97.9999970092774,8|2,0:2|0:3,0:2:0:0:
113,382,122075,1,4,3:3:0:0:
113,382,122164,1,0,3:2:0:0:
96,224,122343,6,0,P|47:219|0:210,1,97.9999970092774,8|0,0:2|1:2,0:0:0:0:
209,366,122700,1,8,0:2:0:0:
180,217,122879,1,2,1:1:0:0:
48,309,123057,1,0,3:2:0:0:
93,311,123147,1,4,3:3:0:0:
137,313,123236,1,0,1:2:0:0:
148,304,123325,1,0,1:2:0:0:
137,293,123414,1,4,1:1:0:0:
370,83,128250,5,4,0:3:0:0:
416,147,128429,1,8,1:3:0:0:
352,193,128608,1,8,0:3:0:0:
306,130,128786,1,4,0:3:0:0:
306,130,128965,1,2,3:2:0:0:
457,153,129143,6,0,P|466:192|469:231,1,78.7500030040742,4|2,1:1|0:0,0:0:0:0:
303,311,129663,2,0,P|258:302|199:293,1,105.000004005432,0|0,3:0|0:0,0:0:0:0:
365,270,130183,1,0,0:0:0:0:
352,193,130356,2,0,P|348:169|344:141,1,52.5000020027161,0|2,3:0|0:0,0:0:0:0:
457,153,130914,1,0,0:0:0:0:
463,75,131106,2,0,P|465:49|468:23,1,52.5000020027161,0|2,0:0|0:0,0:0:0:0:
388,0,131628,1,0,0:0:0:0:
317,33,131815,2,0,P|283:28|257:5,1,70,0|2,0:0|0:0,0:0:0:0:
53,330,133607,5,8,1:3:0:0:
148,256,133785,1,2,3:2:0:0:
64,246,133964,1,8,0:3:0:0:
137,338,134142,1,2,3:2:0:0:
230,254,134321,6,0,P|227:219|219:185,2,70,4|8|12,1:3|0:3|1:3,0:0:0:0:
298,302,134857,1,4,1:1:0:0:
390,228,135035,1,0,3:2:0:0:
390,228,135214,1,8,3:2:0:0:
390,228,135392,1,0,3:2:0:0:
239,113,135750,2,0,P|197:103|156:86,2,87.5,8|2|2,0:2|3:2|3:2,0:0:0:0:
300,69,136285,5,2,3:2:0:0:
230,254,136463,1,0,3:0:0:0:
230,254,136642,1,0,3:0:0:0:
230,254,136820,1,4,0:3:0:0:
31,296,137178,2,0,P|21:338|4:379,2,87.5,8|0|2,0:2|3:0|3:2,0:0:0:0:
87,228,137714,5,4,1:1:0:0:
3,43,137892,1,0,3:2:0:0:
3,43,138071,1,0,3:2:0:0:
3,43,138250,1,2,3:2:0:0:
425,31,138607,2,0,P|467:21|508:4,2,87.5,8|0|2,0:2|3:0|3:2,0:0:0:0:
369,91,139142,5,8,0:3:0:0:
285,276,139320,1,4,3:3:0:0:
285,276,139499,1,0,3:0:0:0:
182,132,139678,2,0,P|170:68|153:4,1,131.25,4|0,3:3|0:0,0:0:0:0:
113,27,140035,2,0,P|71:17|30:0,2,87.5,8|0|2,3:2|3:0|3:2,0:0:0:0:
270,72,140571,5,6,1:3:0:0:
64,172,140750,1,0,3:2:0:0:
64,172,140928,1,0,3:2:0:0:
64,172,141107,1,2,3:2:0:0:
399,356,141464,2,0,P|441:366|482:383,2,87.5,0|0|2,1:2|3:2|3:2,0:0:0:0:
306,290,142000,5,4,3:3:0:0:
512,190,142179,1,0,3:2:0:0:
512,190,142357,1,0,3:2:0:0:
219,246,142535,2,0,P|156:264|98:294,1,131.25,10|0,3:3|0:0,0:0:0:0:
64,311,142892,1,8,3:2:0:0:
286,206,143071,1,0,3:2:0:0:
187,347,143250,2,0,P|144:369|107:383,1,87.5,6|2,3:3|1:2,0:0:0:0:
256,192,146285,5,4,1:1:0:0:
