osu file format v14

[General]
AudioFilename: audio.mp3
AudioLeadIn: 0
PreviewTime: 66227
Countdown: 0
SampleSet: Soft
StackLeniency: 0.7
Mode: 0
LetterboxInBreaks: 0
WidescreenStoryboard: 1

[Editor]
Bookmarks: 3415,26272,46272,66272,77700,89129,94843,123414,146272,169129
DistanceSpacing: 2.7
BeatDivisor: 4
GridSize: 32
TimelineZoom: 1

[Metadata]
Title:Insatiable
TitleUnicode:貪欲
Artist:Masayoshi Soken
ArtistUnicode:祖堅正慶
Creator:Heroine
Version:Hard
Source:ファイナルファンタジーXIV: 漆黒のヴィランズ
Tags:Don'yoku Greedy Mad [Mad] Some Hero Some_Hero final fantasy xiv ff14 shadowbringers shadow bringers shikkoku no villains ffxiv english japanese rock jrock j-rock video game ost
BeatmapID:4300243
BeatmapSetID:1910845

[Difficulty]
HPDrainRate:5
CircleSize:3.7
OverallDifficulty:7
ApproachRate:8
SliderMultiplier:1.3
SliderTickRate:1

[Events]
//Background and Video events
0,0,"shadowbringers.jpg",0,0
//Break Periods
2,123614,127500
2,129343,132858
2,143806,145535
//Storyboard Layer 0 (Background)
//Storyboard Layer 1 (Fail)
//Storyboard Layer 2 (Pass)
//Storyboard Layer 3 (Foreground)
//Storyboard Layer 4 (Overlay)
//Storyboard Sound Samples

[TimingPoints]
3415,357.142857142857,4,2,0,30,1,0
11272,-100,4,2,0,20,0,0
11629,-100,4,2,0,30,0,0
14843,-100,4,2,0,50,0,0
16272,-100,4,2,0,15,0,0
18236,-100,4,2,0,30,0,0
18414,-100,4,2,0,15,0,0
19129,-100,4,2,0,30,0,0
19486,-100,4,2,0,15,0,0
20557,-100,4,2,0,30,0,0
25914,-100,4,2,0,25,0,0
26272,-100,4,2,0,35,0,0
46272,-95.2380952380952,4,2,0,50,0,1
66272,-133.333333333333,4,2,0,50,0,0
66986,-133.333333333333,4,2,0,30,0,0
69664,-133.333333333333,4,2,0,5,0,0
69754,-133.333333333333,4,2,0,30,0,0
72343,-133.333333333333,4,2,0,5,0,0
72433,-133.333333333333,4,2,0,30,0,0
75022,-133.333333333333,4,2,0,25,0,0
75379,-133.333333333333,4,2,0,5,0,0
75469,-133.333333333333,4,2,0,30,0,0
76450,-133.333333333333,4,2,0,50,0,0
76986,-100,4,2,0,50,0,0
77700,-90.9090909090909,4,2,0,65,0,1
79039,-90.9090909090909,4,2,0,5,0,1
79307,-90.9090909090909,4,2,0,65,0,1
79397,-90.9090909090909,4,2,0,5,0,1
79486,-90.9090909090909,4,2,0,65,0,1
89129,-100,4,2,0,30,0,0
94486,-100,4,2,0,75,0,0
94843,-80,4,2,0,75,0,1
123414,-80,4,2,0,25,0,0
124397,-80,4,2,0,5,0,0
124858,357.142857142857,4,2,0,25,1,0
128250,-133.333333333333,4,2,0,25,0,0
129143,346.820809248555,4,2,0,25,1,0
130530,384.615384615385,4,2,0,25,1,0
131106,300,4,2,0,25,1,0
131256,372.670807453416,4,2,0,25,1,0
132000,357.142857142857,4,2,0,25,1,0
133607,-133.333333333333,4,2,0,25,0,0

[Colours]
Combo1 : 206,181,181
Combo2 : 244,168,149
Combo3 : 192,249,151
Combo4 : 226,186,225

[HitObjects]
58,316,3415,6,0,P|121:328|171:289,1,130,4|2,1:1|3:2,0:2:0:0:
230,237,3950,1,0,0:0:0:0:
42,30,4843,5,0,0:0:0:0:
113,56,5022,2,0,L|190:37,1,65,2|0,0:2|0:0,0:2:0:0:
223,121,5379,1,2,3:2:0:0:
152,147,5558,2,0,L|75:128,1,65,2|0,0:2|0:2,0:2:0:0:
346,196,6272,6,0,P|336:132|334:67,1,130,4|2,0:3|0:2,0:2:0:0:
409,62,6807,2,0,P|418:126|420:191,1,130,4|2,1:3|0:2,0:2:0:0:
263,369,7700,5,0,3:2:0:0:
262,368,7879,2,0,P|246:341|232:311,1,65,2|0,0:3|0:0,0:2:0:0:
309,290,8236,1,2,3:2:0:0:
309,290,8415,2,0,P|336:306|366:320,1,65,2|0,0:2|0:2,0:2:0:0:
262,216,8772,2,0,P|200:224|160:274,2,130,2|4|0,0:3|1:1|0:0,0:2:0:0:
325,162,9664,5,4,1:1:0:0:
461,119,10022,2,0,P|432:60|409:0,1,130,2|2,0:2|0:2,0:2:0:0:
365,15,10557,1,0,3:2:0:0:
364,15,10736,2,0,P|320:57|261:38,1,130,2|2,3:2|3:2,0:2:0:0:
226,0,11272,1,2,0:2:0:0:
8,283,11986,6,0,P|71:298|135:305,1,130,4|0,0:3|0:2,0:2:0:0:
199,360,12522,2,0,P|262:344|326:337,1,130,4|2,1:1|0:2,0:2:0:0:
256,192,13057,12,4,14843,1:1:0:0:
221,154,16272,5,0,1:2:0:0:
269,212,16450,2,0,P|255:242|245:273,2,65,4|4|4,0:3|0:3|0:3,0:0:0:0:
346,193,16986,2,0,P|378:190|410:185,1,65,4|4,0:3|0:3,0:0:0:0:
393,264,17343,2,0,B|365:284|365:284|341:303,1,65,4|4,0:3|0:3,0:0:0:0:
260,353,17700,6,0,P|196:363|133:381,1,130,0|0,1:2|0:0,0:0:0:0:
61,344,18236,1,0,1:2:0:0:
145,175,18772,1,4,0:3:0:0:
144,174,18950,2,0,P|135:143|129:112,1,65,4|0,0:3|3:2,0:0:0:0:
49,138,19307,2,0,P|33:109|20:79,1,65,0|4,1:2|0:3,0:0:0:0:
68,16,19664,1,4,0:3:0:0:
143,28,19843,1,4,0:3:0:0:
287,111,20200,6,0,P|319:101|350:94,1,65,4|2,0:3|1:3,0:0:0:0:
386,118,20468,1,2,1:3:0:0:
426,153,20557,2,0,B|431:192|409:222|409:222|397:233|397:233|417:277|417:277|447:290|470:329,1,195,6|0,1:2|1:2,0:2:0:0:
387,355,21272,2,0,P|355:346|323:341,1,65,0|0,0:0|3:2,0:0:0:0:
264,283,21629,1,0,0:0:0:0:
263,282,21807,2,0,P|246:256|248:224,1,65,0|4,3:2|1:3,0:0:0:0:
288,153,22164,1,4,1:3:0:0:
230,97,22343,1,0,3:2:0:0:
151,123,22522,1,4,0:3:0:0:
99,202,22700,2,0,P|94:234|88:266,2,65,4|0|4,0:3|3:2|0:3,0:0:0:0:
172,48,23414,6,0,P|236:37|299:21,1,130,0|2,1:1|0:3,0:2:0:0:
363,65,23950,2,0,B|395:75|395:75|426:80,1,65,4|0,1:3|3:2,0:0:0:0:
330,136,24307,1,4,0:3:0:0:
384,193,24486,1,4,0:3:0:0:
383,193,24664,2,0,P|342:242|284:270,1,130,4|4,0:3|1:3,0:0:0:0:
199,263,25200,1,0,3:2:0:0:
150,203,25379,1,0,1:2:0:0:
72,215,25557,1,2,3:3:0:0:
99,291,25736,1,2,0:3:0:0:
35,331,25914,2,0,L|18:359,3,32.5,4|0|12|8,1:2|0:2|0:2|0:2,0:2:0:0:
64,382,26272,6,0,P|125:361|188:344,1,130,6|0,1:1|3:2,0:2:0:0:
250,288,26807,2,0,P|294:331|355:315,1,130,2|10,0:2|0:2,0:2:0:0:
412,253,27343,1,2,0:1:0:0:
412,253,27522,1,2,0:1:0:0:
413,155,27700,6,0,P|361:115|318:66,1,130,10|0,3:2|3:2,0:2:0:0:
395,38,28236,2,0,P|424:51|456:58,2,65,0|0|0,3:2|1:2|3:2,0:0:0:0:
319,67,28772,1,2,3:1:0:0:
266,128,28950,1,2,3:1:0:0:
175,85,29129,6,0,P|188:149|194:214,1,130,6|2,1:2|3:3,0:2:0:0:
117,229,29664,2,0,P|104:165|98:100,1,130,2|2,1:3|3:1,0:2:0:0:
128,13,30200,2,0,P|160:12|192:8,1,65,2|2,1:1|3:1,0:2:0:0:
261,63,30557,2,0,P|261:95|265:127,1,65,4|0,1:3|3:2,0:2:0:0:
344,176,30914,1,4,0:3:0:0:
406,134,31093,2,0,P|406:70|358:29,1,130,4|2,1:3|0:1,0:0:0:0:
261,63,31629,1,2,3:1:0:0:
184,95,31807,1,2,3:1:0:0:
246,147,31986,6,0,P|298:182|359:240,1,130,4|0,1:1|1:2,0:2:0:0:
324,308,32522,2,0,P|274:346|211:341,1,130,4|10,0:3|0:1,0:2:0:0:
139,292,33057,1,2,0:1:0:0:
139,292,33236,1,2,3:1:0:0:
218,243,33414,2,0,P|265:239|347:227,1,130,0|0,1:2|3:2,0:2:0:0:
383,149,33950,2,0,P|430:153|512:164,1,130,4|10,3:3|0:1,0:2:0:0:
466,238,34486,1,2,0:1:0:0:
512,301,34664,1,2,0:1:0:0:
447,362,34843,6,0,P|384:354|356:299,1,130,0|0,1:2|3:2,0:2:0:0:
276,345,35379,2,0,P|227:306|167:325,1,130,4|10,1:3|0:1,0:2:0:0:
81,354,35914,2,0,P|89:323|96:291,1,65,2|2,0:1|3:1,0:2:0:0:
114,207,36272,1,0,1:2:0:0:
67,151,36450,1,0,0:0:0:0:
67,151,36629,1,0,3:2:0:0:
133,95,36807,2,0,P|197:88|261:77,1,130,2|10,1:3|0:2,0:2:0:0:
236,3,37343,2,0,P|204:5|172:3,1,65,14|2,0:1|3:1,0:2:0:0:
91,25,37700,6,0,P|29:33|0:88,1,130,4|0,1:1|0:0,0:2:0:0:
67,151,38236,2,0,P|80:214|84:279,1,130,0|2,3:2|0:1,0:0:0:0:
29,342,38772,1,2,0:1:0:0:
0,264,38950,1,2,3:1:0:0:
85,279,39129,6,0,P|149:273|212:257,1,130,2|2,1:2|0:2,0:2:0:0:
304,200,39664,2,0,P|241:203|212:258,1,130,2|2,1:2|3:1,0:2:0:0:
230,341,40200,1,2,1:1:0:0:
309,350,40379,1,10,0:1:0:0:
381,302,40557,6,0,P|386:205|395:108,1,195,4|4,1:3|1:3,0:2:0:0:
461,275,41450,2,0,P|473:305|484:335,2,65,2|2|2,0:1|0:1|0:1,0:2:0:0:
497,190,41986,1,2,1:2:0:0:
497,190,42075,1,0,0:0:0:0:
497,190,42164,2,0,L|508:126,1,65,0|0,0:0|3:2,0:0:0:0:
470,46,42522,2,0,P|437:43|409:27,1,65,2|2,3:2|0:1,0:2:0:0:
329,57,42879,5,0,0:0:0:0:
254,91,43057,1,2,0:1:0:0:
191,39,43236,1,2,0:1:0:0:
128,101,43414,2,0,P|132:166|143:230,1,130,4|0,1:1|1:2,0:2:0:0:
168,309,43950,2,0,P|197:253|264:251,1,130,0|2,1:2|0:1,0:2:0:0:
334,222,44486,1,2,0:1:0:0:
300,151,44664,1,2,0:1:0:0:
391,135,44843,6,0,P|422:128|455:124,1,65,4|0,1:3|0:0,0:2:0:0:
512,199,45200,1,0,1:2:0:0:
478,269,45379,2,0,P|446:262|413:258,1,65,0|2,1:2|1:3,0:2:0:0:
338,306,45736,1,2,1:3:0:0:
285,361,45915,2,0,P|251:379|218:383,1,65,6|0,1:2|3:2,0:2:0:0:
359,384,46272,6,0,P|426:369|493:356,1,136.499995834351,6|0,1:1|1:2,0:2:0:0:
478,269,46807,2,0,B|458:236|458:236|477:174|477:174|458:146,1,136.499995834351,4|8,0:3|0:2,0:2:0:0:
385,118,47343,6,0,P|352:129|320:139,1,68.2499979171753,2|2,0:2|3:2,0:0:0:0:
434,37,47700,1,8,0:3:0:0:
434,37,47789,1,4,0:3:0:0:
434,37,47879,2,0,P|401:25|369:15,1,68.2499979171753,4|0,1:3|0:0,0:2:0:0:
291,54,48236,2,0,P|226:62|177:17,1,136.499995834351,4|4,0:3|3:2,0:2:0:0:
127,104,48772,1,2,0:2:0:0:
143,183,48950,1,2,0:3:0:0:
65,209,49129,6,0,P|70:273|129:300,1,136.499995834351,2|2,1:2|3:3,0:2:0:0:
171,362,49664,2,0,P|175:297|234:270,1,136.499995834351,2|2,1:1|0:3,0:2:0:0:
289,206,50200,5,2,3:2:0:0:
330,264,50379,1,2,3:2:0:0:
389,197,50557,2,0,B|399:153|399:153|369:105|369:105|376:70,1,136.499995834351,2|0,3:2|0:0,0:0:0:0:
449,12,51093,2,0,P|425:35|393:46,1,68.2499979171753,2|0,1:1|3:2,0:2:0:0:
301,45,51450,1,0,1:2:0:0:
245,106,51629,1,2,3:2:0:0:
189,32,51807,1,2,3:3:0:0:
133,89,51986,6,0,B|59:76|74:122|-1:109,1,136.499995834351,4|2,1:1|3:3,2:2:0:0:
37,194,52522,2,0,B|52:228|52:228|51:258,1,68.2499979171753,2|0,1:1|0:0,0:2:0:0:
109,315,52879,5,0,1:2:0:0:
169,260,53057,1,2,0:2:0:0:
139,190,53236,1,2,3:2:0:0:
212,173,53414,2,0,P|276:193|343:206,1,136.499995834351,2|0,1:1|1:2,0:2:0:0:
288,279,53950,2,0,P|291:334|207:374,1,136.499995834351,2|0,1:1|1:2,0:2:0:0:
135,378,54486,2,0,P|123:345|108:315,1,68.2499979171753,2|0,0:2|3:2,0:0:0:0:
49,225,54843,6,0,P|28:272|31:323,2,102.374996875763,2|0|2,1:2|0:2|1:1,0:2:0:0:
119,176,55557,1,0,0:0:0:0:
86,102,55736,1,0,1:2:0:0:
164,66,55914,1,2,0:2:0:0:
164,66,56093,1,2,0:2:0:0:
244,100,56272,2,0,P|277:93|310:87,1,68.2499979171753,10|0,3:2|3:2,0:0:0:0:
398,125,56629,5,0,1:2:0:0:
356,189,56807,2,0,P|353:254|298:290,1,136.499995834351,2|0,1:1|1:2,0:2:0:0:
359,355,57343,1,6,0:2:0:0:
432,384,57522,1,0,0:0:0:0:
478,323,57700,6,0,P|460:257|477:192,1,136.499995834351,4|0,1:1|1:2,0:2:0:0:
398,124,58236,2,0,P|374:64|310:62,1,136.499995834351,0|2,1:2|0:3,0:0:0:0:
244,100,58772,2,0,P|250:133|254:167,1,68.2499979171754,2|2,0:2|0:2,0:0:0:0:
164,227,59129,2,0,P|148:160|146:92,1,136.499995834351,2|2,1:1|1:2,0:2:0:0:
57,113,59664,2,0,P|72:179|74:247,1,136.499995834351,0|0,1:2|1:2,0:0:0:0:
133,314,60200,5,2,0:2:0:0:
218,289,60379,1,2,3:3:0:0:
293,313,60557,2,0,B|374:299|351:349|431:346,1,136.499995834351,4|0,1:1|1:2,0:2:0:0:
477,298,61093,2,0,P|469:262|467:230,1,68.2499979171754,2|0,3:1|0:0,0:0:0:0:
398,183,61450,1,4,1:3:0:0:
471,137,61629,1,2,0:2:0:0:
438,69,61807,2,0,B|404:63|404:63|370:66,1,68.2499979171754,2|2,0:2|1:1,0:0:0:0:
292,127,62164,5,0,1:2:0:0:
292,127,62254,1,0,0:0:0:0:
292,127,62343,2,0,P|256:133|224:137,1,68.2499979171754,2|0,1:3|1:2,0:0:0:0:
152,84,62700,1,0,3:2:0:0:
106,151,62879,1,0,1:2:0:0:
173,215,63057,1,2,0:3:0:0:
251,219,63236,1,0,1:2:0:0:
198,296,63414,6,0,B|125:278|131:343|41:322,1,136.499995834351,2|0,1:1|1:2,0:2:0:0:
20,263,63950,2,0,B|29:224|29:224|27:195,1,68.2499979171754,0|0,1:2|0:0,0:0:0:0:
44,101,64307,1,4,1:3:0:0:
16,26,64486,1,8,0:2:0:0:
90,5,64664,1,0,1:2:0:0:
157,35,64843,6,0,P|190:46|223:53,1,68.2499979171754,0|4,3:2|1:2,0:0:0:0:
257,126,65200,2,0,P|289:115|322:108,1,68.2499979171754,0|0,1:2|1:2,0:0:0:0:
221,194,65557,5,0,1:2:0:0:
290,243,65736,1,4,1:2:0:0:
229,287,65914,1,2,1:1:0:0:
269,355,66093,1,2,1:1:0:0:
194,382,66272,5,4,1:1:0:0:
194,381,67700,2,0,P|172:338|147:296,1,97.50000371933,2|0,1:2|1:2,0:0:0:0:
81,252,68236,2,0,P|121:275|163:254,1,97.50000371933,12|0,0:2|1:2,0:2:0:0:
197,172,68772,1,0,1:2:0:0:
153,112,68950,1,0,1:2:0:0:
236,67,69129,2,0,P|271:77|306:84,1,73.1250027894975,6|2,1:3|0:3,0:0:0:0:
444,208,70736,6,0,P|421:215|397:220,1,48.750001859665,4|4,0:3|1:3,0:0:0:0:
501,260,71093,1,4,1:3:0:0:
447,325,71272,1,4,1:3:0:0:
371,316,71450,2,0,B|365:344|365:344|369:363,1,48.750001859665,4|4,1:3|1:3,0:0:0:0:
318,261,71807,1,4,1:3:0:0:
225,245,71986,6,0,P|192:247|147:262,1,73.1250027894975,2|2,1:2|0:0,0:2:0:0:
154,259,73236,1,0,3:2:0:0:
225,245,73414,1,2,0:2:0:0:
174,186,73593,1,0,1:2:0:0:
88,216,73772,1,0,3:2:0:0:
94,307,73950,6,0,P|100:330|105:354,1,48.750001859665,12|0,0:2|0:0,0:2:0:0:
23,336,74307,1,0,1:2:0:0:
10,264,74486,1,8,1:3:0:0:
15,188,74664,1,4,1:3:0:0:
78,127,74843,6,0,P|93:93|105:59,1,73.1250027894975,2|2,1:2|0:0,0:2:0:0:
105,59,76450,5,8,0:2:0:0:
181,100,76629,1,8,0:2:0:0:
259,49,76807,1,8,0:2:0:0:
205,0,76986,2,0,B|198:40|198:40|226:77|226:77|216:118,1,130,12|8,1:2|1:2,0:0:0:0:
149,197,77522,5,4,1:3:0:0:
73,200,77700,2,0,P|37:193|6:177,1,71.5000021820069,6|0,1:1|0:0,0:2:0:0:
30,290,78057,1,2,1:3:0:0:
105,276,78236,1,0,1:2:0:0:
162,348,78414,6,0,P|232:356|301:339,1,143.000004364014,12|2,0:2|0:3,0:2:0:0:
354,284,78950,2,0,P|350:248|342:213,1,71.5000021820069,0|0,1:2|0:0,0:2:0:0:
259,194,79307,2,0,P|262:229|270:264,1,71.5000021820069,0|0,1:2|3:2,0:2:0:0:
343,214,79664,1,0,1:2:0:0:
322,142,79843,1,14,0:2:0:0:
258,98,80022,1,8,0:2:0:0:
180,89,80200,2,0,P|150:109|118:125,1,71.5000021820069,0|8,1:2|0:2,0:0:0:0:
222,23,80557,6,0,P|286:-4|353:15,1,143.000004364014,6|0,1:1|1:2,0:2:0:0:
415,54,81093,2,0,B|414:95|414:95|407:125,1,71.5000021820069,0|12,1:2|0:2,0:2:0:0:
382,309,81807,5,0,1:2:0:0:
442,360,81986,1,0,3:2:0:0:
494,291,82164,1,0,1:2:0:0:
494,291,82254,1,2,0:3:0:0:
494,291,82343,2,0,P|487:255|484:220,1,71.5000021820069,4|0,0:2|1:2,0:0:0:0:
412,188,82700,1,8,0:2:0:0:
341,220,82879,1,0,1:2:0:0:
271,234,83057,2,0,P|258:267|260:302,1,71.5000021820069,8|4,0:3|0:3,0:2:0:0:
255,383,83414,6,0,B|239:360|239:360|210:290|210:290|166:244,1,143.000004364014,6|0,1:1|1:2,0:2:0:0:
95,214,83950,1,0,1:2:0:0:
52,287,84129,2,0,P|19:299|0:329,1,71.5000021820069,12|0,0:2|0:0,0:2:0:0:
123,335,84486,1,0,0:0:0:0:
183,262,84664,6,0,P|201:190|216:121,1,143.000004364014,0|0,1:2|1:2,0:2:0:0:
190,53,85200,1,2,0:3:0:0:
275,71,85379,2,0,B|270:33|270:33|272:0,1,71.5000021820069,12|10,0:2|0:2,0:0:0:0:
343,110,85736,1,0,1:2:0:0:
417,47,85914,1,8,0:2:0:0:
481,92,86093,1,0,1:2:0:0:
434,155,86272,6,0,P|395:212|415:279,1,143.000004364014,6|0,1:1|1:2,0:2:0:0:
442,361,86807,1,0,1:2:0:0:
358,331,86986,2,0,B|321:312|321:312|264:353|264:353|222:331,1,143.000004364014,12|0,0:2|0:0,0:2:0:0:
151,346,87522,1,0,1:2:0:0:
151,346,87700,2,0,P|163:304|165:276,1,71.5000021820069,2|0,0:1|1:2,0:2:0:0:
156,247,87968,5,2,0:3:0:0:
141,226,88057,1,4,1:2:0:0:
67,274,88236,1,0,1:2:0:0:
0,212,88414,1,8,0:2:0:0:
53,141,88593,1,0,1:2:0:0:
53,141,88772,1,8,1:3:0:0:
0,76,88950,6,0,P|31:60|67:59,1,71.5000021820069,4|4,3:2|1:3,0:0:0:0:
256,192,89218,12,2,94486,0:1:0:0:
65,47,94843,6,0,B|137:60|113:99|191:119,1,121.875,4|0,1:1|0:0,0:2:0:0:
166,110,95200,2,0,P|205:115|236:91,1,81.25,0|0,3:2|1:2,0:0:0:0:
298,0,95557,2,0,B|302:36|302:36|338:70|338:70|344:106,1,121.875,0|0,1:2|0:0,0:0:0:0:
344,105,95914,2,0,P|345:144|320:175,1,81.25,0|0,1:2|1:2,0:0:0:0:
248,211,96272,2,0,P|287:214|328:221,1,81.25,8|0,1:2|0:0,0:2:0:0:
405,261,96629,1,0,1:2:0:0:
479,275,96807,2,0,P|476:334|415:353,1,121.875,0|0,1:2|0:0,0:0:0:0:
423,355,97164,2,0,P|388:373|351:359,1,81.25,4|2,0:3|1:1,0:0:0:0:
269,286,97522,5,4,0:3:0:0:
269,286,97611,1,4,0:3:0:0:
269,286,97700,2,0,B|254:255|254:255|258:231|258:231|246:208,1,81.25,14|0,1:1|0:0,0:2:0:0:
164,213,98057,1,4,0:3:0:0:
122,275,98236,2,0,P|113:314|107:354,1,81.25,0|8,1:2|0:3,0:0:0:0:
35,301,98593,1,4,0:3:0:0:
3,228,98772,1,4,0:3:0:0:
69,174,98950,1,0,1:2:0:0:
71,85,99129,6,0,P|131:90|191:103,1,121.875,8|0,1:2|0:0,0:0:0:0:
191,103,99486,2,0,P|223:125|231:164,1,81.25,8|4,0:3|0:3,0:0:0:0:
164,213,99843,1,4,0:3:0:0:
231,164,100022,1,4,0:3:0:0:
280,237,100200,6,0,B|251:301|275:298|252:354,1,121.875,2|0,1:1|3:2,0:0:0:0:
252,354,100557,2,0,B|277:377|277:377|319:370|319:370|327:340|342:304,1,121.875,10|0,1:1|0:0,0:2:0:0:
332,325,100914,2,0,P|356:294|395:283,1,81.25,8|4,0:3|0:3,0:0:0:0:
474,295,101272,1,0,1:2:0:0:
493,371,101450,1,0,1:2:0:0:
417,361,101629,1,4,1:3:0:0:
403,291,101807,1,4,0:3:0:0:
403,291,101897,1,0,3:2:0:0:
403,291,101986,2,0,P|383:213|374:132,1,162.5,8|8,1:2|0:3,0:2:0:0:
439,77,102522,2,0,B|390:85|390:85|362:105|362:105|324:110,1,121.875,0|0,1:2|0:0,0:0:0:0:
324,110,102879,2,0,P|293:150|250:161,1,81.25,0|2,1:2|1:1,0:0:0:0:
223,239,103236,5,8,0:3:0:0:
223,239,103326,1,4,0:3:0:0:
223,239,103415,2,0,P|242:160|251:79,1,162.5,10|0,1:1|0:0,0:2:0:0:
184,33,103950,2,0,P|155:60|155:99,1,81.25,0|4,1:2|0:3,0:0:0:0:
252,79,104307,1,8,0:3:0:0:
310,32,104486,1,0,1:2:0:0:
386,18,104664,1,0,1:2:0:0:
469,33,104843,2,0,P|474:73|486:112,1,81.25,4|4,1:3|0:3,0:0:0:0:
495,213,105200,1,8,0:3:0:0:
438,266,105379,2,0,P|373:307|313:261,1,162.5,8|8,1:1|1:2,0:0:0:0:
223,239,105914,6,0,B|287:243|287:243|276:179,1,121.875,10|0,1:1|1:2,0:0:0:0:
277,186,106272,2,0,P|259:150|266:93,1,81.25,6|0,1:1|0:0,0:2:0:0:
174,162,106629,1,0,3:2:0:0:
113,216,106807,2,0,P|75:228|34:229,1,81.25,0|0,1:2|0:0,0:2:0:0:
145,298,107164,1,0,0:0:0:0:
221,319,107343,2,0,P|172:324|121:384,1,121.875,12|0,0:1|0:0,0:0:0:0:
123,374,107700,2,0,P|84:375|67:340,1,81.25,0|0,1:2|3:0,0:0:0:0:
65,303,107968,1,0,3:0:0:0:
65,303,108057,1,4,1:2:0:0:
114,216,108236,2,0,B|206:197|203:251|276:242,1,162.5,8|4,1:3|0:3,0:2:0:0:
261,158,108772,2,0,B|297:137|297:137|336:132,1,81.25,2|4,1:1|0:3,0:2:0:0:
336,131,109039,1,0,0:0:0:0:
336,131,109129,1,6,1:1:0:0:
377,217,109307,6,0,P|354:249|354:289,1,81.25,0|2,0:0|3:3,0:0:0:0:
465,239,109664,2,0,P|500:167|490:88,1,162.5,0|0,1:2|0:0,0:2:0:0:
409,26,110200,2,0,B|367:29|337:56|337:56|293:55|268:7,1,162.5,12|0,0:1|1:2,0:0:0:0:
249,109,110736,2,0,P|253:128|253:149,2,40.625,0|0|4,3:2|3:2|0:2,0:0:0:0:
168,138,111093,2,0,B|140:155|97:144|97:144|132:184|131:238,1,162.5,4|0,1:1|1:2,0:2:0:0:
171,290,111629,2,0,P|154:337|119:346,1,81.25,2|0,3:1|3:0,0:0:0:0:
76,342,111897,1,0,3:0:0:0:
57,330,111986,1,4,1:2:0:0:
243,249,112343,5,0,3:0:0:0:
319,268,112522,2,0,P|355:285|385:312,2,81.25,0|12|0,1:2|0:2|1:0,0:0:0:0:
340,195,113057,1,0,1:2:0:0:
292,143,113236,2,0,P|283:113|277:63,1,81.25,8|0,0:2|1:2,0:0:0:0:
363,90,113593,2,0,P|371:60|377:10,1,81.25,8|0,0:2|1:2,0:0:0:0:
277,64,113950,1,0,1:2:0:0:
207,32,114129,1,8,0:2:0:0:
151,86,114307,1,0,1:2:0:0:
72,66,114486,2,0,P|32:70|0:92,1,81.25,8|8,0:3|0:2,0:0:0:0:
0,140,114754,1,8,0:2:0:0:
58,145,114843,6,0,P|138:166|224:194,1,162.5,4|0,1:2|3:2,0:0:0:0:
291,162,115379,1,0,1:2:0:0:
214,190,115557,2,0,P|191:222|153:232,1,81.25,8|0,0:2|1:2,0:0:0:0:
76,294,115914,1,6,0:3:0:0:
153,322,116092,2,0,P|175:354|213:364,1,81.25,8|2,0:2|3:3,0:0:0:0:
285,311,116450,6,0,P|281:292|281:271,2,40.625,0|0|8,3:2|3:0|0:2,0:0:0:0:
366,282,116807,2,0,P|392:260|424:225,1,81.25,4|8,3:3|0:2,0:0:0:0:
382,162,117164,1,4,0:3:0:0:
449,100,117343,1,4,0:3:0:0:
404,38,117522,5,4,0:3:0:0:
404,38,117611,1,4,0:3:0:0:
404,38,117700,2,0,P|328:49|306:123,1,162.5,6|2,1:1|3:3,0:2:0:0:
226,70,118236,2,0,P|194:39|147:38,2,81.25,0|12|0,1:2|0:2|0:0,0:0:0:0:
169,119,118772,1,0,3:2:0:0:
92,108,118950,2,0,P|47:119|6:122,1,81.25,8|0,0:2|1:2,0:2:0:0:
121,182,119307,1,8,0:2:0:0:
268,291,119664,5,0,1:2:0:0:
314,224,119843,1,8,0:2:0:0:
243,196,120022,1,0,1:2:0:0:
195,258,120200,1,2,1:3:0:0:
118,262,120379,1,4,0:3:0:0:
47,297,120557,2,0,P|26:338|29:376,1,81.25,4|0,1:2|0:0,0:2:0:0:
112,352,120914,1,0,1:2:0:0:
112,352,121093,1,4,1:3:0:0:
207,373,121272,6,0,B|241:363|262:347|262:347|302:355|367:344,1,162.5,12|0,1:1|1:2,0:2:0:0:
401,283,121807,2,0,P|394:242|404:191,1,81.25,8|2,0:2|0:3,0:2:0:0:
426,124,122164,5,0,3:2:0:0:
426,124,122254,1,0,0:0:0:0:
426,124,122343,1,8,0:2:0:0:
491,80,122522,1,0,1:2:0:0:
431,18,122700,1,8,0:2:0:0:
344,66,122879,1,2,1:1:0:0:
300,10,123057,2,0,L|256:-2,4,40.625,0|0|0|0|4,3:2|3:2|3:2|3:2|1:1,0:2:0:0:
256,384,128250,5,4,0:3:0:0:
294,313,128429,2,0,P|283:292|273:269,1,48.750001859665,8|8,1:3|0:3,0:0:0:0:
200,288,128786,1,4,0:3:0:0:
223,209,128965,2,0,P|233:187|243:164,1,48.750001859665,2|4,3:2|1:1,0:0:0:0:
1,193,133608,5,8,1:3:0:0:
72,166,133785,2,0,P|95:172|119:174,1,48.750001859665,2|8,3:2|0:3,0:0:0:0:
77,242,134143,1,2,3:2:0:0:
161,241,134322,1,4,1:3:0:0:
125,304,134500,2,0,P|148:297|172:295,1,48.750001859665,8|12,0:3|1:3,0:0:0:0:
223,372,134857,6,0,P|259:341|249:293,1,97.50000371933,4|0,1:1|0:0,0:2:0:0:
252,296,135392,2,0,B|242:281|242:281|273:252,1,48.750001859665
328,208,135750,1,8,0:2:0:0:
384,261,135928,1,2,3:2:0:0:
330,318,136107,1,2,3:2:0:0:
160,297,136464,1,0,3:0:0:0:
116,234,136642,1,0,3:0:0:0:
181,189,136821,1,4,0:3:0:0:
328,208,137178,1,8,0:2:0:0:
371,144,137357,1,0,3:0:0:0:
307,99,137535,1,2,3:2:0:0:
359,41,137714,2,0,P|324:51|288:58,1,73.1250027894975,4|0,1:1|0:0,0:2:0:0:
54,178,138607,5,8,0:2:0:0:
89,114,138786,1,0,3:0:0:0:
170,142,138964,2,0,P|174:166|180:189,2,48.750001859665,2|0|4,3:2|0:0|3:3,0:0:0:0:
199,72,139500,1,0,3:0:0:0:
273,120,139678,2,0,B|279:150|279:150|259:193|259:193|264:217,1,97.50000371933,4|8,3:3|3:2,0:0:0:0:
341,250,140214,2,0,L|292:243,1,48.750001859665,0|2,3:0|3:2,0:0:0:0:
223,298,140571,2,0,P|179:311|152:274,1,97.50000371933,4|0,1:3|3:2,0:0:0:0:
96,219,141107,1,2,3:2:0:0:
223,299,141465,5,0,1:2:0:0:
296,308,141643,1,0,3:2:0:0:
341,250,141822,1,2,3:2:0:0:
458,188,142179,1,0,3:2:0:0:
467,115,142357,1,0,3:2:0:0:
409,70,142536,1,10,3:3:0:0:
280,9,142893,1,8,3:2:0:0:
207,0,143071,1,0,3:2:0:0:
162,58,143250,1,6,3:3:0:0:
215,109,143428,2,0,P|237:104|262:99,1,48.750001859665,0|0,1:2|3:2,0:0:0:0:
317,349,146285,6,0,P|244:336|172:328,1,146.250005578995,4|4,1:1|0:3,0:0:0:0:
