osu file format v14

[General]
AudioFilename: audio.mp3
AudioLeadIn: 0
PreviewTime: 66227
Countdown: 0
SampleSet: Soft
StackLeniency: 0.7
Mode: 0
LetterboxInBreaks: 0
WidescreenStoryboard: 1

[Editor]
Bookmarks: 3415,26272,46272,66272,89129,94843,123414,146272,169129
DistanceSpacing: 2.7
BeatDivisor: 4
GridSize: 32
TimelineZoom: 1

[Metadata]
Title:Insatiable
TitleUnicode:貪欲
Artist:Masayoshi Soken
ArtistUnicode:祖堅正慶
Creator:Heroine
Version:Expert
Source:ファイナルファンタジーXIV: 漆黒のヴィランズ
Tags:Don'yoku Greedy Mad [Mad] Some Hero Some_Hero final fantasy xiv ff14 shadowbringers shadow bringers shikkoku no villains ffxiv english japanese rock jrock j-rock video game ost
BeatmapID:3941527
BeatmapSetID:1910845

[Difficulty]
HPDrainRate:7
CircleSize:4
OverallDifficulty:8
ApproachRate:9.2
SliderMultiplier:2
SliderTickRate:1

[Events]
//Background and Video events
0,0,"shadowbringers.jpg",0,0
//Break Periods
//Storyboard Layer 0 (Background)
//Storyboard Layer 1 (Fail)
//Storyboard Layer 2 (Pass)
//Storyboard Layer 3 (Foreground)
//Storyboard Layer 4 (Overlay)
//Storyboard Sound Samples

[TimingPoints]
3415,357.142857142857,4,2,0,30,1,0
4307,-133.333333333333,4,2,0,30,0,0
4665,-100,4,2,0,30,0,0
8772,-133.333333333333,4,2,0,30,0,0
9129,-100,4,2,0,30,0,0
11272,-100,4,2,0,20,0,0
11629,-133.333333333333,4,2,0,30,0,0
11986,-100,4,2,0,30,0,0
14843,-100,4,2,0,50,0,0
16272,-100,4,2,0,15,0,0
18236,-100,4,2,0,30,0,0
18414,-100,4,2,0,15,0,0
19129,-100,4,2,0,30,0,0
19486,-100,4,2,0,15,0,0
20557,-100,4,2,0,30,0,0
25914,-80,4,2,0,25,0,0
26093,-66.6666666666667,4,2,0,25,0,0
26272,-100,4,2,0,35,0,0
27343,-66.6666666666667,4,2,0,35,0,0
27522,-50,4,2,0,35,0,0
27700,-100,4,2,0,35,0,0
28772,-66.6666666666667,4,2,0,35,0,0
28950,-50,4,2,0,35,0,0
29129,-100,4,2,0,35,0,0
30200,-66.6666666666667,4,2,0,35,0,0
30379,-50,4,2,0,35,0,0
30557,-100,4,2,0,35,0,0
31629,-66.6666666666667,4,2,0,35,0,0
31807,-50,4,2,0,35,0,0
31986,-100,4,2,0,35,0,0
33057,-66.6666666666667,4,2,0,35,0,0
33236,-50,4,2,0,35,0,0
33414,-100,4,2,0,35,0,0
34486,-66.6666666666667,4,2,0,35,0,0
34664,-50,4,2,0,35,0,0
34843,-100,4,2,0,35,0,0
35914,-66.6666666666667,4,2,0,35,0,0
36093,-50,4,2,0,35,0,0
36271,-100,4,2,0,35,0,0
37343,-66.6666666666667,4,2,0,35,0,0
37522,-50,4,2,0,35,0,0
37700,-100,4,2,0,35,0,0
38593,-66.6666666666667,4,2,0,35,0,0
39129,-100,4,2,0,35,0,0
40200,-66.6666666666667,4,2,0,35,0,0
40379,-50,4,2,0,35,0,0
40557,-100,4,2,0,35,0,0
41629,-66.6666666666667,4,2,0,35,0,0
41807,-50,4,2,0,35,0,0
41986,-100,4,2,0,35,0,0
43057,-66.6666666666667,4,2,0,35,0,0
43236,-50,4,2,0,35,0,0
43414,-80,4,2,0,35,0,0
44486,-66.6666666666667,4,2,0,35,0,0
44664,-50,4,2,0,35,0,0
44843,-80,4,2,0,35,0,0
45379,-66.6666666666667,4,2,0,35,0,0
45557,-100,4,2,0,35,0,0
45914,-66.6666666666667,4,2,0,35,0,0
46093,-50,4,2,0,35,0,0
46272,-80,4,2,0,50,0,1
48950,-66.6666666666667,4,2,0,50,0,1
49129,-80,4,2,0,50,0,1
51807,-66.6666666666667,4,2,0,50,0,1
51986,-80,4,2,0,50,0,1
60379,-66.6666666666667,4,2,0,50,0,1
60557,-80,4,2,0,50,0,1
61629,-100,4,2,0,50,0,1
61807,-80,4,2,0,50,0,1
63236,-66.6666666666667,4,2,0,50,0,1
63414,-80,4,2,0,50,0,1
64664,-100,4,2,0,50,0,1
64843,-80,4,2,0,50,0,1
66272,-100,4,2,0,50,0,0
66450,-125,4,2,0,50,0,0
66986,-125,4,2,0,30,0,0
69664,-125,4,2,0,5,0,0
69754,-125,4,2,0,30,0,0
72343,-125,4,2,0,5,0,0
72433,-125,4,2,0,30,0,0
75022,-125,4,2,0,25,0,0
75379,-125,4,2,0,5,0,0
75469,-125,4,2,0,30,0,0
76450,-125,4,2,0,50,0,0
77700,-100,4,2,0,65,0,1
79039,-100,4,2,0,5,0,1
79307,-100,4,2,0,65,0,1
79397,-100,4,2,0,5,0,1
79486,-100,4,2,0,65,0,1
84129,-129.87012987013,4,2,0,65,0,1
84664,-100,4,2,0,65,0,1
89129,-100,4,2,0,30,0,0
94486,-400,4,2,0,75,0,0
94843,-100,4,2,0,75,0,1
106272,-66.6666666666667,4,2,0,75,0,1
106807,-133.333333333333,4,2,0,75,0,1
107343,-66.6666666666667,4,2,0,75,0,1
108236,-133.333333333333,4,2,0,75,0,1
108593,-80,4,2,0,75,0,1
109129,-66.6666666666667,4,2,0,75,0,1
109664,-133.333333333333,4,2,0,75,0,1
110200,-66.6666666666667,4,2,0,75,0,1
111093,-133.333333333333,4,2,0,75,0,1
111986,-133.333333333333,4,2,0,75,0,1
114486,-80,4,2,0,75,0,1
115379,-133.333333333333,4,2,0,75,0,1
115736,-80,4,2,0,75,0,1
118950,-100,4,2,0,75,0,1
122343,-80,4,2,0,75,0,1
123057,-100,4,2,0,75,0,1
123414,-100,4,2,0,25,0,0
123861,-100,4,2,0,25,0,0
123950,-400,4,2,0,25,0,0
124397,-400,4,2,0,5,0,0
124858,357.142857142857,4,2,0,25,1,0
124858,-400,4,2,0,25,0,0
129143,346.820809248555,4,2,0,25,1,0
129143,-400,4,2,0,25,0,0
130530,384.615384615385,4,2,0,25,1,0
130530,-400,4,2,0,25,0,0
131106,300,4,2,0,25,1,0
131256,372.670807453416,4,2,0,25,1,0
132000,357.142857142857,4,2,0,25,1,0
132000,-400,4,2,0,25,0,0

[Colours]
Combo1 : 206,181,181
Combo2 : 244,168,149
Combo3 : 192,249,151
Combo4 : 226,186,225

[HitObjects]
103,100,3415,6,0,P|98:75|101:50,1,50,4|0,1:1|0:2,0:2:0:0:
249,172,3772,2,0,P|263:152|270:128,1,50,2|0,3:2|0:2,0:2:0:0:
59,213,4129,1,2,0:2:0:0:
55,319,4307,2,0,P|78:269|62:216,1,112.500004291535,2|0,0:2|0:2,0:2:0:0:
61,215,4665,2,0,P|84:225|109:228,1,50,2|0,0:2|3:2,0:2:0:0:
194,368,5022,2,0,P|215:354|231:336,1,50,2|0,0:2|0:2,0:2:0:0:
102,144,5379,1,2,3:2:0:0:
322,344,5557,2,0,P|307:291|264:257,1,100,2|0,0:2|0:2,0:2:0:0:
193,236,5825,1,0,3:2:0:0:
274,262,5915,2,0,P|298:256|320:244,2,50,2|0|0,0:3|3:2|3:2,0:2:0:0:
435,274,6272,6,0,P|407:177|382:81,1,200,4|2,0:3|0:2,0:2:0:0:
486,33,6807,2,0,P|483:57|469:78,2,50,4|0|0,1:3|3:2|0:2,0:2:0:0:
382,81,7165,1,2,0:2:0:0:
309,126,7343,2,0,P|295:78|310:32,1,100,2|0,0:3|0:2,0:2:0:0:
16,204,7700,1,0,3:2:0:0:
25,207,7789,1,0,3:2:0:0:
62,170,7879,6,0,P|135:156|209:144,1,150,2|0,0:3|0:2,0:2:0:0:
103,10,8236,2,0,P|84:27|74:49,1,50,2|0,3:2|0:2,0:2:0:0:
209,144,8415,2,0,P|166:120|118:132,1,100,2|0,0:2|0:2,0:2:0:0:
141,260,8682,1,0,3:2:0:0:
166,328,8772,6,0,P|188:278|238:254,1,112.500004291535,2|0,0:3|0:2,0:2:0:0:
315,285,9129,6,0,B|273:275|273:275|249:282|249:282|172:253|69:257,1,250,4|0,1:1|0:2,0:2:0:0:
3,151,9664,2,0,P|50:140|88:169,1,100,4|2,1:1|0:2,0:2:0:0:
72,305,10022,2,0,P|77:281|71:257,1,50,2|0,0:2|0:2,0:2:0:0:
315,285,10379,6,0,P|332:268|341:245,1,50,2|0,0:2|0:2,0:2:0:0:
499,262,10557,1,0,3:2:0:0:
433,356,10736,2,0,P|457:356|480:346,1,50,2|2,3:2|0:3,0:2:0:0:
503,266,11004,1,0,3:2:0:0:
503,266,11093,1,2,3:2:0:0:
512,122,11272,2,0,P|440:143|366:154,1,150,2|0,0:2|3:2,0:2:0:0:
274,210,11629,2,0,P|257:158|292:116,1,112.500004291535,0|0,1:2|0:2,0:2:0:0:
326,42,11986,6,0,P|238:74|176:4,1,200,4|0,0:3|0:2,0:2:0:0:
292,117,12522,6,0,P|308:190|322:263,1,150,4|0,1:1|0:2,0:2:0:0:
322,263,12879,1,2,0:2:0:0:
231,323,13057,2,0,P|223:300|228:276,2,50,2|0|2,0:3|3:2|0:2,0:2:0:0:
298,379,13414,1,0,3:2:0:0:
416,249,13593,6,0,B|408:221|408:221|392:206,1,50,2|0,1:3|0:2,0:2:0:0:
119,165,13772,1,0,3:2:0:0:
119,165,13950,1,2,3:2:0:0:
107,368,14129,2,0,B|123:303|194:211|194:211|155:260|117:252,1,250,6|0,0:2|0:2,0:2:0:0:
122,169,14664,2,0,P|120:146|130:120,1,50,2|0,0:3|3:2,0:2:0:0:
259,82,14843,6,0,B|263:116|270:145|270:145|269:159|269:159|282:230|298:379,1,300,4|4,1:1|1:1,0:2:0:0:
321,0,16272,5,0,1:2:0:0:
412,27,16450,1,4,0:3:0:0:
475,79,16629,1,4,0:3:0:0:
512,151,16807,1,4,0:3:0:0:
512,224,16986,1,4,0:3:0:0:
506,255,17164,1,4,0:3:0:0:
497,275,17343,1,4,0:3:0:0:
488,288,17522,1,4,0:3:0:0:
343,361,17700,5,0,1:2:0:0:
290,197,17879,1,0,1:2:0:0:
290,197,18236,1,0,1:2:0:0:
136,270,18414,1,4,0:3:0:0:
264,210,18593,1,4,0:3:0:0:
157,258,18772,1,4,0:3:0:0:
244,224,18950,1,4,0:3:0:0:
179,249,19129,5,0,3:2:0:0:
234,229,19218,5,0,3:2:0:0:
283,208,19307,5,0,1:2:0:0:
92,292,19486,1,4,0:3:0:0:
328,187,19664,1,4,0:3:0:0:
270,384,19843,5,4,0:3:0:0:
244,371,20022,1,4,0:3:0:0:
209,333,20200,1,4,0:3:0:0:
186,259,20379,5,2,1:3:0:0:
198,198,20468,5,2,1:3:0:0:
246,145,20557,6,0,B|260:139|280:132|280:132|298:134|298:134|371:110|466:104,1,200,6|0,1:2|0:2,0:2:0:0:
419,341,21093,2,0,B|387:307|387:307|391:248|391:248|362:214,1,150,0|0,1:2|0:2,0:2:0:0:
246,145,21450,6,0,B|208:76|208:76|84:118,1,200,0|0,3:2|3:2,0:2:0:0:
10,143,21986,1,4,1:3:0:0:
364,111,22164,6,0,L|315:100,1,50,4|0,1:3|3:2,0:2:0:0:
212,80,22343,1,0,3:2:0:0:
364,111,22522,1,4,0:3:0:0:
212,80,22700,1,4,0:3:0:0:
430,184,22879,2,0,L|478:173,1,50,0|0,3:2|0:2,0:2:0:0:
413,262,23057,2,0,B|428:198|385:188|354:179|310:219,1,150,4|0,0:3|3:2,0:2:0:0:
224,163,23414,6,0,B|227:185|235:203|235:203|235:220|235:220|243:243|257:336,1,150,0|0,1:1|0:2,0:2:0:0:
321,210,23772,2,0,B|331:172|331:172|323:139|323:139|330:110,2,100,2|4|0,0:3|1:3|3:2,0:2:0:0:
430,184,24307,5,4,0:3:0:0:
286,44,24486,1,4,0:3:0:0:
430,184,24664,1,4,0:3:0:0:
286,44,24843,2,0,L|247:11,1,50,0|0,1:2|1:2,0:2:0:0:
321,210,25022,1,4,1:3:0:0:
395,62,25200,2,0,L|379:14,1,50,0|0,3:2|3:2,0:2:0:0:
224,163,25379,1,0,1:2:0:0:
485,111,25557,2,0,L|512:69,1,50,2|0,3:3|3:2,0:2:0:0:
183,189,25736,6,0,L|229:170,1,50,2|0,0:3|0:2,0:2:0:0:
65,307,25914,6,0,P|92:323|112:348,1,62.5,4|0,1:2|0:2,0:2:0:0:
318,137,26093,6,0,P|326:173|321:210,1,75.0000028610231,12|8,0:2|0:2,0:2:0:0:
120,30,26272,6,0,B|116:47|116:75|116:75|110:88|110:88|106:154|92:228,1,200,6|0,1:1|3:2,0:2:0:0:
202,342,26807,2,0,P|195:317|182:296,1,50,2|0,0:2|0:2,0:2:0:0:
372,74,27164,2,0,P|350:61|326:55,1,50,10|0,0:2|0:2,0:2:0:0:
322,210,27343,2,0,P|324:248|344:279,1,75.0000028610231,2|0,0:1|0:2,0:2:0:0:
449,127,27522,2,0,P|418:88|371:73,1,100,2|0,0:1|0:2,0:2:0:0:
183,108,27700,6,0,P|94:154|0:186,1,200,10|0,3:2|3:2,0:2:0:0:
290,350,28236,1,0,3:2:0:0:
223,271,28414,1,0,1:2:0:0:
329,217,28593,1,0,3:2:0:0:
329,217,28682,1,8,0:2:0:0:
329,217,28772,2,0,P|298:195|279:163,1,75.0000028610231,2|0,3:1|0:2,0:2:0:0:
140,315,28950,2,0,P|131:266|147:219,1,100,2|0,3:1|3:2,0:2:0:0:
332,221,29129,6,0,B|375:232|375:232|411:278|411:278|456:290,1,150,6|0,1:2|0:2,0:2:0:0:
456,290,29486,2,0,L|465:240,1,50,2|0,3:3|0:2,0:2:0:0:
227,274,29664,2,0,P|219:199|205:125,1,150,2|0,1:3|0:2,0:2:0:0:
149,73,30022,2,0,P|124:73|102:85,1,50,2|0,3:1|0:2,0:2:0:0:
65,323,30200,2,0,P|75:358|102:384,1,75.0000028610231,2|0,1:1|0:2,0:2:0:0:
206,126,30379,2,0,P|176:165|173:215,1,100,2|0,3:1|0:2,0:2:0:0:
395,35,30557,6,0,B|355:43|355:43|335:67|335:67|307:73,2,100,4|0|4,1:3|3:2|0:3,0:2:0:0:
438,135,31093,1,4,1:3:0:0:
271,0,31272,1,0,3:2:0:0:
438,135,31450,1,2,0:1:0:0:
283,292,31629,2,0,P|284:254|300:220,1,75.0000028610231,2|0,3:1|3:2,0:2:0:0:
65,323,31807,2,0,P|103:292|152:294,1,100,2|0,3:1|1:2,0:2:0:0:
370,97,31986,6,0,B|359:118|359:140|359:140|313:176|313:176|311:196|300:221,1,150,4|0,1:1|0:2,0:2:0:0:
151,293,32343,2,0,P|140:270|138:245,1,50,0|0,1:2|0:2,0:2:0:0:
346,344,32522,2,0,P|357:272|303:224,1,150,4|0,0:3|0:2,0:2:0:0:
303,224,32879,2,0,L|253:230,1,50,10|0,0:1|0:2,0:2:0:0:
373,100,33057,2,0,P|393:69|397:32,1,75.0000028610231,2|0,0:1|0:2,0:2:0:0:
448,222,33236,2,0,P|460:269|496:303,1,100,2|0,3:1|3:2,0:2:0:0:
315,38,33414,6,0,P|218:65|120:85,1,200,0|0,1:2|3:2,0:2:0:0:
307,227,33950,2,0,P|268:166|197:169,1,150,4|0,3:3|0:2,0:2:0:0:
197,169,34307,1,10,0:1:0:0:
43,66,34486,2,0,P|42:103|59:136,1,75.0000028610231,2|0,0:1|0:2,0:2:0:0:
130,375,34664,2,0,P|126:325|97:286,1,100,2|0,0:1|0:2,0:2:0:0:
310,229,34843,6,0,P|319:130|330:31,1,200,0|0,1:2|3:2,0:2:0:0:
323,333,35379,2,0,P|369:316|400:277,1,100,4|0,1:3|0:2,0:2:0:0:
330,31,35736,2,0,P|305:27|267:21,1,50,10|0,0:1|0:2,0:2:0:0:
485,265,35914,2,0,P|471:231|444:206,1,75.0000028610231,2|0,0:1|0:2,0:2:0:0:
308,110,36093,2,0,P|264:134|260:179,1,100,2|0,3:1|3:2,0:2:0:0:
454,68,36272,6,0,P|471:166|485:265,1,200,0|0,1:2|3:2,0:2:0:0:
330,31,36807,2,0,P|320:80|312:129,1,100,2|0,1:3|0:2,0:2:0:0:
111,343,37164,2,0,P|98:322|82:303,1,50,10|8,0:2|0:2,0:2:0:0:
169,268,37343,2,0,P|163:232|150:196,1,75.0000028610231,14|8,0:1|0:2,0:2:0:0:
44,118,37522,1,2,3:1:0:0:
38,127,37611,1,0,3:2:0:0:
0,174,37700,6,0,P|14:36|151:29,1,300,4|0,1:1|3:2,0:2:0:0:
311,128,38593,2,0,P|300:163|268:181,1,75.0000028610231,2|0,0:1|0:2,0:2:0:0:
45,286,38772,2,0,P|56:251|88:233,1,75.0000028610231,2|0,0:1|0:2,0:2:0:0:
265,0,38950,1,2,3:1:0:0:
357,324,39129,6,0,P|336:226|312:129,1,200,2|2,1:2|0:2,0:2:0:0:
423,209,39664,2,0,B|388:220|388:220|348:207|348:207|336:209|336:209|310:235|310:235|270:234,1,150,2|0,1:2|0:2,0:2:0:0:
287,234,40022,2,0,P|265:243|251:264,1,50,2|0,3:1|0:2,0:2:0:0:
512,177,40200,2,0,P|493:144|460:129,1,75.0000028610231,2|0,1:1|0:2,0:2:0:0:
109,283,40379,2,0,P|134:322|182:324,1,100,10|8,0:1|0:2,0:2:0:0:
287,234,40557,6,0,B|331:121|242:150|279:37,1,200,4|0,1:3|3:2,0:2:0:0:
358,72,41004,1,2,0:3:0:0:
356,84,41093,6,0,P|298:130|225:124,1,150,4|0,1:3|0:2,0:2:0:0:
224,123,41450,2,0,P|212:102|194:85,1,50,2|0,0:1|0:2,0:2:0:0:
448,118,41629,2,0,P|455:81|448:44,1,75.0000028610231,2|0,0:1|0:2,0:2:0:0:
255,210,41807,2,0,P|298:188|314:142,1,100,2|0,0:1|0:2,0:2:0:0:
205,345,41986,6,0,B|190:302|190:302|189:283|189:283|176:249|149:152,1,200,2|0,1:2|3:2,0:2:0:0:
93,94,42522,2,0,P|74:109|67:133,1,50,2|0,3:2|0:2,0:2:0:0:
372,160,42700,2,0,P|300:153|255:210,1,150,2|0,0:1|0:2,0:2:0:0:
456,229,43057,2,0,P|481:202|484:165,1,75.0000028610231,2|0,0:1|0:2,0:2:0:0:
255,210,43236,2,0,P|249:161|212:128,1,100,2|0,0:1|0:2,0:2:0:0:
512,301,43414,6,0,B|466:297|432:311|432:311|406:352|406:352|383:364|353:375,1,187.5,4|0,1:1|0:2,0:2:0:0:
353,375,43772,1,0,1:2:0:0:
186,195,43950,2,0,P|163:172|141:151,1,62.5,0|0,1:2|0:2,0:2:0:0:
269,342,44129,1,0,3:2:0:0:
100,355,44307,2,0,P|99:324|116:298,1,62.5,2|0,0:1|0:2,0:2:0:0:
194,201,44486,2,0,P|210:168|242:149,1,75.0000028610231,2|0,0:1|0:2,0:2:0:0:
0,44,44664,2,0,P|47:46|93:66,1,100,2|0,0:1|0:2,0:2:0:0:
242,149,44843,6,0,B|279:144|299:138|299:138|321:149|321:149|374:132|423:128,1,187.5,4|0,1:3|0:2,0:2:0:0:
491,173,45200,2,0,P|502:144|502:112,1,62.5,0|0,1:2|0:2,0:2:0:0:
270,343,45379,2,0,P|258:309|267:273,1,75.0000028610231,0|0,1:2|0:2,0:2:0:0:
323,225,45557,1,2,1:3:0:0:
41,298,45736,1,2,1:3:0:0:
403,339,45914,2,0,P|370:320|339:299,1,75.0000028610231,6|0,1:2|1:2,0:2:0:0:
103,200,46093,2,0,P|90:151|81:102,1,100,0|0,3:2|1:2,0:2:0:0:
326,228,46272,6,0,B|333:200|336:180|336:180|336:135|330:84|330:84|338:42,1,187.5,6|0,1:1|0:2,0:2:0:0:
337,42,46629,1,0,1:2:0:0:
80,102,46807,6,0,P|112:101|141:109,2,62.5,4|4|0,0:3|0:3|3:2,0:2:0:0:
80,102,47164,1,8,0:2:0:0:
4,311,47343,5,2,0:2:0:0:
106,204,47522,1,2,3:2:0:0:
159,339,47700,5,8,0:3:0:0:
159,339,47789,1,4,0:3:0:0:
159,339,47879,2,0,B|189:332|206:315|206:315|239:320|239:320|299:298|376:298,1,187.5,4|0,1:3|0:2,0:2:0:0:
424,267,48236,2,0,B|445:309|414:331|414:331|429:283|407:243|376:228,1,187.5,4|0,0:3|0:2,0:2:0:0:
512,148,48593,6,0,P|483:146|449:182,1,62.5,4|0,3:2|3:2,0:2:0:0:
379,229,48772,1,2,0:2:0:0:
512,384,48950,2,0,P|492:362|435:358,1,75.0000028610231,2|2,0:3|0:3,0:2:0:0:
253,184,49129,2,0,P|336:158|382:232,1,187.5,2|0,1:2|0:2,0:2:0:0:
382,232,49486,1,2,3:3:0:0:
114,166,49664,6,0,P|26:150|0:64,1,187.5,2|0,1:1|0:2,0:2:0:0:
0,65,50022,1,2,0:3:0:0:
117,169,50200,2,0,P|146:159|170:139,1,62.5,2|0,3:2|0:2,0:2:0:0:
204,62,50379,1,2,3:2:0:0:
512,75,50557,5,2,3:2:0:0:
512,75,50647,1,0,3:2:0:0:
512,75,50736,2,0,B|466:88|413:58|413:58|402:66|402:66|398:105|375:131,1,187.5,0|0,1:2|0:2,0:2:0:0:
375,130,51093,2,0,P|321:135|314:172,1,62.5,2|0,1:1|0:2,0:2:0:0:
256,187,51272,1,0,3:2:0:0:
356,363,51450,1,0,1:2:0:0:
490,126,51629,2,0,P|512:76|484:52,1,62.5,2|0,3:2|3:2,0:2:0:0:
400,192,51807,2,0,P|398:150|368:127,1,75.0000028610231,2|0,3:3|3:2,0:2:0:0:
76,209,51986,6,0,B|114:191|114:191|137:200|137:200|197:185|279:187,1,187.5,4|0,1:1|2:2,2:2:0:0:
256,186,52343,1,2,3:3:0:0:
397,5,52522,6,0,B|383:47|383:47|419:108|419:108|402:188,1,187.5,2|0,1:1|0:2,0:2:0:0:
404,179,52879,1,0,1:2:0:0:
263,193,53057,6,0,P|210:162|197:103,1,125,2|2,0:2|3:2,0:2:0:0:
264,2,53325,1,0,3:2:0:0:
270,7,53414,6,0,P|286:35|286:66,2,62.5,2|0|0,1:1|0:2|1:2,0:2:0:0:
198,103,53772,1,0,1:2:0:0:
512,157,53950,6,0,B|487:79|487:79|435:41|435:41|420:2,1,187.5,2|0,1:1|0:2,0:2:0:0:
420,2,54307,2,0,B|460:29|460:29|435:103,1,125,0|2,1:2|0:2,0:2:0:0:
209,114,54664,5,0,3:2:0:0:
209,114,54754,1,2,0:3:0:0:
209,114,54843,2,0,B|207:168|207:168|187:189|187:189|184:257|167:290,1,187.5,2|0,1:2|0:2,0:2:0:0:
166,290,55200,1,0,1:2:0:0:
299,384,55379,6,0,B|348:354|337:295|337:295|305:245|248:276,1,187.5,2|0,1:1|0:2,0:2:0:0:
265,268,55736,1,0,1:2:0:0:
354,159,55914,1,2,0:2:0:0:
325,65,56093,1,2,0:2:0:0:
295,232,56272,5,10,3:2:0:0:
257,272,56361,5,0,3:2:0:0:
234,339,56450,5,0,3:2:0:0:
328,68,56629,1,0,1:2:0:0:
226,25,56807,6,0,P|196:15|167:3,2,62.5,2|0|0,1:1|3:2|3:2,0:2:0:0:
432,171,57164,1,0,1:2:0:0:
485,384,57343,6,0,B|465:251|465:251|474:250|474:250|502:263|533:291,1,187.5,6|0,0:2|0:2,0:2:0:0:
435,175,57700,6,0,B|400:185|400:185|386:213|386:213|198:305,1,250,4|0,1:1|1:2,0:2:0:0:
124,217,58236,1,0,1:2:0:0:
121,225,58325,6,0,B|62:203|62:203|17:246,1,125,0|0,1:2|0:2,0:2:0:0:
151,62,58593,6,0,P|128:83|118:112,1,62.5,2|0,0:3|0:2,0:2:0:0:
17,245,58772,5,2,0:2:0:0:
85,317,58950,1,2,0:2:0:0:
250,9,59129,6,0,B|276:77|238:137|238:137|270:105|321:99,1,187.5,2|0,1:1|0:2,0:2:0:0:
283,108,59486,2,0,P|312:98|329:63,1,62.5,2|0,1:2|0:2,0:2:0:0:
175,243,59664,5,0,1:2:0:0:
215,219,59754,2,0,P|306:212|367:279,1,187.5,2|0,0:3|1:2,0:2:0:0:
347,16,60200,6,0,P|330:42|328:73,1,62.5,2|0,0:2|0:2,0:2:0:0:
512,126,60379,2,0,P|481:132|452:165,1,75.0000028610231,2|0,3:3|1:2,0:2:0:0:
367,279,60557,6,0,B|327:296|327:296|239:305|214:340|108:332,1,250,4|0,1:1|1:2,0:2:0:0:
206,102,61093,1,2,3:1:0:0:
212,106,61182,6,0,P|236:160|215:218,1,125,0|0,1:2|0:2,0:2:0:0:
70,171,61450,2,0,P|48:192|40:222,1,62.5,4|0,1:3|0:2,0:2:0:0:
262,207,61629,2,0,P|234:210|207:226,1,50,2|0,0:2|0:2,0:2:0:0:
275,348,61807,1,2,0:2:0:0:
86,359,61986,6,0,B|111:323|111:323|106:281|106:281|129:241,2,125,2|0|2,1:1|1:2|1:3,0:2:0:0:
278,352,62522,2,0,P|247:344|216:340,1,62.5,0|0,1:2|0:2,0:2:0:0:
125,247,62700,1,0,3:2:0:0:
33,262,62879,1,0,1:2:0:0:
215,159,63057,2,0,P|222:190|215:220,1,62.5,2|0,0:3|0:2,0:2:0:0:
389,217,63236,2,0,P|368:248|336:267,1,75.0000028610231,0|0,1:2|1:2,0:2:0:0:
507,345,63414,6,0,B|496:299|496:299|497:276|497:276|481:207|475:160,1,187.5,2|0,1:1|0:2,0:2:0:0:
475,160,63772,1,0,1:2:0:0:
215,159,63950,1,0,1:2:0:0:
221,168,64039,6,0,B|260:201|322:193|345:149|345:149|331:91|275:128,1,187.5,0|4,1:2|1:3,0:2:0:0:
153,301,64486,2,0,P|144:271|125:247,1,62.5,8|0,0:2|0:2,0:2:0:0:
205,73,64664,2,0,P|180:78|159:91,1,50,0|0,1:2|1:2,0:2:0:0:
321,115,64843,5,0,3:2:0:0:
279,187,65022,2,0,P|252:171|221:168,1,62.5,4|0,1:2|0:2,0:2:0:0:
156,304,65200,1,0,1:2:0:0:
352,377,65379,1,0,1:2:0:0:
381,251,65557,1,0,1:2:0:0:
435,309,65736,5,4,1:2:0:0:
235,384,65914,5,2,1:1:0:0:
263,339,66004,1,0,1:3:0:0:
265,281,66093,1,2,1:1:0:0:
230,236,66182,1,2,0:3:0:0:
220,237,66272,6,0,B|224:256|224:256|190:223|149:224,1,100,4|0,1:1|1:2,0:2:0:0:
437,311,66986,5,8,0:2:0:0:
491,256,67164,2,0,P|491:218|462:192,1,80,8|0,3:2|0:2,0:2:0:0:
440,314,67700,5,2,1:2:0:0:
462,192,67879,1,0,1:2:0:0:
415,125,68057,1,0,1:2:0:0:
285,266,68236,6,0,P|246:266|220:237,1,80,12|2,0:2|0:2,0:2:0:0:
418,128,68593,1,0,1:2:0:0:
379,201,68772,1,0,1:2:0:0:
339,84,68950,2,0,P|358:50|396:42,1,80,0|6,1:2|1:3,0:2:0:0:
258,159,69307,6,0,B|229:153|210:145|210:145|191:150|191:150|150:142|102:131,1,160,0|0,1:2|0:2,0:2:0:0:
103,131,70379,1,0,3:2:0:0:
123,221,70557,1,0,3:2:0:0:
177,70,70736,1,4,0:3:0:0:
112,133,70914,1,4,1:3:0:0:
129,211,71092,1,4,1:3:0:0:
176,79,71271,1,4,1:3:0:0:
121,134,71450,1,4,1:3:0:0:
136,205,71628,1,4,1:3:0:0:
179,84,71807,1,4,1:3:0:0:
230,314,71986,6,0,B|242:289|244:266|244:266|239:247|239:247|247:206|257:158,1,160,2|0,1:2|0:2,0:2:0:0:
258,159,73236,1,0,3:2:0:0:
411,151,73414,6,0,P|447:134|484:120,1,80,2|0,0:2|1:2,0:2:0:0:
261,163,73772,1,0,3:2:0:0:
355,209,73950,6,0,B|375:196|396:189|396:189|427:144|487:119,1,160,12|0,0:2|1:2,0:2:0:0:
289,290,74486,1,8,1:3:0:0:
195,244,74664,1,4,1:3:0:0:
358,213,74843,2,0,B|391:216|391:216|361:231,1,40,2|0,1:2|0:2,0:2:0:0:
157,370,75022,6,0,B|132:370|110:363|110:363|61:385|-3:372,1,160,4|0,1:1|0:2,0:2:0:0:
41,214,76450,5,8,0:2:0:0:
284,125,76629,1,8,0:2:0:0:
364,97,76807,1,8,0:2:0:0:
121,5,76986,1,12,1:2:0:0:
121,5,77164,1,4,3:3:0:0:
195,244,77343,1,8,1:2:0:0:
133,379,77522,1,4,1:3:0:0:
319,320,77700,6,0,B|303:271|303:271|306:220|306:220|295:184|276:83,1,200,6|2,1:1|1:3,0:2:0:0:
198,247,78236,1,0,1:2:0:0:
345,184,78414,6,0,P|328:136|280:126,1,100,12|0,0:2|3:2,0:2:0:0:
444,306,78772,1,2,0:3:0:0:
504,247,78950,6,0,P|513:223|512:199,1,50,0|0,1:2|0:2,0:2:0:0:
279,347,79307,2,0,P|301:337|318:319,1,50,0|0,1:2|0:2,0:2:0:0:
159,339,79486,5,0,3:2:0:0:
86,249,79664,1,0,1:2:0:0:
80,125,79843,1,14,0:2:0:0:
80,125,80022,1,8,0:2:0:0:
110,27,80200,1,0,1:2:0:0:
183,0,80379,1,8,0:2:0:0:
505,54,80557,6,0,B|463:59|463:59|440:82|440:82|368:104|317:104,1,200,6|0,1:1|1:2,0:2:0:0:
82,128,81093,2,0,P|72:106|59:84,1,50,0|0,1:2|0:2,0:2:0:0:
279,347,81272,6,0,P|292:273|273:202,1,150,12|0,0:2|0:2,0:2:0:0:
272,201,81629,1,2,0:3:0:0:
86,132,81807,2,0,P|67:115|47:100,1,50,0|0,1:2|0:2,0:2:0:0:
188,49,81986,2,0,P|186:24|183:0,1,50,0|0,3:2|0:2,0:2:0:0:
290,44,82164,2,0,P|303:22|314:0,1,50,0|2,1:2|0:3,0:2:0:0:
89,135,82343,5,4,0:2:0:0:
33,223,82522,1,0,1:2:0:0:
18,302,82700,1,8,0:2:0:0:
26,373,82879,1,0,1:2:0:0:
272,201,83057,6,0,P|224:201|196:240,1,100,8|4,0:3|0:3,0:2:0:0:
425,271,83414,6,0,B|418:252|412:222|412:222|421:172|421:172|393:138|393:138|387:103|372:77,1,200,6|0,1:1|1:2,0:2:0:0:
342,0,83950,1,0,1:2:0:0:
425,271,84129,6,0,B|419:255|419:255|422:228|422:228|373:74,1,192.499996181488,12|0,0:2|0:2,0:2:0:0:
377,87,84664,6,0,P|330:75|295:107,1,100,0|2,1:2|0:2,0:2:0:0:
429,274,85022,2,0,P|462:239|451:193,1,100,0|2,1:2|0:3,0:2:0:0:
237,249,85379,5,12,0:2:0:0:
124,194,85557,1,10,0:2:0:0:
214,384,85736,1,0,1:2:0:0:
81,258,85914,1,8,0:2:0:0:
43,323,86093,1,0,1:2:0:0:
240,252,86272,6,0,B|253:199|253:199|243:163|243:163|252:123|261:56,1,200,6|0,1:1|1:2,0:2:0:0:
367,211,86807,2,0,P|385:228|408:235,1,50,0|0,1:2|0:2,0:2:0:0:
261,57,86986,6,0,B|346:82|346:82|136:186,1,300,12|0,0:2|1:2,0:2:0:0:
369,214,87700,2,0,P|383:261|426:283,1,100,2|0,0:1|1:2,0:2:0:0:
353,94,87968,5,2,0:3:0:0:
347,81,88057,2,0,P|332:60|312:46,2,50,4|0|0,1:2|3:2|1:2,0:2:0:0:
372,219,88414,5,8,0:2:0:0:
217,345,88593,1,0,1:2:0:0:
92,379,88772,1,8,1:3:0:0:
7,384,88950,1,4,3:2:0:0:
1,383,89129,5,4,1:3:0:0:
256,192,89218,12,2,94129,3:2:0:0:
282,165,94486,6,0,P|265:174|256:190,1,37.5,2|0,0:1|3:2,0:2:0:0:
195,320,94843,6,0,P|290:318|334:233,1,200,4|0,1:1|3:2,0:2:0:0:
386,137,95379,2,0,P|368:132|334:144,1,50,0|0,1:2|0:0,0:0:0:0:
212,109,95557,2,0,P|220:157|257:189,1,100,0|0,1:2|1:2,0:0:0:0:
467,185,95914,2,0,P|448:158|377:139,1,100,0|0,1:2|1:2,0:0:0:0:
257,189,96182,1,0,3:3:0:0:
252,199,96272,6,0,B|193:216|193:216|163:243|163:243|117:256,1,150,8|0,1:2|0:0,0:2:0:0:
49,281,96629,1,0,1:2:0:0:
0,296,96807,1,0,1:2:0:0:
160,382,96986,1,8,0:3:0:0:
91,173,97164,1,4,0:3:0:0:
240,285,97343,2,0,P|237:235|256:189,1,100,2|4,1:1|0:3,0:0:0:0:
318,133,97611,1,4,0:3:0:0:
312,138,97700,6,0,P|220:149|155:55,1,200,14|4,1:1|0:3,0:2:0:0:
334,250,98236,1,0,1:2:0:0:
414,182,98414,1,8,0:3:0:0:
400,88,98593,1,4,0:3:0:0:
512,222,98772,1,4,0:3:0:0:
164,80,98950,5,0,1:2:0:0:
164,80,99039,1,0,3:0:0:0:
164,80,99129,2,0,P|103:121|30:112,1,150,8|0,1:2|0:0,0:0:0:0:
219,214,99486,2,0,P|196:202|181:183,1,50,8|0,0:3|0:0,0:0:0:0:
77,101,99664,2,0,P|51:101|29:112,1,50,4|0,0:3|0:0,0:0:0:0:
0,184,99843,5,4,0:3:0:0:
251,144,100022,1,4,0:3:0:0:
305,258,100200,2,0,P|265:225|217:214,1,100,2|0,1:1|1:2,0:0:0:0:
89,204,100468,1,0,3:2:0:0:
95,209,100557,6,0,P|187:220|252:126,1,200,10|8,1:1|0:3,0:2:0:0:
319,355,101093,2,0,B|309:325|309:325|314:290|314:290|305:258,2,100,4|0|0,0:3|1:2|1:2,0:0:0:0:
465,251,101629,6,0,P|469:225|465:201,2,50,4|0|4,1:3|3:0|0:3,0:0:0:0:
401,326,101897,1,0,3:2:0:0:
392,327,101986,6,0,P|321:301|250:278,1,150,8|0,1:2|0:0,0:2:0:0:
133,343,102343,2,0,L|180:326,1,50,8|0,0:3|0:0,0:2:0:0:
388,228,102522,1,0,1:2:0:0:
280,182,102700,1,0,1:2:0:0:
327,74,102879,1,0,1:2:0:0:
186,0,103057,6,0,P|209:44|212:93,1,100,2|8,1:1|0:3,0:2:0:0:
126,214,103325,1,4,0:3:0:0:
133,202,103414,6,0,B|277:163|376:145|376:145|345:152|318:172,1,300,10|0,1:1|1:2,0:2:0:0:
292,302,104129,1,4,0:3:0:0:
344,370,104307,1,8,0:3:0:0:
440,297,104486,1,0,1:2:0:0:
388,229,104664,1,0,1:2:0:0:
282,302,104843,5,4,1:3:0:0:
335,377,105021,1,4,0:3:0:0:
390,220,105200,5,8,0:3:0:0:
449,296,105378,1,8,1:1:0:0:
193,355,105557,6,0,B|203:325|203:325|198:290|198:290|207:258,2,100,8|8|10,0:3|1:2|1:1,0:0:0:0:
7,196,106182,1,0,1:2:0:0:
1,185,106272,6,0,B|26:141|10:81|10:81|45:142|107:151,1,225.000008583069,6|0,1:1|0:0,0:2:0:0:
112,159,106629,2,0,P|148:149|171:120,1,75.0000028610231,0|0,3:2|0:0,0:0:0:0:
376,233,106807,6,0,B|365:180|301:144|258:185|305:247|357:229,1,187.500007152558,0|0,1:2|0:0,0:2:0:0:
385,155,107343,6,0,B|403:81|403:81|403:73|403:73|419:2,2,150.000005722046,12|0|0,0:1|0:0|1:2,0:0:0:0:
175,358,107879,1,0,3:0:0:0:
137,335,107968,1,0,3:0:0:0:
136,289,108057,1,4,1:2:0:0:
480,256,108236,6,0,B|440:277|440:277|424:309|424:309|396:324,1,112.500004291535,8|0,1:3|0:0,0:2:0:0:
396,323,108593,6,0,P|423:337|450:353,1,62.5,4|0,0:3|0:0,0:0:0:0:
216,292,108772,6,0,P|243:277|270:261,1,62.5,2|0,1:1|0:0,0:2:0:0:
26,317,108950,5,4,0:3:0:0:
325,306,109129,6,0,B|355:276|361:210|323:197|204:277|295:393,1,225.000008583069,6|0,1:1|0:0,0:2:0:0:
283,353,109486,2,0,P|280:306|215:290,1,75.0000028610231,2|0,3:3|0:0,0:0:0:0:
101,38,109664,6,0,B|80:55|48:56|48:56|130:62|174:104,1,187.500007152558,0|0,1:2|0:0,0:2:0:0:
164,113,110200,6,0,P|187:143|198:179,1,75.0000028610231,12|0,0:1|0:0,0:0:0:0:
207,259,110379,1,2,1:3:0:0:
467,184,110557,6,0,P|431:173|407:145,1,75.0000028610231,0|0,1:2|0:0,0:2:0:0:
336,56,110736,1,0,3:2:0:0:
342,27,110825,1,0,3:2:0:0:
365,6,110914,1,4,0:2:0:0:
274,211,111093,6,0,B|309:234|309:234|325:263|325:263|360:284,1,112.500004291535,4|0,1:1|0:0,0:2:0:0:
394,313,111450,5,0,1:2:0:0:
112,208,111629,1,2,3:1:0:0:
353,170,111807,1,0,3:0:0:0:
358,164,111897,1,0,3:0:0:0:
407,145,111986,6,0,P|360:72|278:102,1,187.500007152558,4|0,1:2|0:0,0:0:0:0:
278,101,112522,2,0,B|272:78|272:78|253:55|253:55|248:34,2,75.0000028610231,0|12|0,1:2|0:2|1:0,0:0:0:0:
112,208,113057,5,0,1:2:0:0:
181,148,113236,1,8,0:2:0:0:
38,113,113414,1,0,1:2:0:0:
197,234,113593,1,8,0:2:0:0:
106,56,113772,1,0,1:2:0:0:
19,196,113950,1,0,1:2:0:0:
187,70,114129,1,8,0:2:0:0:
23,32,114307,1,0,1:2:0:0:
128,256,114486,6,0,P|119:225|112:195,1,62.5,8|0,0:3|0:0,0:0:0:0:
276,362,114664,1,8,0:2:0:0:
283,352,114754,1,8,0:2:0:0:
332,319,114843,6,0,B|316:290|316:290|321:230|321:230|308:200,1,125,4|2,1:2|0:3,0:0:0:0:
392,60,115200,2,0,P|405:89|425:113,1,62.5,0|0,3:2|0:0,0:0:0:0:
322,1,115379,2,0,P|317:19|316:37,1,37.5000014305115,0|0,1:2|0:0,0:0:0:0:
414,240,115557,1,8,0:2:0:0:
420,243,115736,2,0,B|451:234|451:234|480:227,1,62.5,0|0,1:2|0:0,0:0:0:0:
235,247,115914,2,0,B|206:241|206:241|175:232,1,62.5,6|0,0:3|0:0,0:0:0:0:
104,212,116093,1,8,0:2:0:0:
332,319,116272,5,2,3:3:0:0:
288,174,116450,1,0,3:2:0:0:
270,128,116539,1,0,3:0:0:0:
252,83,116629,1,8,0:2:0:0:
107,216,116807,1,4,3:3:0:0:
426,81,116986,1,8,0:2:0:0:
165,123,117164,1,4,0:3:0:0:
335,62,117343,1,4,0:3:0:0:
196,333,117522,5,4,0:3:0:0:
196,333,117611,5,4,0:3:0:0:
233,331,117700,6,0,B|266:351|266:351|332:319|327:259|293:221,1,187.5,6|0,1:1|0:0,0:2:0:0:
290,153,118057,2,0,P|301:181|325:201,1,62.5,2|0,3:3|0:0,0:0:0:0:
399,225,118236,1,0,1:2:0:0:
179,252,118414,2,0,P|190:223|327:203,1,187.5,12|0,0:2|0:0,0:2:0:0:
325,201,118772,1,0,3:2:0:0:
183,92,118950,6,0,B|196:72|196:72|184:25|184:25|196:0,1,100,8|0,0:2|1:2,0:2:0:0:
43,112,119307,2,0,P|21:100|-6:81,2,50,8|0|0,0:2|0:0|3:2,0:2:0:0:
94,177,119664,1,0,1:2:0:0:
290,153,119843,1,8,0:2:0:0:
388,80,120022,1,0,1:2:0:0:
422,208,120200,2,0,P|415:231|413:256,1,50,2|0,1:3|0:0,0:2:0:0:
299,79,120379,2,0,B|301:103|301:103|311:126,1,50,4|0,0:3|0:0,0:0:0:0:
494,246,120557,6,0,B|442:259|442:259|407:301|407:301|367:313,1,150,4|0,1:2|0:0,0:2:0:0:
322,331,120914,1,0,1:2:0:0:
245,354,121093,1,4,1:3:0:0:
201,111,121272,2,0,B|184:184|184:184|177:193|177:193|164:256,1,150,12|0,1:1|0:0,0:2:0:0:
131,328,121629,2,0,P|127:303|115:281,1,50,0|0,1:2|0:0,0:0:0:0:
277,146,121807,2,0,P|264:167|185:196,1,100,8|2,0:2|0:3,0:2:0:0:
123,185,122075,1,2,0:3:0:0:
113,180,122164,1,0,3:2:0:0:
336,339,122343,6,0,P|320:311|302:286,1,62.5,8|0,0:2|0:0,0:0:0:0:
399,258,122522,2,0,P|396:226|390:196,1,62.5,0|0,1:2|3:2,0:0:0:0:
491,204,122700,2,0,P|502:174|509:144,1,62.5,8|0,0:2|0:0,0:0:0:0:
512,56,122879,1,2,1:1:0:0:
267,149,123057,6,0,L|239:160,3,25,0|0|0|0,3:2|3:2|3:2|3:2,0:2:0:0:
174,193,123236,6,0,L|146:182,3,25,0|0|0|0,3:2|3:2|3:2|3:2,0:0:0:0:
80,216,123414,6,2,B|117:198|117:198|145:197|145:197|208:167|314:133,1,250,4|0,1:1|0:0,0:1:0:0:
387,151,123950,2,0,B|385:129|385:129|396:107|396:107|398:87,1,62.5,2|2,0:3|0:3,0:0:0:0:
112,333,125215,5,2,0:2:0:0:
43,296,125393,1,2,0:2:0:0:
109,331,125929,5,2,0:2:0:0:
45,297,126108,1,2,0:2:0:0:
106,329,126643,5,2,0:2:0:0:
48,299,126822,1,2,0:2:0:0:
101,327,127358,5,2,0:2:0:0:
53,301,127536,1,2,0:2:0:0:
97,325,128072,5,2,0:2:0:0:
57,303,128250,1,4,0:3:0:0:
92,322,128429,5,8,1:3:0:0:
62,306,128608,1,8,0:3:0:0:
89,320,128786,5,4,0:3:0:0:
65,308,128965,1,2,3:2:0:0:
274,384,129143,5,4,1:1:0:0:
206,244,129489,5,2,0:2:0:0:
184,169,129663,1,2,0:2:0:0:
206,241,130183,5,2,0:2:0:0:
184,171,130356,1,2,0:2:0:0:
205,237,130914,5,2,0:2:0:0:
185,175,131106,1,2,0:2:0:0:
203,232,131628,5,2,0:2:0:0:
187,180,131815,1,2,0:2:0:0:
201,228,132357,5,2,0:2:0:0:
189,184,132535,1,2,0:2:0:0:
191,194,133071,5,2,0:2:0:0:
204,233,133608,1,8,1:3:0:0:
283,71,133786,5,2,3:2:0:0:
205,246,133965,1,8,0:3:0:0:
96,89,134143,1,2,3:2:0:0:
386,227,134322,1,4,1:3:0:0:
392,233,134500,1,8,0:3:0:0:
90,84,134679,1,12,1:3:0:0:
388,254,134857,6,0,B|419:248|419:248|431:250|431:250|462:241|510:233,1,125,4|8,1:1|0:2,0:2:0:0:
388,254,135929,5,2,3:2:0:0:
310,225,136108,1,2,3:2:0:0:
381,251,136464,1,0,3:0:0:0:
316,227,136642,1,0,3:0:0:0:
381,251,136821,1,4,0:3:0:0:
376,249,137178,1,8,0:2:0:0:
325,230,137357,1,0,3:0:0:0:
376,249,137536,1,2,3:2:0:0:
176,361,137714,6,0,B|145:355|145:355|133:357|133:357|102:348|53:340,1,125,4|8,1:1|0:2,0:2:0:0:
8,270,138785,1,0,3:0:0:0:
2,271,138964,1,2,3:2:0:0:
58,254,139322,1,4,3:3:0:0:
52,255,139501,1,0,3:0:0:0:
46,256,139679,1,4,3:3:0:0:
112,246,139858,1,0,3:0:0:0:
56,192,140036,1,8,3:2:0:0:
47,115,140215,1,0,3:0:0:0:
92,45,140393,1,2,3:2:0:0:
255,0,140572,5,4,1:3:0:0:
341,169,140750,1,0,3:2:0:0:
317,98,140929,1,0,3:2:0:0:
346,28,141108,1,2,3:2:0:0:
352,25,141286,1,0,3:2:0:0:
332,235,141464,5,0,1:2:0:0:
365,168,141642,1,0,3:2:0:0:
435,139,141821,1,2,3:2:0:0:
441,141,142000,1,4,3:3:0:0:
279,277,142178,5,0,3:2:0:0:
350,253,142357,1,0,3:2:0:0:
420,282,142535,1,10,3:3:0:0:
423,288,142714,1,0,3:2:0:0:
212,268,142893,5,8,3:2:0:0:
279,301,143071,1,0,3:2:0:0:
308,371,143251,1,6,3:3:0:0:
306,377,143429,1,0,1:2:0:0:
301,384,143608,5,0,3:2:0:0:
331,361,143786,1,0,3:2:0:0:
266,323,143965,1,2,3:2:0:0:
314,254,144143,1,0,1:2:0:0:
246,197,144322,1,0,3:2:0:0:
299,112,144500,1,2,3:2:0:0:
303,105,144679,1,0,3:2:0:0:
231,46,144858,1,0,1:2:0:0:
292,2,145036,1,0,1:2:0:0:
297,6,145215,1,0,3:2:0:0:
172,110,145392,2,0,L|122:104,1,50,2|2,1:2|3:2,0:0:0:0:
41,93,145929,1,0,3:0:0:0:
34,92,146108,1,4,3:3:0:0:
256,192,146285,5,4,1:1:0:0:
