osu file format v14

[General]
AudioFilename: balance.mp3
AudioLeadIn: 0
PreviewTime: 97861
Countdown: 0
SampleSet: Soft
StackLeniency: 1
Mode: 0
LetterboxInBreaks: 0
WidescreenStoryboard: 1

[Editor]
Bookmarks: 39147,84289,125432,159717,204859
DistanceSpacing: 0.2
BeatDivisor: 4
GridSize: 32
TimelineZoom: 2.5

[Metadata]
Title:In the Balance
TitleUnicode:命の天秤 ~輝ける神域 アグライア~
Artist:Masayoshi Soken
ArtistUnicode:祖堅正慶
Creator:Syph
Version:Collab Insane
Source:ファイナルファンタジーXIV: 暁月のフィナーレ
Tags:final fantasy xiv ff14 ffxiv inochi no tenbin ~kagayakeru shin'iki aglaia~ Ryo Furukawa owc2022sffm1 video game english folk nathan sukinathan captin1 zekk endwalker tea ファイナルファンタジーXIV: 暁月の終焉 Nald'Thal
BeatmapID:4106250
BeatmapSetID:1978017

[Difficulty]
HPDrainRate:4.6
CircleSize:4
OverallDifficulty:8
ApproachRate:9
SliderMultiplier:1.6
SliderTickRate:1

[Events]
//Background and Video events
0,0,"__azeyma_final_fantasy_and_1_more_drawn_by_cacanep__02cbb0d15f33be3fd2522e4149ce3ae5.jpg",0,0
//Break Periods
//Storyboard Layer 0 (Background)
//Storyboard Layer 1 (Fail)
//Storyboard Layer 2 (Pass)
//Storyboard Layer 3 (Foreground)
//Storyboard Layer 4 (Overlay)
//Storyboard Sound Samples

[TimingPoints]
291,571.428571428572,4,2,1,55,1,0
291,-83.3333333333335,4,2,1,55,0,0
1148,-62.5,4,2,1,55,0,0
3005,-83.3333333333335,4,2,1,55,0,0
3433,-62.5,4,2,1,55,0,0
5148,-83.3333333333335,4,2,1,55,0,0
5719,-71.4285714285715,4,2,1,55,0,0
8005,-55.5555555555555,4,2,1,55,0,0
10576,-62.5,4,2,1,55,0,0
11719,571.428571428572,3,2,1,55,1,0
11719,-62.5,6,2,1,55,0,0
39147,-71.4285714285715,6,2,1,55,0,0
46004,-62.5,6,2,1,55,0,0
52861,-89.2857142857145,6,2,1,55,0,0
66576,-79.3650793650795,6,2,1,55,0,0
78576,-70.4225352112675,6,2,1,55,0,0
80290,-156.25,6,2,1,55,0,0
82004,571.428571428572,4,2,1,35,1,0
82004,-71.4285714285715,4,2,1,35,0,0
83289,-79.3650793650795,4,2,1,35,0,0
83718,-79.3650793650795,4,2,1,55,0,0
84861,-68.4931506849315,4,2,1,55,0,0
86004,-62.5,4,2,1,55,0,0
101432,-50,4,2,1,55,0,0
102575,-50,4,2,1,65,0,1
110504,-50,4,2,1,65,0,0
110575,-45.4545454545455,4,2,1,65,0,1
110646,-45.4545454545455,4,2,1,65,0,0
111004,-45.4545454545455,4,2,1,65,0,1
111075,-45.4545454545455,4,2,1,65,0,0
111432,-45.4545454545455,4,2,1,65,0,1
111504,-45.4545454545455,4,2,1,65,0,0
111718,-50,4,2,1,65,0,1
125432,571.428571428572,3,2,1,55,1,0
125432,-62.5,6,2,1,55,0,0
128289,-59.5238095238095,6,2,1,55,0,0
132717,-89.2857142857145,6,2,1,55,0,0
144289,-71.4285714285715,6,2,1,55,0,0
146003,-59.5238095238095,6,2,1,55,0,0
160146,-67.5675675675675,6,2,1,55,0,0
166574,-55.5555555555555,6,2,1,55,0,0
173432,-83.3333333333335,6,2,1,45,0,0
187146,-66.6666666666665,6,2,1,55,0,0
200860,-199.999999999998,6,2,1,55,0,0
202574,571.428571428572,4,2,1,35,1,0
202574,-71.4285714285715,4,2,1,35,0,0
204288,-59.171597633136,4,2,1,55,0,0
204859,-79.3650793650795,4,2,1,55,0,0
205431,-68.4931506849315,4,2,1,55,0,0
222002,-50,4,2,1,55,0,0
223145,-47.6190476190476,4,2,1,65,0,1
231074,-50,4,2,1,65,0,0
231145,-45.4545454545455,4,2,1,65,0,1
231216,-45.4545454545455,4,2,1,65,0,0
231574,-45.4545454545455,4,2,1,65,0,1
231645,-45.4545454545455,4,2,1,65,0,0
232002,-45.4545454545455,4,2,1,65,0,1
232074,-45.4545454545455,4,2,1,65,0,0
232288,-47.6190476190476,4,2,1,65,0,1
246002,-83.3333333333335,4,2,1,65,0,0
246859,-62.5,4,2,1,65,0,0
248716,-83.3333333333335,4,2,1,65,0,0
249144,-62.5,4,2,1,65,0,0
250859,-83.3333333333335,4,2,1,65,0,0
251430,-71.4285714285715,4,2,1,65,0,0
253716,-55.5555555555555,4,2,1,65,0,0
256288,-62.5,4,2,1,65,0,0
262002,-62.5,4,2,1,5,0,0

[Colours]
Combo1 : 255,94,55
Combo2 : 173,255,95
Combo3 : 17,254,176
Combo4 : 255,88,100

[HitObjects]
431,99,291,5,6,2:0:0:0:
298,140,433,1,2,2:0:0:0:
298,140,719,2,0,B|250:131|186:106,1,95.9999970703126,2|0,2:0|0:0,2:0:0:0:
177,28,1148,6,0,P|119:64|19:96,1,160,2|0,2:0|0:0,2:0:0:0:
32,93,1576,2,0,P|27:122|12:177,1,64,2|0,2:0|2:0,2:0:0:0:
85,218,1862,1,2,2:0:0:0:
14,344,2005,2,0,L|22:311,2,32,2|2|2,2:0|2:0|2:0,0:0:0:0:
162,247,2291,2,0,B|202:235|242:235,1,64,2|2,2:0|2:0,0:0:0:0:
178,149,2576,5,6,2:0:0:0:
312,244,2719,2,0,P|349:261|425:263,1,96,2|0,2:0|0:0,2:0:0:0:
403,266,3005,2,0,B|389:313|381:381,1,95.9999970703126,0|0,2:0|0:0,2:0:0:0:
489,208,3433,6,0,P|464:151|442:64,1,128,2|0,2:0|2:0,2:0:0:0:
396,0,3862,1,2,2:0:0:0:
291,78,4005,1,2,2:0:0:0:
141,12,4148,2,0,B|166:19|203:26,1,64,2|0,2:0|2:0,2:0:0:0:
291,78,4433,5,0,2:0:0:0:
261,186,4576,1,2,2:0:0:0:
261,186,4862,5,6,2:0:0:0:
318,284,5005,1,2,2:0:0:0:
261,186,5148,1,2,2:0:0:0:
490,181,5719,6,0,P|436:119|354:111,1,167.999994873047,2|0,2:0|0:0,2:0:0:0:
270,58,6291,2,0,B|251:29|241:-9,1,55.9999982910157,0|0,2:0|2:0,2:0:0:0:
355,112,6576,5,2,2:0:0:0:
241,201,6791,1,2,2:0:0:0:
97,78,7005,1,2,2:0:0:0:
241,201,7148,5,6,2:0:0:0:
203,290,7291,1,2,2:0:0:0:
386,201,7576,6,0,P|442:193|510:178,1,111.999996582031,2|0,2:0|0:0,2:0:0:0:
257,53,8005,5,2,2:0:0:0:
208,346,8576,5,6,2:0:0:0:
256,192,8648,12,2,10433,2:0:0:0:
13,180,10576,6,0,P|82:197|225:221,1,192,6|2,2:0|2:0,0:0:0:0:
302,309,11148,1,6,2:0:0:0:
499,117,11291,2,0,P|426:127|315:154,1,160,2|0,2:0|0:0,0:0:0:0:
341,146,11719,6,0,P|288:102|210:70,1,128,6|0,3:2|2:0,2:0:0:0:
166,8,12147,1,2,2:0:0:0:
166,8,12290,2,0,B|121:22|83:27,1,64,0|2,2:0|2:0,0:0:0:0:
310,43,12576,2,0,B|355:29|393:24,1,64,2|2,3:2|2:0,2:0:0:0:
160,141,12861,6,0,B|142:139|97:125,1,64,6|0,3:2|0:0,2:0:0:0:
336,240,13147,2,0,B|379:248|423:264,1,64,6|0,3:2|0:0,2:0:0:0:
232,380,13433,6,0,P|216:330|213:241,1,128,6|0,3:2|2:0,2:0:0:0:
309,167,13861,1,2,2:0:0:0:
309,167,14147,1,2,2:0:0:0:
392,201,14290,1,2,3:2:0:0:
373,111,14433,1,2,2:0:0:0:
199,149,14576,6,0,B|166:158|119:163,1,64,6|0,3:2|0:0,2:0:0:0:
335,308,14861,2,0,B|368:299|397:296,1,64,6|0,3:2|3:0,0:0:0:0:
397,296,15076,1,0,3:0:0:0:
397,296,15147,6,0,B|409:217|436:265|445:165,1,128,6|0,3:2|2:0,2:0:0:0:
500,124,15576,1,2,2:0:0:0:
409,30,15719,2,0,P|409:51|418:98,1,64,0|0,2:0|2:0,0:0:0:0:
330,180,16004,2,0,P|298:185|258:195,1,64,2|2,3:2|2:0,2:0:0:0:
87,112,16290,6,0,P|55:119|24:124,1,64,6|0,3:2|0:0,2:0:0:0:
117,350,16576,2,0,P|127:315|137:289,1,64,6|0,3:2|0:0,2:0:0:0:
228,311,16861,6,0,P|270:321|372:356,1,128,6|0,3:2|2:0,0:0:0:0:
424,378,17290,1,2,2:0:0:0:
424,378,17576,1,0,2:0:0:0:
457,312,17719,1,2,3:2:0:0:
403,255,17861,1,2,2:0:0:0:
481,158,18004,6,0,B|489:210|500:239,1,64,6|2,3:2|3:2,0:0:0:0:
288,99,18290,2,0,B|331:94|373:81,1,64,6|2,3:2|3:2,0:0:0:0:
350,87,18504,1,0,0:0:0:0:
350,87,18576,6,0,P|351:141|301:220,1,128,6|0,3:2|2:0,2:0:0:0:
235,253,19004,1,2,2:0:0:0:
235,253,19147,2,0,P|195:242|161:236,1,64,0|0,2:0|2:0,0:0:0:0:
81,174,19433,2,0,B|76:215|66:249,1,64,2|2,2:0|2:0,2:0:0:0:
243,41,19719,6,0,B|237:63|232:104,1,64,6|0,3:2|0:0,2:0:0:0:
347,307,20004,2,0,B|353:285|358:244,1,64,6|0,3:2|0:0,2:0:0:0:
485,136,20290,6,0,P|408:147|331:162,1,128,6|0,3:2|2:0,2:0:0:0:
131,299,20719,2,0,P|208:288|285:273,1,128,2|0,2:0|2:0,2:0:0:0:
224,115,21147,1,2,3:2:0:0:
171,174,21290,1,2,2:0:0:0:
340,264,21433,6,0,B|333:221|322:177,1,64,6|0,3:2|0:0,2:0:0:0:
292,0,21719,2,0,B|299:43|310:87,1,64,6|0,3:2|3:0,0:0:0:0:
304,62,21933,1,0,3:0:0:0:
304,62,22004,2,0,P|364:69|450:104,1,128,6|0,3:2|2:0,2:0:0:0:
475,245,22433,2,0,P|414:236|326:201,1,128,2|0,2:0|2:0,2:0:0:0:
240,217,22861,2,0,B|249:169|259:144,1,64,2|2,3:2|2:0,2:0:0:0:
348,343,23147,5,6,3:2:0:0:
89,265,23433,5,6,3:2:0:0:
348,343,23719,6,0,P|408:343|498:319,1,128,6|0,3:2|2:0,0:0:0:0:
352,99,24147,2,0,P|292:99|202:123,1,128,6|0,1:2|2:0,2:0:0:0:
152,225,24576,2,0,P|193:232|232:234,1,64,2|2,3:2|2:0,2:0:0:0:
366,207,24861,5,2,1:2:0:0:
366,207,25004,1,2,1:2:0:0:
295,328,25147,1,6,3:2:0:0:
441,300,25290,1,2,1:2:0:0:
295,328,25433,6,0,P|226:334|143:350,1,128,6|0,3:2|2:0,2:0:0:0:
36,370,25861,1,2,3:2:0:0:
36,370,26004,2,0,B|38:329|46:294,1,64,0|0,2:0|2:0,0:0:0:0:
140,201,26290,2,0,B|138:242|130:277,1,64,2|0,3:2|2:0,2:0:0:0:
3,104,26576,6,0,P|40:113|86:120,1,64,6|0,3:2|0:0,2:0:0:0:
299,238,26861,2,0,P|261:228|216:222,1,64,6|0,3:2|2:0,2:0:0:0:
236,224,27076,1,2,2:0:0:0:
236,224,27147,2,0,B|243:142|266:177|266:79,1,128,6|0,3:2|2:0,2:0:0:0:
178,28,27576,1,2,2:0:0:0:
112,81,27719,2,0,B|112:142|119:164,1,64,0|2,2:0|2:0,0:0:0:0:
123,265,28004,1,2,3:2:0:0:
200,249,28147,1,2,2:0:0:0:
92,183,28290,5,2,3:2:0:0:
43,289,28433,1,2,2:0:0:0:
168,347,28576,1,2,3:2:0:0:
168,347,28719,1,2,1:2:0:0:
240,228,28861,6,0,P|229:173|218:79,1,128,6|0,3:2|2:0,2:0:0:0:
348,54,29290,1,2,2:0:0:0:
401,110,29433,2,0,B|413:143|419:187,1,64,0|0,2:0|2:0,0:0:0:0:
321,313,29719,6,0,P|343:316|398:322,1,64,6|0,3:2|0:0,0:0:0:0:
119,263,30004,2,0,P|86:258|56:255,1,64,6|0,3:2|0:0,2:0:0:0:
216,376,30290,1,6,3:2:0:0:
216,376,30433,1,0,2:0:0:0:
275,253,30576,6,0,P|273:189|238:137,1,128,6|0,3:2|2:0,2:0:0:0:
142,342,31004,2,0,P|65:361|2:358,1,128,6|0,3:2|2:0,2:0:0:0:
119,263,31433,1,6,3:2:0:0:
17,153,31576,1,6,3:2:0:0:
141,180,31719,2,0,P|191:190|225:194,1,64,0|0,0:0|2:0,0:0:0:0:
310,158,32004,1,2,1:2:0:0:
321,238,32147,1,2,1:2:0:0:
470,159,32290,6,0,P|467:107|450:16,1,128,6|0,3:2|2:0,2:0:0:0:
387,5,32719,1,2,2:0:0:0:
284,35,32861,1,0,3:0:0:0:
284,35,33147,2,0,L|200:20,1,64,2|0,3:2|2:0,0:0:0:0:
123,65,33433,6,0,B|120:98|108:144,1,64,6|0,3:2|0:0,2:0:0:0:
242,292,33719,2,0,B|245:259|257:213,1,64,6|0,3:2|2:0,2:0:0:0:
253,229,33933,1,2,2:0:0:0:
253,229,34004,2,0,P|301:201|381:192,1,128,6|0,3:2|2:0,2:0:0:0:
471,290,34433,2,0,P|453:213|447:151,1,128,6|0,3:2|0:0,2:0:0:0:
465,52,34861,1,0,2:0:0:0:
511,116,35004,1,0,2:0:0:0:
358,89,35147,6,0,B|316:81|286:78,1,64,6|0,3:2|0:0,2:0:0:0:
226,287,35433,2,0,B|268:295|289:297,1,64,6|0,3:2|2:0,2:0:0:0:
289,297,35647,1,0,2:0:0:0:
289,297,35719,6,0,P|283:221|268:144,1,128,6|0,3:2|2:0,2:0:0:0:
146,75,36147,1,6,3:2:0:0:
86,118,36290,2,0,B|53:120|3:129,1,64,0|0,0:0|2:0,0:0:0:0:
121,216,36576,2,0,B|154:214|204:205,1,64,2|0,3:2|2:0,2:0:0:0:
303,60,36861,5,6,3:2:0:0:
236,144,37004,1,2,2:0:0:0:
329,220,37147,1,6,3:2:0:0:
411,123,37290,1,2,3:2:0:0:
236,144,37433,6,0,P|171:132|91:125,1,128,6|0,3:2|2:0,2:0:0:0:
35,202,37861,1,2,2:0:0:0:
49,277,38004,1,0,2:0:0:0:
49,277,38290,2,0,P|41:310|35:352,1,64,2|2,3:2|2:0,0:0:0:0:
180,331,38576,6,0,P|212:329|244:326,1,64,2|2,3:2|2:0,0:0:0:0:
366,368,38861,1,2,3:2:0:0:
382,270,39004,1,2,2:0:0:0:
411,161,39147,6,0,P|367:155|296:141,1,111.999996582031,2|0,3:2|2:0,2:0:0:0:
223,90,39576,1,2,2:0:0:0:
223,90,39719,2,0,B|209:57|207:18,1,55.9999982910157,0|0,0:0|2:0,0:0:0:0:
219,189,40004,2,0,B|205:221|203:260,1,55.9999982910157,2|0,3:2|2:0,2:0:0:0:
138,144,40290,6,0,B|121:142|79:129,1,55.9999982910157,2|0,2:0|2:0,2:0:0:0:
299,244,40576,2,0,B|336:232|353:230,1,55.9999982910157,2|0,3:2|2:0,2:0:0:0:
353,229,40790,1,0,0:0:0:0:
353,229,40861,2,0,B|359:300|379:269|379:355,1,111.999996582031,2|0,3:2|2:0,2:0:0:0:
287,377,41290,2,0,P|245:352|176:345,1,111.999996582031,0|0,3:0|2:0,0:0:0:0:
60,383,41719,1,2,3:2:0:0:
59,382,42004,6,0,P|66:360|72:323,1,55.9999982910157,2|0,2:0|2:0,2:0:0:0:
0,192,42290,2,0,P|6:214|12:251,1,55.9999982910157,2|0,3:2|2:0,2:0:0:0:
11,246,42504,1,0,2:0:0:0:
11,246,42576,2,0,P|68:235|138:229,1,111.999996582031,2|0,3:2|2:0,2:0:0:0:
252,129,43004,2,0,P|194:139|124:145,1,111.999996582031,2|0,2:0|2:0,2:0:0:0:
80,24,43433,2,0,P|74:56|69:87,1,55.9999982910157,2|0,3:2|2:0,2:0:0:0:
267,36,43719,2,0,P|299:42|330:47,1,55.9999982910157,2|0,2:0|0:0,2:0:0:0:
322,46,43933,1,0,0:0:0:0:
322,46,44004,1,2,3:2:0:0:
322,46,44290,6,0,P|349:94|354:149,1,111.999996582031,2|0,3:2|2:0,2:0:0:0:
337,226,44719,1,2,3:2:0:0:
407,284,44861,2,0,P|435:279|463:279,1,55.9999982910157,0|0,0:0|2:0,0:0:0:0:
337,226,45147,2,0,P|309:221|281:220,1,55.9999982910157,2|0,3:2|2:0,2:0:0:0:
287,323,45433,1,2,3:2:0:0:
287,323,45504,1,0,3:0:0:0:
287,323,45576,1,0,3:2:0:0:
362,373,45719,1,2,3:2:0:0:
63,243,46004,6,0,B|75:164|102:212|111:112,1,128,6|0,3:2|2:0,2:0:0:0:
180,89,46433,1,6,3:2:0:0:
41,52,46576,2,0,P|64:45|104:39,1,64,0|0,0:0|2:0,0:0:0:0:
194,234,46861,2,0,P|187:210|181:170,1,64,2|2,3:2|3:2,2:0:0:0:
282,81,47147,6,0,B|299:78|344:65,1,64,6|0,3:2|0:0,2:0:0:0:
442,142,47433,1,6,3:2:0:0:
498,60,47576,1,2,3:2:0:0:
348,156,47719,2,0,P|323:214|322:278,1,128,6|0,3:2|2:0,2:0:0:0:
289,348,48147,1,2,3:2:0:0:
222,275,48290,2,0,B|178:289|158:291,1,64,2|0,3:2|2:0,2:0:0:0:
64,202,48576,2,0,B|82:204|125:218,1,64,2|0,3:2|3:0,0:0:0:0:
234,169,48861,6,0,B|231:139|222:106,1,64,6|0,3:2|0:0,2:0:0:0:
64,315,49147,2,0,B|61:344|52:377,1,64,6|0,3:2|3:0,2:0:0:0:
52,377,49361,1,0,3:0:0:0:
52,378,49433,2,0,B|40:299|13:347|4:247,1,128,6|0,3:2|2:0,2:0:0:0:
152,188,49861,2,0,P|88:180|33:150,1,128,6|0,3:2|2:0,2:0:0:0:
4,65,50290,2,0,B|3:43|23:4,1,64,2|2,3:2|3:2,2:0:0:0:
195,98,50576,5,6,3:2:0:0:
108,69,50719,1,2,3:2:0:0:
161,177,50861,1,6,3:2:0:0:
285,132,51004,1,2,3:2:0:0:
285,132,51076,1,0,3:0:0:0:
285,132,51147,2,0,P|348:132|407:157,1,128,6|0,3:2|2:0,0:0:0:0:
462,215,51576,1,6,3:2:0:0:
462,215,51861,5,0,2:0:0:0:
429,281,52004,1,2,3:2:0:0:
483,338,52146,1,2,2:0:0:0:
416,285,52290,5,2,3:2:0:0:
344,336,52433,1,2,3:2:0:0:
415,384,52576,1,2,3:2:0:0:
498,341,52719,1,2,3:2:0:0:
348,238,52861,6,0,P|277:240|209:260,1,134.400001640625,2|0,3:2|3:0,2:0:0:0:
161,207,53433,2,0,B|163:187|178:141,1,67.2000008203125,2|0,3:2|2:0,2:0:0:0:
178,142,53719,2,0,B|176:127|165:92,1,44.800000546875,2|0,3:2|2:0,2:0:0:0:
94,146,54004,2,0,B|79:148|44:159,1,44.800000546875,2|0,2:0|2:0,2:0:0:0:
0,98,54290,1,2,3:2:0:0:
0,98,54433,1,0,3:0:0:0:
80,230,54576,6,0,P|92:273|94:318,1,89.60000109375,2|0,3:2|2:0,2:0:0:0:
162,364,55004,1,0,3:0:0:0:
162,364,55147,2,0,B|164:349|172:320,1,44.800000546875,0|0,2:0|2:0,0:0:0:0:
250,345,55433,1,0,3:0:0:0:
400,265,55719,2,0,P|376:260|353:260,1,44.800000546875,0|0,3:0|2:0,2:0:0:0:
292,212,56004,1,0,3:0:0:0:
292,212,56147,1,0,3:0:0:0:
354,338,56290,6,0,P|417:316|484:309,1,134.400001640625,2|0,3:2|2:0,2:0:0:0:
468,219,56861,2,0,B|470:199|485:153,1,67.2000008203125,2|0,2:0|0:0,2:0:0:0:
484,154,57147,2,0,B|475:125|473:110,1,44.800000546875,0|0,3:0|2:0,0:0:0:0:
466,9,57433,2,0,P|487:15|510:19,1,44.800000546875,2|0,2:0|2:0,2:0:0:0:
387,68,57719,2,0,P|364:71|343:77,1,44.800000546875,2|0,2:0|2:0,2:0:0:0:
165,43,58004,6,0,P|208:31|253:30,1,89.60000109375,0|0,3:2|3:2,2:0:0:0:
269,113,58433,1,0,3:0:0:0:
269,113,58576,1,0,3:0:0:0:
327,2,58719,1,2,2:0:0:0:
269,113,58861,6,0,P|278:139|280:200,1,89.60000109375,2|2,3:2|3:2,2:0:0:0:
279,200,59219,1,0,3:0:0:0:
279,200,59290,1,0,3:0:0:0:
354,248,59433,2,0,B|369:250|404:261,1,44.800000546875,0|0,3:0|0:0,0:0:0:0:
277,328,59719,5,2,3:2:0:0:
277,328,59861,2,0,P|325:337|371:352,1,89.60000109375,0|0,3:0|2:0,0:0:0:0:
213,265,60290,2,0,B|193:263|147:248,1,67.2000008203125,2|0,3:2|2:0,2:0:0:0:
148,248,60576,2,0,B|133:250|98:261,1,44.800000546875,2|0,3:2|2:0,2:0:0:0:
9,192,60861,2,0,B|37:200|52:202,1,44.800000546875,2|0,2:0|2:0,2:0:0:0:
29,281,61147,1,0,3:0:0:0:
29,281,61290,1,0,3:0:0:0:
115,141,61433,6,0,B|119:88|134:110|134:47,1,89.60000109375,2|0,3:2|2:0,2:0:0:0:
225,8,61861,1,0,3:0:0:0:
281,60,62004,2,0,B|279:75|268:110,1,44.800000546875,0|0,3:0|2:0,2:0:0:0:
351,179,62290,2,0,B|366:177|401:166,1,44.800000546875,0|0,3:2|2:0,2:0:0:0:
283,233,62576,2,0,B|254:224|239:222,1,44.800000546875,0|0,3:2|2:0,2:0:0:0:
355,292,62861,2,0,B|363:320|365:335,1,44.800000546875,0|0,3:0|3:0,0:0:0:0:
365,335,63076,1,0,3:0:0:0:
365,335,63147,6,0,P|390:288|391:235,1,89.60000109375,2|0,3:2|2:0,2:0:0:0:
345,164,63576,2,0,P|350:119|373:81,1,89.60000109375,2|0,3:2|2:0,2:0:0:0:
476,34,64004,1,2,3:2:0:0:
401,9,64147,1,2,2:0:0:0:
447,127,64290,2,0,B|462:125|491:116,1,44.800000546875,2|0,2:0|2:0,2:0:0:0:
361,84,64576,2,0,B|332:75|317:73,1,44.800000546875,2|0,2:0|2:0,2:0:0:0:
244,3,64861,6,0,P|205:25|161:30,1,89.60000109375,2|0,3:2|2:0,2:0:0:0:
75,77,65290,1,0,2:0:0:0:
43,8,65433,2,0,B|22:7|-14:25,1,44.800000546875,2|0,3:2|2:0,2:0:0:0:
142,153,65719,2,0,B|141:132|153:110,1,44.800000546875,2|0,3:2|2:0,2:0:0:0:
52,160,66004,2,0,B|51:181|63:203,1,44.800000546875,0|0,3:0|3:0,0:0:0:0:
62,202,66219,1,0,3:0:0:0:
62,202,66290,1,0,3:0:0:0:
145,251,66433,1,0,0:0:0:0:
80,320,66576,6,0,P|153:294|231:286,1,151.199995385742,6|0,3:2|2:0,2:0:0:0:
374,225,67147,2,0,P|329:213|275:206,1,100.799996923828,2|2,2:0|3:2,2:0:0:0:
316,298,67576,1,0,2:0:0:0:
189,205,67719,2,0,B|190:193|201:156,1,50.3999984619141,2|0,2:0|0:0,2:0:0:0:
271,73,68004,2,0,B|272:84|283:121,1,50.3999984619141,2|0,2:0|0:0,2:0:0:0:
282,121,68219,1,0,2:0:0:0:
282,121,68290,6,0,B|339:112|312:98|376:86,1,100.799996923828,6|0,3:2|2:0,2:0:0:0:
452,157,68719,1,0,3:0:0:0:
495,89,68861,2,0,B|496:78|507:41,1,50.3999984619141,0|0,3:0|3:0,0:0:0:0:
433,163,69147,2,0,B|432:174|421:211,1,50.3999984619141,2|0,3:2|2:0,2:0:0:0:
484,291,69433,1,2,2:0:0:0:
484,291,69719,1,0,3:0:0:0:
365,357,70004,6,0,P|310:338|255:324,1,100.799996923828,6|0,3:2|2:0,2:0:0:0:
181,372,70433,1,0,2:0:0:0:
124,317,70576,2,0,B|90:320|57:330,1,50.3999984619141,2|0,3:2|0:0,2:0:0:0:
179,247,70861,2,0,B|212:251|229:256,1,50.3999984619141,2|0,3:2|2:0,2:0:0:0:
89,162,71147,2,0,B|100:199|101:210,1,50.3999984619141,2|0,3:2|2:0,2:0:0:0:
214,137,71433,2,0,B|225:100|226:89,1,50.3999984619141,2|0,3:2|2:0,2:0:0:0:
0,82,71719,6,0,P|73:56|151:48,1,151.199995385742,2|0,3:2|3:0,2:0:0:0:
213,11,72290,1,0,3:0:0:0:
320,160,72576,2,0,B|357:171|368:172,1,50.3999984619141,2|0,3:2|2:0,2:0:0:0:
246,110,72861,2,0,P|197:123|149:139,1,100.799996923828,2|0,3:2|3:0,0:0:0:0:
82,182,73290,1,0,0:0:0:0:
161,277,73433,6,0,B|152:334|132:299|126:371,1,100.799996923828,6|0,3:2|2:0,2:0:0:0:
226,383,73861,1,0,2:0:0:0:
298,350,74004,2,0,B|311:325|310:302,1,50.3999984619141,2|0,2:0|2:0,2:0:0:0:
377,231,74290,2,0,B|375:254|389:278,1,50.3999984619141,2|0,3:2|2:0,2:0:0:0:
266,237,74576,2,0,B|229:248|218:249,1,50.3999984619141,2|0,3:2|0:0,2:0:0:0:
382,357,74861,2,0,B|419:368|430:369,1,50.3999984619141,2|0,3:2|0:0,2:0:0:0:
494,263,75147,6,0,P|496:204|512:147,1,100.799996923828,6|0,3:2|2:0,2:0:0:0:
415,32,75576,2,0,P|426:80|427:131,1,100.799996923828,0|0,3:0|2:0,0:0:0:0:
299,173,76004,2,0,B|288:172|251:161,1,50.3999984619141,0|0,3:0|2:0,2:0:0:0:
250,160,76219,1,0,0:0:0:0:
250,160,76290,2,0,B|239:161|202:172,1,50.3999984619141,2|0,3:2|2:0,2:0:0:0:
119,128,76576,1,0,3:0:0:0:
190,93,76719,1,0,0:0:0:0:
67,185,76861,6,0,P|65:126|49:69,1,100.799996923828,6|0,3:2|2:0,2:0:0:0:
138,233,77290,2,0,P|140:292|156:349,1,100.799996923828,0|0,2:0|2:0,0:0:0:0:
219,364,77719,1,0,3:0:0:0:
16,314,78004,2,0,B|31:308|65:305,1,50.3999984619141,2|0,3:2|0:0,2:0:0:0:
152,329,78290,1,0,2:0:0:0:
91,382,78433,1,0,2:0:0:0:
242,276,78576,6,0,B|317:287|271:313|366:321,2,113.599994279785,6|0|0,3:2|2:0|2:0,2:0:0:0:
173,202,79290,1,0,2:0:0:0:
277,178,79433,2,0,B|292:179|345:195,1,56.7999971398927,0|0,3:0|2:0,2:0:0:0:
200,98,79719,2,0,B|185:99|132:115,1,56.7999971398927,0|0,3:0|3:0,0:0:0:0:
144,111,79933,1,0,3:0:0:0:
144,111,80004,1,2,3:2:0:0:
75,71,80147,1,0,2:0:0:0:
255,21,80290,6,0,P|356:41|495:111,1,256,6|0,3:2|2:0,2:0:0:0:
492,108,81861,1,0,2:0:0:0:
504,190,82004,6,0,B|498:205|498:218,11,18.6666660970052,2|0|0|0|0|0|0|0|0|0|0|0,2:0|2:0|2:0|2:0|2:0|2:0|2:0|2:0|2:0|2:0|2:0|2:0,2:0:0:0:
432,165,82575,2,0,B|419:165|404:171,7,18.6666660970052,2|0|0|0|0|0|0|0,2:0|2:0|2:0|2:0|2:0|2:0|2:0|2:0,2:0:0:0:
431,251,83004,5,2,2:0:0:0:
431,251,83075,1,2,2:0:0:0:
431,251,83146,1,2,2:0:0:0:
359,285,83289,2,0,B|353:300|350:334,1,50.3999984619141,2|2,2:0|2:0,0:0:0:0:
416,375,83575,1,2,2:0:0:0:
487,341,83718,1,2,2:0:0:0:
244,239,84289,6,0,P|167:250|90:265,1,151.199995385742,6|0,3:2|2:0,2:0:0:0:
94,263,84861,2,0,P|103:228|109:195,1,58.400001604004,2|0,3:2|2:0,2:0:0:0:
22,147,85146,1,2,2:0:0:0:
22,147,85289,1,2,2:0:0:0:
115,27,85432,2,0,P|122:55|128:83,1,58.400001604004,6|0,3:2|2:0,2:0:0:0:
128,83,85718,2,0,P|161:95|201:103,1,58.400001604004,2|2,2:0|2:0,0:0:0:0:
266,192,86004,2,0,P|303:187|379:164,1,96,6|0,3:2|2:0,2:0:0:0:
359,171,86289,2,0,P|368:208|380:250,1,64,2|0,2:0|0:0,2:0:0:0:
425,370,86575,5,6,3:2:0:0:
425,370,86861,1,0,2:0:0:0:
485,312,87004,1,0,2:0:0:0:
342,313,87146,2,0,P|316:307|256:290,1,64,2|2,3:2|2:0,0:0:0:0:
181,262,87432,1,2,2:0:0:0:
181,262,87575,1,2,2:0:0:0:
294,185,87718,2,0,P|344:178|415:157,1,96,6|0,3:2|2:0,2:0:0:0:
388,166,88004,2,0,P|401:202|404:241,1,64,2|2,2:0|2:0,0:0:0:0:
233,114,88289,6,0,P|251:91|299:60,1,64,6|2,3:2|2:0,2:0:0:0:
206,202,88575,1,2,2:0:0:0:
206,202,88718,1,0,0:0:0:0:
85,173,88861,6,0,P|27:142|2:66,2,128,6|0|2,3:2|2:0|3:2,2:0:0:0:
246,142,89718,1,0,2:0:0:0:
246,142,89861,1,0,2:0:0:0:
178,75,90004,2,0,P|167:38|160:-8,1,64,2|0,3:2|0:0,2:0:0:0:
162,13,90289,2,0,P|200:23|238:29,1,64,0|0,2:0|2:0,0:0:0:0:
416,107,90575,5,6,3:2:0:0:
342,139,90718,1,2,2:0:0:0:
304,72,90861,1,2,2:0:0:0:
373,37,91004,1,0,0:0:0:0:
416,107,91146,6,0,P|410:168|391:247,1,128,6|0,3:2|2:0,2:0:0:0:
333,275,91575,1,0,2:0:0:0:
413,368,91718,2,0,B|426:333|430:286,1,64,2|0,3:2|2:0,2:0:0:0:
266,193,92004,2,0,B|253:228|249:275,1,64,2|0,2:0|0:0,2:0:0:0:
173,320,92289,6,0,P|123:332|84:357,1,96,0|0,3:0|0:0,0:0:0:0:
85,355,92575,2,0,P|45:343|13:337,1,64,2|2,2:0|2:0,0:0:0:0:
19,205,92861,5,2,3:2:0:0:
19,205,93004,1,0,0:0:0:0:
141,250,93146,1,0,2:0:0:0:
141,250,93432,6,0,P|161:183|173:112,1,128,6|0,3:2|2:0,2:0:0:0:
91,123,93861,1,2,2:0:0:0:
231,224,94004,2,0,P|250:182|257:148,1,64,0|0,3:0|2:0,0:0:0:0:
349,34,94289,2,0,P|330:76|323:110,1,64,2|0,2:0|0:0,2:0:0:0:
325,93,94504,1,0,2:0:0:0:
325,93,94575,1,2,3:2:0:0:
389,172,94718,2,0,P|436:200|518:213,1,128,2|0,2:0|0:0,0:0:0:0:
307,247,95146,2,0,P|308:311|325:383,2,128,2|2|6,3:2|2:0|3:2,2:0:0:0:
307,247,96004,5,0,2:0:0:0:
307,247,96146,1,0,2:0:0:0:
393,287,96289,2,0,P|428:296|479:315,1,64,0|0,3:0|2:0,2:0:0:0:
247,354,96575,2,0,P|206:345|165:329,1,64,2|0,2:0|0:0,2:0:0:0:
154,186,96861,5,2,3:2:0:0:
213,245,97004,1,2,2:0:0:0:
41,282,97146,2,0,P|72:275|102:265,1,64,2|0,2:0|2:0,2:0:0:0:
270,168,97432,6,0,P|265:218|292:306,1,128,2|0,3:2|2:0,2:0:0:0:
357,338,97861,1,0,2:0:0:0:
369,183,98004,6,0,B|381:99|477:90,1,128,6|0,3:2|2:0,2:0:0:0:
475,167,98432,1,2,2:0:0:0:
311,70,98575,2,0,B|349:78|385:97,1,64,2|0,3:2|2:0,2:0:0:0:
196,105,98861,2,0,B|158:97|122:78,1,64,2|0,2:0|0:0,2:0:0:0:
247,10,99146,5,2,3:2:0:0:
289,105,99289,2,0,P|287:155|248:246,1,128,2|0,2:0|0:0,0:0:0:0:
107,334,99718,2,0,P|102:290|101:248,1,64,2|2,3:2|2:0,2:0:0:0:
287,313,100004,2,0,P|292:357|293:399,1,64,2|0,2:0|0:0,2:0:0:0:
189,292,100289,5,6,3:2:0:0:
353,241,100432,2,0,P|419:231|503:228,1,128,0|2,0:0|2:0,0:0:0:0:
306,157,100861,2,0,P|267:146|231:131,1,64,2|0,3:2|2:0,2:0:0:0:
73,37,101146,2,0,P|112:48|143:62,1,64,2|2,1:2|1:2,0:0:0:0:
50,307,101432,6,0,P|45:250|113:151,1,160,6|0,3:2|2:0,2:0:0:0:
294,262,101861,2,0,B|307:300|306:354,1,80,6|0,3:2|0:0,2:0:0:0:
168,252,102146,1,0,2:0:0:0:
406,230,102289,2,0,P|453:240|501:258,1,80,6|0,3:2|0:0,2:0:0:0:
193,155,102575,6,0,B|195:92|163:117|173:26,1,120,6|0,3:2|2:0,2:0:0:0:
172,39,102861,1,2,2:0:0:0:
366,5,103004,2,0,P|362:20|348:96,1,80,6|0,3:2|0:0,2:0:0:0:
384,156,103289,1,0,2:0:0:0:
266,227,103432,5,2,2:0:0:0:
266,227,103504,1,2,2:0:0:0:
266,227,103575,1,2,2:0:0:0:
266,227,103646,1,2,2:0:0:0:
266,227,103718,2,0,P|278:185|284:134,1,80,2|0,3:2|2:0,0:0:0:0:
423,325,104004,1,2,2:0:0:0:
331,278,104146,1,0,0:0:0:0:
433,223,104289,2,0,B|478:228|527:214,1,80,6|0,3:2|2:0,2:0:0:0:
218,349,104575,2,0,B|176:340|124:358,1,80,2|2,2:0|2:0,0:0:0:0:
138,353,104789,1,2,2:0:0:0:
138,353,104861,6,0,B|140:248|95:291|104:171,1,160,6|0,3:2|2:0,2:0:0:0:
179,85,105289,1,6,3:2:0:0:
111,51,105432,2,0,P|65:42|16:25,1,80,0|0,2:0|2:0,0:0:0:0:
105,159,105718,1,6,3:2:0:0:
21,324,105861,2,0,P|82:281|181:302,1,160,4|6,1:1|3:2,0:0:0:0:
362,115,106289,2,0,P|313:114|270:128,1,80,6|0,1:2|2:0,2:0:0:0:
357,359,106575,6,0,P|361:315|373:264,1,80,6|0,3:2|1:0,2:0:0:0:
174,66,106861,2,0,P|168:105|151:166,1,80,0|2,1:0|1:2,2:0:0:0:
158,182,107075,1,2,2:0:0:0:
154,217,107146,6,0,P|234:209|332:207,1,160,6|2,3:2|2:0,2:0:0:0:
368,279,107575,1,6,3:2:0:0:
481,185,107718,2,0,B|471:147|465:91,1,80,0|0,0:0|2:0,0:0:0:0:
334,22,108004,2,0,B|283:116|349:191,1,160,2|0,1:2|3:0,2:0:0:0:
433,352,108432,1,2,2:0:0:0:
458,233,108575,1,2,1:2:0:0:
342,273,108718,1,2,1:2:0:0:
433,352,108861,6,0,B|489:355|522:363,1,80,6|0,3:2|0:0,2:0:0:0:
226,221,109146,2,0,B|170:218|137:210,1,80,6|2,3:2|0:0,2:0:0:0:
146,212,109361,1,2,2:0:0:0:
146,212,109432,6,0,P|145:279|102:371,1,160,6|0,3:2|2:0,2:0:0:0:
33,275,109861,1,0,1:0:0:0:
67,135,110004,1,2,3:2:0:0:
33,275,110146,1,0,2:0:0:0:
155,299,110289,2,0,P|205:309|259:328,1,80,2|2,2:0|2:0,0:0:0:0:
458,189,110575,6,0,P|455:123|376:41,1,176.000005371094,6|0,3:2|2:0,2:0:0:0:
185,211,111004,2,0,P|252:269|362:256,1,176.000005371094,6|0,3:2|2:0,2:0:0:0:
181,0,111432,2,0,P|149:29|116:120,1,132.00000402832,6|0,3:2|2:0,2:0:0:0:
116,110,111718,6,0,B|70:105|37:95,1,80,6|0,3:2|0:0,2:0:0:0:
35,231,112004,1,0,2:0:0:0:
118,295,112146,2,0,B|203:272|189:333|294:296,1,160,6|0,3:2|2:0,2:0:0:0:
408,243,112575,1,2,1:2:0:0:
272,176,112718,1,2,1:2:0:0:
358,122,112861,2,0,P|353:178|352:212,1,80,2|0,3:2|3:0,0:0:0:0:
179,209,113146,2,0,P|184:153|185:119,1,80,2|0,0:0|1:0,0:0:0:0:
182,350,113432,6,0,B|135:365|94:369,1,80,6|0,3:2|2:0,2:0:0:0:
378,276,113718,2,0,B|408:278|455:293,1,80,4|2,1:0|2:2,0:0:0:0:
455,293,113932,1,2,0:0:0:0:
455,293,114004,2,0,P|480:224|471:122,1,160,6|0,3:2|2:0,2:0:0:0:
335,83,114432,1,6,2:0:0:0:
278,137,114575,2,0,P|244:147|174:155,1,80,0|0,3:0|2:0,0:0:0:0:
302,281,114861,2,0,P|336:271|406:263,1,80,6|0,2:0|0:0,2:0:0:0:
80,297,115146,5,0,3:0:0:0:
246,365,115289,1,0,0:0:0:0:
80,297,115432,2,0,B|67:257|62:213|61:208,1,80,8|4,2:3|2:3,0:0:0:0:
285,67,115718,2,0,B|292:108|303:151|304:156,1,80,2|0,3:2|1:0,2:0:0:0:
301,145,115932,1,0,1:0:0:0:
301,145,116004,1,0,1:2:0:0:
201,218,116146,1,0,3:0:0:0:
51,96,116289,5,6,3:2:0:0:
51,96,116575,1,0,2:0:0:0:
51,96,116718,1,0,1:0:0:0:
192,15,116861,2,0,B|205:54|210:109,1,80,2|0,3:2|2:0,2:0:0:0:
0,199,117146,5,2,1:2:0:0:
0,199,117289,1,0,3:0:0:0:
119,332,117432,2,0,B|122:283|104:200,1,120,0|0,3:0|0:0,0:0:0:0:
107,212,117718,2,0,P|149:211|199:193,1,80,0|0,1:0|1:0,0:0:0:0:
270,152,118004,2,0,P|334:118|432:156,1,160,2|0,3:2|2:0,2:0:0:0:
483,225,118432,1,0,2:0:0:0:
414,340,118575,6,0,P|346:327|247:318,1,160,6|0,3:2|2:0,2:0:0:0:
141,358,119004,1,0,2:0:0:0:
129,240,119146,1,2,3:2:0:0:
129,240,119432,2,0,P|173:232|220:215,1,80,2|0,3:2|2:0,2:0:0:0:
0,217,119718,1,0,3:0:0:0:
98,97,119861,1,0,1:0:0:0:
206,220,120004,6,0,P|266:229|348:261,1,120,0|0,1:0|0:0,0:0:0:0:
321,248,120289,1,2,3:2:0:0:
506,104,120432,2,0,P|470:109|415:124,1,80,0|2,0:0|3:2,0:0:0:0:
267,53,120718,5,2,2:0:0:0:
267,53,120789,1,2,0:0:0:0:
267,53,120861,2,0,P|200:12|98:42,1,160,6|0,3:2|2:0,2:0:0:0:
21,10,121289,1,0,2:0:0:0:
37,165,121432,2,0,P|41:208|56:270,1,80,2|0,3:2|2:0,2:0:0:0:
193,190,121718,2,0,P|189:147|174:85,1,80,2|0,2:0|2:0,2:0:0:0:
202,304,122004,6,0,P|253:329|371:334,1,160,0|0,3:0|1:0,0:0:0:0:
451,301,122432,1,0,1:0:0:0:
381,212,122575,2,0,P|332:199|277:193,1,80,2|0,3:2|0:0,2:0:0:0:
202,208,122861,2,0,P|162:201|124:190,1,80,2|0,3:2|2:0,2:0:0:0:
330,47,123146,6,0,P|251:58|197:125,1,160,6|0,3:2|2:0,2:0:0:0:
257,252,123575,1,0,2:0:0:0:
411,122,123718,2,0,P|419:161|424:200,1,80,2|0,3:2|2:0,2:0:0:0:
391,288,124004,2,0,P|397:331|409:382,1,80,2|0,2:0|2:0,2:0:0:0:
488,236,124289,6,0,P|426:216|322:209,1,160,6|0,3:2|2:0,2:0:0:0:
257,252,124718,1,0,0:0:0:0:
171,245,124861,2,0,P|81:235|46:183,1,120,0|0,2:0|0:0,0:0:0:0:
62,217,125146,2,0,L|76:126,1,80,2|2,2:0|2:0,0:0:0:0:
161,34,125432,6,0,P|224:31|286:13,1,128,6|0,3:2|2:0,2:0:0:0:
381,108,125860,1,2,2:0:0:0:
381,108,126003,2,0,P|350:99|318:98,1,64,0|2,2:0|2:0,0:0:0:0:
251,160,126289,1,2,3:2:0:0:
176,114,126432,1,2,2:0:0:0:
330,227,126574,2,0,B|327:245|313:289,1,64,6|0,3:2|0:0,2:0:0:0:
105,215,126860,2,0,B|123:212|167:198,1,64,6|0,3:2|0:0,2:0:0:0:
378,329,127146,6,0,P|301:340|224:355,1,128,6|0,3:2|2:0,2:0:0:0:
36,255,127574,2,0,P|98:266|162:275,1,128,2|0,2:0|2:0,2:0:0:0:
244,231,128003,1,2,3:2:0:0:
167,187,128146,1,2,3:2:0:0:
343,126,128289,2,0,B|344:109|361:52,1,67.1999979492188,6|0,3:2|0:0,2:0:0:0:
167,187,128574,2,0,B|118:202|101:203,1,67.1999979492188,0|0,1:0|1:0,0:0:0:0:
101,203,128789,1,0,1:0:0:0:
101,203,128860,6,0,B|112:129|138:175|146:80,1,134.399995898438,6|0,3:2|2:0,2:0:0:0:
28,21,129289,1,2,2:0:0:0:
28,21,129574,1,0,2:0:0:0:
66,92,129717,1,2,3:2:0:0:
150,73,129860,1,2,3:2:0:0:
274,182,130003,2,0,P|312:170|352:169,1,67.1999979492188,6|0,3:2|0:0,2:0:0:0:
122,254,130289,2,0,P|83:242|43:241,1,67.1999979492188,6|0,3:2|0:0,2:0:0:0:
273,356,130574,6,0,P|340:343|407:334,1,134.399995898438,6|0,3:2|2:0,2:0:0:0:
236,111,131003,2,0,P|223:178|214:245,1,134.399995898438,6|0,3:2|2:0,2:0:0:0:
340,168,131432,2,0,P|351:129|352:89,1,67.1999979492188,2|2,2:0|2:0,2:0:0:0:
256,0,131717,1,6,1:2:0:0:
256,0,131860,1,0,3:0:0:0:
437,70,132003,1,6,3:2:0:0:
244,117,132146,1,2,1:2:0:0:
348,181,132289,1,6,2:0:0:0:
162,62,132717,6,0,P|118:52|55:45,1,89.60000109375,0|2,0:0|0:0,0:0:0:0:
10,138,133146,2,0,P|1:115|-2:81,1,44.800000546875,2|0,0:2|0:0,0:0:0:0:
73,46,133432,5,2,0:0:0:0:
125,211,133717,1,2,0:0:0:0:
48,356,134003,5,2,0:0:0:0:
48,356,134146,2,0,P|91:346|154:339,1,89.60000109375,2|2,0:0|0:0,0:0:0:0:
136,340,134717,5,0,0:0:0:0:
208,367,134860,1,2,0:0:0:0:
280,347,135003,1,0,0:0:0:0:
351,373,135146,2,0,P|361:367|394:360,1,44.800000546875,2|0,0:0|0:0,0:0:0:0:
469,384,135432,2,0,P|475:374|482:341,1,44.800000546875,2|0,0:0|0:0,0:0:0:0:
411,227,135717,5,2,0:0:0:0:
411,227,135860,2,0,P|417:168|441:133,2,89.60000109375,2|2|2,0:0|0:0|0:0,0:0:0:0:
348,274,136574,1,2,0:0:0:0:
348,274,136717,1,0,0:0:0:0:
264,215,136860,2,0,P|287:206|321:203,1,44.800000546875,2|0,0:0|0:0,0:0:0:0:
256,296,137146,2,0,P|233:292|213:283,1,44.800000546875,2|0,0:0|0:0,0:0:0:0:
166,169,137432,5,2,0:0:0:0:
99,210,137574,1,2,0:0:0:0:
99,210,137860,2,0,P|89:166|82:103,1,89.60000109375,2|0,0:0|0:0,0:0:0:0:
144,72,138289,1,2,0:0:0:0:
79,27,138432,1,0,0:0:0:0:
144,72,138574,2,0,P|154:66|187:59,1,44.800000546875,2|0,0:0|0:0,0:0:0:0:
298,122,138860,1,2,0:0:0:0:
351,66,139003,1,0,0:0:0:0:
430,136,139146,5,2,0:0:0:0:
430,136,139289,2,0,P|421:156|417:178,1,44.800000546875,2|0,0:0|0:0,0:0:0:0:
355,287,139574,2,0,P|349:228|325:193,1,89.60000109375,2|2,0:0|0:0,0:0:0:0:
442,262,140003,2,0,P|464:265|484:275,1,44.800000546875,2|0,0:0|0:0,0:0:0:0:
324,366,140289,5,2,0:0:0:0:
163,306,140574,2,0,P|140:302|120:292,1,44.800000546875,2|0,0:0|0:0,0:0:0:0:
88,198,140860,5,2,0:0:0:0:
88,198,141003,2,0,P|45:188|-18:181,2,89.60000109375,2|2|2,0:0|0:0|0:0,0:0:0:0:
160,169,141717,1,2,0:0:0:0:
203,102,141860,1,0,0:0:0:0:
158,37,142003,2,0,P|135:40|115:50,1,44.800000546875,2|0,0:0|0:0,0:0:0:0:
203,102,142289,2,0,P|223:111|245:115,1,44.800000546875,2|0,0:0|0:0,0:0:0:0:
380,72,142574,5,2,0:0:0:0:
379,71,142717,2,0,P|399:111|401:156,1,89.60000109375,0|2,0:0|0:0,0:0:0:0:
286,242,143289,1,2,0:0:0:0:
286,242,143432,2,0,P|283:219|273:199,1,44.800000546875,2|0,0:0|0:0,0:0:0:0:
96,97,143717,5,2,0:0:0:0:
166,204,144003,1,2,0:0:0:0:
39,36,144289,5,6,2:0:0:0:
116,14,144432,2,0,B|141:21|178:28,1,55.9999982910157,2|0,2:0|2:0,2:0:0:0:
96,97,144717,2,0,P|68:145|67:200,1,111.999996582031,2|0,2:0|2:0,2:0:0:0:
114,270,145146,1,2,2:0:0:0:
114,270,145289,1,2,2:0:0:0:
43,331,145432,5,2,2:0:0:0:
126,379,145574,1,2,2:0:0:0:
191,322,145717,1,6,2:0:0:0:
116,278,145860,1,2,2:0:0:0:
260,245,146003,6,0,P|326:257|393:267,1,134.399995898438,6|0,3:2|2:0,2:0:0:0:
483,349,146432,1,2,2:0:0:0:
512,278,146574,2,0,B|508:259|494:213,1,67.1999979492188,0|0,2:0|2:0,0:0:0:0:
362,131,146860,1,2,3:2:0:0:
417,191,147003,1,0,2:0:0:0:
484,53,147146,6,0,P|444:39|402:34,1,67.1999979492188,6|0,3:2|0:0,2:0:0:0:
225,160,147432,2,0,P|258:166|289:178,1,67.1999979492188,6|2,3:2|2:0,2:0:0:0:
289,178,147646,1,2,2:0:0:0:
289,178,147717,2,0,P|323:119|325:53,1,134.399995898438,6|0,3:2|2:0,2:0:0:0:
196,0,148146,1,2,2:0:0:0:
196,0,148432,1,2,2:0:0:0:
118,27,148574,2,0,P|105:58|99:91,1,67.1999979492188,2|2,3:2|2:0,0:0:0:0:
252,206,148860,5,2,3:2:0:0:
187,116,149003,1,2,2:0:0:0:
96,188,149146,1,2,2:0:0:0:
289,121,149289,1,0,3:0:0:0:
289,121,149360,1,0,3:0:0:0:
289,121,149432,6,0,P|355:133|422:143,1,134.399995898438,6|0,3:2|2:0,2:0:0:0:
512,249,149860,1,2,2:0:0:0:
460,305,150003,2,0,P|429:292|396:286,1,67.1999979492188,0|0,2:0|2:0,0:0:0:0:
248,361,150289,2,0,P|278:373|311:379,1,67.1999979492188,6|0,3:2|2:0,0:0:0:0:
72,198,150574,6,0,B|65:220|60:263,1,67.1999979492188,6|0,3:2|0:0,2:0:0:0:
235,103,150860,2,0,B|240:60|246:37,1,67.1999979492188,6|0,3:2|2:0,2:0:0:0:
246,36,151074,1,2,2:0:0:0:
246,36,151146,2,0,P|303:2|369:0,1,134.399995898438,6|0,3:2|2:0,2:0:0:0:
139,118,151574,2,0,P|76:96|9:89,1,134.399995898438,6|0,3:2|2:0,2:0:0:0:
156,18,152003,1,6,3:2:0:0:
51,0,152146,1,6,3:2:0:0:
234,138,152289,2,0,P|227:171|215:203,1,67.1999979492188,0|0,1:0|1:0,2:0:0:0:
128,296,152574,1,2,1:2:0:0:
192,345,152717,1,2,1:2:0:0:
356,273,152860,6,0,P|365:206|377:140,1,134.399995898438,6|0,3:2|2:0,2:0:0:0:
439,48,153289,1,2,2:0:0:0:
369,14,153432,2,0,P|336:20|305:32,1,67.1999979492188,0|0,3:0|2:0,0:0:0:0:
465,186,153717,2,0,P|471:153|483:122,1,67.1999979492188,2|0,3:2|0:0,2:0:0:0:
258,223,154003,2,0,P|225:229|194:241,1,67.1999979492188,6|0,3:2|0:0,2:0:0:0:
392,363,154289,2,0,P|422:350|455:344,1,67.1999979492188,6|0,3:2|2:0,2:0:0:0:
455,344,154503,1,2,2:0:0:0:
455,344,154574,6,0,B|379:332|415:313|329:297,1,134.399995898438,6|0,3:2|2:0,2:0:0:0:
140,380,155003,2,0,P|134:313|102:254,1,134.399995898438,6|0,3:2|0:0,2:0:0:0:
23,144,155432,1,0,2:0:0:0:
15,238,155574,1,0,2:0:0:0:
175,112,155717,2,0,B|152:106|109:101,1,67.1999979492188,6|0,3:2|0:0,2:0:0:0:
293,253,156003,2,0,B|316:247|359:242,1,67.1999979492188,6|0,3:2|2:0,2:0:0:0:
359,241,156217,1,0,2:0:0:0:
359,241,156289,6,0,P|371:175|381:108,1,134.399995898438,6|0,3:2|2:0,2:0:0:0:
319,25,156717,1,6,3:2:0:0:
393,0,156860,2,0,P|426:6|457:18,1,67.1999979492188,0|0,0:0|2:0,0:0:0:0:
302,100,157146,2,0,B|252:114|236:116,1,67.1999979492188,2|0,3:2|2:0,2:0:0:0:
76,45,157432,5,6,3:2:0:0:
174,12,157574,1,2,2:0:0:0:
140,121,157717,1,6,3:2:0:0:
42,154,157859,1,2,3:2:0:0:
185,206,158003,6,0,P|185:272|167:337,1,134.399995898438,6|0,3:2|2:0,2:0:0:0:
58,365,158432,1,2,2:0:0:0:
18,301,158574,1,0,2:0:0:0:
18,301,158860,2,0,B|66:283|82:280,1,67.1999979492188,2|2,3:2|2:0,0:0:0:0:
269,366,159146,6,0,B|255:316|253:300,1,67.1999979492188,2|2,3:2|2:0,0:0:0:0:
308,223,159432,1,2,3:2:0:0:
194,149,159574,1,2,2:0:0:0:
194,149,159646,1,0,0:0:0:0:
194,149,159717,6,0,B|112:161|149:129|46:146,1,134.399995898438,2|0,3:2|2:0,2:0:0:0:
17,80,160146,1,2,2:0:0:0:
117,21,160289,2,0,P|153:31|219:35,1,88.8000021679688,0|0,0:0|2:0,0:0:0:0:
203,36,160574,2,0,L|208:111,1,59.2000014453125,2|0,3:2|0:0,0:0:0:0:
381,37,160860,2,0,P|346:54|308:64,1,59.2000014453125,2|0,2:0|2:0,2:0:0:0:
222,179,161146,1,2,0:0:0:0:
365,179,161432,6,0,B|440:167|422:193|507:186,1,118.400002890625,2|0,3:2|2:0,2:0:0:0:
446,260,161860,1,0,3:0:0:0:
486,362,162003,1,0,2:0:0:0:
486,362,162289,2,0,L|373:350,1,88.8000021679688,2|0,3:2|3:0,0:0:0:0:
397,352,162574,2,0,L|380:284,1,59.2000014453125,2|0,2:0|2:0,2:0:0:0:
241,197,162860,2,0,L|231:277,1,59.2000014453125,2|2,3:2|2:0,2:0:0:0:
233,255,163074,1,0,0:0:0:0:
233,255,163146,6,0,P|179:282|145:353,1,118.400002890625,2|0,3:2|0:2,3:2:0:0:
79,369,163574,1,2,2:0:0:0:
2,233,163717,2,0,L|13:297,1,59.2000014453125,0|0,0:0|2:0,0:0:0:0:
102,196,164003,6,0,P|131:191|159:183,1,59.2000014453125,2|0,3:2|2:0,2:0:0:0:
250,323,164289,2,0,P|271:326|292:332,2,39.4666676302084,2|2|2,0:0|2:0|2:0,2:0:0:0:
231,331,164574,2,0,P|238:290|246:267,1,59.2000014453125,2|0,3:2|2:0,2:0:0:0:
365,181,164860,6,0,P|424:176|449:244,1,118.400002890625,2|0,3:2|2:0,2:0:0:0:
255,192,165289,2,0,P|237:157|252:78,1,118.400002890625,2|0,3:2|2:0,2:0:0:0:
427,16,165717,1,2,3:2:0:0:
368,102,165860,1,0,2:0:0:0:
251,11,166003,2,0,L|323:21,1,59.2000014453125,2|0,3:2|3:2,0:0:0:0:
111,136,166289,2,0,P|142:133|185:123,1,59.2000014453125,2|0,3:2|0:0,0:0:0:0:
340,204,166574,6,0,P|388:197|495:247,1,143.999995605469,6|0,3:2|2:0,2:0:0:0:
499,375,167003,1,6,3:2:0:0:
390,313,167146,2,0,P|342:301|295:295,1,71.9999978027344,0|0,0:0|2:0,0:0:0:0:
159,323,167432,1,2,3:2:0:0:
300,384,167574,1,2,3:2:0:0:
171,252,167717,6,0,P|166:287|159:323,1,71.9999978027344,6|0,3:2|0:0,2:0:0:0:
361,183,168003,2,0,P|326:180|290:174,1,71.9999978027344,6|2,3:2|3:2,2:0:0:0:
47,100,168289,6,0,P|103:58|197:79,1,143.999995605469,6|0,3:2|2:0,2:0:0:0:
312,155,168717,2,0,P|366:164|448:90,1,143.999995605469,2|0,3:2|2:0,0:0:0:0:
361,34,169146,1,2,3:2:0:0:
361,34,169289,1,0,3:0:0:0:
130,164,169432,6,0,P|169:157|212:153,1,71.9999978027344,6|0,3:2|0:0,2:0:0:0:
384,196,169717,1,6,3:2:0:0:
276,63,169860,1,0,3:0:0:0:
293,241,170003,6,0,B|279:322|320:294|295:399,1,143.999995605469,6|0,3:2|2:0,2:0:0:0:
216,295,170432,1,6,3:2:0:0:
96,371,170574,2,0,L|110:297,1,71.9999978027344,0|0,0:0|2:0,0:0:0:0:
192,196,170860,2,0,P|155:200|105:213,1,71.9999978027344,2|2,3:2|3:2,2:0:0:0:
284,116,171146,5,6,3:2:0:0:
314,207,171289,1,2,3:2:0:0:
204,91,171432,1,6,3:2:0:0:
388,152,171574,1,2,3:2:0:0:
178,258,171717,2,0,B|87:245|131:286|17:253,1,143.999995605469,6|0,3:2|2:0,0:0:0:0:
66,189,172146,1,6,3:2:0:0:
11,75,172289,2,0,L|136:62,1,107.999996704102
118,63,172574,2,0,L|128:148,1,71.9999978027344,2|2,3:2|2:0,2:0:0:0:
231,207,172860,5,2,3:2:0:0:
268,108,173003,1,2,3:2:0:0:
374,137,173146,5,2,3:2:0:0:
390,213,173289,1,2,3:2:0:0:
479,131,173432,5,2,2:0:0:0:
479,131,174003,2,0,P|473:93|477:16,1,95.9999970703126,2|0,2:0|0:0,0:0:0:0:
473,35,174574,1,2,2:0:0:0:
368,84,174860,1,2,2:0:0:0:
217,32,175146,5,2,2:0:0:0:
223,39,175217,1,0,0:0:0:0:
261,331,176860,6,0,P|276:275|284:218,1,95.9999970703126,2|0,2:0|0:0,2:0:0:0:
282,237,177432,2,0,P|319:248|378:270,1,95.9999970703126,2|0,2:0|0:0,0:0:0:0:
171,196,178003,1,2,2:0:0:0:
330,83,178289,1,2,2:0:0:0:
171,196,178574,6,0,P|133:200|32:81,1,191.999994140625,2|0,2:0|2:0,2:0:0:0:
123,19,179289,1,0,0:0:0:0:
245,93,179432,2,0,P|206:86|166:72,1,71.9999978027344,2|0,2:0|0:0,0:0:0:0:
176,77,179717,2,0,L|187:137,1,47.9999985351563,2|0,2:0|0:0,2:0:0:0:
181,199,180003,1,0,2:0:0:0:
314,111,180289,6,0,P|356:97|489:101,1,167.999994873047,2|0,3:2|0:0,2:0:0:0:
478,98,180860,2,0,P|474:156|481:214,1,95.9999970703126,2|0,2:0|0:0,0:0:0:0:
332,314,181432,1,2,2:0:0:0:
433,190,181717,1,2,2:0:0:0:
427,351,182003,5,2,2:0:0:0:
420,358,182074,2,0,B|270:323|301:404|148:348,1,263.99999194336
160,352,183146,1,0,2:0:0:0:
294,48,183717,6,0,P|296:104|308:209,1,143.999995605469,2|0,2:0|0:0,2:0:0:0:
228,149,184289,2,0,L|163:164,1,47.9999985351563,0|0,2:0|0:0,0:0:0:0:
211,229,184574,1,2,2:0:0:0:
133,310,184717,1,2,2:0:0:0:
133,310,184860,2,0,L|208:326,1,71.9999978027344,2|0,2:0|0:0,0:0:0:0:
203,325,185146,2,0,L|209:388,1,47.9999985351563,2|0,2:0|0:0,0:0:0:0:
375,289,185432,6,0,P|390:233|327:103,1,191.999994140625,2|2,2:0|2:0,2:0:0:0:
47,208,187074,5,0,0:0:0:0:
57,217,187146,2,0,P|98:209|193:209,1,120.000004577637,6|0,3:2|2:0,2:0:0:0:
240,256,187574,1,0,2:0:0:0:
312,226,187717,2,0,P|306:197|303:162,1,60.0000022888184,2|0,2:0|2:0,2:0:0:0:
218,98,188003,2,0,P|177:103|142:112,1,60.0000022888184,2|0,3:2|2:0,2:0:0:0:
158,107,188289,1,2,2:0:0:0:
341,52,188574,2,0,P|367:67|409:81,1,60.0000022888184,2|0,2:0|0:0,2:0:0:0:
444,185,188860,6,0,P|435:247|434:316,1,120.000004577637,6|0,3:2|2:0,2:0:0:0:
489,370,189289,1,0,3:0:0:0:
365,323,189432,1,0,3:0:0:0:
278,369,189574,1,0,3:0:0:0:
289,294,189717,2,0,P|285:278|275:219,1,60.0000022888184,2|0,3:2|2:0,2:0:0:0:
92,342,190003,2,0,P|98:323|118:246,1,90.0000034332277,2|0,2:0|0:0,2:0:0:0:
115,255,190289,2,0,L|181:278,1,60.0000022888184,0|0,3:0|0:0,0:0:0:0:
197,110,190574,6,0,P|201:181|304:216,1,180.000006866455,6|0,3:2|2:0,2:0:0:0:
386,306,191146,1,2,3:2:0:0:
455,225,191289,1,0,2:0:0:0:
386,306,191432,2,0,P|390:335|387:371,1,60.0000022888184,2|0,3:2|2:0,2:0:0:0:
280,211,191717,6,0,P|299:186|348:159,1,60.0000022888184,2|0,3:2|0:0,2:0:0:0:
198,371,192003,2,0,P|165:359|134:330,1,60.0000022888184,2|0,3:2|2:0,2:0:0:0:
12,236,192289,6,0,P|48:205|255:196,1,240.000009155274,2|0,3:2|3:0,2:0:0:0:
284,239,193003,1,0,2:0:0:0:
420,229,193146,2,0,P|417:194|431:133,1,90.0000034332277,2|0,3:2|0:0,2:0:0:0:
427,140,193432,2,0,P|413:143|357:149,1,60.0000022888184,2|0,3:2|0:0,0:0:0:0:
280,42,193717,2,0,P|314:50|340:54,1,60.0000022888184,0|0,3:0|0:0,0:0:0:0:
207,216,194003,6,0,B|139:204|163:237|65:209,1,120.000004577637,6|0,3:2|2:0,2:0:0:0:
164,298,194432,1,0,2:0:0:0:
29,354,194574,2,0,L|130:368,1,90.0000034332277,2|0,2:0|0:0,2:0:0:0:
118,366,194860,2,0,L|108:295,1,60.0000022888184,2|0,3:2|2:0,2:0:0:0:
65,135,195146,6,0,P|53:171|45:221,1,60.0000022888184,2|0,3:2|0:0,2:0:0:0:
238,297,195432,2,0,P|250:261|258:211,1,60.0000022888184,2|0,3:2|0:0,2:0:0:0:
197,68,195717,6,0,P|222:114|341:140,1,180.000006866455,6|0,3:2|3:0,2:0:0:0:
409,57,196289,1,0,3:0:0:0:
292,2,196432,1,0,2:0:0:0:
292,2,196574,2,0,P|285:36|280:72,1,60.0000022888184,0|0,3:0|2:0,2:0:0:0:
371,155,196860,6,0,P|405:152|455:141,1,60.0000022888184,2|0,3:2|2:0,2:0:0:0:
320,248,197146,1,0,3:0:0:0:
403,277,197289,1,0,0:0:0:0:
222,202,197432,6,0,P|180:202|91:223,1,120.000004577637,6|0,3:2|2:0,2:0:0:0:
4,123,197860,2,0,P|39:137|61:151,1,60.0000022888184,0|0,2:0|3:0,0:0:0:0:
158,72,198146,1,0,2:0:0:0:
158,72,198289,2,0,P|151:35|149:4,1,60.0000022888184,0|0,3:0|3:0,0:0:0:0:
287,194,198574,6,0,P|262:216|228:235,1,60.0000022888184,2|0,3:2|0:0,2:0:0:0:
371,13,198860,2,0,P|404:26|439:49,1,60.0000022888184,0|0,2:0|2:0,0:0:0:0:
406,118,199146,2,0,B|381:255|450:216|411:373,1,240.000009155274,6|0,3:2|2:0,2:0:0:0:
338,324,199860,1,0,2:0:0:0:
238,360,200003,2,0,L|132:378,1,90.0000034332277,0|0,3:0|0:0,2:0:0:0:
149,375,200289,2,0,P|150:343|160:305,1,60.0000022888184,0|0,3:0|3:0,0:0:0:0:
323,174,200574,2,0,P|329:203|330:233,1,60.0000022888184,2|0,3:2|2:0,2:0:0:0:
166,176,200860,6,0,P|183:124|276:73,1,160,6|0,3:2|0:0,2:0:0:0:
366,143,202289,1,0,2:0:0:0:
502,83,202574,6,0,B|507:56,18,18.6666660970052,2|0|0|0|0|0|0|0|0|0|0|0|2|0|0|0|0|0|0,2:0|2:0|2:0|2:0|2:0|2:0|2:0|2:0|2:0|2:0|2:0|2:0|2:0|2:0|2:0|2:0|2:0|2:0|2:0,2:0:0:0:
398,159,203574,1,2,2:0:0:0:
398,159,203645,1,2,2:0:0:0:
398,159,203716,1,2,2:0:0:0:
469,218,203859,1,2,2:0:0:0:
400,276,204002,2,0,P|391:308|388:350,1,55.9999982910157,2|2,2:0|2:0,0:0:0:0:
289,222,204288,2,0,P|249:214|209:212,1,67.6000012635803,2|0,2:0|0:0,2:0:0:0:
122,357,204574,2,0,P|155:355|189:348,1,67.6000012635803
25,256,204859,6,0,P|14:179|-1:102,1,151.199995385742,6|0,3:2|2:0,2:0:0:0:
99,0,205431,2,0,P|87:33|79:73,1,58.400001604004,2|0,3:2|2:0,2:0:0:0:
135,138,205716,1,2,2:0:0:0:
135,138,205859,1,2,2:0:0:0:
216,95,206002,6,0,P|221:76|229:63,4,29.200000802002,6|0|0|0|2,3:2|2:0|2:0|2:0|2:0,2:0:0:0:
219,194,206431,1,2,2:0:0:0:
295,152,206574,2,0,P|324:158|354:159,1,58.400001604004,6|0,3:2|0:0,2:0:0:0:
216,258,206859,2,0,P|222:229|223:199,1,58.400001604004,2|0,2:0|0:0,2:0:0:0:
411,110,207145,6,0,P|400:167|391:225,1,116.800003208008,6|0,3:2|2:0,2:0:0:0:
432,291,207574,1,0,2:0:0:0:
346,345,207716,2,0,P|318:336|288:335,1,58.400001604004,2|2,3:2|2:0,0:0:0:0:
220,373,208002,1,2,2:0:0:0:
220,373,208145,1,2,2:0:0:0:
138,320,208288,6,0,P|123:323|110:329,4,29.200000802002,6|0|0|0|2,3:2|2:0|2:0|2:0|2:0,2:0:0:0:
222,274,208716,1,2,2:0:0:0:
135,219,208859,2,0,P|101:227|75:231,1,58.400001604004,6|2,3:2|2:0,2:0:0:0:
222,274,209145,2,0,P|256:282|282:286,1,58.400001604004,2|0,2:0|0:0,2:0:0:0:
225,167,209431,6,0,B|237:99|204:123|232:25,2,116.800003208008,6|0|2,3:2|2:0|3:2,2:0:0:0:
355,223,210288,1,0,2:0:0:0:
355,223,210431,1,0,2:0:0:0:
400,163,210574,6,0,P|392:129|388:103,1,58.400001604004,2|0,3:2|0:0,2:0:0:0:
467,76,210859,2,0,P|474:47|479:19,1,58.400001604004,0|0,2:0|2:0,0:0:0:0:
312,146,211145,2,0,P|283:152|253:153,1,58.400001604004,6|2,3:2|2:0,2:0:0:0:
446,245,211431,2,0,P|475:251|505:252,1,58.400001604004,2|0,2:0|0:0,2:0:0:0:
310,338,211716,6,0,P|240:347|170:361,1,116.800003208008,6|0,3:2|2:0,2:0:0:0:
96,308,212145,1,0,2:0:0:0:
156,255,212288,2,0,P|162:226|163:196,1,58.400001604004,2|0,3:2|2:0,2:0:0:0:
72,130,212574,2,0,P|73:159|79:187,1,58.400001604004,2|0,2:0|0:0,2:0:0:0:
193,63,212859,6,0,B|261:75|237:42|335:70,1,116.800003208008,0|2,3:0|2:0,0:0:0:0:
308,63,213216,1,2,2:0:0:0:
308,63,213288,1,2,2:0:0:0:
396,126,213431,1,2,3:2:0:0:
329,176,213574,2,0,P|340:233|349:291,1,116.800003208008,0|0,0:0|2:0,0:0:0:0:
512,301,214002,6,0,P|452:315|406:344,1,116.800003208008,6|0,3:2|2:0,2:0:0:0:
335,383,214431,1,2,2:0:0:0:
265,316,214574,2,0,P|263:286|257:258,1,58.400001604004,0|0,3:0|2:0,0:0:0:0:
140,366,214859,2,0,P|169:364|197:358,1,58.400001604004,2|0,2:0|0:0,2:0:0:0:
38,304,215145,5,2,3:2:0:0:
113,280,215288,2,0,P|137:240|144:148,1,116.800003208008,2|0,2:0|0:0,0:0:0:0:
231,105,215716,2,0,P|235:125|235:173,1,58.400001604004,2|2,3:2|2:0,2:0:0:0:
317,66,216002,1,2,2:0:0:0:
317,66,216288,6,0,P|359:77|437:112,1,116.800003208008,6|0,3:2|2:0,2:0:0:0:
486,193,216716,1,0,2:0:0:0:
393,241,216859,2,0,P|393:211|398:183,1,58.400001604004,0|0,3:0|2:0,2:0:0:0:
476,283,217145,2,0,P|480:311|481:340,1,58.400001604004,2|0,2:0|0:0,2:0:0:0:
347,319,217431,5,2,3:2:0:0:
407,372,217574,1,2,2:0:0:0:
347,319,217716,2,0,P|317:320|289:326,1,58.400001604004,2|0,2:0|2:0,2:0:0:0:
192,236,218002,2,0,B|180:168|213:192|185:94,1,116.800003208008,2|0,3:2|2:0,2:0:0:0:
255,72,218431,1,0,2:0:0:0:
112,182,218574,6,0,P|72:158|-20:151,1,116.800003208008,6|0,3:2|2:0,2:0:0:0:
116,275,219002,1,2,2:0:0:0:
190,246,219145,2,0,P|218:251|247:253,1,58.400001604004,2|0,3:2|2:0,2:0:0:0:
116,275,219431,2,0,P|86:276|58:282,1,58.400001604004,2|0,2:0|0:0,2:0:0:0:
12,346,219716,5,2,3:2:0:0:
185,336,219859,2,0,P|243:339|312:371,1,116.800003208008,2|0,2:0|0:0,0:0:0:0:
383,313,220288,2,0,P|377:285|376:256,1,58.400001604004,2|2,3:2|2:0,2:0:0:0:
295,185,220574,2,0,P|293:214|287:242,1,58.400001604004,2|0,2:0|0:0,2:0:0:0:
483,197,220859,6,0,P|459:163|379:124,1,116.800003208008,6|0,3:2|2:0,2:0:0:0:
213,225,221288,1,2,2:0:0:0:
87,44,221431,2,0,B|76:75|77:120,1,58.400001604004,2|0,3:2|2:0,2:0:0:0:
295,58,221716,2,0,B|263:47|218:48,1,58.400001604004,2|2,1:2|1:2,0:0:0:0:
20,186,222002,6,0,P|87:152|180:151,1,160,6|0,3:2|2:0,2:0:0:0:
362,130,222431,2,0,P|387:173|383:220,1,80,6|0,3:2|0:0,2:0:0:0:
230,39,222716,1,0,2:0:0:0:
261,255,222859,2,0,P|221:275|171:276,1,80,6|0,3:2|0:0,2:0:0:0:
12,376,223145,6,0,P|81:351|156:357,1,125.999996154785,6|0,3:2|2:0,2:0:0:0:
133,351,223431,1,2,2:0:0:0:
48,221,223574,2,0,P|52:179|75:126,1,83.9999974365235,6|0,3:2|0:0,2:0:0:0:
164,97,223859,1,0,2:0:0:0:
0,36,224002,1,2,2:0:0:0:
0,36,224074,1,2,2:0:0:0:
0,36,224145,1,2,2:0:0:0:
0,36,224216,1,2,2:0:0:0:
0,36,224288,6,0,P|44:35|93:18,1,83.9999974365235,2|0,3:2|2:0,0:0:0:0:
247,151,224574,1,2,2:0:0:0:
164,97,224716,1,0,0:0:0:0:
349,141,224859,2,0,P|353:123|351:51,1,83.9999974365235,6|0,3:2|2:0,2:0:0:0:
160,205,225145,2,0,P|164:223|162:295,1,83.9999974365235,2|2,2:0|2:0,0:0:0:0:
163,288,225359,1,2,2:0:0:0:
163,288,225431,6,0,B|268:290|225:245|345:254,1,167.999994873047,6|0,3:2|2:0,2:0:0:0:
419,374,225859,1,6,3:2:0:0:
491,290,226002,2,0,P|502:249|503:207,1,83.9999974365235,0|0,2:0|2:0,0:0:0:0:
379,14,226288,2,0,P|387:94|389:192,1,167.999994873047,6|0,3:2|2:0,2:0:0:0:
494,89,226716,1,6,3:2:0:0:
285,142,226859,2,0,B|238:127|197:123,1,83.9999974365235,6|0,1:2|2:0,2:0:0:0:
58,192,227145,5,6,3:2:0:0:
206,263,227288,1,0,1:0:0:0:
30,323,227431,1,0,1:0:0:0:
153,377,227574,1,2,1:2:0:0:
153,377,227645,1,2,2:0:0:0:
153,377,227716,6,0,B|258:379|215:334|335:343,1,167.999994873047,6|2,3:2|2:0,2:0:0:0:
448,124,228145,1,6,3:2:0:0:
361,193,228288,2,0,B|364:227|379:274,1,83.9999974365235,0|0,0:0|2:0,0:0:0:0:
496,382,228574,2,0,P|504:298|506:214,1,167.999994873047,2|0,1:2|3:0,2:0:0:0:
338,83,229002,1,2,2:0:0:0:
361,193,229145,1,2,1:2:0:0:
448,124,229288,1,2,1:2:0:0:
338,83,229431,6,0,B|304:86|257:101,1,83.9999974365235,6|0,3:2|0:0,2:0:0:0:
111,263,229716,2,0,B|145:266|192:281,1,83.9999974365235,6|2,3:2|0:2,2:0:0:0:
192,281,229931,1,2,2:0:0:0:
192,281,230002,6,0,P|109:311|19:303,1,167.999994873047,6|0,3:2|2:0,2:0:0:0:
240,363,230431,1,0,1:0:0:0:
304,288,230574,2,0,P|345:277|387:276,1,83.9999974365235,2|0,3:2|2:0,2:0:0:0:
265,119,230859,2,0,P|254:160|253:202,1,83.9999974365235,2|2,2:0|2:0,0:0:0:0:
252,201,231074,1,2,2:0:0:0:
252,201,231145,6,0,P|318:198|400:119,1,176.000005371094,6|0,3:2|2:0,2:0:0:0:
156,33,231574,2,0,P|98:100|111:210,1,176.000005371094,6|0,3:2|2:0,2:0:0:0:
359,66,232002,2,0,P|330:34|239:1,1,132.00000402832,6|0,3:2|2:0,2:0:0:0:
248,2,232288,6,0,P|234:41|227:83,1,83.9999974365235,6|0,3:2|0:0,2:0:0:0:
262,235,232574,1,0,2:0:0:0:
343,160,232716,2,0,B|394:254|328:329,1,167.999994873047,6|0,3:2|2:0,2:0:0:0:
208,359,233145,2,0,B|174:356|127:341,1,83.9999974365235,2|2,1:2|1:2,0:0:0:0:
10,299,233431,5,2,3:2:0:0:
120,253,233574,1,2,1:2:0:0:
14,109,233716,2,0,P|16:151|27:192,1,83.9999974365235,2|0,2:0|0:0,2:0:0:0:
198,114,234002,2,0,P|209:73|210:31,1,83.9999974365235,6|0,3:2|2:0,2:0:0:0:
302,294,234288,2,0,B|349:279|383:276,1,83.9999974365235,0|2,2:0|2:0,0:0:0:0:
383,275,234502,1,2,0:0:0:0:
383,275,234574,6,0,B|381:170|426:213|417:93,1,167.999994873047,6|0,3:2|2:0,2:0:0:0:
344,52,235002,1,6,2:0:0:0:
280,99,235145,2,0,P|240:109|193:114,1,83.9999974365235,0|0,3:0|2:0,0:0:0:0:
427,204,235431,2,0,P|467:214|513:219,1,83.9999974365235,6|0,2:0|0:0,2:0:0:0:
236,270,235716,5,0,3:0:0:0:
393,361,235859,1,0,0:0:0:0:
236,270,236002,2,0,P|196:280|149:285,1,83.9999974365235,0|0,2:0|2:0,0:0:0:0:
4,227,236288,1,2,3:2:0:0:
153,284,236431,1,0,2:0:0:0:
53,329,236574,1,0,1:2:0:0:
128,134,236716,1,2,2:0:0:0:
128,134,236788,1,2,0:0:0:0:
128,134,236859,6,0,P|194:137|299:162,1,167.999994873047,6|0,3:2|2:0,2:0:0:0:
462,235,237288,2,0,P|396:238|291:263,1,167.999994873047,0|0,1:0|2:0,0:0:0:0:
197,354,237716,2,0,P|192:312|182:271,1,83.9999974365235,2|0,1:2|2:0,2:0:0:0:
278,76,238002,2,0,P|288:117|292:159,1,83.9999974365235,0|0,3:0|3:0,0:0:0:0:
103,225,238288,1,0,1:0:0:0:
103,225,238431,1,0,1:0:0:0:
1,109,238574,2,0,P|65:75|163:113,1,167.999994873047,2|0,3:2|2:0,2:0:0:0:
200,183,239002,1,0,2:0:0:0:
234,343,239145,6,0,P|302:330|401:321,1,167.999994873047,6|0,3:2|2:0,2:0:0:0:
367,217,239574,1,0,2:0:0:0:
508,353,239716,1,2,3:2:0:0:
507,352,240002,2,0,P|503:310|493:270,1,83.9999974365235,2|0,3:2|2:0,2:0:0:0:
398,96,240288,5,0,3:0:0:0:
493,270,240431,1,0,1:0:0:0:
261,293,240574,2,0,P|268:227|284:163,1,125.999996154785,0|0,1:0|0:0,0:0:0:0:
282,169,240859,1,2,3:2:0:0:
123,80,241002,2,0,P|163:69|205:65,1,83.9999974365235,0|2,0:0|3:2,0:0:0:0:
338,347,241288,1,2,2:0:0:0:
338,347,241359,1,2,0:0:0:0:
338,347,241431,6,0,P|271:306|169:336,1,167.999994873047,6|0,3:2|2:0,2:0:0:0:
85,377,241859,1,0,2:0:0:0:
30,253,242002,2,0,P|40:212|44:170,1,83.9999974365235,2|0,3:2|2:0,2:0:0:0:
166,66,242288,2,0,P|176:106|180:148,1,83.9999974365235,2|0,2:0|2:0,2:0:0:0:
327,342,242574,6,0,P|311:259|305:175,1,167.999994873047,0|0,3:0|1:0,0:0:0:0:
432,107,243002,1,0,1:0:0:0:
512,227,243145,2,0,B|465:212|431:209,1,83.9999974365235,2|0,3:2|0:0,2:0:0:0:
257,81,243431,2,0,B|304:66|338:63,1,83.9999974365235,2|0,3:2|2:0,2:0:0:0:
417,337,243716,6,0,P|335:317|251:308,1,167.999994873047,6|0,3:2|2:0,2:0:0:0:
182,351,244145,1,0,2:0:0:0:
57,296,244288,2,0,P|16:229|46:127,1,167.999994873047,2|2,3:2|2:0,2:0:0:0:
195,38,244716,1,2,2:0:0:0:
195,38,244788,1,2,0:0:0:0:
195,38,244859,6,0,P|175:119|166:203,1,167.999994873047,6|0,3:2|2:0,2:0:0:0:
220,260,245288,1,0,0:0:0:0:
319,208,245431,2,0,P|409:198|463:161,1,125.999996154785,0|0,2:0|0:0,0:0:0:0:
438,181,245716,2,0,L|424:90,1,83.9999974365235,2|2,2:0|2:0,0:0:0:0:
319,208,246002,5,6,0:0:0:0:
360,341,246144,1,2,0:0:0:0:
360,341,246430,2,0,B|322:317|251:315,1,95.9999970703126,2|0,0:0|0:0,0:0:0:0:
138,363,246859,6,0,P|102:305|70:205,1,160,2|0,0:0|0:0,0:0:0:0:
72,218,247287,2,0,P|77:189|92:134,1,64,2|0,0:0|0:0,0:0:0:0:
160,82,247573,1,2,0:0:0:0:
54,64,247716,2,0,P|41:61|21:56,2,32,2|2|2,0:0|0:0|0:0,0:0:0:0:
177,186,248002,2,0,B|206:170|257:179,1,64,2|2,0:0|0:0,0:0:0:0:
149,296,248287,5,6,0:0:0:0:
318,247,248430,2,0,P|371:267|431:266,1,96,2|0,0:0|0:0,0:0:0:0:
409,268,248716,2,0,B|395:221|387:153,1,95.9999970703126,2|0,0:0|0:0,0:0:0:0:
342,3,249144,6,0,P|308:52|295:147,1,128,2|0,0:0|0:0,0:0:0:0:
438,39,249573,1,2,0:0:0:0:
293,117,249716,1,2,0:0:0:0:
134,32,249859,2,0,B|159:39|196:46,1,64,2|0,0:0|0:0,0:0:0:0:
293,117,250144,5,2,0:0:0:0:
191,245,250287,1,2,0:0:0:0:
196,46,250573,5,6,0:0:0:0:
282,226,250716,1,2,0:0:0:0:
196,46,250859,1,2,0:0:0:0:
96,297,251430,6,0,P|55:239|53:136,1,167.999994873047,2|0,0:0|0:0,0:0:0:0:
128,65,252002,2,0,B|147:94|157:132,1,55.9999982910157,2|0,0:0|0:0,0:0:0:0:
153,239,252287,5,2,0:0:0:0:
261,173,252502,1,2,0:0:0:0:
152,115,252716,1,2,0:0:0:0:
261,173,252859,5,6,0:0:0:0:
251,61,253002,1,2,0:0:0:0:
221,318,253287,6,0,P|273:304|345:309,1,111.999996582031,2|0,0:0|0:0,0:0:0:0:
450,356,253716,5,2,0:0:0:0:
103,282,254287,5,6,0:0:0:0:
256,192,254359,12,2,256144,0:0:0:0:
484,129,256288,6,0,P|395:129|309:202,1,192,6|2,0:0|0:0,0:0:0:0:
283,276,256860,1,2,0:0:0:0:
392,235,257002,1,2,0:0:0:0:
316,189,257145,1,2,0:0:0:0:
402,330,257288,1,2,0:0:0:0:
512,292,257431,5,6,0:0:0:0:
512,292,257574,1,2,0:0:0:0:
135,330,258288,5,6,0:0:0:0:
256,192,258359,12,0,262002,0:0:0:0:
