osu file format v14

[General]
AudioFilename: audio.mp3
AudioLeadIn: 0
PreviewTime: 36549
Countdown: 1
SampleSet: Soft
StackLeniency: 0.7
Mode: 1
LetterboxInBreaks: 0
WidescreenStoryboard: 0

[Editor]
Bookmarks: 26549,51332,51766,53071
DistanceSpacing: 1.7
BeatDivisor: 4
GridSize: 32
TimelineZoom: 1.8

[Metadata]
Title:Rakuen Toshi (TV Size)
TitleUnicode:楽園都市 (TV サイズ )
Artist:Masayoshi Oishi
ArtistUnicode:大石昌良
Creator:chinotauku
Version:Ura Oni
Source:Cop Craft
Tags:コップクラフト Cop Craft Paradise City Animation Opeing Song
BeatmapID:2124473
BeatmapSetID:1015096

[Difficulty]
HPDrainRate:4
CircleSize:6
OverallDifficulty:7
ApproachRate:6
SliderMultiplier:1.4
SliderTickRate:1

[Events]
//Background and Video events
//Break Periods
//Storyboard Layer 0 (Background)
//Storyboard Layer 1 (Fail)
//Storyboard Layer 2 (Pass)
//Storyboard Layer 3 (Foreground)
//Storyboard Layer 4 (Overlay)
//Storyboard Sound Samples

[TimingPoints]
897,434.782608695652,4,2,0,100,1,0
53071,-100,4,2,0,100,0,1
87201,-100,4,2,0,100,0,0

[HitObjects]
256,192,897,5,0,0:0:0:0:
256,192,1006,1,0,0:0:0:0:
256,192,1223,1,8,0:0:0:0:
256,192,1332,1,8,0:0:0:0:
256,192,1549,1,0,0:0:0:0:
256,192,1658,1,0,0:0:0:0:
256,192,1875,1,12,0:0:0:0:
256,192,2418,1,0,0:0:0:0:
256,192,2527,1,0,0:0:0:0:
256,192,2636,1,8,0:0:0:0:
256,192,2853,1,8,0:0:0:0:
256,192,2962,1,8,0:0:0:0:
256,192,3071,1,0,0:0:0:0:
256,192,3179,1,0,0:0:0:0:
256,192,3288,1,0,0:0:0:0:
256,192,3505,1,8,0:0:0:0:
256,192,3614,1,8,0:0:0:0:
256,192,3723,1,0,0:0:0:0:
256,192,3831,1,0,0:0:0:0:
256,192,3940,1,12,0:0:0:0:
256,192,4375,1,0,0:0:0:0:
256,192,4484,1,0,0:0:0:0:
256,192,4701,1,8,0:0:0:0:
256,192,4810,1,8,0:0:0:0:
256,192,5027,1,0,0:0:0:0:
256,192,5136,1,0,0:0:0:0:
256,192,5353,1,8,0:0:0:0:
256,192,5462,1,8,0:0:0:0:
256,192,5679,1,0,0:0:0:0:
256,192,5897,1,12,0:0:0:0:
256,192,6875,1,0,0:0:0:0:
256,192,6984,1,8,0:0:0:0:
256,192,7310,1,0,0:0:0:0:
256,192,7745,1,0,0:0:0:0:
256,192,7853,1,8,0:0:0:0:
256,192,8070,1,8,0:0:0:0:
256,192,8288,1,0,0:0:0:0:
256,192,8396,1,0,0:0:0:0:
256,192,8505,1,8,0:0:0:0:
256,192,8614,1,8,0:0:0:0:
256,192,8723,1,0,0:0:0:0:
256,192,8940,1,8,0:0:0:0:
256,192,9049,1,8,0:0:0:0:
256,192,9158,1,0,0:0:0:0:
256,192,9593,1,12,0:0:0:0:
256,192,10027,1,8,0:0:0:0:
256,192,10245,1,0,0:0:0:0:
256,192,10462,1,8,0:0:0:0:
256,192,10571,1,8,0:0:0:0:
256,192,10679,1,0,0:0:0:0:
256,192,10897,1,0,0:0:0:0:
256,192,11114,1,0,0:0:0:0:
256,192,11332,1,8,0:0:0:0:
256,192,11549,1,0,0:0:0:0:
256,192,11766,1,8,0:0:0:0:
256,192,11875,1,0,0:0:0:0:
256,192,12092,1,8,0:0:0:0:
256,192,12201,1,0,0:0:0:0:
256,192,12418,1,0,0:0:0:0:
256,192,12527,1,0,0:0:0:0:
256,192,12636,1,6,0:0:0:0:
256,192,13071,1,8,0:0:0:0:
256,192,13288,1,0,0:0:0:0:
256,192,13506,1,0,0:0:0:0:
256,192,13723,1,8,0:0:0:0:
256,192,13940,1,0,0:0:0:0:
256,192,14158,1,0,0:0:0:0:
256,192,14375,1,8,0:0:0:0:
256,192,14593,1,8,0:0:0:0:
256,192,14810,1,4,0:0:0:0:
256,192,15136,1,4,0:0:0:0:
256,192,15462,1,4,0:0:0:0:
256,192,15897,1,0,0:0:0:0:
256,192,16114,1,8,0:0:0:0:
256,192,16331,1,0,0:0:0:0:
256,192,16440,1,0,0:0:0:0:
256,192,16549,1,12,0:0:0:0:
256,192,16875,1,0,0:0:0:0:
256,192,16984,1,8,0:0:0:0:
256,192,17201,1,14,0:0:0:0:
256,192,17636,1,0,0:0:0:0:
256,192,17853,1,8,0:0:0:0:
256,192,18070,1,0,0:0:0:0:
256,192,18179,1,0,0:0:0:0:
256,192,18288,1,12,0:0:0:0:
256,192,18614,1,8,0:0:0:0:
256,192,18723,1,0,0:0:0:0:
256,192,18940,1,12,0:0:0:0:
256,192,19375,1,0,0:0:0:0:
256,192,19593,1,8,0:0:0:0:
256,192,19810,1,0,0:0:0:0:
256,192,19919,1,0,0:0:0:0:
256,160,20027,1,12,0:0:0:0:
256,160,20245,1,0,0:0:0:0:
256,160,20462,1,8,0:0:0:0:
256,160,20571,1,8,0:0:0:0:
256,160,20679,1,0,0:0:0:0:
256,192,20897,1,0,0:0:0:0:
256,192,21114,1,0,0:0:0:0:
256,192,21332,1,8,0:0:0:0:
256,192,21549,1,8,0:0:0:0:
256,192,21766,1,4,0:0:0:0:
256,192,22092,1,0,0:0:0:0:
256,192,22419,1,12,0:0:0:0:
256,192,22527,1,12,0:0:0:0:
96,192,23071,2,0,L|160:192,2,35
256,192,23506,1,4,0:0:0:0:
256,192,23940,1,8,0:0:0:0:
256,192,24158,1,0,0:0:0:0:
256,192,24375,1,8,0:0:0:0:
256,192,24483,1,8,0:0:0:0:
256,192,24592,1,0,0:0:0:0:
256,192,24810,1,0,0:0:0:0:
256,192,25027,1,8,0:0:0:0:
256,192,25245,1,8,0:0:0:0:
256,192,25462,1,0,0:0:0:0:
256,192,25679,1,0,0:0:0:0:
256,192,25788,1,0,0:0:0:0:
256,192,26006,1,8,0:0:0:0:
256,192,26114,1,0,0:0:0:0:
256,192,26332,1,0,0:0:0:0:
256,192,26440,1,0,0:0:0:0:
256,192,26549,1,12,0:0:0:0:
256,192,26766,1,0,0:0:0:0:
256,192,26983,1,8,0:0:0:0:
256,192,27419,1,0,0:0:0:0:
256,192,27636,1,0,0:0:0:0:
256,192,27853,1,8,0:0:0:0:
256,192,27962,1,0,0:0:0:0:
256,192,28070,1,8,0:0:0:0:
256,192,28288,1,8,0:0:0:0:
256,192,28505,1,0,0:0:0:0:
256,192,28614,1,8,0:0:0:0:
256,192,28723,1,4,0:0:0:0:
256,192,29049,1,4,0:0:0:0:
256,192,29375,1,12,0:0:0:0:
256,192,29810,1,8,0:0:0:0:
256,192,29918,1,8,0:0:0:0:
256,192,30027,1,0,0:0:0:0:
256,192,30245,1,8,0:0:0:0:
256,192,30462,1,12,0:0:0:0:
256,192,30788,1,8,0:0:0:0:
256,192,30897,1,0,0:0:0:0:
256,192,31114,1,8,0:0:0:0:
256,192,31549,1,0,0:0:0:0:
256,192,31983,1,8,0:0:0:0:
256,192,32201,1,12,0:0:0:0:
256,192,32419,1,0,0:0:0:0:
256,192,32527,1,8,0:0:0:0:
256,192,32853,1,12,0:0:0:0:
256,192,33288,1,0,0:0:0:0:
256,192,33506,1,8,0:0:0:0:
256,192,33614,1,8,0:0:0:0:
256,192,33723,1,0,0:0:0:0:
256,192,33940,1,12,0:0:0:0:
256,192,34158,1,0,0:0:0:0:
256,192,34375,1,0,0:0:0:0:
256,192,34593,1,8,0:0:0:0:
256,192,34810,1,0,0:0:0:0:
256,192,35027,1,8,0:0:0:0:
256,192,35136,1,8,0:0:0:0:
256,192,35245,1,0,0:0:0:0:
256,192,35462,1,12,0:0:0:0:
256,192,35897,1,4,0:0:0:0:
256,192,36114,1,8,0:0:0:0:
256,192,36332,1,0,0:0:0:0:
256,192,36549,1,0,0:0:0:0:
256,192,36658,1,0,0:0:0:0:
256,192,36766,1,8,0:0:0:0:
256,192,36875,1,8,0:0:0:0:
256,192,36984,1,0,0:0:0:0:
256,192,37093,1,0,0:0:0:0:
256,192,37201,1,0,0:0:0:0:
256,192,37419,1,12,0:0:0:0:
256,192,38288,1,0,0:0:0:0:
256,192,38506,1,8,0:0:0:0:
256,192,38614,1,0,0:0:0:0:
256,192,38940,1,0,0:0:0:0:
256,192,39158,1,8,0:0:0:0:
256,192,39375,1,0,0:0:0:0:
256,192,39484,1,8,0:0:0:0:
256,192,39918,1,0,0:0:0:0:
256,192,40027,1,8,0:0:0:0:
256,192,40245,1,0,0:0:0:0:
256,192,40353,1,8,0:0:0:0:
256,192,40462,1,0,0:0:0:0:
256,192,40571,1,0,0:0:0:0:
256,192,40679,1,8,0:0:0:0:
256,192,40897,1,0,0:0:0:0:
256,192,41549,1,0,0:0:0:0:
256,192,41766,1,8,0:0:0:0:
256,192,41983,1,0,0:0:0:0:
256,192,42092,1,0,0:0:0:0:
256,192,42201,1,4,0:0:0:0:
256,192,42636,1,4,0:0:0:0:
256,192,42853,1,8,0:0:0:0:
256,192,43071,1,0,0:0:0:0:
256,192,43288,1,8,0:0:0:0:
256,192,43506,1,0,0:0:0:0:
256,192,43723,1,8,0:0:0:0:
256,192,43940,1,0,0:0:0:0:
256,192,44158,1,8,0:0:0:0:
256,192,44266,1,8,0:0:0:0:
256,192,44375,1,0,0:0:0:0:
256,192,44593,1,12,0:0:0:0:
256,192,45027,1,4,0:0:0:0:
256,192,45462,1,0,0:0:0:0:
256,192,45679,1,8,0:0:0:0:
256,192,45788,1,0,0:0:0:0:
256,192,45897,1,0,0:0:0:0:
256,192,46114,1,12,0:0:0:0:
256,192,46332,1,8,0:0:0:0:
256,192,46440,1,0,0:0:0:0:
256,192,46766,1,12,0:0:0:0:
256,192,47201,1,0,0:0:0:0:
256,192,47419,1,8,0:0:0:0:
256,192,47527,1,8,0:0:0:0:
256,192,47636,1,0,0:0:0:0:
256,192,47853,1,8,0:0:0:0:
256,192,48071,1,8,0:0:0:0:
256,192,48288,1,0,0:0:0:0:
256,192,48506,1,0,0:0:0:0:
256,192,48723,1,8,0:0:0:0:
256,192,48940,1,8,0:0:0:0:
256,192,49158,1,0,0:0:0:0:
256,192,49375,1,8,0:0:0:0:
256,192,49593,1,0,0:0:0:0:
256,192,49810,1,0,0:0:0:0:
256,192,50027,1,12,0:0:0:0:
256,192,50462,1,0,0:0:0:0:
256,192,50571,1,0,0:0:0:0:
256,192,50679,1,0,0:0:0:0:
256,192,50788,1,8,0:0:0:0:
256,192,51006,1,8,0:0:0:0:
256,192,51114,1,8,0:0:0:0:
256,192,51223,1,8,0:0:0:0:
256,192,51332,1,0,0:0:0:0:
256,192,51766,1,4,0:0:0:0:
256,192,52201,1,4,0:0:0:0:
256,192,52418,1,8,0:0:0:0:
256,192,52636,1,4,0:0:0:0:
256,192,53070,1,12,0:0:0:0:
256,192,53397,1,8,0:0:0:0:
256,192,53505,1,8,0:0:0:0:
256,192,53723,1,0,0:0:0:0:
256,192,53940,1,8,0:0:0:0:
256,160,54158,1,0,0:0:0:0:
256,160,54266,1,8,0:0:0:0:
256,192,54375,1,8,0:0:0:0:
256,192,54593,1,8,0:0:0:0:
256,192,54810,1,0,0:0:0:0:
256,192,55027,1,0,0:0:0:0:
256,192,55245,1,8,0:0:0:0:
256,192,55462,1,8,0:0:0:0:
256,192,55571,1,8,0:0:0:0:
256,192,55679,1,0,0:0:0:0:
256,192,55897,1,0,0:0:0:0:
256,192,56114,1,12,0:0:0:0:
64,192,56549,2,0,L|128:192,4,35
256,192,57201,1,8,0:0:0:0:
256,192,57419,1,0,0:0:0:0:
256,192,57636,1,8,0:0:0:0:
256,192,57745,1,8,0:0:0:0:
256,192,57853,1,0,0:0:0:0:
256,192,58071,1,8,0:0:0:0:
256,192,58288,1,0,0:0:0:0:
256,192,58506,1,8,0:0:0:0:
256,192,58723,1,0,0:0:0:0:
256,192,58940,1,8,0:0:0:0:
256,192,59049,1,8,0:0:0:0:
256,192,59157,1,0,0:0:0:0:
256,192,59375,1,12,0:0:0:0:
256,192,59593,1,12,0:0:0:0:
256,192,60027,1,4,0:0:0:0:
256,192,60462,1,12,0:0:0:0:
256,192,60896,1,0,0:0:0:0:
256,192,61005,1,8,0:0:0:0:
256,192,61114,1,8,0:0:0:0:
256,192,61331,1,0,0:0:0:0:
256,192,61549,1,8,0:0:0:0:
256,192,61766,1,0,0:0:0:0:
256,192,61984,1,8,0:0:0:0:
256,192,62201,1,0,0:0:0:0:
256,192,62419,1,0,0:0:0:0:
256,192,62527,1,8,0:0:0:0:
256,192,62636,1,0,0:0:0:0:
256,192,62745,1,0,0:0:0:0:
256,192,62853,1,8,0:0:0:0:
256,192,62962,1,8,0:0:0:0:
256,192,63071,1,0,0:0:0:0:
256,192,63505,1,4,0:0:0:0:
256,192,63723,1,8,0:0:0:0:
256,192,63940,1,4,0:0:0:0:
256,192,64157,1,8,0:0:0:0:
256,192,64375,1,4,0:0:0:0:
256,192,64810,1,8,0:0:0:0:
256,192,64918,1,0,0:0:0:0:
256,192,65027,1,0,0:0:0:0:
256,192,65245,1,4,0:0:0:0:
256,192,65462,1,12,0:0:0:0:
96,192,65679,2,4,L|160:192,8,35
256,192,66984,1,0,0:0:0:0:
256,192,67310,1,0,0:0:0:0:
256,192,67419,1,8,0:0:0:0:
256,192,67636,1,0,0:0:0:0:
256,192,67853,1,0,0:0:0:0:
256,192,68071,1,0,0:0:0:0:
256,192,68179,1,8,0:0:0:0:
256,192,68288,1,8,0:0:0:0:
256,192,68506,1,0,0:0:0:0:
256,192,68723,1,8,0:0:0:0:
256,192,68940,1,8,0:0:0:0:
256,192,69158,1,0,0:0:0:0:
256,192,69375,1,0,0:0:0:0:
256,192,69483,1,8,0:0:0:0:
256,192,69592,1,8,0:0:0:0:
256,192,69810,1,0,0:0:0:0:
256,192,70027,1,12,0:0:0:0:
256,192,70462,1,0,0:0:0:0:
256,192,70788,1,0,0:0:0:0:
256,192,70897,1,8,0:0:0:0:
256,192,71006,1,8,0:0:0:0:
256,192,71114,1,0,0:0:0:0:
256,192,71332,1,8,0:0:0:0:
256,192,71440,1,8,0:0:0:0:
256,192,71549,1,0,0:0:0:0:
256,192,71766,1,8,0:0:0:0:
256,192,71984,1,8,0:0:0:0:
256,192,72201,1,0,0:0:0:0:
256,192,72636,1,8,0:0:0:0:
256,192,72853,1,8,0:0:0:0:
256,192,73071,1,0,0:0:0:0:
256,192,73288,1,12,0:0:0:0:
256,192,73506,1,12,0:0:0:0:
256,192,73940,1,12,0:0:0:0:
256,192,74266,1,0,0:0:0:0:
256,192,74375,1,12,0:0:0:0:
256,192,74810,1,0,0:0:0:0:
256,192,74918,1,0,0:0:0:0:
256,192,75027,1,0,0:0:0:0:
256,192,75244,1,8,0:0:0:0:
256,192,75462,1,0,0:0:0:0:
256,192,75679,1,8,0:0:0:0:
256,192,75897,1,0,0:0:0:0:
256,192,76006,1,0,0:0:0:0:
256,192,76114,1,8,0:0:0:0:
256,192,76332,1,0,0:0:0:0:
256,192,76440,1,8,0:0:0:0:
256,192,76549,1,8,0:0:0:0:
256,192,76657,1,0,0:0:0:0:
256,192,76766,1,0,0:0:0:0:
256,192,76983,1,8,0:0:0:0:
256,192,77201,1,0,0:0:0:0:
256,192,77418,1,12,0:0:0:0:
256,192,77853,1,12,0:0:0:0:
256,192,78288,1,4,0:0:0:0:
256,192,78723,1,4,0:0:0:0:
64,192,79158,2,4,L|128:192|128:192,2,35
256,192,79593,1,0,0:0:0:0:
256,192,79810,1,12,0:0:0:0:
256,192,80245,1,8,0:0:0:0:
256,192,80462,1,0,0:0:0:0:
256,192,80571,1,0,0:0:0:0:
256,192,80679,1,0,0:0:0:0:
256,192,80897,1,12,0:0:0:0:
256,192,81549,1,0,0:0:0:0:
256,192,81766,1,0,0:0:0:0:
256,192,81875,1,0,0:0:0:0:
256,192,81984,1,8,0:0:0:0:
256,192,82201,1,0,0:0:0:0:
256,192,82419,1,4,0:0:0:0:
256,192,82636,1,4,0:0:0:0:
256,192,82853,1,8,0:0:0:0:
256,192,82962,1,8,0:0:0:0:
256,192,83071,1,0,0:0:0:0:
256,192,83288,1,8,0:0:0:0:
256,192,83396,1,0,0:0:0:0:
256,192,83614,1,8,0:0:0:0:
256,192,83831,1,0,0:0:0:0:
256,192,83940,1,8,0:0:0:0:
256,192,84157,1,8,0:0:0:0:
256,192,84375,1,4,0:0:0:0:
256,192,84592,1,0,0:0:0:0:
256,192,84701,1,0,0:0:0:0:
256,192,84810,1,8,0:0:0:0:
256,192,85027,1,8,0:0:0:0:
256,192,85136,1,0,0:0:0:0:
256,192,85353,1,8,0:0:0:0:
256,192,85462,1,8,0:0:0:0:
256,192,85571,1,0,0:0:0:0:
256,192,85679,1,8,0:0:0:0:
256,192,85788,1,8,0:0:0:0:
256,192,85896,1,8,0:0:0:0:
256,192,86114,1,12,0:0:0:0:
256,192,86331,1,8,0:0:0:0:
256,192,86440,1,8,0:0:0:0:
256,192,86549,1,0,0:0:0:0:
256,192,86766,1,4,0:0:0:0:
256,192,86984,1,12,0:0:0:0:
256,192,87201,1,4,0:0:0:0:
