osu file format v14

[General]
AudioFilename: audio.mp3
AudioLeadIn: 0
PreviewTime: 53159
Countdown: 0
SampleSet: Normal
StackLeniency: 0.4
Mode: 0
LetterboxInBreaks: 0
WidescreenStoryboard: 0

[Editor]
Bookmarks: 89614
DistanceSpacing: 1.3
BeatDivisor: 8
GridSize: 16
TimelineZoom: 1

[Metadata]
Title:Otomodachi Film
TitleUnicode:オトモダチフィルム
Artist:Masayoshi Oishi
ArtistUnicode:オーイシマサヨシ
Creator:Nozaki
Version:Extra
Source:多田くんは恋をしない
Tags:大石昌良 Tada-kun wa Koi wo Shinai Tada Never Falls in Love Doesn't tadakoi ooishi opening tv size missa1912
BeatmapID:1642836
BeatmapSetID:782344

[Difficulty]
HPDrainRate:5
CircleSize:4.3
OverallDifficulty:8
ApproachRate:9
SliderMultiplier:1.4
SliderTickRate:1

[Events]
//Background and Video events
0,0,"tadabg.jpg",0,0
//Break Periods
//Storyboard Layer 0 (Background)
//Storyboard Layer 1 (Fail)
//Storyboard Layer 2 (Pass)
//Storyboard Layer 3 (Foreground)
//Storyboard Sound Samples

[TimingPoints]
844,379.746835443038,4,1,0,70,1,0
3407,-100,4,1,0,5,0,0
3502,-100,4,1,0,70,0,0
5211,-83.3333333333333,4,1,0,70,0,0
6734,-76.9230769230769,4,1,0,70,0,0
7014,-76.9230769230769,4,1,0,5,0,0
7109,-76.9230769230769,4,1,0,70,0,0
10052,-76.9230769230769,4,1,0,5,0,0
10147,-76.9230769230769,4,1,0,70,0,0
11571,-76.9230769230769,4,1,0,5,0,0
11666,-76.9230769230769,4,1,0,70,0,0
13185,-100,4,2,0,70,0,0
19071,-76.9230769230769,4,1,0,70,0,0
23723,-76.9230769230769,4,1,0,5,0,0
23818,-76.9230769230769,4,1,0,70,0,0
24103,-76.9230769230769,4,1,0,5,0,0
24198,-76.9230769230769,4,1,0,70,0,0
25337,-100,4,2,0,70,0,0
31223,-76.9230769230769,4,1,0,70,0,0
38723,-76.9230769230769,4,1,0,5,0,0
38818,-100,4,2,0,70,0,0
47742,-76.9230769230769,4,1,0,70,0,0
48027,-76.9230769230769,4,1,0,5,0,0
48122,-76.9230769230769,4,1,0,70,0,0
48787,-76.9230769230769,4,1,0,5,0,0
48881,-76.9230769230769,4,1,0,70,0,0
49546,-76.9230769230769,4,1,0,5,0,0
49641,-76.9230769230769,4,1,0,70,0,0
50306,-76.9230769230769,4,1,0,5,0,0
50400,-76.9230769230769,4,1,0,70,0,0
54008,-76.9230769230769,4,1,0,70,0,1
57331,-76.9230769230769,4,1,0,5,0,1
57426,-76.9230769230769,4,1,0,70,0,1
57711,-76.9230769230769,4,1,0,5,0,1
57806,-76.9230769230769,4,1,0,70,0,1
66065,-76.9230769230769,4,1,0,70,0,0
66160,-76.9230769230769,4,1,0,70,0,1
77362,-76.9230769230769,4,1,0,70,0,0
77647,-76.9230769230769,4,1,0,5,0,0
77742,-76.9230769230769,4,1,0,70,0,0
78027,-76.9230769230769,4,1,0,5,0,0
78122,-76.9230769230769,4,1,0,70,0,1
78407,-76.9230769230769,4,1,0,5,0,1
78502,-76.9230769230769,4,1,0,70,0,1
81350,-100,4,2,0,70,0,0
83818,-76.9230769230769,4,1,0,70,0,0
84483,-76.9230769230769,4,1,0,5,0,0
84578,-76.9230769230769,4,1,0,70,0,0
88755,-66.6666666666667,4,1,0,70,0,0
89135,-66.6666666666667,4,1,0,30,0,0
89609,-76.9230769230769,4,1,0,5,0,0

[HitObjects]
147,206,844,5,0,0:0:0:0:
358,163,1413,5,0,0:0:0:0:
256,193,1603,1,0,0:0:0:0:
157,225,1793,1,0,0:0:0:0:
357,184,2173,5,0,0:0:0:0:
147,206,2552,1,0,0:0:0:0:
358,202,2932,5,0,0:0:0:0:
259,293,3122,2,0,P|313:273|367:290,1,105
358,202,3502,2,0,B|391:198|425:229|425:229|423:205|431:190,1,105
499,219,3881,5,0,0:0:0:0:
313,360,4261,1,0,0:0:0:0:
236,84,4641,5,0,0:0:0:0:
207,304,4831,2,0,P|260:252|310:245,1,105
357,284,5211,6,0,B|302:235|309:150|309:150|240:199|179:174|142:124|144:81|144:81|124:106|76:119,1,419.999987182618
408,197,6350,6,0,P|420:220|427:263,1,41.9999987182618
460,109,6540,2,0,P|461:82|470:51,1,41.9999987182618
308,25,6730,6,0,B|323:91|285:97|317:173,1,125.999996154785
244,197,7109,2,0,P|225:142|230:86,1,90.9999958343508
320,232,7489,2,0,P|339:287|334:343,1,90.9999958343508
157,165,7869,2,0,P|184:129|225:109,1,90.9999958343508
179,335,8249,6,0,B|81:368|100:301|-5:336,1,181.999991668702
168,251,8818,1,0,0:0:0:0:
333,335,9008,2,0,B|400:357|387:311|459:335,1,90.9999958343508
179,335,9388,6,0,P|189:364|191:381,1,45.4999979171754
268,247,9578,2,0,P|262:224|262:202,1,45.4999979171754
35,268,9768,6,0,B|108:232|108:286|185:241,1,136.499993751526
179,335,10147,2,0,P|125:344|81:337,1,90.9999958343508
157,165,10527,2,0,P|211:156|255:163,1,90.9999958343508
50,247,10907,2,0,P|26:203|20:159,1,90.9999958343508
242,61,11287,6,0,P|305:83|347:179,1,136.499993751526
348,188,11666,1,0,0:0:0:0:
147,68,11856,1,0,0:0:0:0:
385,38,12046,2,0,P|422:99|436:146,1,90.9999958343508
248,358,12426,6,0,P|202:356|185:351,1,45.4999979171754
158,231,12616,2,0,P|124:197|116:181,1,45.4999979171754
264,158,12806,2,0,P|275:113|284:96,1,45.4999979171754
308,281,12995,5,0,0:0:0:0:
308,281,13185,2,0,P|290:283|169:233,1,140
213,100,13755,2,0,P|231:98|352:148,1,140
140,316,14325,6,0,P|139:233|106:162,1,140
278,325,14894,2,0,P|254:259|256:189,1,140
342,138,15464,1,0,0:0:0:0:
342,138,15654,1,0,0:0:0:0:
118,180,15844,6,0,B|101:105|150:113|120:15,1,140
87,244,16413,2,0,P|134:235|169:245,1,70
278,325,16793,6,0,L|214:322,1,35,0|0,3:0|3:0,3:0:0:0:
360,258,16983,2,0,L|403:265,1,35,0|0,3:0|3:0,3:0:0:0:
441,358,17173,1,0,3:0:0:0:
259,230,17362,6,0,L|134:240,1,105
120,269,17742,1,0,0:0:0:0:
360,258,17932,1,0,0:0:0:0:
119,159,18122,1,0,0:0:0:0:
333,153,18312,1,0,0:0:0:0:
187,369,18502,5,0,3:0:0:0:
171,326,18597,1,0,3:0:0:0:
189,284,18692,1,0,3:0:0:0:
230,265,18787,1,0,3:0:0:0:
259,230,18881,1,0,3:0:0:0:
260,184,18976,1,0,3:0:0:0:
235,145,19071,5,0,0:0:0:0:
360,258,19261,1,0,0:0:0:0:
118,180,19451,1,0,0:0:0:0:
215,60,19641,2,0,P|263:61|310:102,1,90.9999958343508
360,258,20021,1,0,0:0:0:0:
118,180,20211,1,0,0:0:0:0:
371,35,20400,6,0,P|383:106|294:174,1,181.999991668702
118,180,20970,1,0,0:0:0:0:
215,60,21160,1,0,0:0:0:0:
215,60,21255,1,0,0:0:0:0:
215,60,21350,2,0,L|199:112,1,45.4999979171754
82,51,21540,2,0,L|80:2,1,45.4999979171754
118,180,21730,2,0,B|129:250|99:248|123:324,1,136.499993751526
189,358,22109,5,0,0:0:0:0:
236,210,22299,1,0,0:0:0:0:
47,348,22489,1,0,0:0:0:0:
189,358,22679,2,0,P|234:344|283:345,1,90.9999958343508
120,315,23059,1,0,0:0:0:0:
345,302,23249,1,0,0:0:0:0:
151,227,23438,6,0,P|159:178|238:126,1,136.499993751526
389,114,23818,6,0,P|380:162|301:214,1,136.499993751526
224,127,24198,6,0,P|273:95|406:131,1,181.999991668702
389,114,24768,1,0,0:0:0:0:
307,312,25147,5,0,0:0:0:0:
307,312,25337,2,0,P|260:296|169:311,1,140
48,197,25907,2,0,P|95:213|186:198,1,140
362,250,26476,6,0,B|385:184|385:184|389:95,1,140
156,63,27046,2,0,B|159:133|159:133|182:199,1,140
241,269,27616,1,0,0:0:0:0:
280,159,27806,1,0,0:0:0:0:
181,325,27995,6,0,P|248:298|331:319,1,140
182,199,28565,2,0,P|115:226|32:205,1,140
181,325,29135,1,0,0:0:0:0:
156,63,29325,1,0,0:0:0:0:
330,199,29514,6,0,P|397:226|480:205,1,140
309,78,30084,1,0,0:0:0:0:
313,309,30274,1,0,0:0:0:0:
156,63,30464,1,0,0:0:0:0:
39,257,30654,5,0,3:0:0:0:
77,232,30749,1,0,3:0:0:0:
122,233,30844,1,0,3:0:0:0:
161,255,30938,1,0,3:0:0:0:
189,290,31033,1,0,3:0:0:0:
233,300,31128,1,0,3:0:0:0:
275,283,31223,5,0,3:0:0:0:
284,110,31413,1,0,0:0:0:0:
171,334,31603,1,0,0:0:0:0:
71,89,31793,2,0,P|97:131|154:154,1,90.9999958343508
281,196,32173,1,0,0:0:0:0:
156,63,32362,1,0,0:0:0:0:
171,334,32552,6,0,B|237:364|247:308|331:346,1,136.499993751526
343,361,32932,1,0,0:0:0:0:
214,253,33122,1,0,0:0:0:0:
437,212,33312,2,0,P|400:182|346:168,1,90.9999958343508
316,186,33597,1,0,0:0:0:0:
316,186,33692,1,0,0:0:0:0:
171,334,33881,2,0,P|129:281|131:211,1,136.499993751526
164,184,34261,5,0,0:0:0:0:
237,384,34451,1,0,0:0:0:0:
0,248,34641,1,0,0:0:0:0:
196,103,34831,2,0,P|248:173|214:253,1,181.999991668702
163,260,35306,1,0,0:0:0:0:
163,260,35400,1,0,0:0:0:0:
275,310,35590,6,0,B|354:358|378:289|461:333,1,181.999991668702
269,336,36160,5,0,3:0:0:0:
197,253,36350,5,0,3:0:0:0:
249,178,36540,5,0,3:0:0:0:
223,119,36730,5,0,3:0:0:0:
196,114,36919,5,0,3:0:0:0:
194,128,37109,6,0,P|272:135|327:44,1,181.999991668702
292,23,37584,2,0,L|230:18,1,45.4999979171754
362,214,37869,2,0,L|409:189,2,45.4999979171754
251,358,38249,2,0,P|198:292|47:321,1,227.499989585877
103,328,38818,6,0,P|111:282|83:174,1,140
30,124,39388,1,0,0:0:0:0:
185,115,39578,2,0,P|302:146|319:144,1,140
305,316,40147,2,0,P|273:290|265:278,1,35
338,353,40337,6,0,P|352:311|440:231,2,140
447,228,41287,2,0,P|462:199|463:139,1,70
446,73,41666,1,0,0:0:0:0:
318,144,41856,6,0,P|249:142|185:115,1,140
120,54,42426,1,0,0:0:0:0:
159,189,42616,2,0,P|162:265|153:290,1,70
108,336,42995,1,0,0:0:0:0:
54,255,43185,1,0,0:0:0:0:
252,317,43375,5,0,0:0:0:0:
277,305,43755,5,0,0:0:0:0:
302,293,44135,5,0,0:0:0:0:
327,281,44514,6,0,P|264:272|201:278,1,105
185,295,44894,6,0,P|119:304|38:277,1,140
0,193,45464,1,0,0:0:0:0:
52,108,45654,2,0,P|91:73|189:55,1,140
276,75,46223,1,0,0:0:0:0:
266,199,46413,6,0,P|334:187|388:144,1,140
358,37,46983,1,0,0:0:0:0:
209,12,47173,5,0,0:0:0:0:
361,133,47362,1,0,0:0:0:0:
198,29,47552,1,0,0:0:0:0:
266,199,47742,6,0,L|223:351,1,136.499993751526
186,357,48122,1,0,0:0:0:0:
94,193,48312,1,0,0:0:0:0:
346,41,48502,6,0,L|303:193,1,136.499993751526
266,199,48882,1,0,0:0:0:0:
183,22,49071,1,0,0:0:0:0:
27,257,49261,6,0,L|168:226,1,136.499993751526
207,246,49641,1,0,0:0:0:0:
30,154,49831,1,0,0:0:0:0:
157,330,50021,6,0,L|298:299,1,136.499993751526
337,319,50401,1,0,0:0:0:0:
160,227,50591,1,0,0:0:0:0:
403,46,50780,6,0,B|431:141|366:127|409:230,1,181.999991668702
326,90,51350,1,0,0:0:0:0:
489,262,51540,1,0,0:0:0:0:
223,238,51730,5,0,0:0:0:0:
483,170,51919,1,0,0:0:0:0:
144,67,52109,5,0,0:0:0:0:
411,323,52299,1,0,0:0:0:0:
384,316,52679,5,0,0:0:0:0:
357,308,53059,5,0,0:0:0:0:
299,151,53249,2,0,P|305:105|316:83,1,45.4999979171754
330,301,53438,5,0,0:0:0:0:
291,268,53533,1,0,0:0:0:0:
241,261,53628,1,0,0:0:0:0:
195,281,53723,1,0,0:0:0:0:
177,328,53818,1,0,0:0:0:0:
223,308,53913,1,0,0:0:0:0:
241,261,54008,6,0,P|224:169|160:99,1,181.999991668702
69,79,54578,1,0,0:0:0:0:
264,181,54768,2,0,P|330:164|402:69,1,181.999991668702
370,174,55337,1,0,0:0:0:0:
140,3,55527,5,0,0:0:0:0:
157,207,55717,1,0,0:0:0:0:
245,33,55907,1,0,0:0:0:0:
96,260,56097,1,0,0:0:0:0:
31,25,56287,1,0,0:0:0:0:
32,312,56476,1,0,0:0:0:0:
237,184,56666,5,0,0:0:0:0:
286,195,56761,1,0,0:0:0:0:
318,234,56856,1,0,0:0:0:0:
369,238,56951,1,0,0:0:0:0:
412,210,57046,6,0,P|440:155|510:111,1,136.499993751526
452,121,57426,2,0,P|408:91|366:6,1,136.499993751526
342,62,57806,1,0,0:0:0:0:
254,248,57995,1,0,0:0:0:0:
181,0,58185,1,0,0:0:0:0:
165,294,58375,6,0,P|251:272|326:319,1,181.999991668702
184,313,58945,1,0,0:0:0:0:
356,226,59135,1,0,0:0:0:0:
151,177,59325,1,0,0:0:0:0:
386,129,59514,1,0,0:0:0:0:
115,40,59704,1,0,0:0:0:0:
416,39,59894,1,0,0:0:0:0:
210,234,60084,6,0,P|149:206|58:245,1,136.499993751526
61,266,60464,1,0,0:0:0:0:
258,215,60654,1,0,0:0:0:0:
0,130,60844,1,0,0:0:0:0:
87,383,61033,1,0,0:0:0:0:
193,182,61223,5,0,0:0:0:0:
191,134,61318,1,0,0:0:0:0:
161,174,61413,1,0,0:0:0:0:
154,223,61508,1,0,0:0:0:0:
174,268,61603,6,0,L|334:243,1,136.499993751526
345,218,61983,2,0,P|353:179|422:128,1,90.9999958343508
265,339,62362,1,0,0:0:0:0:
308,86,62552,1,0,0:0:0:0:
46,201,62742,5,0,0:0:0:0:
31,248,62837,1,0,0:0:0:0:
80,255,62932,1,0,0:0:0:0:
116,289,63027,1,0,0:0:0:0:
138,333,63122,6,0,P|190:314|272:346,1,136.499993751526
240,294,63502,2,0,P|235:210|244:179,1,90.9999958343508
272,168,63787,1,0,0:0:0:0:
272,168,63881,1,0,0:0:0:0:
373,356,64071,1,0,0:0:0:0:
100,190,64261,1,0,0:0:0:0:
451,136,64451,1,0,0:0:0:0:
200,0,64641,6,0,P|161:8|144:15,1,45.4999979171754
306,183,64831,1,0,0:0:0:0:
306,183,64926,1,0,0:0:0:0:
306,183,65021,2,0,P|319:133|322:119,1,45.4999979171754
160,293,65211,1,0,0:0:0:0:
160,293,65306,1,0,0:0:0:0:
160,293,65401,2,0,P|192:322|231:335,1,45.4999979171754
147,101,65590,2,0,P|108:109|91:116,1,45.4999979171754
336,270,65780,5,0,0:0:0:0:
383,234,65875,1,0,0:0:0:0:
397,176,65970,1,0,0:0:0:0:
376,120,66065,1,0,0:0:0:0:
325,88,66160,6,0,B|238:134|222:70|138:105,1,181.999991668702
53,157,66730,1,0,0:0:0:0:
191,335,66919,2,0,P|227:298|185:177,1,181.999991668702
53,157,67489,1,0,0:0:0:0:
200,360,67679,5,0,0:0:0:0:
201,160,67869,1,0,0:0:0:0:
300,330,68059,1,0,0:0:0:0:
350,102,68249,1,0,0:0:0:0:
202,259,68438,1,0,0:0:0:0:
479,195,68628,1,0,0:0:0:0:
204,60,68818,5,0,0:0:0:0:
150,72,68913,1,0,0:0:0:0:
117,115,69008,1,0,0:0:0:0:
141,163,69103,1,0,0:0:0:0:
117,212,69198,5,0,0:0:0:0:
320,115,69388,1,0,0:0:0:0:
29,112,69578,1,0,0:0:0:0:
289,265,69768,1,0,0:0:0:0:
102,0,69957,5,0,0:0:0:0:
446,171,70147,1,0,0:0:0:0:
0,278,70337,1,0,0:0:0:0:
260,360,70527,6,0,B|368:365|335:308|437:288,1,181.999991668702
289,265,71097,1,0,0:0:0:0:
440,384,71287,1,0,0:0:0:0:
435,151,71476,2,0,P|437:121|434:81,1,45.4999979171754
247,45,71666,1,0,0:0:0:0:
230,60,71761,1,0,0:0:0:0:
221,81,71856,2,0,P|217:116|220:147,1,45.4999979171754
215,299,72046,2,0,P|232:322|272:350,1,45.4999979171754
292,177,72236,6,0,P|230:162|143:223,1,136.499993751526
131,234,72616,2,0,L|108:125,1,90.9999958343508
72,107,72900,1,0,0:0:0:0:
72,107,72995,1,0,0:0:0:0:
292,177,73185,1,0,0:0:0:0:
6,267,73375,1,0,0:0:0:0:
256,384,73565,2,0,P|283:351|298:341,1,45.4999979171754
436,324,73755,6,0,P|426:258|448:189,1,136.499993751526
399,223,74135,2,0,L|283:199,1,90.9999958343508
266,236,74419,1,0,0:0:0:0:
266,236,74514,1,0,0:0:0:0:
478,384,74704,1,0,0:0:0:0:
427,101,74894,6,0,P|379:101|360:98,1,45.4999979171754
262,40,75084,2,0,P|214:42|208:43,1,45.4999979171754
89,151,75274,6,0,P|108:210|74:320,1,136.499993751526
54,317,75654,2,0,L|8:281,1,45.4999979171754
139,384,75844,1,0,0:0:0:0:
70,133,76033,1,0,0:0:0:0:
267,265,76223,1,0,0:0:0:0:
292,275,76318,1,0,0:0:0:0:
319,274,76413,6,0,P|356:268|371:261,1,45.4999979171754
376,51,76603,1,0,0:0:0:0:
376,51,76698,1,0,0:0:0:0:
376,51,76793,5,0,0:0:0:0:
388,99,76888,1,0,0:0:0:0:
367,144,76983,1,0,0:0:0:0:
322,167,77078,1,0,0:0:0:0:
274,151,77173,2,0,P|224:139|215:139,1,45.4999979171754
56,204,77362,6,0,P|105:232|131:324,1,136.499993751526
218,263,77742,6,0,P|225:197|288:146,1,136.499993751526
445,259,78122,6,0,B|407:239|407:239|288:239,1,136.499993751526
289,283,78502,1,0,0:0:0:0:
282,115,78692,2,0,P|305:72|340:43,1,90.9999958343508
386,42,78976,1,0,0:0:0:0:
386,42,79071,1,0,0:0:0:0:
512,193,79261,1,0,0:0:0:0:
282,115,79451,1,0,0:0:0:0:
499,353,79641,6,0,B|418:390|404:318|305:357,1,181.999991668702
217,384,80211,1,0,0:0:0:0:
38,150,80400,1,0,0:0:0:0:
38,150,80495,1,0,0:0:0:0:
38,150,80590,5,0,0:0:0:0:
84,187,80685,1,0,0:0:0:0:
143,199,80780,1,0,0:0:0:0:
201,181,80875,1,0,0:0:0:0:
236,137,80970,1,0,0:0:0:0:
282,115,81065,1,0,0:0:0:0:
326,117,81160,1,0,0:0:0:0:
362,136,81255,1,0,0:0:0:0:
381,168,81350,6,0,P|393:240|369:323,1,140
317,378,81919,1,0,0:0:0:0:
107,281,82109,2,0,P|156:234|225:230,1,140
200,331,82679,1,0,0:0:0:0:
200,331,82774,1,0,0:0:0:0:
200,331,82869,5,0,0:0:0:0:
113,88,83438,5,0,0:0:0:0:
136,106,83818,6,0,P|171:105|200:96,1,45.4999979171754
45,58,84008,2,0,P|10:59|-19:68,1,45.4999979171754
82,217,84198,6,0,B|151:245|148:196|253:232,1,136.499993751526
289,283,84578,2,0,P|353:284|387:272,1,90.9999958343508
453,95,84957,2,0,P|389:94|355:106,1,90.9999958343508
460,337,85337,2,0,P|476:274|467:234,1,90.9999958343508
270,101,85717,6,0,B|190:139|182:66|83:119,1,181.999991668702
14,195,86287,1,0,0:0:0:0:
164,321,86476,2,0,P|193:279|234:263,1,90.9999958343508
345,270,86856,1,0,0:0:0:0:
114,384,87046,1,0,0:0:0:0:
93,113,87236,1,0,0:0:0:0:
93,113,87331,1,0,0:0:0:0:
93,113,87426,6,0,L|86:70,1,22.7499989585877
422,90,87806,6,0,L|418:113,1,22.7499989585877
170,100,88185,6,0,L|158:26,1,45.4999979171754
349,55,88375,2,0,L|342:100,1,45.4999979171754
218,268,88755,6,0,B|162:208|185:160|247:145|269:194|269:194|309:162|350:183|378:230|296:283|296:283|303:300|347:312|346:367,1,472.500018024445
